osu file format v14

[General]
AudioFilename: inevitable.mp3
AudioLeadIn: 0
PreviewTime: 165557
Countdown: 0
SampleSet: Normal
StackLeniency: 0.7
Mode: 3
LetterboxInBreaks: 0
SpecialStyle: 0
WidescreenStoryboard: 0

[Editor]
DistanceSpacing: 0.8
BeatDivisor: 4
GridSize: 32
TimelineZoom: 2.3

[Metadata]
Title:Inevitable Struggle
TitleUnicode:Inevitable Struggle
Artist:Falcom Sound Team jdk
ArtistUnicode:Falcom Sound Team jdk
Creator:lemonguy
Version:Nightmare
Source:英雄伝説 零の軌跡
Tags:legend of heroes zero no kiseki trails from super arrange version crossbell masanori osaki yukihiro jindo gekido- shxfted video game instrumental rock
BeatmapID:3207950
BeatmapSetID:1570983

[Difficulty]
HPDrainRate:8
CircleSize:4
OverallDifficulty:8
ApproachRate:5
SliderMultiplier:1.4
SliderTickRate:1

[Events]
//Background and Video events
0,0,"bg.jpg",0,0
//Break Periods
//Storyboard Layer 0 (Background)
//Storyboard Layer 1 (Fail)
//Storyboard Layer 2 (Pass)
//Storyboard Layer 3 (Foreground)
//Storyboard Layer 4 (Overlay)
//Storyboard Sound Samples

[TimingPoints]
487,319.148936170213,4,1,1,25,1,0
17401,-100,4,1,1,35,0,0
18359,-100,4,1,1,40,0,0
28572,-100,4,1,1,30,0,0
49316,-98.0392156862745,4,1,1,35,0,0
68148,327.868852,4,1,1,40,1,0
68148,-98.0392156862745,4,1,1,40,0,0
69295,-98.0392156862745,4,1,1,45,0,1
69460,319.148936,4,1,1,45,1,1
69460,-100,4,1,1,45,0,1
78396,327.868852,4,1,1,45,1,1
78396,-98.0392156862745,4,1,1,45,0,1
78887,-98.0392156862745,4,1,1,40,0,0
79543,-98.0392156862745,4,1,1,45,0,1
79707,319.148936,4,1,1,45,1,1
79707,-100,4,1,1,45,0,1
95026,319.148936170213,4,1,1,30,1,0
95026,-100,4,1,1,30,0,0
105238,-100,4,1,1,35,0,0
125664,-100,4,1,1,25,0,0
135877,-100,4,1,1,30,0,0
156621,-100,4,1,1,35,0,0
165238,-100,4,1,1,40,0,0
166355,-100,4,1,1,45,0,1
175930,-100,4,1,1,40,0,0
176568,-100,4,1,1,45,0,1
196355,-100,4,1,1,40,0,0
196994,-100,4,1,1,45,0,1
212472,-100,4,1,1,30,0,0
232898,-100,4,1,1,35,0,0
254440,319.148936170213,4,1,1,35,1,0

[HitObjects]
64,192,487,128,0,646:0:0:0:0:
192,192,487,1,0,0:0:0:0:
320,192,487,1,0,0:0:0:0:
448,192,646,128,0,806:0:0:0:0:
192,192,806,128,0,965:0:0:0:0:
320,192,965,128,0,1284:0:0:0:0:
192,192,1284,128,0,1444:0:0:0:0:
64,192,1444,128,0,1604:0:0:0:0:
192,192,1604,128,0,1763:0:0:0:0:
448,192,1763,128,0,2082:0:0:0:0:
320,192,2082,128,0,2401:0:0:0:0:
192,192,2401,128,0,2721:0:0:0:0:
320,192,2721,128,0,3040:0:0:0:0:
448,192,3040,128,0,3997:0:0:0:0:
320,192,3997,128,0,4316:0:0:0:0:
192,192,4316,128,0,5433:0:0:0:0:
64,192,5593,128,0,5752:0:0:0:0:
448,192,5752,128,0,5912:0:0:0:0:
192,192,5912,128,0,6072:0:0:0:0:
320,192,6072,128,0,6391:0:0:0:0:
192,192,6391,128,0,6550:0:0:0:0:
64,192,6550,128,0,6710:0:0:0:0:
192,192,6710,128,0,6869:0:0:0:0:
448,192,6869,128,0,7189:0:0:0:0:
192,192,7189,128,0,7508:0:0:0:0:
320,192,7508,128,0,7827:0:0:0:0:
64,192,7827,128,0,8146:0:0:0:0:
192,192,8146,128,0,8944:0:0:0:0:
64,192,8944,128,0,9104:0:0:0:0:
192,192,9104,128,0,9263:0:0:0:0:
448,192,9263,128,0,10540:0:0:0:0:
64,192,10699,128,0,10859:0:0:0:0:
192,192,10699,128,0,10859:0:0:0:0:
448,192,10859,128,0,11018:0:0:0:0:
192,192,11018,128,0,11178:0:0:0:0:
320,192,11178,128,0,11497:0:0:0:0:
448,192,11178,128,0,11497:0:0:0:0:
192,192,11497,128,0,11657:0:0:0:0:
64,192,11657,128,0,11816:0:0:0:0:
192,192,11816,128,0,11976:0:0:0:0:
64,192,11976,128,0,12295:0:0:0:0:
448,192,11976,128,0,12295:0:0:0:0:
320,192,12295,128,0,12614:0:0:0:0:
64,192,12614,128,0,12933:0:0:0:0:
192,192,12614,128,0,12933:0:0:0:0:
320,192,12933,128,0,13252:0:0:0:0:
192,192,13252,128,0,14210:0:0:0:0:
448,192,13252,128,0,14210:0:0:0:0:
64,192,14210,128,0,14449:0:0:0:0:
320,192,14210,128,0,14449:0:0:0:0:
64,192,14529,128,0,15327:0:0:0:0:
320,192,14529,128,0,15327:0:0:0:0:
64,192,15487,128,0,15646:0:0:0:0:
320,192,15487,128,0,15646:0:0:0:0:
192,192,15646,128,0,15806:0:0:0:0:
320,192,15806,128,0,16364:0:0:0:0:
448,192,15806,128,0,16364:0:0:0:0:
320,192,16444,128,0,16604:0:0:0:0:
448,192,16444,128,0,16604:0:0:0:0:
192,192,16604,128,0,16763:0:0:0:0:
448,192,16763,128,0,16923:0:0:0:0:
320,192,16923,128,0,17242:0:0:0:0:
192,192,17401,128,0,17561:0:0:0:0:
448,192,17721,128,0,17880:0:0:0:0:
64,192,18040,128,0,18199:0:0:0:0:
64,192,18359,1,0,0:0:0:0:
320,192,18359,1,0,0:0:0:0:
448,192,18359,1,0,0:0:0:0:
192,192,18439,1,0,0:0:0:0:
448,192,18518,1,0,0:0:0:0:
64,192,18598,1,0,0:0:0:0:
320,192,18678,1,0,0:0:0:0:
448,192,18678,1,0,0:0:0:0:
192,192,18758,1,0,0:0:0:0:
320,192,18838,1,0,0:0:0:0:
192,192,18917,1,0,0:0:0:0:
64,192,18997,1,0,0:0:0:0:
448,192,18997,1,0,0:0:0:0:
320,192,19077,1,0,0:0:0:0:
64,192,19157,1,0,0:0:0:0:
192,192,19157,1,0,0:0:0:0:
448,192,19237,1,0,0:0:0:0:
192,192,19316,1,0,0:0:0:0:
320,192,19316,1,0,0:0:0:0:
448,192,19396,1,0,0:0:0:0:
64,192,19476,1,0,0:0:0:0:
192,192,19476,1,0,0:0:0:0:
320,192,19556,1,0,0:0:0:0:
448,192,19635,1,0,0:0:0:0:
320,192,19715,1,0,0:0:0:0:
64,192,19795,1,0,0:0:0:0:
448,192,19875,1,0,0:0:0:0:
64,192,19955,1,0,0:0:0:0:
192,192,19955,1,0,0:0:0:0:
320,192,20034,1,0,0:0:0:0:
192,192,20114,1,0,0:0:0:0:
320,192,20194,1,0,0:0:0:0:
64,192,20274,1,0,0:0:0:0:
448,192,20274,1,0,0:0:0:0:
192,192,20354,1,0,0:0:0:0:
320,192,20433,1,0,0:0:0:0:
448,192,20433,1,0,0:0:0:0:
64,192,20513,1,0,0:0:0:0:
192,192,20593,1,0,0:0:0:0:
320,192,20593,1,0,0:0:0:0:
64,192,20673,1,0,0:0:0:0:
320,192,20752,1,0,0:0:0:0:
448,192,20752,1,0,0:0:0:0:
192,192,20832,1,0,0:0:0:0:
64,192,20912,1,0,0:0:0:0:
448,192,20912,1,0,0:0:0:0:
192,192,20992,1,0,0:0:0:0:
320,192,21072,1,0,0:0:0:0:
64,192,21151,1,0,0:0:0:0:
320,192,21231,1,0,0:0:0:0:
448,192,21231,1,0,0:0:0:0:
192,192,21311,1,0,0:0:0:0:
320,192,21391,1,0,0:0:0:0:
192,192,21471,1,0,0:0:0:0:
64,192,21550,1,0,0:0:0:0:
448,192,21550,1,0,0:0:0:0:
320,192,21630,1,0,0:0:0:0:
64,192,21710,1,0,0:0:0:0:
192,192,21710,1,0,0:0:0:0:
448,192,21790,1,0,0:0:0:0:
192,192,21869,1,0,0:0:0:0:
320,192,21869,1,0,0:0:0:0:
64,192,21949,1,0,0:0:0:0:
192,192,22029,1,0,0:0:0:0:
448,192,22029,1,0,0:0:0:0:
320,192,22109,1,0,0:0:0:0:
448,192,22189,1,0,0:0:0:0:
320,192,22268,1,0,0:0:0:0:
64,192,22348,1,0,0:0:0:0:
192,192,22348,1,0,0:0:0:0:
448,192,22428,1,0,0:0:0:0:
64,192,22508,1,0,0:0:0:0:
320,192,22508,1,0,0:0:0:0:
192,192,22588,1,0,0:0:0:0:
320,192,22667,1,0,0:0:0:0:
448,192,22667,1,0,0:0:0:0:
64,192,22747,1,0,0:0:0:0:
192,192,22827,1,0,0:0:0:0:
448,192,22827,1,0,0:0:0:0:
64,192,22907,1,0,0:0:0:0:
320,192,22987,1,0,0:0:0:0:
448,192,22987,1,0,0:0:0:0:
192,192,23066,1,0,0:0:0:0:
64,192,23146,1,0,0:0:0:0:
320,192,23146,1,0,0:0:0:0:
448,192,23226,1,0,0:0:0:0:
320,192,23306,1,0,0:0:0:0:
448,192,23385,1,0,0:0:0:0:
64,192,23465,1,0,0:0:0:0:
192,192,23465,1,0,0:0:0:0:
320,192,23545,1,0,0:0:0:0:
64,192,23625,1,0,0:0:0:0:
448,192,23705,1,0,0:0:0:0:
64,192,23784,1,0,0:0:0:0:
192,192,23784,1,0,0:0:0:0:
320,192,23864,1,0,0:0:0:0:
192,192,23944,1,0,0:0:0:0:
320,192,24024,1,0,0:0:0:0:
64,192,24104,1,0,0:0:0:0:
448,192,24104,1,0,0:0:0:0:
192,192,24183,1,0,0:0:0:0:
320,192,24263,1,0,0:0:0:0:
448,192,24263,1,0,0:0:0:0:
64,192,24343,1,0,0:0:0:0:
192,192,24423,1,0,0:0:0:0:
320,192,24423,1,0,0:0:0:0:
64,192,24502,1,0,0:0:0:0:
320,192,24582,1,0,0:0:0:0:
448,192,24582,1,0,0:0:0:0:
192,192,24662,1,0,0:0:0:0:
64,192,24742,1,0,0:0:0:0:
192,192,24822,1,0,0:0:0:0:
448,192,24901,1,0,0:0:0:0:
64,192,24981,1,0,0:0:0:0:
320,192,25061,1,0,0:0:0:0:
448,192,25061,1,0,0:0:0:0:
192,192,25141,1,0,0:0:0:0:
320,192,25221,1,0,0:0:0:0:
192,192,25300,1,0,0:0:0:0:
64,192,25380,1,0,0:0:0:0:
448,192,25380,1,0,0:0:0:0:
320,192,25460,1,0,0:0:0:0:
64,192,25540,1,0,0:0:0:0:
192,192,25540,1,0,0:0:0:0:
448,192,25619,1,0,0:0:0:0:
192,192,25699,1,0,0:0:0:0:
320,192,25699,1,0,0:0:0:0:
448,192,25779,1,0,0:0:0:0:
64,192,25859,1,0,0:0:0:0:
192,192,25859,1,0,0:0:0:0:
320,192,25939,1,0,0:0:0:0:
64,192,26018,1,0,0:0:0:0:
448,192,26018,1,0,0:0:0:0:
320,192,26098,1,0,0:0:0:0:
192,192,26178,1,0,0:0:0:0:
448,192,26258,1,0,0:0:0:0:
64,192,26338,1,0,0:0:0:0:
192,192,26338,1,0,0:0:0:0:
320,192,26417,1,0,0:0:0:0:
192,192,26497,1,0,0:0:0:0:
320,192,26577,1,0,0:0:0:0:
64,192,26657,1,0,0:0:0:0:
448,192,26657,1,0,0:0:0:0:
192,192,26737,1,0,0:0:0:0:
320,192,26816,1,0,0:0:0:0:
448,192,26816,1,0,0:0:0:0:
64,192,26896,1,0,0:0:0:0:
192,192,26976,1,0,0:0:0:0:
320,192,26976,1,0,0:0:0:0:
448,192,27056,1,0,0:0:0:0:
64,192,27135,128,0,27455:0:0:0:0:
192,192,27135,128,0,27455:0:0:0:0:
320,192,27135,1,0,0:0:0:0:
320,192,27455,1,0,0:0:0:0:
448,192,27455,1,0,0:0:0:0:
64,192,27614,1,0,0:0:0:0:
192,192,27614,1,0,0:0:0:0:
192,192,27774,1,0,0:0:0:0:
320,192,27774,128,0,28412:0:0:0:0:
448,192,27774,128,0,28412:0:0:0:0:
64,192,28093,1,0,0:0:0:0:
64,192,28252,1,0,0:0:0:0:
192,192,28252,1,0,0:0:0:0:
64,192,28572,1,0,0:0:0:0:
320,192,28572,1,0,0:0:0:0:
448,192,28572,1,0,0:0:0:0:
192,192,28651,1,0,0:0:0:0:
320,192,28731,1,0,0:0:0:0:
64,192,28811,1,0,0:0:0:0:
320,192,28891,1,0,0:0:0:0:
448,192,28891,1,0,0:0:0:0:
192,192,28971,1,0,0:0:0:0:
64,192,29050,1,0,0:0:0:0:
448,192,29050,1,0,0:0:0:0:
320,192,29130,1,0,0:0:0:0:
192,192,29210,1,0,0:0:0:0:
320,192,29290,1,0,0:0:0:0:
64,192,29369,1,0,0:0:0:0:
192,192,29369,1,0,0:0:0:0:
448,192,29449,1,0,0:0:0:0:
64,192,29529,1,0,0:0:0:0:
320,192,29529,1,0,0:0:0:0:
448,192,29609,1,0,0:0:0:0:
192,192,29689,1,0,0:0:0:0:
320,192,29768,1,0,0:0:0:0:
64,192,29848,1,0,0:0:0:0:
448,192,29848,1,0,0:0:0:0:
192,192,29928,1,0,0:0:0:0:
448,192,30008,1,0,0:0:0:0:
64,192,30088,1,0,0:0:0:0:
192,192,30167,1,0,0:0:0:0:
448,192,30167,1,0,0:0:0:0:
320,192,30247,1,0,0:0:0:0:
192,192,30327,1,0,0:0:0:0:
448,192,30407,1,0,0:0:0:0:
192,192,30487,1,0,0:0:0:0:
320,192,30487,1,0,0:0:0:0:
64,192,30566,1,0,0:0:0:0:
320,192,30646,1,0,0:0:0:0:
192,192,30726,1,0,0:0:0:0:
64,192,30806,1,0,0:0:0:0:
320,192,30806,1,0,0:0:0:0:
448,192,30885,1,0,0:0:0:0:
64,192,30965,1,0,0:0:0:0:
320,192,31045,1,0,0:0:0:0:
64,192,31125,1,0,0:0:0:0:
192,192,31125,1,0,0:0:0:0:
448,192,31205,1,0,0:0:0:0:
192,192,31284,1,0,0:0:0:0:
320,192,31364,1,0,0:0:0:0:
64,192,31444,1,0,0:0:0:0:
448,192,31444,1,0,0:0:0:0:
192,192,31524,1,0,0:0:0:0:
448,192,31604,1,0,0:0:0:0:
64,192,31683,1,0,0:0:0:0:
320,192,31763,1,0,0:0:0:0:
192,192,31843,1,0,0:0:0:0:
320,192,31923,1,0,0:0:0:0:
64,192,32002,1,0,0:0:0:0:
192,192,32082,1,0,0:0:0:0:
448,192,32082,1,0,0:0:0:0:
64,192,32162,1,0,0:0:0:0:
448,192,32242,1,0,0:0:0:0:
320,192,32322,1,0,0:0:0:0:
64,192,32401,1,0,0:0:0:0:
192,192,32401,1,0,0:0:0:0:
448,192,32481,1,0,0:0:0:0:
64,192,32561,1,0,0:0:0:0:
320,192,32561,1,0,0:0:0:0:
448,192,32641,1,0,0:0:0:0:
64,192,32721,1,0,0:0:0:0:
192,192,32721,1,0,0:0:0:0:
320,192,32800,1,0,0:0:0:0:
192,192,32880,1,0,0:0:0:0:
448,192,32880,1,0,0:0:0:0:
64,192,32960,1,0,0:0:0:0:
192,192,33040,1,0,0:0:0:0:
64,192,33119,1,0,0:0:0:0:
320,192,33199,1,0,0:0:0:0:
448,192,33199,1,0,0:0:0:0:
192,192,33279,1,0,0:0:0:0:
64,192,33359,1,0,0:0:0:0:
448,192,33359,1,0,0:0:0:0:
320,192,33439,1,0,0:0:0:0:
192,192,33518,1,0,0:0:0:0:
448,192,33598,1,0,0:0:0:0:
64,192,33678,1,0,0:0:0:0:
192,192,33678,1,0,0:0:0:0:
320,192,33678,1,0,0:0:0:0:
448,192,33758,1,0,0:0:0:0:
64,192,33838,1,0,0:0:0:0:
192,192,33917,1,0,0:0:0:0:
320,192,33997,1,0,0:0:0:0:
448,192,33997,1,0,0:0:0:0:
64,192,34077,1,0,0:0:0:0:
192,192,34157,1,0,0:0:0:0:
448,192,34157,1,0,0:0:0:0:
64,192,34237,1,0,0:0:0:0:
320,192,34316,1,0,0:0:0:0:
192,192,34396,1,0,0:0:0:0:
64,192,34476,1,0,0:0:0:0:
448,192,34476,1,0,0:0:0:0:
192,192,34556,1,0,0:0:0:0:
320,192,34635,1,0,0:0:0:0:
448,192,34635,1,0,0:0:0:0:
64,192,34715,1,0,0:0:0:0:
192,192,34795,1,0,0:0:0:0:
320,192,34795,1,0,0:0:0:0:
448,192,34795,1,0,0:0:0:0:
64,192,34875,1,0,0:0:0:0:
320,192,34955,1,0,0:0:0:0:
192,192,35034,1,0,0:0:0:0:
64,192,35114,1,0,0:0:0:0:
448,192,35114,1,0,0:0:0:0:
320,192,35194,1,0,0:0:0:0:
64,192,35274,1,0,0:0:0:0:
192,192,35274,1,0,0:0:0:0:
320,192,35354,1,0,0:0:0:0:
192,192,35433,1,0,0:0:0:0:
448,192,35513,1,0,0:0:0:0:
64,192,35593,1,0,0:0:0:0:
320,192,35593,1,0,0:0:0:0:
448,192,35673,1,0,0:0:0:0:
192,192,35752,1,0,0:0:0:0:
320,192,35832,1,0,0:0:0:0:
64,192,35912,1,0,0:0:0:0:
448,192,35912,1,0,0:0:0:0:
192,192,35992,1,0,0:0:0:0:
64,192,36072,1,0,0:0:0:0:
320,192,36151,1,0,0:0:0:0:
64,192,36231,1,0,0:0:0:0:
192,192,36231,1,0,0:0:0:0:
448,192,36231,1,0,0:0:0:0:
320,192,36311,1,0,0:0:0:0:
192,192,36391,1,0,0:0:0:0:
64,192,36471,1,0,0:0:0:0:
320,192,36550,1,0,0:0:0:0:
448,192,36550,1,0,0:0:0:0:
192,192,36630,1,0,0:0:0:0:
64,192,36710,1,0,0:0:0:0:
320,192,36710,1,0,0:0:0:0:
192,192,36790,1,0,0:0:0:0:
448,192,36869,1,0,0:0:0:0:
64,192,36949,1,0,0:0:0:0:
192,192,37029,1,0,0:0:0:0:
320,192,37029,1,0,0:0:0:0:
64,192,37109,1,0,0:0:0:0:
320,192,37189,1,0,0:0:0:0:
448,192,37189,1,0,0:0:0:0:
192,192,37268,1,0,0:0:0:0:
64,192,37348,1,0,0:0:0:0:
320,192,37348,1,0,0:0:0:0:
448,192,37348,1,0,0:0:0:0:
192,192,37428,1,0,0:0:0:0:
64,192,37508,1,0,0:0:0:0:
448,192,37588,1,0,0:0:0:0:
192,192,37667,1,0,0:0:0:0:
320,192,37747,1,0,0:0:0:0:
192,192,37827,1,0,0:0:0:0:
448,192,37827,1,0,0:0:0:0:
64,192,37907,1,0,0:0:0:0:
448,192,37987,1,0,0:0:0:0:
64,192,38066,1,0,0:0:0:0:
192,192,38146,1,0,0:0:0:0:
320,192,38146,1,0,0:0:0:0:
448,192,38226,1,0,0:0:0:0:
192,192,38306,1,0,0:0:0:0:
448,192,38385,1,0,0:0:0:0:
64,192,38465,1,0,0:0:0:0:
320,192,38465,1,0,0:0:0:0:
192,192,38545,1,0,0:0:0:0:
448,192,38625,1,0,0:0:0:0:
320,192,38705,1,0,0:0:0:0:
64,192,38784,1,0,0:0:0:0:
192,192,38784,1,0,0:0:0:0:
448,192,38784,1,0,0:0:0:0:
320,192,38864,1,0,0:0:0:0:
192,192,38944,1,0,0:0:0:0:
448,192,39024,1,0,0:0:0:0:
64,192,39104,1,0,0:0:0:0:
192,192,39104,1,0,0:0:0:0:
320,192,39183,1,0,0:0:0:0:
64,192,39263,1,0,0:0:0:0:
448,192,39263,1,0,0:0:0:0:
192,192,39343,1,0,0:0:0:0:
320,192,39423,1,0,0:0:0:0:
192,192,39502,1,0,0:0:0:0:
320,192,39582,1,0,0:0:0:0:
448,192,39582,1,0,0:0:0:0:
64,192,39662,1,0,0:0:0:0:
192,192,39742,1,0,0:0:0:0:
448,192,39742,1,0,0:0:0:0:
64,192,39822,1,0,0:0:0:0:
320,192,39901,1,0,0:0:0:0:
192,192,39981,1,0,0:0:0:0:
64,192,40061,1,0,0:0:0:0:
448,192,40061,1,0,0:0:0:0:
320,192,40141,1,0,0:0:0:0:
64,192,40221,1,0,0:0:0:0:
448,192,40300,1,0,0:0:0:0:
64,192,40380,1,0,0:0:0:0:
320,192,40380,1,0,0:0:0:0:
192,192,40460,1,0,0:0:0:0:
320,192,40540,1,0,0:0:0:0:
64,192,40619,1,0,0:0:0:0:
192,192,40699,1,0,0:0:0:0:
320,192,40699,1,0,0:0:0:0:
448,192,40779,1,0,0:0:0:0:
192,192,40859,1,0,0:0:0:0:
320,192,40939,1,0,0:0:0:0:
192,192,41018,1,0,0:0:0:0:
448,192,41018,1,0,0:0:0:0:
64,192,41098,1,0,0:0:0:0:
448,192,41178,1,0,0:0:0:0:
192,192,41258,1,0,0:0:0:0:
320,192,41338,1,0,0:0:0:0:
448,192,41338,1,0,0:0:0:0:
64,192,41417,1,0,0:0:0:0:
320,192,41497,1,0,0:0:0:0:
192,192,41577,1,0,0:0:0:0:
64,192,41657,1,0,0:0:0:0:
448,192,41657,1,0,0:0:0:0:
320,192,41737,1,0,0:0:0:0:
64,192,41816,1,0,0:0:0:0:
448,192,41896,1,0,0:0:0:0:
192,192,41976,1,0,0:0:0:0:
320,192,42056,1,0,0:0:0:0:
192,192,42135,1,0,0:0:0:0:
448,192,42215,1,0,0:0:0:0:
64,192,42295,1,0,0:0:0:0:
320,192,42295,1,0,0:0:0:0:
448,192,42375,1,0,0:0:0:0:
64,192,42455,1,0,0:0:0:0:
192,192,42534,1,0,0:0:0:0:
320,192,42614,1,0,0:0:0:0:
448,192,42614,1,0,0:0:0:0:
64,192,42694,1,0,0:0:0:0:
192,192,42774,1,0,0:0:0:0:
448,192,42774,1,0,0:0:0:0:
64,192,42854,1,0,0:0:0:0:
320,192,42933,1,0,0:0:0:0:
448,192,42933,1,0,0:0:0:0:
192,192,43013,1,0,0:0:0:0:
64,192,43093,1,0,0:0:0:0:
320,192,43093,1,0,0:0:0:0:
448,192,43173,1,0,0:0:0:0:
320,192,43252,1,0,0:0:0:0:
448,192,43332,1,0,0:0:0:0:
64,192,43412,1,0,0:0:0:0:
192,192,43412,1,0,0:0:0:0:
320,192,43492,1,0,0:0:0:0:
64,192,43572,1,0,0:0:0:0:
448,192,43572,1,0,0:0:0:0:
192,192,43651,1,0,0:0:0:0:
320,192,43731,1,0,0:0:0:0:
64,192,43811,1,0,0:0:0:0:
192,192,43891,1,0,0:0:0:0:
320,192,43891,1,0,0:0:0:0:
448,192,43891,1,0,0:0:0:0:
64,192,43971,1,0,0:0:0:0:
448,192,44050,1,0,0:0:0:0:
320,192,44130,1,0,0:0:0:0:
64,192,44210,1,0,0:0:0:0:
192,192,44210,1,0,0:0:0:0:
448,192,44290,1,0,0:0:0:0:
64,192,44369,1,0,0:0:0:0:
320,192,44369,1,0,0:0:0:0:
448,192,44449,1,0,0:0:0:0:
192,192,44529,1,0,0:0:0:0:
320,192,44609,1,0,0:0:0:0:
64,192,44689,1,0,0:0:0:0:
448,192,44689,1,0,0:0:0:0:
320,192,44768,1,0,0:0:0:0:
64,192,44848,1,0,0:0:0:0:
192,192,44848,1,0,0:0:0:0:
448,192,44928,1,0,0:0:0:0:
64,192,45008,1,0,0:0:0:0:
192,192,45008,1,0,0:0:0:0:
320,192,45008,1,0,0:0:0:0:
448,192,45088,1,0,0:0:0:0:
192,192,45167,1,0,0:0:0:0:
320,192,45247,1,0,0:0:0:0:
64,192,45327,1,0,0:0:0:0:
448,192,45327,1,0,0:0:0:0:
192,192,45407,1,0,0:0:0:0:
320,192,45487,1,0,0:0:0:0:
448,192,45487,1,0,0:0:0:0:
192,192,45566,1,0,0:0:0:0:
320,192,45646,1,0,0:0:0:0:
64,192,45726,1,0,0:0:0:0:
192,192,45806,1,0,0:0:0:0:
448,192,45806,1,0,0:0:0:0:
64,192,45885,1,0,0:0:0:0:
320,192,45965,1,0,0:0:0:0:
192,192,46045,1,0,0:0:0:0:
64,192,46125,1,0,0:0:0:0:
448,192,46125,1,0,0:0:0:0:
320,192,46205,1,0,0:0:0:0:
448,192,46284,1,0,0:0:0:0:
192,192,46364,1,0,0:0:0:0:
64,192,46444,1,0,0:0:0:0:
320,192,46444,1,0,0:0:0:0:
448,192,46444,1,0,0:0:0:0:
192,192,46524,1,0,0:0:0:0:
320,192,46604,1,0,0:0:0:0:
448,192,46683,1,0,0:0:0:0:
64,192,46763,1,0,0:0:0:0:
192,192,46763,1,0,0:0:0:0:
320,192,46843,1,0,0:0:0:0:
64,192,46923,1,0,0:0:0:0:
448,192,46923,1,0,0:0:0:0:
192,192,47002,1,0,0:0:0:0:
320,192,47082,1,0,0:0:0:0:
448,192,47082,1,0,0:0:0:0:
64,192,47162,1,0,0:0:0:0:
192,192,47242,1,0,0:0:0:0:
320,192,47242,1,0,0:0:0:0:
64,192,47322,1,0,0:0:0:0:
320,192,47401,1,0,0:0:0:0:
448,192,47401,1,0,0:0:0:0:
192,192,47481,1,0,0:0:0:0:
64,192,47561,1,0,0:0:0:0:
448,192,47561,1,0,0:0:0:0:
320,192,47641,1,0,0:0:0:0:
64,192,47721,128,0,48040:0:0:0:0:
192,192,47721,128,0,48040:0:0:0:0:
448,192,47721,1,0,0:0:0:0:
320,192,48040,1,0,0:0:0:0:
64,192,48199,1,0,0:0:0:0:
320,192,48199,128,0,48518:0:0:0:0:
448,192,48199,128,0,48518:0:0:0:0:
192,192,48518,1,0,0:0:0:0:
64,192,48678,128,0,48838:0:0:0:0:
192,192,48678,128,0,48838:0:0:0:0:
448,192,48678,1,0,0:0:0:0:
64,192,48997,128,0,49157:0:0:0:0:
192,192,48997,1,0,0:0:0:0:
320,192,48997,1,0,0:0:0:0:
448,192,48997,128,0,49157:0:0:0:0:
320,192,49316,1,0,0:0:0:0:
448,192,49316,1,0,0:0:0:0:
192,192,49396,1,0,0:0:0:0:
64,192,49476,1,0,0:0:0:0:
192,192,49556,1,0,0:0:0:0:
320,192,49635,1,0,0:0:0:0:
448,192,49635,1,0,0:0:0:0:
64,192,49715,1,0,0:0:0:0:
192,192,49795,1,0,0:0:0:0:
320,192,49795,1,0,0:0:0:0:
64,192,49875,1,0,0:0:0:0:
320,192,49955,1,0,0:0:0:0:
448,192,49955,1,0,0:0:0:0:
192,192,50034,1,0,0:0:0:0:
64,192,50114,1,0,0:0:0:0:
192,192,50194,1,0,0:0:0:0:
64,192,50274,1,0,0:0:0:0:
448,192,50274,1,0,0:0:0:0:
320,192,50354,1,0,0:0:0:0:
448,192,50433,1,0,0:0:0:0:
320,192,50513,1,0,0:0:0:0:
64,192,50593,1,0,0:0:0:0:
192,192,50593,1,0,0:0:0:0:
320,192,50673,1,0,0:0:0:0:
64,192,50752,1,0,0:0:0:0:
448,192,50752,1,0,0:0:0:0:
192,192,50832,1,0,0:0:0:0:
64,192,50912,1,0,0:0:0:0:
192,192,50992,1,0,0:0:0:0:
320,192,51072,1,0,0:0:0:0:
448,192,51072,1,0,0:0:0:0:
64,192,51151,1,0,0:0:0:0:
320,192,51231,1,0,0:0:0:0:
448,192,51231,1,0,0:0:0:0:
192,192,51311,1,0,0:0:0:0:
64,192,51391,1,0,0:0:0:0:
320,192,51391,1,0,0:0:0:0:
448,192,51471,1,0,0:0:0:0:
64,192,51550,1,0,0:0:0:0:
192,192,51550,1,0,0:0:0:0:
320,192,51630,1,0,0:0:0:0:
192,192,51710,1,0,0:0:0:0:
320,192,51790,1,0,0:0:0:0:
64,192,51869,1,0,0:0:0:0:
448,192,51869,1,0,0:0:0:0:
192,192,51949,1,0,0:0:0:0:
320,192,52029,1,0,0:0:0:0:
64,192,52109,1,0,0:0:0:0:
320,192,52189,1,0,0:0:0:0:
448,192,52189,1,0,0:0:0:0:
192,192,52268,1,0,0:0:0:0:
64,192,52348,1,0,0:0:0:0:
448,192,52348,1,0,0:0:0:0:
192,192,52428,1,0,0:0:0:0:
320,192,52508,1,0,0:0:0:0:
448,192,52508,1,0,0:0:0:0:
64,192,52588,1,0,0:0:0:0:
320,192,52667,1,0,0:0:0:0:
192,192,52747,1,0,0:0:0:0:
64,192,52827,1,0,0:0:0:0:
448,192,52827,1,0,0:0:0:0:
320,192,52907,1,0,0:0:0:0:
448,192,52987,1,0,0:0:0:0:
320,192,53066,1,0,0:0:0:0:
64,192,53146,1,0,0:0:0:0:
192,192,53146,1,0,0:0:0:0:
320,192,53226,1,0,0:0:0:0:
64,192,53306,1,0,0:0:0:0:
448,192,53306,1,0,0:0:0:0:
192,192,53385,1,0,0:0:0:0:
320,192,53465,1,0,0:0:0:0:
448,192,53465,1,0,0:0:0:0:
64,192,53545,1,0,0:0:0:0:
320,192,53625,1,0,0:0:0:0:
192,192,53705,1,0,0:0:0:0:
64,192,53784,1,0,0:0:0:0:
448,192,53784,1,0,0:0:0:0:
320,192,53864,1,0,0:0:0:0:
192,192,53944,1,0,0:0:0:0:
320,192,54024,1,0,0:0:0:0:
64,192,54104,128,0,54263:0:0:0:0:
192,192,54104,1,0,0:0:0:0:
448,192,54104,128,0,54263:0:0:0:0:
320,192,54423,1,0,0:0:0:0:
448,192,54423,1,0,0:0:0:0:
192,192,54502,1,0,0:0:0:0:
64,192,54582,1,0,0:0:0:0:
192,192,54662,1,0,0:0:0:0:
320,192,54742,1,0,0:0:0:0:
448,192,54742,1,0,0:0:0:0:
64,192,54822,1,0,0:0:0:0:
192,192,54901,1,0,0:0:0:0:
320,192,54901,1,0,0:0:0:0:
64,192,54981,1,0,0:0:0:0:
320,192,55061,1,0,0:0:0:0:
448,192,55061,1,0,0:0:0:0:
192,192,55141,1,0,0:0:0:0:
64,192,55221,1,0,0:0:0:0:
192,192,55300,1,0,0:0:0:0:
64,192,55380,1,0,0:0:0:0:
320,192,55380,1,0,0:0:0:0:
448,192,55460,1,0,0:0:0:0:
320,192,55540,1,0,0:0:0:0:
448,192,55619,1,0,0:0:0:0:
64,192,55699,1,0,0:0:0:0:
192,192,55699,1,0,0:0:0:0:
320,192,55779,1,0,0:0:0:0:
64,192,55859,1,0,0:0:0:0:
448,192,55939,1,0,0:0:0:0:
192,192,56018,1,0,0:0:0:0:
320,192,56018,1,0,0:0:0:0:
64,192,56098,1,0,0:0:0:0:
192,192,56178,1,0,0:0:0:0:
448,192,56178,1,0,0:0:0:0:
64,192,56258,1,0,0:0:0:0:
320,192,56338,1,0,0:0:0:0:
448,192,56338,1,0,0:0:0:0:
192,192,56417,1,0,0:0:0:0:
320,192,56497,1,0,0:0:0:0:
64,192,56577,1,0,0:0:0:0:
192,192,56657,1,0,0:0:0:0:
448,192,56657,1,0,0:0:0:0:
320,192,56737,1,0,0:0:0:0:
448,192,56816,1,0,0:0:0:0:
320,192,56896,1,0,0:0:0:0:
64,192,56976,1,0,0:0:0:0:
192,192,56976,1,0,0:0:0:0:
448,192,57056,1,0,0:0:0:0:
192,192,57135,1,0,0:0:0:0:
320,192,57135,1,0,0:0:0:0:
448,192,57215,1,0,0:0:0:0:
64,192,57295,1,0,0:0:0:0:
320,192,57375,1,0,0:0:0:0:
192,192,57455,1,0,0:0:0:0:
448,192,57534,1,0,0:0:0:0:
64,192,57614,1,0,0:0:0:0:
192,192,57614,1,0,0:0:0:0:
320,192,57694,1,0,0:0:0:0:
448,192,57774,1,0,0:0:0:0:
64,192,57854,1,0,0:0:0:0:
192,192,57933,1,0,0:0:0:0:
320,192,57933,1,0,0:0:0:0:
64,192,58013,1,0,0:0:0:0:
448,192,58093,1,0,0:0:0:0:
192,192,58173,1,0,0:0:0:0:
320,192,58252,1,0,0:0:0:0:
448,192,58252,1,0,0:0:0:0:
64,192,58332,1,0,0:0:0:0:
320,192,58412,1,0,0:0:0:0:
192,192,58492,1,0,0:0:0:0:
64,192,58572,1,0,0:0:0:0:
448,192,58572,1,0,0:0:0:0:
320,192,58651,1,0,0:0:0:0:
192,192,58731,1,0,0:0:0:0:
320,192,58811,1,0,0:0:0:0:
64,192,58891,1,0,0:0:0:0:
192,192,58891,1,0,0:0:0:0:
448,192,58971,1,0,0:0:0:0:
64,192,59050,1,0,0:0:0:0:
320,192,59130,1,0,0:0:0:0:
64,192,59210,128,0,59369:0:0:0:0:
192,192,59210,1,0,0:0:0:0:
448,192,59210,128,0,59369:0:0:0:0:
64,192,59529,1,0,0:0:0:0:
192,192,59529,1,0,0:0:0:0:
320,192,59609,1,0,0:0:0:0:
448,192,59689,1,0,0:0:0:0:
320,192,59768,1,0,0:0:0:0:
64,192,59848,1,0,0:0:0:0:
192,192,59848,1,0,0:0:0:0:
448,192,59928,1,0,0:0:0:0:
192,192,60008,1,0,0:0:0:0:
320,192,60008,1,0,0:0:0:0:
448,192,60088,1,0,0:0:0:0:
64,192,60167,1,0,0:0:0:0:
192,192,60167,1,0,0:0:0:0:
320,192,60247,1,0,0:0:0:0:
448,192,60327,1,0,0:0:0:0:
320,192,60407,1,0,0:0:0:0:
64,192,60487,1,0,0:0:0:0:
448,192,60487,1,0,0:0:0:0:
192,192,60566,1,0,0:0:0:0:
64,192,60646,1,0,0:0:0:0:
192,192,60726,1,0,0:0:0:0:
320,192,60806,1,0,0:0:0:0:
448,192,60806,1,0,0:0:0:0:
192,192,60885,1,0,0:0:0:0:
64,192,60965,1,0,0:0:0:0:
448,192,60965,1,0,0:0:0:0:
320,192,61045,1,0,0:0:0:0:
448,192,61125,1,0,0:0:0:0:
320,192,61205,1,0,0:0:0:0:
64,192,61284,1,0,0:0:0:0:
192,192,61284,1,0,0:0:0:0:
448,192,61364,1,0,0:0:0:0:
64,192,61444,1,0,0:0:0:0:
192,192,61444,1,0,0:0:0:0:
320,192,61524,1,0,0:0:0:0:
192,192,61604,1,0,0:0:0:0:
448,192,61604,1,0,0:0:0:0:
64,192,61683,1,0,0:0:0:0:
320,192,61763,1,0,0:0:0:0:
448,192,61763,1,0,0:0:0:0:
192,192,61843,1,0,0:0:0:0:
320,192,61923,1,0,0:0:0:0:
192,192,62002,1,0,0:0:0:0:
64,192,62082,1,0,0:0:0:0:
448,192,62082,1,0,0:0:0:0:
320,192,62162,1,0,0:0:0:0:
192,192,62242,1,0,0:0:0:0:
448,192,62322,1,0,0:0:0:0:
64,192,62401,1,0,0:0:0:0:
192,192,62401,1,0,0:0:0:0:
320,192,62481,1,0,0:0:0:0:
64,192,62561,1,0,0:0:0:0:
448,192,62561,1,0,0:0:0:0:
320,192,62641,1,0,0:0:0:0:
64,192,62721,1,0,0:0:0:0:
192,192,62721,1,0,0:0:0:0:
448,192,62800,1,0,0:0:0:0:
192,192,62880,1,0,0:0:0:0:
320,192,62960,1,0,0:0:0:0:
64,192,63040,1,0,0:0:0:0:
448,192,63040,1,0,0:0:0:0:
192,192,63119,1,0,0:0:0:0:
64,192,63199,1,0,0:0:0:0:
192,192,63279,1,0,0:0:0:0:
320,192,63359,1,0,0:0:0:0:
448,192,63359,1,0,0:0:0:0:
192,192,63439,1,0,0:0:0:0:
64,192,63518,1,0,0:0:0:0:
448,192,63518,1,0,0:0:0:0:
320,192,63598,1,0,0:0:0:0:
64,192,63678,1,0,0:0:0:0:
192,192,63678,1,0,0:0:0:0:
448,192,63758,1,0,0:0:0:0:
192,192,63838,1,0,0:0:0:0:
320,192,63917,1,0,0:0:0:0:
64,192,63997,1,0,0:0:0:0:
448,192,63997,1,0,0:0:0:0:
192,192,64077,1,0,0:0:0:0:
320,192,64157,1,0,0:0:0:0:
192,192,64237,1,0,0:0:0:0:
64,192,64316,128,0,64476:0:0:0:0:
320,192,64316,1,0,0:0:0:0:
448,192,64316,128,0,64476:0:0:0:0:
448,192,64635,1,0,0:0:0:0:
320,192,64635,1,0,0:0:0:0:
192,192,64715,1,0,0:0:0:0:
64,192,64795,1,0,0:0:0:0:
192,192,64875,1,0,0:0:0:0:
448,192,64955,1,0,0:0:0:0:
320,192,64955,1,0,0:0:0:0:
64,192,65034,1,0,0:0:0:0:
320,192,65114,1,0,0:0:0:0:
192,192,65114,1,0,0:0:0:0:
64,192,65194,1,0,0:0:0:0:
448,192,65274,1,0,0:0:0:0:
320,192,65274,1,0,0:0:0:0:
192,192,65354,1,0,0:0:0:0:
64,192,65433,1,0,0:0:0:0:
192,192,65513,1,0,0:0:0:0:
320,192,65593,1,0,0:0:0:0:
64,192,65593,1,0,0:0:0:0:
448,192,65673,1,0,0:0:0:0:
320,192,65752,1,0,0:0:0:0:
448,192,65832,1,0,0:0:0:0:
192,192,65912,1,0,0:0:0:0:
64,192,65912,1,0,0:0:0:0:
320,192,65992,1,0,0:0:0:0:
448,192,66072,1,0,0:0:0:0:
192,192,66072,1,0,0:0:0:0:
320,192,66151,1,0,0:0:0:0:
64,192,66231,1,0,0:0:0:0:
192,192,66231,1,0,0:0:0:0:
448,192,66311,1,0,0:0:0:0:
64,192,66391,1,0,0:0:0:0:
320,192,66471,1,0,0:0:0:0:
448,192,66550,1,0,0:0:0:0:
64,192,66550,1,0,0:0:0:0:
192,192,66550,1,0,0:0:0:0:
320,192,66630,1,0,0:0:0:0:
192,192,66710,1,0,0:0:0:0:
448,192,66790,1,0,0:0:0:0:
64,192,66869,1,0,0:0:0:0:
320,192,66869,1,0,0:0:0:0:
192,192,66949,1,0,0:0:0:0:
320,192,67029,1,0,0:0:0:0:
192,192,67109,1,0,0:0:0:0:
320,192,67189,1,0,0:0:0:0:
448,192,67189,1,0,0:0:0:0:
64,192,67268,1,0,0:0:0:0:
192,192,67348,1,0,0:0:0:0:
448,192,67348,1,0,0:0:0:0:
320,192,67428,1,0,0:0:0:0:
192,192,67508,1,0,0:0:0:0:
448,192,67588,1,0,0:0:0:0:
64,192,67667,1,0,0:0:0:0:
192,192,67667,1,0,0:0:0:0:
320,192,67747,1,0,0:0:0:0:
64,192,67827,1,0,0:0:0:0:
448,192,67827,1,0,0:0:0:0:
192,192,67907,1,0,0:0:0:0:
64,192,67987,1,0,0:0:0:0:
320,192,67987,128,0,68311:0:0:0:0:
448,192,67987,128,0,68311:0:0:0:0:
192,192,68311,1,0,0:0:0:0:
192,192,68475,1,0,0:0:0:0:
448,192,68475,1,0,0:0:0:0:
192,192,68639,1,0,0:0:0:0:
448,192,68639,1,0,0:0:0:0:
448,192,68803,1,0,0:0:0:0:
320,192,68803,1,0,0:0:0:0:
64,192,68803,128,0,68967:0:0:0:0:
192,192,68967,128,0,69131:0:0:0:0:
320,192,69131,128,0,69295:0:0:0:0:
64,192,69295,1,0,0:0:0:0:
192,192,69295,1,0,0:0:0:0:
448,192,69295,1,0,0:0:0:0:
320,192,69377,1,0,0:0:0:0:
448,192,69459,1,0,0:0:0:0:
320,192,69539,1,0,0:0:0:0:
448,192,69619,1,0,0:0:0:0:
320,192,69699,1,0,0:0:0:0:
64,192,69779,1,0,0:0:0:0:
192,192,69779,1,0,0:0:0:0:
448,192,69858,1,0,0:0:0:0:
64,192,69938,1,0,0:0:0:0:
320,192,69938,1,0,0:0:0:0:
192,192,70018,1,0,0:0:0:0:
320,192,70098,1,0,0:0:0:0:
192,192,70178,1,0,0:0:0:0:
64,192,70257,1,0,0:0:0:0:
448,192,70257,1,0,0:0:0:0:
320,192,70337,1,0,0:0:0:0:
64,192,70417,1,0,0:0:0:0:
192,192,70417,1,0,0:0:0:0:
448,192,70497,1,0,0:0:0:0:
192,192,70577,1,0,0:0:0:0:
320,192,70656,1,0,0:0:0:0:
64,192,70736,1,0,0:0:0:0:
448,192,70736,1,0,0:0:0:0:
192,192,70816,1,0,0:0:0:0:
64,192,70896,1,0,0:0:0:0:
192,192,70975,1,0,0:0:0:0:
320,192,71055,1,0,0:0:0:0:
448,192,71055,1,0,0:0:0:0:
64,192,71135,1,0,0:0:0:0:
192,192,71215,1,0,0:0:0:0:
448,192,71215,1,0,0:0:0:0:
320,192,71295,1,0,0:0:0:0:
192,192,71374,1,0,0:0:0:0:
320,192,71454,1,0,0:0:0:0:
64,192,71534,1,0,0:0:0:0:
448,192,71534,1,0,0:0:0:0:
192,192,71614,1,0,0:0:0:0:
320,192,71694,1,0,0:0:0:0:
448,192,71694,1,0,0:0:0:0:
64,192,71773,1,0,0:0:0:0:
448,192,71853,1,0,0:0:0:0:
192,192,71933,1,0,0:0:0:0:
64,192,72013,1,0,0:0:0:0:
320,192,72013,1,0,0:0:0:0:
448,192,72092,1,0,0:0:0:0:
320,192,72172,1,0,0:0:0:0:
448,192,72252,1,0,0:0:0:0:
64,192,72332,1,0,0:0:0:0:
192,192,72332,1,0,0:0:0:0:
320,192,72412,1,0,0:0:0:0:
64,192,72491,1,0,0:0:0:0:
448,192,72491,1,0,0:0:0:0:
192,192,72571,1,0,0:0:0:0:
448,192,72651,1,0,0:0:0:0:
192,192,72731,1,0,0:0:0:0:
64,192,72811,1,0,0:0:0:0:
320,192,72811,1,0,0:0:0:0:
448,192,72890,1,0,0:0:0:0:
64,192,72970,1,0,0:0:0:0:
192,192,72970,1,0,0:0:0:0:
448,192,73050,1,0,0:0:0:0:
192,192,73130,1,0,0:0:0:0:
320,192,73130,1,0,0:0:0:0:
64,192,73209,1,0,0:0:0:0:
192,192,73289,1,0,0:0:0:0:
64,192,73369,1,0,0:0:0:0:
320,192,73449,1,0,0:0:0:0:
448,192,73449,1,0,0:0:0:0:
192,192,73529,1,0,0:0:0:0:
64,192,73608,1,0,0:0:0:0:
448,192,73608,1,0,0:0:0:0:
192,192,73688,1,0,0:0:0:0:
320,192,73768,1,0,0:0:0:0:
448,192,73768,1,0,0:0:0:0:
64,192,73848,1,0,0:0:0:0:
320,192,73928,1,0,0:0:0:0:
192,192,74007,1,0,0:0:0:0:
64,192,74087,1,0,0:0:0:0:
448,192,74087,1,0,0:0:0:0:
320,192,74167,1,0,0:0:0:0:
64,192,74247,1,0,0:0:0:0:
192,192,74247,1,0,0:0:0:0:
320,192,74327,1,0,0:0:0:0:
64,192,74406,1,0,0:0:0:0:
448,192,74486,1,0,0:0:0:0:
64,192,74566,1,0,0:0:0:0:
192,192,74566,1,0,0:0:0:0:
320,192,74566,1,0,0:0:0:0:
448,192,74646,1,0,0:0:0:0:
192,192,74725,1,0,0:0:0:0:
64,192,74805,1,0,0:0:0:0:
320,192,74885,1,0,0:0:0:0:
448,192,74885,1,0,0:0:0:0:
192,192,74965,1,0,0:0:0:0:
64,192,75045,1,0,0:0:0:0:
320,192,75045,1,0,0:0:0:0:
448,192,75045,1,0,0:0:0:0:
192,192,75124,1,0,0:0:0:0:
448,192,75204,1,0,0:0:0:0:
64,192,75284,1,0,0:0:0:0:
192,192,75364,1,0,0:0:0:0:
320,192,75364,1,0,0:0:0:0:
448,192,75444,1,0,0:0:0:0:
64,192,75523,1,0,0:0:0:0:
192,192,75523,1,0,0:0:0:0:
320,192,75603,1,0,0:0:0:0:
64,192,75683,1,0,0:0:0:0:
192,192,75683,1,0,0:0:0:0:
448,192,75683,1,0,0:0:0:0:
320,192,75763,1,0,0:0:0:0:
64,192,75842,1,0,0:0:0:0:
448,192,75922,1,0,0:0:0:0:
192,192,76002,1,0,0:0:0:0:
320,192,76002,1,0,0:0:0:0:
64,192,76082,1,0,0:0:0:0:
320,192,76162,1,0,0:0:0:0:
448,192,76162,1,0,0:0:0:0:
64,192,76241,1,0,0:0:0:0:
192,192,76321,1,0,0:0:0:0:
320,192,76321,1,0,0:0:0:0:
448,192,76321,1,0,0:0:0:0:
64,192,76401,1,0,0:0:0:0:
448,192,76481,1,0,0:0:0:0:
192,192,76561,1,0,0:0:0:0:
64,192,76640,1,0,0:0:0:0:
320,192,76640,1,0,0:0:0:0:
448,192,76720,1,0,0:0:0:0:
192,192,76800,1,0,0:0:0:0:
320,192,76800,1,0,0:0:0:0:
64,192,76880,1,0,0:0:0:0:
192,192,76959,1,0,0:0:0:0:
448,192,76959,1,0,0:0:0:0:
320,192,77039,1,0,0:0:0:0:
64,192,77119,1,0,0:0:0:0:
192,192,77119,1,0,0:0:0:0:
448,192,77119,1,0,0:0:0:0:
320,192,77199,1,0,0:0:0:0:
64,192,77279,1,0,0:0:0:0:
448,192,77358,1,0,0:0:0:0:
64,192,77438,1,0,0:0:0:0:
192,192,77438,1,0,0:0:0:0:
320,192,77518,1,0,0:0:0:0:
192,192,77598,1,0,0:0:0:0:
448,192,77598,1,0,0:0:0:0:
64,192,77678,1,0,0:0:0:0:
192,192,77757,1,0,0:0:0:0:
320,192,77757,1,0,0:0:0:0:
448,192,77837,1,0,0:0:0:0:
64,192,77917,1,0,0:0:0:0:
320,192,77917,1,0,0:0:0:0:
192,192,77997,1,0,0:0:0:0:
320,192,78077,1,0,0:0:0:0:
448,192,78077,1,0,0:0:0:0:
192,192,78156,1,0,0:0:0:0:
64,192,78236,1,0,0:0:0:0:
448,192,78236,1,0,0:0:0:0:
192,192,78316,1,0,0:0:0:0:
64,192,78396,1,0,0:0:0:0:
320,192,78396,1,0,0:0:0:0:
448,192,78396,1,0,0:0:0:0:
192,192,78559,1,0,0:0:0:0:
320,192,78559,1,0,0:0:0:0:
448,192,78559,1,0,0:0:0:0:
192,192,78723,1,0,0:0:0:0:
320,192,78723,1,0,0:0:0:0:
448,192,78723,1,0,0:0:0:0:
64,192,78887,128,0,79051:0:0:0:0:
448,192,79051,128,0,79215:0:0:0:0:
320,192,79215,128,0,79379:0:0:0:0:
192,192,79379,128,0,79543:0:0:0:0:
64,192,79543,1,0,0:0:0:0:
320,192,79543,1,0,0:0:0:0:
448,192,79543,1,0,0:0:0:0:
192,192,79625,1,0,0:0:0:0:
64,192,79707,1,0,0:0:0:0:
192,192,79786,1,0,0:0:0:0:
64,192,79866,1,0,0:0:0:0:
192,192,79946,1,0,0:0:0:0:
320,192,80026,1,0,0:0:0:0:
448,192,80026,1,0,0:0:0:0:
64,192,80105,1,0,0:0:0:0:
192,192,80185,1,0,0:0:0:0:
448,192,80185,1,0,0:0:0:0:
320,192,80265,1,0,0:0:0:0:
192,192,80345,1,0,0:0:0:0:
320,192,80425,1,0,0:0:0:0:
64,192,80504,1,0,0:0:0:0:
448,192,80504,1,0,0:0:0:0:
192,192,80584,1,0,0:0:0:0:
320,192,80664,1,0,0:0:0:0:
448,192,80664,1,0,0:0:0:0:
64,192,80744,1,0,0:0:0:0:
320,192,80824,1,0,0:0:0:0:
192,192,80903,1,0,0:0:0:0:
64,192,80983,1,0,0:0:0:0:
448,192,80983,1,0,0:0:0:0:
320,192,81063,1,0,0:0:0:0:
448,192,81143,1,0,0:0:0:0:
320,192,81222,1,0,0:0:0:0:
64,192,81302,1,0,0:0:0:0:
192,192,81302,1,0,0:0:0:0:
448,192,81382,1,0,0:0:0:0:
64,192,81462,1,0,0:0:0:0:
320,192,81462,1,0,0:0:0:0:
192,192,81542,1,0,0:0:0:0:
320,192,81621,1,0,0:0:0:0:
192,192,81701,1,0,0:0:0:0:
64,192,81781,1,0,0:0:0:0:
448,192,81781,1,0,0:0:0:0:
320,192,81861,1,0,0:0:0:0:
64,192,81941,1,0,0:0:0:0:
192,192,81941,1,0,0:0:0:0:
448,192,82020,1,0,0:0:0:0:
64,192,82100,1,0,0:0:0:0:
320,192,82180,1,0,0:0:0:0:
192,192,82260,1,0,0:0:0:0:
448,192,82260,1,0,0:0:0:0:
64,192,82339,1,0,0:0:0:0:
192,192,82419,1,0,0:0:0:0:
64,192,82499,1,0,0:0:0:0:
320,192,82579,1,0,0:0:0:0:
448,192,82579,1,0,0:0:0:0:
192,192,82659,1,0,0:0:0:0:
64,192,82738,1,0,0:0:0:0:
448,192,82738,1,0,0:0:0:0:
320,192,82818,1,0,0:0:0:0:
64,192,82898,1,0,0:0:0:0:
320,192,82978,1,0,0:0:0:0:
192,192,83058,1,0,0:0:0:0:
448,192,83058,1,0,0:0:0:0:
64,192,83137,1,0,0:0:0:0:
320,192,83217,1,0,0:0:0:0:
448,192,83217,1,0,0:0:0:0:
64,192,83297,1,0,0:0:0:0:
192,192,83377,1,0,0:0:0:0:
320,192,83377,1,0,0:0:0:0:
448,192,83456,1,0,0:0:0:0:
320,192,83536,1,0,0:0:0:0:
448,192,83616,1,0,0:0:0:0:
64,192,83696,1,0,0:0:0:0:
192,192,83696,1,0,0:0:0:0:
320,192,83776,1,0,0:0:0:0:
64,192,83855,1,0,0:0:0:0:
448,192,83855,1,0,0:0:0:0:
192,192,83935,1,0,0:0:0:0:
320,192,84015,1,0,0:0:0:0:
448,192,84015,1,0,0:0:0:0:
192,192,84095,1,0,0:0:0:0:
64,192,84175,1,0,0:0:0:0:
320,192,84254,1,0,0:0:0:0:
64,192,84334,1,0,0:0:0:0:
448,192,84334,1,0,0:0:0:0:
192,192,84414,1,0,0:0:0:0:
320,192,84494,1,0,0:0:0:0:
448,192,84494,1,0,0:0:0:0:
192,192,84574,1,0,0:0:0:0:
448,192,84653,1,0,0:0:0:0:
64,192,84733,1,0,0:0:0:0:
192,192,84813,1,0,0:0:0:0:
320,192,84813,1,0,0:0:0:0:
448,192,84813,1,0,0:0:0:0:
64,192,84893,1,0,0:0:0:0:
320,192,84972,1,0,0:0:0:0:
448,192,85052,1,0,0:0:0:0:
64,192,85132,1,0,0:0:0:0:
192,192,85132,1,0,0:0:0:0:
320,192,85212,1,0,0:0:0:0:
64,192,85292,1,0,0:0:0:0:
192,192,85292,1,0,0:0:0:0:
448,192,85292,1,0,0:0:0:0:
320,192,85371,1,0,0:0:0:0:
64,192,85451,1,0,0:0:0:0:
192,192,85531,1,0,0:0:0:0:
320,192,85611,1,0,0:0:0:0:
448,192,85611,1,0,0:0:0:0:
192,192,85691,1,0,0:0:0:0:
64,192,85770,1,0,0:0:0:0:
320,192,85770,1,0,0:0:0:0:
448,192,85850,1,0,0:0:0:0:
64,192,85930,1,0,0:0:0:0:
192,192,85930,1,0,0:0:0:0:
320,192,85930,1,0,0:0:0:0:
448,192,86010,1,0,0:0:0:0:
192,192,86089,1,0,0:0:0:0:
320,192,86169,1,0,0:0:0:0:
64,192,86249,1,0,0:0:0:0:
448,192,86249,1,0,0:0:0:0:
192,192,86329,1,0,0:0:0:0:
320,192,86409,1,0,0:0:0:0:
448,192,86409,1,0,0:0:0:0:
192,192,86488,1,0,0:0:0:0:
64,192,86568,1,0,0:0:0:0:
320,192,86568,1,0,0:0:0:0:
448,192,86568,1,0,0:0:0:0:
192,192,86648,1,0,0:0:0:0:
64,192,86728,1,0,0:0:0:0:
448,192,86808,1,0,0:0:0:0:
64,192,86887,1,0,0:0:0:0:
320,192,86887,1,0,0:0:0:0:
192,192,86967,1,0,0:0:0:0:
320,192,87047,1,0,0:0:0:0:
448,192,87047,1,0,0:0:0:0:
64,192,87127,1,0,0:0:0:0:
192,192,87206,1,0,0:0:0:0:
320,192,87206,1,0,0:0:0:0:
448,192,87286,1,0,0:0:0:0:
64,192,87366,1,0,0:0:0:0:
192,192,87366,1,0,0:0:0:0:
320,192,87446,1,0,0:0:0:0:
64,192,87526,1,0,0:0:0:0:
320,192,87605,1,0,0:0:0:0:
64,192,87685,1,0,0:0:0:0:
448,192,87685,1,0,0:0:0:0:
192,192,87765,1,0,0:0:0:0:
320,192,87845,1,0,0:0:0:0:
64,192,87925,1,0,0:0:0:0:
320,192,88004,1,0,0:0:0:0:
448,192,88004,1,0,0:0:0:0:
192,192,88084,1,0,0:0:0:0:
448,192,88164,1,0,0:0:0:0:
192,192,88244,1,0,0:0:0:0:
64,192,88324,1,0,0:0:0:0:
448,192,88324,1,0,0:0:0:0:
320,192,88403,1,0,0:0:0:0:
192,192,88483,1,0,0:0:0:0:
448,192,88563,1,0,0:0:0:0:
64,192,88643,1,0,0:0:0:0:
192,192,88643,1,0,0:0:0:0:
320,192,88643,1,0,0:0:0:0:
448,192,88722,1,0,0:0:0:0:
64,192,88802,1,0,0:0:0:0:
192,192,88882,1,0,0:0:0:0:
64,192,88962,1,0,0:0:0:0:
448,192,88962,1,0,0:0:0:0:
320,192,89042,1,0,0:0:0:0:
448,192,89121,1,0,0:0:0:0:
64,192,89201,1,0,0:0:0:0:
192,192,89281,1,0,0:0:0:0:
448,192,89281,1,0,0:0:0:0:
320,192,89361,1,0,0:0:0:0:
64,192,89441,1,0,0:0:0:0:
192,192,89441,1,0,0:0:0:0:
448,192,89520,1,0,0:0:0:0:
192,192,89600,1,0,0:0:0:0:
320,192,89600,1,0,0:0:0:0:
64,192,89680,1,0,0:0:0:0:
320,192,89760,1,0,0:0:0:0:
448,192,89760,1,0,0:0:0:0:
192,192,89839,1,0,0:0:0:0:
64,192,89919,1,0,0:0:0:0:
320,192,89919,1,0,0:0:0:0:
448,192,89919,1,0,0:0:0:0:
192,192,89999,1,0,0:0:0:0:
64,192,90079,1,0,0:0:0:0:
448,192,90079,1,0,0:0:0:0:
320,192,90159,1,0,0:0:0:0:
64,192,90238,1,0,0:0:0:0:
192,192,90238,1,0,0:0:0:0:
448,192,90318,1,0,0:0:0:0:
320,192,90398,1,0,0:0:0:0:
448,192,90478,1,0,0:0:0:0:
64,192,90558,1,0,0:0:0:0:
192,192,90558,1,0,0:0:0:0:
320,192,90637,1,0,0:0:0:0:
64,192,90717,1,0,0:0:0:0:
448,192,90717,1,0,0:0:0:0:
192,192,90797,1,0,0:0:0:0:
320,192,90877,1,0,0:0:0:0:
448,192,90877,1,0,0:0:0:0:
64,192,90956,1,0,0:0:0:0:
192,192,91036,1,0,0:0:0:0:
320,192,91036,1,0,0:0:0:0:
448,192,91036,1,0,0:0:0:0:
64,192,91116,1,0,0:0:0:0:
320,192,91196,1,0,0:0:0:0:
192,192,91276,1,0,0:0:0:0:
64,192,91355,1,0,0:0:0:0:
448,192,91355,1,0,0:0:0:0:
320,192,91435,1,0,0:0:0:0:
64,192,91515,1,0,0:0:0:0:
192,192,91515,1,0,0:0:0:0:
448,192,91595,1,0,0:0:0:0:
64,192,91675,1,0,0:0:0:0:
192,192,91675,1,0,0:0:0:0:
320,192,91675,1,0,0:0:0:0:
448,192,91754,1,0,0:0:0:0:
192,192,91834,1,0,0:0:0:0:
320,192,91914,1,0,0:0:0:0:
64,192,91994,1,0,0:0:0:0:
192,192,92074,1,0,0:0:0:0:
64,192,92153,1,0,0:0:0:0:
448,192,92153,1,0,0:0:0:0:
320,192,92233,1,0,0:0:0:0:
448,192,92313,1,0,0:0:0:0:
192,192,92393,1,0,0:0:0:0:
64,192,92472,1,0,0:0:0:0:
320,192,92472,1,0,0:0:0:0:
448,192,92472,1,0,0:0:0:0:
192,192,92552,1,0,0:0:0:0:
320,192,92632,1,0,0:0:0:0:
448,192,92712,1,0,0:0:0:0:
64,192,92792,1,0,0:0:0:0:
192,192,92792,1,0,0:0:0:0:
448,192,92871,1,0,0:0:0:0:
64,192,92951,1,0,0:0:0:0:
320,192,92951,1,0,0:0:0:0:
192,192,93031,1,0,0:0:0:0:
320,192,93111,1,0,0:0:0:0:
192,192,93191,1,0,0:0:0:0:
64,192,93270,1,0,0:0:0:0:
448,192,93270,1,0,0:0:0:0:
320,192,93350,1,0,0:0:0:0:
64,192,93430,1,0,0:0:0:0:
192,192,93430,1,0,0:0:0:0:
448,192,93510,1,0,0:0:0:0:
64,192,93589,1,0,0:0:0:0:
192,192,93589,128,0,93909:0:0:0:0:
320,192,93589,128,0,93909:0:0:0:0:
448,192,93909,1,0,0:0:0:0:
64,192,94068,128,0,94228:0:0:0:0:
192,192,94068,128,0,94228:0:0:0:0:
448,192,94068,1,0,0:0:0:0:
320,192,94228,1,0,0:0:0:0:
192,192,94387,128,0,94547:0:0:0:0:
320,192,94387,128,0,94547:0:0:0:0:
448,192,94387,1,0,0:0:0:0:
64,192,94547,1,0,0:0:0:0:
64,192,94706,1,0,0:0:0:0:
320,192,94706,128,0,94866:0:0:0:0:
448,192,94706,128,0,94866:0:0:0:0:
192,192,94866,1,0,0:0:0:0:
64,192,95026,1,0,0:0:0:0:
192,192,95026,1,0,0:0:0:0:
448,192,95026,1,0,0:0:0:0:
320,192,95105,1,0,0:0:0:0:
64,192,95185,1,0,0:0:0:0:
448,192,95265,1,0,0:0:0:0:
192,192,95345,1,0,0:0:0:0:
320,192,95345,1,0,0:0:0:0:
448,192,95424,1,0,0:0:0:0:
64,192,95504,1,0,0:0:0:0:
320,192,95584,1,0,0:0:0:0:
64,192,95664,1,0,0:0:0:0:
448,192,95744,1,0,0:0:0:0:
192,192,95823,1,0,0:0:0:0:
320,192,95823,1,0,0:0:0:0:
448,192,95903,1,0,0:0:0:0:
64,192,95983,1,0,0:0:0:0:
192,192,95983,1,0,0:0:0:0:
320,192,96063,1,0,0:0:0:0:
64,192,96143,1,0,0:0:0:0:
448,192,96222,1,0,0:0:0:0:
192,192,96302,1,0,0:0:0:0:
320,192,96302,1,0,0:0:0:0:
448,192,96382,1,0,0:0:0:0:
64,192,96462,1,0,0:0:0:0:
320,192,96541,1,0,0:0:0:0:
64,192,96621,1,0,0:0:0:0:
192,192,96621,1,0,0:0:0:0:
448,192,96701,1,0,0:0:0:0:
192,192,96781,1,0,0:0:0:0:
320,192,96781,1,0,0:0:0:0:
448,192,96861,1,0,0:0:0:0:
64,192,96940,1,0,0:0:0:0:
320,192,97020,1,0,0:0:0:0:
64,192,97100,1,0,0:0:0:0:
448,192,97180,1,0,0:0:0:0:
192,192,97260,1,0,0:0:0:0:
320,192,97260,1,0,0:0:0:0:
448,192,97339,1,0,0:0:0:0:
64,192,97419,1,0,0:0:0:0:
192,192,97499,1,0,0:0:0:0:
320,192,97579,1,0,0:0:0:0:
448,192,97579,1,0,0:0:0:0:
192,192,97658,1,0,0:0:0:0:
448,192,97738,1,0,0:0:0:0:
64,192,97818,1,0,0:0:0:0:
192,192,97898,1,0,0:0:0:0:
320,192,97898,1,0,0:0:0:0:
64,192,97978,1,0,0:0:0:0:
448,192,98057,1,0,0:0:0:0:
192,192,98137,1,0,0:0:0:0:
448,192,98217,1,0,0:0:0:0:
64,192,98297,1,0,0:0:0:0:
192,192,98377,1,0,0:0:0:0:
320,192,98377,1,0,0:0:0:0:
64,192,98456,1,0,0:0:0:0:
320,192,98536,1,0,0:0:0:0:
448,192,98536,1,0,0:0:0:0:
192,192,98616,1,0,0:0:0:0:
448,192,98696,1,0,0:0:0:0:
64,192,98776,1,0,0:0:0:0:
192,192,98855,1,0,0:0:0:0:
320,192,98855,1,0,0:0:0:0:
64,192,98935,1,0,0:0:0:0:
448,192,99015,1,0,0:0:0:0:
192,192,99095,1,0,0:0:0:0:
320,192,99174,1,0,0:0:0:0:
448,192,99174,1,0,0:0:0:0:
64,192,99254,1,0,0:0:0:0:
192,192,99334,1,0,0:0:0:0:
320,192,99334,1,0,0:0:0:0:
64,192,99414,1,0,0:0:0:0:
448,192,99494,1,0,0:0:0:0:
192,192,99573,1,0,0:0:0:0:
320,192,99653,1,0,0:0:0:0:
448,192,99653,1,0,0:0:0:0:
64,192,99733,1,0,0:0:0:0:
192,192,99813,1,0,0:0:0:0:
320,192,99813,1,0,0:0:0:0:
448,192,99893,1,0,0:0:0:0:
64,192,99972,1,0,0:0:0:0:
192,192,99972,1,0,0:0:0:0:
320,192,100052,1,0,0:0:0:0:
64,192,100132,1,0,0:0:0:0:
192,192,100132,1,0,0:0:0:0:
448,192,100132,1,0,0:0:0:0:
320,192,100212,1,0,0:0:0:0:
192,192,100291,1,0,0:0:0:0:
448,192,100371,1,0,0:0:0:0:
64,192,100451,1,0,0:0:0:0:
320,192,100451,1,0,0:0:0:0:
448,192,100531,1,0,0:0:0:0:
192,192,100611,1,0,0:0:0:0:
320,192,100690,1,0,0:0:0:0:
192,192,100770,1,0,0:0:0:0:
448,192,100850,1,0,0:0:0:0:
64,192,100930,1,0,0:0:0:0:
320,192,100930,1,0,0:0:0:0:
448,192,101010,1,0,0:0:0:0:
64,192,101089,1,0,0:0:0:0:
192,192,101089,1,0,0:0:0:0:
320,192,101169,1,0,0:0:0:0:
192,192,101249,1,0,0:0:0:0:
448,192,101329,1,0,0:0:0:0:
64,192,101408,1,0,0:0:0:0:
320,192,101408,1,0,0:0:0:0:
448,192,101488,1,0,0:0:0:0:
192,192,101568,1,0,0:0:0:0:
320,192,101648,1,0,0:0:0:0:
64,192,101728,1,0,0:0:0:0:
192,192,101728,1,0,0:0:0:0:
448,192,101807,1,0,0:0:0:0:
64,192,101887,1,0,0:0:0:0:
320,192,101887,1,0,0:0:0:0:
448,192,101967,1,0,0:0:0:0:
192,192,102047,1,0,0:0:0:0:
320,192,102127,1,0,0:0:0:0:
192,192,102206,1,0,0:0:0:0:
448,192,102286,1,0,0:0:0:0:
64,192,102366,1,0,0:0:0:0:
320,192,102366,1,0,0:0:0:0:
448,192,102446,1,0,0:0:0:0:
192,192,102526,1,0,0:0:0:0:
64,192,102605,1,0,0:0:0:0:
320,192,102685,1,0,0:0:0:0:
448,192,102685,1,0,0:0:0:0:
192,192,102765,1,0,0:0:0:0:
320,192,102845,1,0,0:0:0:0:
64,192,102924,1,0,0:0:0:0:
192,192,103004,1,0,0:0:0:0:
448,192,103004,1,0,0:0:0:0:
64,192,103084,1,0,0:0:0:0:
320,192,103164,1,0,0:0:0:0:
192,192,103244,1,0,0:0:0:0:
320,192,103323,1,0,0:0:0:0:
64,192,103403,1,0,0:0:0:0:
192,192,103483,1,0,0:0:0:0:
448,192,103483,1,0,0:0:0:0:
64,192,103563,1,0,0:0:0:0:
320,192,103643,1,0,0:0:0:0:
448,192,103643,1,0,0:0:0:0:
192,192,103722,1,0,0:0:0:0:
320,192,103802,1,0,0:0:0:0:
64,192,103882,1,0,0:0:0:0:
192,192,103962,1,0,0:0:0:0:
320,192,103962,1,0,0:0:0:0:
448,192,103962,1,0,0:0:0:0:
64,192,104121,1,0,0:0:0:0:
320,192,104201,1,0,0:0:0:0:
64,192,104281,1,0,0:0:0:0:
64,192,104440,1,0,0:0:0:0:
192,192,104440,1,0,0:0:0:0:
448,192,104440,1,0,0:0:0:0:
320,192,104600,1,0,0:0:0:0:
448,192,104600,1,0,0:0:0:0:
192,192,104760,1,0,0:0:0:0:
448,192,104839,1,0,0:0:0:0:
64,192,104919,1,0,0:0:0:0:
192,192,104919,128,0,105238:0:0:0:0:
320,192,104919,1,0,0:0:0:0:
64,192,105238,1,0,0:0:0:0:
320,192,105238,1,0,0:0:0:0:
448,192,105238,1,0,0:0:0:0:
192,192,105318,1,0,0:0:0:0:
448,192,105398,1,0,0:0:0:0:
64,192,105478,1,0,0:0:0:0:
320,192,105557,1,0,0:0:0:0:
448,192,105557,1,0,0:0:0:0:
192,192,105637,1,0,0:0:0:0:
320,192,105717,1,0,0:0:0:0:
192,192,105797,1,0,0:0:0:0:
64,192,105877,1,0,0:0:0:0:
448,192,105877,1,0,0:0:0:0:
320,192,105956,1,0,0:0:0:0:
64,192,106036,1,0,0:0:0:0:
192,192,106036,1,0,0:0:0:0:
448,192,106116,1,0,0:0:0:0:
192,192,106196,1,0,0:0:0:0:
320,192,106196,1,0,0:0:0:0:
448,192,106276,1,0,0:0:0:0:
64,192,106355,1,0,0:0:0:0:
192,192,106355,1,0,0:0:0:0:
320,192,106435,1,0,0:0:0:0:
448,192,106515,1,0,0:0:0:0:
320,192,106595,1,0,0:0:0:0:
64,192,106674,1,0,0:0:0:0:
448,192,106754,1,0,0:0:0:0:
64,192,106834,1,0,0:0:0:0:
192,192,106834,1,0,0:0:0:0:
320,192,106914,1,0,0:0:0:0:
192,192,106994,1,0,0:0:0:0:
320,192,107073,1,0,0:0:0:0:
64,192,107153,1,0,0:0:0:0:
448,192,107153,1,0,0:0:0:0:
192,192,107233,1,0,0:0:0:0:
320,192,107313,1,0,0:0:0:0:
448,192,107313,1,0,0:0:0:0:
64,192,107393,1,0,0:0:0:0:
192,192,107472,1,0,0:0:0:0:
320,192,107472,1,0,0:0:0:0:
64,192,107552,1,0,0:0:0:0:
320,192,107632,1,0,0:0:0:0:
448,192,107632,1,0,0:0:0:0:
192,192,107712,1,0,0:0:0:0:
64,192,107791,1,0,0:0:0:0:
448,192,107791,1,0,0:0:0:0:
192,192,107871,1,0,0:0:0:0:
320,192,107951,1,0,0:0:0:0:
64,192,108031,1,0,0:0:0:0:
320,192,108111,1,0,0:0:0:0:
448,192,108111,1,0,0:0:0:0:
192,192,108190,1,0,0:0:0:0:
320,192,108270,1,0,0:0:0:0:
192,192,108350,1,0,0:0:0:0:
64,192,108430,1,0,0:0:0:0:
448,192,108430,1,0,0:0:0:0:
320,192,108510,1,0,0:0:0:0:
64,192,108589,1,0,0:0:0:0:
192,192,108589,1,0,0:0:0:0:
448,192,108669,1,0,0:0:0:0:
192,192,108749,1,0,0:0:0:0:
320,192,108749,1,0,0:0:0:0:
64,192,108829,1,0,0:0:0:0:
192,192,108908,1,0,0:0:0:0:
448,192,108908,1,0,0:0:0:0:
320,192,108988,1,0,0:0:0:0:
448,192,109068,1,0,0:0:0:0:
320,192,109148,1,0,0:0:0:0:
64,192,109228,1,0,0:0:0:0:
192,192,109228,1,0,0:0:0:0:
448,192,109307,1,0,0:0:0:0:
64,192,109387,1,0,0:0:0:0:
320,192,109387,1,0,0:0:0:0:
192,192,109467,1,0,0:0:0:0:
320,192,109547,1,0,0:0:0:0:
448,192,109547,1,0,0:0:0:0:
64,192,109627,1,0,0:0:0:0:
192,192,109706,1,0,0:0:0:0:
448,192,109706,1,0,0:0:0:0:
64,192,109786,1,0,0:0:0:0:
320,192,109866,1,0,0:0:0:0:
448,192,109866,1,0,0:0:0:0:
192,192,109946,1,0,0:0:0:0:
64,192,110026,1,0,0:0:0:0:
320,192,110026,1,0,0:0:0:0:
448,192,110105,1,0,0:0:0:0:
320,192,110185,1,0,0:0:0:0:
448,192,110265,1,0,0:0:0:0:
64,192,110345,1,0,0:0:0:0:
192,192,110345,1,0,0:0:0:0:
320,192,110424,1,0,0:0:0:0:
64,192,110504,1,0,0:0:0:0:
448,192,110584,1,0,0:0:0:0:
64,192,110664,1,0,0:0:0:0:
192,192,110664,1,0,0:0:0:0:
320,192,110744,1,0,0:0:0:0:
192,192,110823,1,0,0:0:0:0:
320,192,110903,1,0,0:0:0:0:
64,192,110983,1,0,0:0:0:0:
448,192,110983,1,0,0:0:0:0:
192,192,111063,1,0,0:0:0:0:
320,192,111143,1,0,0:0:0:0:
448,192,111143,1,0,0:0:0:0:
64,192,111222,1,0,0:0:0:0:
192,192,111302,1,0,0:0:0:0:
320,192,111302,1,0,0:0:0:0:
64,192,111382,1,0,0:0:0:0:
320,192,111462,1,0,0:0:0:0:
448,192,111462,1,0,0:0:0:0:
192,192,111541,1,0,0:0:0:0:
64,192,111621,1,0,0:0:0:0:
192,192,111701,1,0,0:0:0:0:
448,192,111781,1,0,0:0:0:0:
64,192,111861,1,0,0:0:0:0:
320,192,111940,1,0,0:0:0:0:
448,192,111940,1,0,0:0:0:0:
192,192,112020,1,0,0:0:0:0:
320,192,112100,1,0,0:0:0:0:
192,192,112180,1,0,0:0:0:0:
64,192,112260,1,0,0:0:0:0:
448,192,112260,1,0,0:0:0:0:
320,192,112339,1,0,0:0:0:0:
64,192,112419,1,0,0:0:0:0:
192,192,112419,1,0,0:0:0:0:
448,192,112499,1,0,0:0:0:0:
192,192,112579,1,0,0:0:0:0:
320,192,112579,1,0,0:0:0:0:
448,192,112658,1,0,0:0:0:0:
64,192,112738,1,0,0:0:0:0:
192,192,112738,1,0,0:0:0:0:
320,192,112818,1,0,0:0:0:0:
64,192,112898,1,0,0:0:0:0:
448,192,112898,1,0,0:0:0:0:
320,192,112978,1,0,0:0:0:0:
192,192,113057,1,0,0:0:0:0:
448,192,113137,1,0,0:0:0:0:
64,192,113217,1,0,0:0:0:0:
192,192,113217,1,0,0:0:0:0:
320,192,113297,1,0,0:0:0:0:
192,192,113377,1,0,0:0:0:0:
320,192,113456,1,0,0:0:0:0:
64,192,113536,1,0,0:0:0:0:
448,192,113536,1,0,0:0:0:0:
192,192,113616,1,0,0:0:0:0:
320,192,113696,1,0,0:0:0:0:
448,192,113696,1,0,0:0:0:0:
64,192,113776,1,0,0:0:0:0:
192,192,113855,1,0,0:0:0:0:
320,192,113855,1,0,0:0:0:0:
448,192,113935,1,0,0:0:0:0:
64,192,114015,128,0,114334:0:0:0:0:
192,192,114015,128,0,114334:0:0:0:0:
320,192,114015,1,0,0:0:0:0:
320,192,114334,1,0,0:0:0:0:
448,192,114334,1,0,0:0:0:0:
64,192,114494,1,0,0:0:0:0:
192,192,114494,1,0,0:0:0:0:
192,192,114653,1,0,0:0:0:0:
320,192,114653,128,0,115291:0:0:0:0:
448,192,114653,128,0,115291:0:0:0:0:
64,192,114972,1,0,0:0:0:0:
64,192,115132,1,0,0:0:0:0:
192,192,115132,1,0,0:0:0:0:
64,192,115451,1,0,0:0:0:0:
192,192,115451,1,0,0:0:0:0:
448,192,115451,1,0,0:0:0:0:
320,192,115531,1,0,0:0:0:0:
64,192,115611,1,0,0:0:0:0:
448,192,115690,1,0,0:0:0:0:
64,192,115770,1,0,0:0:0:0:
192,192,115770,1,0,0:0:0:0:
320,192,115850,1,0,0:0:0:0:
192,192,115930,1,0,0:0:0:0:
320,192,116010,1,0,0:0:0:0:
64,192,116089,1,0,0:0:0:0:
448,192,116089,1,0,0:0:0:0:
192,192,116169,1,0,0:0:0:0:
320,192,116249,1,0,0:0:0:0:
448,192,116249,1,0,0:0:0:0:
64,192,116329,1,0,0:0:0:0:
192,192,116408,1,0,0:0:0:0:
320,192,116408,1,0,0:0:0:0:
64,192,116488,1,0,0:0:0:0:
320,192,116568,1,0,0:0:0:0:
448,192,116568,1,0,0:0:0:0:
192,192,116648,1,0,0:0:0:0:
64,192,116728,1,0,0:0:0:0:
192,192,116807,1,0,0:0:0:0:
448,192,116887,1,0,0:0:0:0:
64,192,116967,1,0,0:0:0:0:
320,192,117047,1,0,0:0:0:0:
448,192,117047,1,0,0:0:0:0:
192,192,117127,1,0,0:0:0:0:
320,192,117206,1,0,0:0:0:0:
192,192,117286,1,0,0:0:0:0:
64,192,117366,1,0,0:0:0:0:
448,192,117366,1,0,0:0:0:0:
320,192,117446,1,0,0:0:0:0:
64,192,117526,1,0,0:0:0:0:
192,192,117526,1,0,0:0:0:0:
448,192,117605,1,0,0:0:0:0:
192,192,117685,1,0,0:0:0:0:
320,192,117685,1,0,0:0:0:0:
448,192,117765,1,0,0:0:0:0:
64,192,117845,1,0,0:0:0:0:
192,192,117845,1,0,0:0:0:0:
320,192,117924,1,0,0:0:0:0:
64,192,118004,1,0,0:0:0:0:
448,192,118004,1,0,0:0:0:0:
320,192,118084,1,0,0:0:0:0:
192,192,118164,1,0,0:0:0:0:
448,192,118244,1,0,0:0:0:0:
64,192,118323,1,0,0:0:0:0:
192,192,118323,1,0,0:0:0:0:
320,192,118403,1,0,0:0:0:0:
192,192,118483,1,0,0:0:0:0:
320,192,118563,1,0,0:0:0:0:
64,192,118643,1,0,0:0:0:0:
448,192,118643,1,0,0:0:0:0:
192,192,118722,1,0,0:0:0:0:
320,192,118802,1,0,0:0:0:0:
448,192,118802,1,0,0:0:0:0:
64,192,118882,1,0,0:0:0:0:
192,192,118962,1,0,0:0:0:0:
320,192,118962,1,0,0:0:0:0:
448,192,119041,1,0,0:0:0:0:
64,192,119121,1,0,0:0:0:0:
320,192,119121,1,0,0:0:0:0:
192,192,119201,1,0,0:0:0:0:
64,192,119281,1,0,0:0:0:0:
192,192,119361,1,0,0:0:0:0:
320,192,119440,1,0,0:0:0:0:
448,192,119440,1,0,0:0:0:0:
64,192,119520,1,0,0:0:0:0:
192,192,119600,1,0,0:0:0:0:
448,192,119600,1,0,0:0:0:0:
320,192,119680,1,0,0:0:0:0:
64,192,119760,1,0,0:0:0:0:
192,192,119760,1,0,0:0:0:0:
448,192,119839,1,0,0:0:0:0:
64,192,119919,1,0,0:0:0:0:
320,192,119919,1,0,0:0:0:0:
448,192,119999,1,0,0:0:0:0:
64,192,120079,1,0,0:0:0:0:
192,192,120079,1,0,0:0:0:0:
320,192,120158,1,0,0:0:0:0:
192,192,120238,1,0,0:0:0:0:
448,192,120238,1,0,0:0:0:0:
64,192,120318,1,0,0:0:0:0:
192,192,120398,1,0,0:0:0:0:
64,192,120478,1,0,0:0:0:0:
320,192,120557,1,0,0:0:0:0:
448,192,120557,1,0,0:0:0:0:
192,192,120637,1,0,0:0:0:0:
448,192,120717,1,0,0:0:0:0:
64,192,120797,1,0,0:0:0:0:
320,192,120877,1,0,0:0:0:0:
448,192,120877,1,0,0:0:0:0:
192,192,120956,1,0,0:0:0:0:
320,192,121036,1,0,0:0:0:0:
192,192,121116,1,0,0:0:0:0:
64,192,121196,1,0,0:0:0:0:
448,192,121196,1,0,0:0:0:0:
320,192,121276,1,0,0:0:0:0:
64,192,121355,1,0,0:0:0:0:
192,192,121355,1,0,0:0:0:0:
448,192,121435,1,0,0:0:0:0:
192,192,121515,1,0,0:0:0:0:
320,192,121515,1,0,0:0:0:0:
448,192,121595,1,0,0:0:0:0:
64,192,121674,1,0,0:0:0:0:
192,192,121674,1,0,0:0:0:0:
320,192,121754,1,0,0:0:0:0:
448,192,121834,1,0,0:0:0:0:
320,192,121914,1,0,0:0:0:0:
64,192,121994,1,0,0:0:0:0:
448,192,122073,1,0,0:0:0:0:
64,192,122153,1,0,0:0:0:0:
192,192,122153,1,0,0:0:0:0:
320,192,122233,1,0,0:0:0:0:
192,192,122313,1,0,0:0:0:0:
320,192,122393,1,0,0:0:0:0:
64,192,122472,1,0,0:0:0:0:
448,192,122472,1,0,0:0:0:0:
192,192,122552,1,0,0:0:0:0:
320,192,122632,1,0,0:0:0:0:
448,192,122632,1,0,0:0:0:0:
64,192,122712,1,0,0:0:0:0:
192,192,122791,1,0,0:0:0:0:
320,192,122791,1,0,0:0:0:0:
64,192,122871,1,0,0:0:0:0:
320,192,122951,1,0,0:0:0:0:
448,192,122951,1,0,0:0:0:0:
192,192,123031,1,0,0:0:0:0:
64,192,123111,1,0,0:0:0:0:
448,192,123111,1,0,0:0:0:0:
192,192,123190,1,0,0:0:0:0:
320,192,123270,1,0,0:0:0:0:
64,192,123350,1,0,0:0:0:0:
320,192,123430,1,0,0:0:0:0:
448,192,123430,1,0,0:0:0:0:
192,192,123510,1,0,0:0:0:0:
320,192,123589,1,0,0:0:0:0:
192,192,123669,1,0,0:0:0:0:
64,192,123749,1,0,0:0:0:0:
448,192,123749,1,0,0:0:0:0:
320,192,123908,1,0,0:0:0:0:
448,192,123908,1,0,0:0:0:0:
64,192,124068,1,0,0:0:0:0:
192,192,124068,1,0,0:0:0:0:
192,192,124228,1,0,0:0:0:0:
320,192,124228,128,0,124547:0:0:0:0:
448,192,124228,128,0,124547:0:0:0:0:
64,192,124547,1,0,0:0:0:0:
192,192,124547,1,0,0:0:0:0:
320,192,124706,1,0,0:0:0:0:
448,192,124706,1,0,0:0:0:0:
64,192,124866,128,0,125504:0:0:0:0:
192,192,124866,128,0,125504:0:0:0:0:
320,192,124866,1,0,0:0:0:0:
448,192,125185,1,0,0:0:0:0:
320,192,125345,1,0,0:0:0:0:
448,192,125345,1,0,0:0:0:0:
64,192,125664,1,0,0:0:0:0:
192,192,125664,1,0,0:0:0:0:
448,192,125664,1,0,0:0:0:0:
320,192,125823,1,0,0:0:0:0:
448,192,125983,1,0,0:0:0:0:
64,192,126143,128,0,126462:0:0:0:0:
320,192,126462,1,0,0:0:0:0:
192,192,126621,128,0,126940:0:0:0:0:
448,192,126940,128,0,127260:0:0:0:0:
192,192,127260,128,0,127579:0:0:0:0:
320,192,127579,128,0,127898:0:0:0:0:
64,192,127898,128,0,128137:0:0:0:0:
64,192,128217,128,0,129174:0:0:0:0:
320,192,129174,128,0,129494:0:0:0:0:
64,192,129494,128,0,129972:0:0:0:0:
192,192,129972,128,0,130770:0:0:0:0:
320,192,130770,128,0,131089:0:0:0:0:
448,192,131089,128,0,131249:0:0:0:0:
64,192,131249,128,0,131408:0:0:0:0:
192,192,131568,128,0,131728:0:0:0:0:
320,192,131887,128,0,132047:0:0:0:0:
320,192,132206,128,0,132366:0:0:0:0:
448,192,132366,128,0,132685:0:0:0:0:
64,192,132685,128,0,132845:0:0:0:0:
192,192,133004,128,0,133164:0:0:0:0:
320,192,133323,128,0,133643:0:0:0:0:
448,192,133643,128,0,133802:0:0:0:0:
64,192,133802,128,0,133962:0:0:0:0:
192,192,134121,128,0,134440:0:0:0:0:
448,192,134440,128,0,134919:0:0:0:0:
448,192,135079,1,0,0:0:0:0:
192,192,135158,1,0,0:0:0:0:
448,192,135238,128,0,135637:0:0:0:0:
64,192,135877,1,0,0:0:0:0:
320,192,135877,1,0,0:0:0:0:
448,192,135877,1,0,0:0:0:0:
192,192,135956,1,0,0:0:0:0:
320,192,136036,1,0,0:0:0:0:
64,192,136116,1,0,0:0:0:0:
320,192,136196,1,0,0:0:0:0:
448,192,136196,1,0,0:0:0:0:
192,192,136276,1,0,0:0:0:0:
64,192,136355,1,0,0:0:0:0:
448,192,136355,1,0,0:0:0:0:
320,192,136435,1,0,0:0:0:0:
192,192,136515,1,0,0:0:0:0:
320,192,136595,1,0,0:0:0:0:
192,192,136674,1,0,0:0:0:0:
448,192,136674,1,0,0:0:0:0:
64,192,136754,1,0,0:0:0:0:
192,192,136834,1,0,0:0:0:0:
320,192,136834,1,0,0:0:0:0:
448,192,136914,1,0,0:0:0:0:
64,192,136994,1,0,0:0:0:0:
320,192,136994,1,0,0:0:0:0:
192,192,137073,1,0,0:0:0:0:
64,192,137153,1,0,0:0:0:0:
448,192,137153,1,0,0:0:0:0:
320,192,137233,1,0,0:0:0:0:
448,192,137313,1,0,0:0:0:0:
64,192,137393,1,0,0:0:0:0:
192,192,137472,1,0,0:0:0:0:
448,192,137472,1,0,0:0:0:0:
320,192,137552,1,0,0:0:0:0:
192,192,137632,1,0,0:0:0:0:
64,192,137712,1,0,0:0:0:0:
192,192,137791,1,0,0:0:0:0:
320,192,137791,1,0,0:0:0:0:
448,192,137871,1,0,0:0:0:0:
320,192,137951,1,0,0:0:0:0:
192,192,138031,1,0,0:0:0:0:
64,192,138111,1,0,0:0:0:0:
320,192,138111,1,0,0:0:0:0:
448,192,138190,1,0,0:0:0:0:
64,192,138270,1,0,0:0:0:0:
192,192,138350,1,0,0:0:0:0:
64,192,138430,1,0,0:0:0:0:
448,192,138430,1,0,0:0:0:0:
320,192,138510,1,0,0:0:0:0:
192,192,138589,1,0,0:0:0:0:
320,192,138669,1,0,0:0:0:0:
64,192,138749,1,0,0:0:0:0:
448,192,138749,1,0,0:0:0:0:
192,192,138829,1,0,0:0:0:0:
448,192,138908,1,0,0:0:0:0:
64,192,138988,1,0,0:0:0:0:
320,192,139068,1,0,0:0:0:0:
192,192,139148,1,0,0:0:0:0:
320,192,139228,1,0,0:0:0:0:
64,192,139307,1,0,0:0:0:0:
192,192,139387,1,0,0:0:0:0:
448,192,139387,1,0,0:0:0:0:
64,192,139467,1,0,0:0:0:0:
448,192,139547,1,0,0:0:0:0:
320,192,139627,1,0,0:0:0:0:
64,192,139706,1,0,0:0:0:0:
192,192,139706,1,0,0:0:0:0:
448,192,139786,1,0,0:0:0:0:
64,192,139866,1,0,0:0:0:0:
320,192,139866,1,0,0:0:0:0:
448,192,139946,1,0,0:0:0:0:
64,192,140026,1,0,0:0:0:0:
192,192,140026,1,0,0:0:0:0:
320,192,140105,1,0,0:0:0:0:
192,192,140185,1,0,0:0:0:0:
448,192,140185,1,0,0:0:0:0:
64,192,140265,1,0,0:0:0:0:
192,192,140345,1,0,0:0:0:0:
64,192,140424,1,0,0:0:0:0:
320,192,140504,1,0,0:0:0:0:
448,192,140504,1,0,0:0:0:0:
192,192,140584,1,0,0:0:0:0:
64,192,140664,1,0,0:0:0:0:
448,192,140664,1,0,0:0:0:0:
320,192,140744,1,0,0:0:0:0:
192,192,140823,1,0,0:0:0:0:
448,192,140903,1,0,0:0:0:0:
64,192,140983,1,0,0:0:0:0:
192,192,140983,1,0,0:0:0:0:
320,192,140983,1,0,0:0:0:0:
448,192,141063,1,0,0:0:0:0:
64,192,141143,1,0,0:0:0:0:
192,192,141222,1,0,0:0:0:0:
320,192,141302,1,0,0:0:0:0:
448,192,141302,1,0,0:0:0:0:
64,192,141382,1,0,0:0:0:0:
192,192,141462,1,0,0:0:0:0:
448,192,141462,1,0,0:0:0:0:
64,192,141541,1,0,0:0:0:0:
320,192,141621,1,0,0:0:0:0:
192,192,141701,1,0,0:0:0:0:
64,192,141781,1,0,0:0:0:0:
448,192,141781,1,0,0:0:0:0:
192,192,141861,1,0,0:0:0:0:
320,192,141940,1,0,0:0:0:0:
448,192,141940,1,0,0:0:0:0:
64,192,142020,1,0,0:0:0:0:
192,192,142100,1,0,0:0:0:0:
320,192,142100,1,0,0:0:0:0:
448,192,142100,1,0,0:0:0:0:
64,192,142180,1,0,0:0:0:0:
320,192,142260,1,0,0:0:0:0:
192,192,142339,1,0,0:0:0:0:
64,192,142419,1,0,0:0:0:0:
448,192,142419,1,0,0:0:0:0:
320,192,142499,1,0,0:0:0:0:
64,192,142579,1,0,0:0:0:0:
192,192,142579,1,0,0:0:0:0:
320,192,142658,1,0,0:0:0:0:
192,192,142738,1,0,0:0:0:0:
448,192,142818,1,0,0:0:0:0:
64,192,142898,1,0,0:0:0:0:
320,192,142898,1,0,0:0:0:0:
448,192,142978,1,0,0:0:0:0:
192,192,143057,1,0,0:0:0:0:
320,192,143137,1,0,0:0:0:0:
64,192,143217,1,0,0:0:0:0:
448,192,143217,1,0,0:0:0:0:
320,192,143297,1,0,0:0:0:0:
64,192,143377,1,0,0:0:0:0:
192,192,143456,1,0,0:0:0:0:
64,192,143536,1,0,0:0:0:0:
320,192,143536,1,0,0:0:0:0:
448,192,143536,1,0,0:0:0:0:
192,192,143616,1,0,0:0:0:0:
320,192,143696,1,0,0:0:0:0:
448,192,143776,1,0,0:0:0:0:
64,192,143855,1,0,0:0:0:0:
192,192,143855,1,0,0:0:0:0:
320,192,143935,1,0,0:0:0:0:
64,192,144015,1,0,0:0:0:0:
448,192,144015,1,0,0:0:0:0:
192,192,144095,1,0,0:0:0:0:
320,192,144174,1,0,0:0:0:0:
448,192,144174,1,0,0:0:0:0:
64,192,144254,1,0,0:0:0:0:
192,192,144334,1,0,0:0:0:0:
320,192,144334,1,0,0:0:0:0:
64,192,144414,1,0,0:0:0:0:
320,192,144494,1,0,0:0:0:0:
448,192,144494,1,0,0:0:0:0:
192,192,144573,1,0,0:0:0:0:
64,192,144653,1,0,0:0:0:0:
448,192,144653,1,0,0:0:0:0:
320,192,144733,1,0,0:0:0:0:
64,192,144813,128,0,145132:0:0:0:0:
192,192,144813,128,0,145132:0:0:0:0:
448,192,144813,1,0,0:0:0:0:
320,192,145132,1,0,0:0:0:0:
64,192,145291,1,0,0:0:0:0:
320,192,145291,128,0,145611:0:0:0:0:
448,192,145291,128,0,145611:0:0:0:0:
192,192,145611,1,0,0:0:0:0:
64,192,145770,128,0,145930:0:0:0:0:
192,192,145770,128,0,145930:0:0:0:0:
448,192,145770,1,0,0:0:0:0:
64,192,146089,128,0,146249:0:0:0:0:
192,192,146089,1,0,0:0:0:0:
320,192,146089,1,0,0:0:0:0:
448,192,146089,128,0,146249:0:0:0:0:
320,192,146408,1,0,0:0:0:0:
448,192,146408,1,0,0:0:0:0:
192,192,146488,1,0,0:0:0:0:
64,192,146568,1,0,0:0:0:0:
192,192,146648,1,0,0:0:0:0:
320,192,146728,1,0,0:0:0:0:
448,192,146728,1,0,0:0:0:0:
64,192,146807,1,0,0:0:0:0:
192,192,146887,1,0,0:0:0:0:
320,192,146887,1,0,0:0:0:0:
64,192,146967,1,0,0:0:0:0:
320,192,147047,1,0,0:0:0:0:
448,192,147047,1,0,0:0:0:0:
192,192,147127,1,0,0:0:0:0:
64,192,147206,1,0,0:0:0:0:
192,192,147286,1,0,0:0:0:0:
64,192,147366,1,0,0:0:0:0:
448,192,147366,1,0,0:0:0:0:
320,192,147446,1,0,0:0:0:0:
448,192,147526,1,0,0:0:0:0:
320,192,147605,1,0,0:0:0:0:
64,192,147685,1,0,0:0:0:0:
192,192,147685,1,0,0:0:0:0:
320,192,147765,1,0,0:0:0:0:
64,192,147845,1,0,0:0:0:0:
448,192,147845,1,0,0:0:0:0:
192,192,147924,1,0,0:0:0:0:
64,192,148004,1,0,0:0:0:0:
192,192,148084,1,0,0:0:0:0:
320,192,148164,1,0,0:0:0:0:
448,192,148164,1,0,0:0:0:0:
64,192,148244,1,0,0:0:0:0:
320,192,148323,1,0,0:0:0:0:
448,192,148323,1,0,0:0:0:0:
192,192,148403,1,0,0:0:0:0:
64,192,148483,1,0,0:0:0:0:
320,192,148483,1,0,0:0:0:0:
448,192,148563,1,0,0:0:0:0:
64,192,148643,1,0,0:0:0:0:
192,192,148643,1,0,0:0:0:0:
320,192,148722,1,0,0:0:0:0:
192,192,148802,1,0,0:0:0:0:
320,192,148882,1,0,0:0:0:0:
64,192,148962,1,0,0:0:0:0:
448,192,148962,1,0,0:0:0:0:
192,192,149041,1,0,0:0:0:0:
320,192,149121,1,0,0:0:0:0:
64,192,149201,1,0,0:0:0:0:
320,192,149281,1,0,0:0:0:0:
448,192,149281,1,0,0:0:0:0:
192,192,149361,1,0,0:0:0:0:
64,192,149440,1,0,0:0:0:0:
448,192,149440,1,0,0:0:0:0:
192,192,149520,1,0,0:0:0:0:
320,192,149600,1,0,0:0:0:0:
448,192,149600,1,0,0:0:0:0:
64,192,149680,1,0,0:0:0:0:
320,192,149760,1,0,0:0:0:0:
192,192,149839,1,0,0:0:0:0:
64,192,149919,1,0,0:0:0:0:
448,192,149919,1,0,0:0:0:0:
320,192,149999,1,0,0:0:0:0:
448,192,150079,1,0,0:0:0:0:
320,192,150158,1,0,0:0:0:0:
64,192,150238,1,0,0:0:0:0:
192,192,150238,1,0,0:0:0:0:
320,192,150318,1,0,0:0:0:0:
64,192,150398,1,0,0:0:0:0:
448,192,150398,1,0,0:0:0:0:
192,192,150478,1,0,0:0:0:0:
320,192,150557,1,0,0:0:0:0:
448,192,150557,1,0,0:0:0:0:
64,192,150637,1,0,0:0:0:0:
320,192,150717,1,0,0:0:0:0:
192,192,150797,1,0,0:0:0:0:
64,192,150877,1,0,0:0:0:0:
448,192,150877,1,0,0:0:0:0:
320,192,150956,1,0,0:0:0:0:
192,192,151036,1,0,0:0:0:0:
320,192,151116,1,0,0:0:0:0:
64,192,151196,128,0,151355:0:0:0:0:
192,192,151196,1,0,0:0:0:0:
448,192,151196,128,0,151355:0:0:0:0:
320,192,151515,1,0,0:0:0:0:
448,192,151515,1,0,0:0:0:0:
192,192,151595,1,0,0:0:0:0:
64,192,151674,1,0,0:0:0:0:
192,192,151754,1,0,0:0:0:0:
320,192,151834,1,0,0:0:0:0:
448,192,151834,1,0,0:0:0:0:
64,192,151914,1,0,0:0:0:0:
192,192,151994,1,0,0:0:0:0:
320,192,151994,1,0,0:0:0:0:
64,192,152073,1,0,0:0:0:0:
320,192,152153,1,0,0:0:0:0:
448,192,152153,1,0,0:0:0:0:
192,192,152233,1,0,0:0:0:0:
64,192,152313,1,0,0:0:0:0:
192,192,152393,1,0,0:0:0:0:
64,192,152472,1,0,0:0:0:0:
320,192,152472,1,0,0:0:0:0:
448,192,152552,1,0,0:0:0:0:
320,192,152632,1,0,0:0:0:0:
448,192,152712,1,0,0:0:0:0:
64,192,152791,1,0,0:0:0:0:
192,192,152791,1,0,0:0:0:0:
320,192,152871,1,0,0:0:0:0:
64,192,152951,1,0,0:0:0:0:
448,192,153031,1,0,0:0:0:0:
192,192,153111,1,0,0:0:0:0:
320,192,153111,1,0,0:0:0:0:
64,192,153190,1,0,0:0:0:0:
192,192,153270,1,0,0:0:0:0:
448,192,153270,1,0,0:0:0:0:
64,192,153350,1,0,0:0:0:0:
320,192,153430,1,0,0:0:0:0:
448,192,153430,1,0,0:0:0:0:
192,192,153510,1,0,0:0:0:0:
320,192,153589,1,0,0:0:0:0:
64,192,153669,1,0,0:0:0:0:
192,192,153749,1,0,0:0:0:0:
448,192,153749,1,0,0:0:0:0:
320,192,153829,1,0,0:0:0:0:
448,192,153908,1,0,0:0:0:0:
320,192,153988,1,0,0:0:0:0:
64,192,154068,1,0,0:0:0:0:
192,192,154068,1,0,0:0:0:0:
448,192,154148,1,0,0:0:0:0:
192,192,154228,1,0,0:0:0:0:
320,192,154228,1,0,0:0:0:0:
448,192,154307,1,0,0:0:0:0:
64,192,154387,1,0,0:0:0:0:
320,192,154467,1,0,0:0:0:0:
192,192,154547,1,0,0:0:0:0:
448,192,154627,1,0,0:0:0:0:
64,192,154706,1,0,0:0:0:0:
192,192,154706,1,0,0:0:0:0:
320,192,154786,1,0,0:0:0:0:
448,192,154866,1,0,0:0:0:0:
64,192,154946,1,0,0:0:0:0:
192,192,155026,1,0,0:0:0:0:
320,192,155026,1,0,0:0:0:0:
64,192,155105,1,0,0:0:0:0:
448,192,155185,1,0,0:0:0:0:
192,192,155265,1,0,0:0:0:0:
320,192,155345,1,0,0:0:0:0:
448,192,155345,1,0,0:0:0:0:
64,192,155424,1,0,0:0:0:0:
320,192,155504,1,0,0:0:0:0:
192,192,155584,1,0,0:0:0:0:
64,192,155664,1,0,0:0:0:0:
448,192,155664,1,0,0:0:0:0:
320,192,155744,1,0,0:0:0:0:
192,192,155823,1,0,0:0:0:0:
320,192,155903,1,0,0:0:0:0:
64,192,155983,1,0,0:0:0:0:
192,192,155983,1,0,0:0:0:0:
448,192,156063,1,0,0:0:0:0:
64,192,156143,1,0,0:0:0:0:
320,192,156222,1,0,0:0:0:0:
64,192,156302,128,0,156462:0:0:0:0:
192,192,156302,1,0,0:0:0:0:
448,192,156302,128,0,156462:0:0:0:0:
64,192,156621,1,0,0:0:0:0:
192,192,156621,1,0,0:0:0:0:
320,192,156701,1,0,0:0:0:0:
448,192,156781,1,0,0:0:0:0:
320,192,156861,1,0,0:0:0:0:
64,192,156940,1,0,0:0:0:0:
192,192,156940,1,0,0:0:0:0:
448,192,157020,1,0,0:0:0:0:
192,192,157100,1,0,0:0:0:0:
320,192,157100,1,0,0:0:0:0:
448,192,157180,1,0,0:0:0:0:
64,192,157260,1,0,0:0:0:0:
192,192,157260,1,0,0:0:0:0:
320,192,157339,1,0,0:0:0:0:
448,192,157419,1,0,0:0:0:0:
320,192,157499,1,0,0:0:0:0:
64,192,157579,1,0,0:0:0:0:
448,192,157579,1,0,0:0:0:0:
192,192,157658,1,0,0:0:0:0:
64,192,157738,1,0,0:0:0:0:
192,192,157818,1,0,0:0:0:0:
320,192,157898,1,0,0:0:0:0:
448,192,157898,1,0,0:0:0:0:
192,192,157978,1,0,0:0:0:0:
64,192,158057,1,0,0:0:0:0:
448,192,158057,1,0,0:0:0:0:
320,192,158137,1,0,0:0:0:0:
448,192,158217,1,0,0:0:0:0:
320,192,158297,1,0,0:0:0:0:
64,192,158377,1,0,0:0:0:0:
192,192,158377,1,0,0:0:0:0:
448,192,158456,1,0,0:0:0:0:
64,192,158536,1,0,0:0:0:0:
192,192,158536,1,0,0:0:0:0:
320,192,158616,1,0,0:0:0:0:
192,192,158696,1,0,0:0:0:0:
448,192,158696,1,0,0:0:0:0:
64,192,158776,1,0,0:0:0:0:
320,192,158855,1,0,0:0:0:0:
448,192,158855,1,0,0:0:0:0:
192,192,158935,1,0,0:0:0:0:
320,192,159015,1,0,0:0:0:0:
192,192,159095,1,0,0:0:0:0:
64,192,159174,1,0,0:0:0:0:
448,192,159174,1,0,0:0:0:0:
320,192,159254,1,0,0:0:0:0:
192,192,159334,1,0,0:0:0:0:
448,192,159414,1,0,0:0:0:0:
64,192,159494,1,0,0:0:0:0:
192,192,159494,1,0,0:0:0:0:
320,192,159573,1,0,0:0:0:0:
64,192,159653,1,0,0:0:0:0:
448,192,159653,1,0,0:0:0:0:
320,192,159733,1,0,0:0:0:0:
64,192,159813,1,0,0:0:0:0:
192,192,159813,1,0,0:0:0:0:
448,192,159893,1,0,0:0:0:0:
192,192,159972,1,0,0:0:0:0:
320,192,160052,1,0,0:0:0:0:
64,192,160132,1,0,0:0:0:0:
448,192,160132,1,0,0:0:0:0:
192,192,160212,1,0,0:0:0:0:
64,192,160291,1,0,0:0:0:0:
192,192,160371,1,0,0:0:0:0:
320,192,160451,1,0,0:0:0:0:
448,192,160451,1,0,0:0:0:0:
192,192,160531,1,0,0:0:0:0:
64,192,160611,1,0,0:0:0:0:
448,192,160611,1,0,0:0:0:0:
320,192,160690,1,0,0:0:0:0:
64,192,160770,1,0,0:0:0:0:
192,192,160770,1,0,0:0:0:0:
448,192,160850,1,0,0:0:0:0:
192,192,160930,1,0,0:0:0:0:
320,192,161010,1,0,0:0:0:0:
64,192,161089,1,0,0:0:0:0:
448,192,161089,1,0,0:0:0:0:
192,192,161169,1,0,0:0:0:0:
320,192,161249,1,0,0:0:0:0:
192,192,161329,1,0,0:0:0:0:
64,192,161408,128,0,161568:0:0:0:0:
320,192,161408,1,0,0:0:0:0:
448,192,161408,128,0,161568:0:0:0:0:
320,192,161728,1,0,0:0:0:0:
448,192,161728,1,0,0:0:0:0:
192,192,161807,1,0,0:0:0:0:
64,192,161887,1,0,0:0:0:0:
192,192,161967,1,0,0:0:0:0:
320,192,162047,1,0,0:0:0:0:
448,192,162047,1,0,0:0:0:0:
64,192,162127,1,0,0:0:0:0:
192,192,162206,1,0,0:0:0:0:
320,192,162206,1,0,0:0:0:0:
64,192,162286,1,0,0:0:0:0:
320,192,162366,1,0,0:0:0:0:
448,192,162366,1,0,0:0:0:0:
192,192,162446,1,0,0:0:0:0:
64,192,162526,1,0,0:0:0:0:
192,192,162605,1,0,0:0:0:0:
64,192,162685,1,0,0:0:0:0:
320,192,162685,1,0,0:0:0:0:
448,192,162765,1,0,0:0:0:0:
320,192,162845,1,0,0:0:0:0:
448,192,162924,1,0,0:0:0:0:
64,192,163004,1,0,0:0:0:0:
192,192,163004,1,0,0:0:0:0:
320,192,163084,1,0,0:0:0:0:
192,192,163164,1,0,0:0:0:0:
448,192,163164,1,0,0:0:0:0:
320,192,163244,1,0,0:0:0:0:
192,192,163323,1,0,0:0:0:0:
64,192,163323,1,0,0:0:0:0:
448,192,163403,1,0,0:0:0:0:
64,192,163483,1,0,0:0:0:0:
320,192,163563,1,0,0:0:0:0:
192,192,163643,1,0,0:0:0:0:
64,192,163643,1,0,0:0:0:0:
448,192,163643,1,0,0:0:0:0:
320,192,163722,1,0,0:0:0:0:
192,192,163802,1,0,0:0:0:0:
448,192,163882,1,0,0:0:0:0:
64,192,163962,1,0,0:0:0:0:
320,192,163962,1,0,0:0:0:0:
192,192,164041,1,0,0:0:0:0:
320,192,164121,1,0,0:0:0:0:
192,192,164201,1,0,0:0:0:0:
320,192,164281,1,0,0:0:0:0:
448,192,164281,1,0,0:0:0:0:
64,192,164361,1,0,0:0:0:0:
192,192,164440,1,0,0:0:0:0:
448,192,164440,1,0,0:0:0:0:
320,192,164520,1,0,0:0:0:0:
192,192,164600,1,0,0:0:0:0:
448,192,164680,1,0,0:0:0:0:
64,192,164760,1,0,0:0:0:0:
192,192,164760,1,0,0:0:0:0:
320,192,164839,1,0,0:0:0:0:
64,192,164919,1,0,0:0:0:0:
448,192,164919,1,0,0:0:0:0:
192,192,164999,1,0,0:0:0:0:
64,192,165079,1,0,0:0:0:0:
320,192,165079,128,0,165398:0:0:0:0:
448,192,165079,128,0,165398:0:0:0:0:
192,192,165238,1,0,0:0:0:0:
192,192,165398,1,0,0:0:0:0:
192,192,165557,1,0,0:0:0:0:
448,192,165557,1,0,0:0:0:0:
192,192,165717,1,0,0:0:0:0:
448,192,165717,1,0,0:0:0:0:
320,192,165877,1,0,0:0:0:0:
448,192,165877,1,0,0:0:0:0:
64,192,165877,128,0,166036:0:0:0:0:
192,192,166036,128,0,166196:0:0:0:0:
320,192,166196,128,0,166355:0:0:0:0:
64,192,166355,1,0,0:0:0:0:
192,192,166355,1,0,0:0:0:0:
448,192,166355,1,0,0:0:0:0:
320,192,166435,1,0,0:0:0:0:
448,192,166515,1,0,0:0:0:0:
320,192,166595,1,0,0:0:0:0:
448,192,166674,1,0,0:0:0:0:
320,192,166754,1,0,0:0:0:0:
64,192,166834,1,0,0:0:0:0:
192,192,166834,1,0,0:0:0:0:
448,192,166914,1,0,0:0:0:0:
64,192,166994,1,0,0:0:0:0:
320,192,166994,1,0,0:0:0:0:
192,192,167073,1,0,0:0:0:0:
320,192,167153,1,0,0:0:0:0:
192,192,167233,1,0,0:0:0:0:
64,192,167313,1,0,0:0:0:0:
448,192,167313,1,0,0:0:0:0:
320,192,167393,1,0,0:0:0:0:
64,192,167472,1,0,0:0:0:0:
192,192,167472,1,0,0:0:0:0:
448,192,167552,1,0,0:0:0:0:
192,192,167632,1,0,0:0:0:0:
320,192,167712,1,0,0:0:0:0:
64,192,167791,1,0,0:0:0:0:
448,192,167791,1,0,0:0:0:0:
192,192,167871,1,0,0:0:0:0:
64,192,167951,1,0,0:0:0:0:
192,192,168031,1,0,0:0:0:0:
320,192,168111,1,0,0:0:0:0:
448,192,168111,1,0,0:0:0:0:
64,192,168190,1,0,0:0:0:0:
192,192,168270,1,0,0:0:0:0:
448,192,168270,1,0,0:0:0:0:
320,192,168350,1,0,0:0:0:0:
192,192,168430,1,0,0:0:0:0:
320,192,168510,1,0,0:0:0:0:
64,192,168589,1,0,0:0:0:0:
448,192,168589,1,0,0:0:0:0:
192,192,168669,1,0,0:0:0:0:
320,192,168749,1,0,0:0:0:0:
448,192,168749,1,0,0:0:0:0:
64,192,168829,1,0,0:0:0:0:
448,192,168908,1,0,0:0:0:0:
192,192,168988,1,0,0:0:0:0:
64,192,169068,1,0,0:0:0:0:
320,192,169068,1,0,0:0:0:0:
448,192,169148,1,0,0:0:0:0:
320,192,169228,1,0,0:0:0:0:
448,192,169307,1,0,0:0:0:0:
64,192,169387,1,0,0:0:0:0:
192,192,169387,1,0,0:0:0:0:
320,192,169467,1,0,0:0:0:0:
64,192,169547,1,0,0:0:0:0:
448,192,169547,1,0,0:0:0:0:
192,192,169627,1,0,0:0:0:0:
448,192,169706,1,0,0:0:0:0:
192,192,169786,1,0,0:0:0:0:
64,192,169866,1,0,0:0:0:0:
320,192,169866,1,0,0:0:0:0:
448,192,169946,1,0,0:0:0:0:
64,192,170026,1,0,0:0:0:0:
192,192,170026,1,0,0:0:0:0:
448,192,170105,1,0,0:0:0:0:
192,192,170185,1,0,0:0:0:0:
320,192,170185,1,0,0:0:0:0:
64,192,170265,1,0,0:0:0:0:
192,192,170345,1,0,0:0:0:0:
64,192,170424,1,0,0:0:0:0:
320,192,170504,1,0,0:0:0:0:
448,192,170504,1,0,0:0:0:0:
192,192,170584,1,0,0:0:0:0:
64,192,170664,1,0,0:0:0:0:
448,192,170664,1,0,0:0:0:0:
192,192,170744,1,0,0:0:0:0:
320,192,170823,1,0,0:0:0:0:
448,192,170823,1,0,0:0:0:0:
64,192,170903,1,0,0:0:0:0:
320,192,170983,1,0,0:0:0:0:
192,192,171063,1,0,0:0:0:0:
64,192,171143,1,0,0:0:0:0:
448,192,171143,1,0,0:0:0:0:
320,192,171222,1,0,0:0:0:0:
64,192,171302,1,0,0:0:0:0:
192,192,171302,1,0,0:0:0:0:
320,192,171382,1,0,0:0:0:0:
64,192,171462,1,0,0:0:0:0:
448,192,171541,1,0,0:0:0:0:
64,192,171621,1,0,0:0:0:0:
192,192,171621,1,0,0:0:0:0:
320,192,171621,1,0,0:0:0:0:
448,192,171701,1,0,0:0:0:0:
192,192,171781,1,0,0:0:0:0:
64,192,171861,1,0,0:0:0:0:
320,192,171940,1,0,0:0:0:0:
448,192,171940,1,0,0:0:0:0:
192,192,172020,1,0,0:0:0:0:
64,192,172100,1,0,0:0:0:0:
320,192,172100,1,0,0:0:0:0:
448,192,172100,1,0,0:0:0:0:
192,192,172180,1,0,0:0:0:0:
448,192,172260,1,0,0:0:0:0:
64,192,172339,1,0,0:0:0:0:
192,192,172419,1,0,0:0:0:0:
320,192,172419,1,0,0:0:0:0:
448,192,172499,1,0,0:0:0:0:
64,192,172579,1,0,0:0:0:0:
192,192,172579,1,0,0:0:0:0:
320,192,172658,1,0,0:0:0:0:
64,192,172738,1,0,0:0:0:0:
192,192,172738,1,0,0:0:0:0:
448,192,172738,1,0,0:0:0:0:
320,192,172818,1,0,0:0:0:0:
64,192,172898,1,0,0:0:0:0:
448,192,172978,1,0,0:0:0:0:
192,192,173057,1,0,0:0:0:0:
320,192,173057,1,0,0:0:0:0:
64,192,173137,1,0,0:0:0:0:
320,192,173217,1,0,0:0:0:0:
448,192,173217,1,0,0:0:0:0:
64,192,173297,1,0,0:0:0:0:
192,192,173377,1,0,0:0:0:0:
320,192,173377,1,0,0:0:0:0:
448,192,173377,1,0,0:0:0:0:
64,192,173456,1,0,0:0:0:0:
448,192,173536,1,0,0:0:0:0:
192,192,173616,1,0,0:0:0:0:
64,192,173696,1,0,0:0:0:0:
320,192,173696,1,0,0:0:0:0:
448,192,173776,1,0,0:0:0:0:
192,192,173855,1,0,0:0:0:0:
320,192,173855,1,0,0:0:0:0:
64,192,173935,1,0,0:0:0:0:
192,192,174015,1,0,0:0:0:0:
448,192,174015,1,0,0:0:0:0:
320,192,174095,1,0,0:0:0:0:
64,192,174174,1,0,0:0:0:0:
192,192,174174,1,0,0:0:0:0:
448,192,174174,1,0,0:0:0:0:
320,192,174254,1,0,0:0:0:0:
64,192,174334,1,0,0:0:0:0:
448,192,174414,1,0,0:0:0:0:
64,192,174494,1,0,0:0:0:0:
192,192,174494,1,0,0:0:0:0:
320,192,174573,1,0,0:0:0:0:
192,192,174653,1,0,0:0:0:0:
448,192,174653,1,0,0:0:0:0:
64,192,174733,1,0,0:0:0:0:
192,192,174813,1,0,0:0:0:0:
320,192,174813,1,0,0:0:0:0:
448,192,174893,1,0,0:0:0:0:
64,192,174972,1,0,0:0:0:0:
320,192,174972,1,0,0:0:0:0:
192,192,175052,1,0,0:0:0:0:
320,192,175132,1,0,0:0:0:0:
448,192,175132,1,0,0:0:0:0:
192,192,175212,1,0,0:0:0:0:
64,192,175291,1,0,0:0:0:0:
448,192,175291,1,0,0:0:0:0:
192,192,175371,1,0,0:0:0:0:
64,192,175451,1,0,0:0:0:0:
320,192,175451,1,0,0:0:0:0:
448,192,175451,1,0,0:0:0:0:
192,192,175611,1,0,0:0:0:0:
320,192,175611,1,0,0:0:0:0:
448,192,175611,1,0,0:0:0:0:
192,192,175770,1,0,0:0:0:0:
320,192,175770,1,0,0:0:0:0:
448,192,175770,1,0,0:0:0:0:
64,192,175930,128,0,176089:0:0:0:0:
448,192,176089,128,0,176249:0:0:0:0:
320,192,176249,128,0,176408:0:0:0:0:
192,192,176408,128,0,176568:0:0:0:0:
64,192,176568,1,0,0:0:0:0:
320,192,176568,1,0,0:0:0:0:
448,192,176568,1,0,0:0:0:0:
192,192,176648,1,0,0:0:0:0:
64,192,176728,1,0,0:0:0:0:
192,192,176807,1,0,0:0:0:0:
64,192,176887,1,0,0:0:0:0:
192,192,176967,1,0,0:0:0:0:
320,192,177047,1,0,0:0:0:0:
448,192,177047,1,0,0:0:0:0:
64,192,177127,1,0,0:0:0:0:
192,192,177206,1,0,0:0:0:0:
448,192,177206,1,0,0:0:0:0:
320,192,177286,1,0,0:0:0:0:
192,192,177366,1,0,0:0:0:0:
320,192,177446,1,0,0:0:0:0:
64,192,177526,1,0,0:0:0:0:
448,192,177526,1,0,0:0:0:0:
192,192,177605,1,0,0:0:0:0:
320,192,177685,1,0,0:0:0:0:
448,192,177685,1,0,0:0:0:0:
64,192,177765,1,0,0:0:0:0:
320,192,177845,1,0,0:0:0:0:
192,192,177924,1,0,0:0:0:0:
64,192,178004,1,0,0:0:0:0:
448,192,178004,1,0,0:0:0:0:
320,192,178084,1,0,0:0:0:0:
448,192,178164,1,0,0:0:0:0:
320,192,178244,1,0,0:0:0:0:
64,192,178323,1,0,0:0:0:0:
192,192,178323,1,0,0:0:0:0:
448,192,178403,1,0,0:0:0:0:
64,192,178483,1,0,0:0:0:0:
320,192,178483,1,0,0:0:0:0:
192,192,178563,1,0,0:0:0:0:
320,192,178643,1,0,0:0:0:0:
192,192,178722,1,0,0:0:0:0:
64,192,178802,1,0,0:0:0:0:
448,192,178802,1,0,0:0:0:0:
320,192,178882,1,0,0:0:0:0:
64,192,178962,1,0,0:0:0:0:
192,192,178962,1,0,0:0:0:0:
448,192,179041,1,0,0:0:0:0:
64,192,179121,1,0,0:0:0:0:
320,192,179201,1,0,0:0:0:0:
192,192,179281,1,0,0:0:0:0:
448,192,179281,1,0,0:0:0:0:
64,192,179361,1,0,0:0:0:0:
192,192,179440,1,0,0:0:0:0:
64,192,179520,1,0,0:0:0:0:
320,192,179600,1,0,0:0:0:0:
448,192,179600,1,0,0:0:0:0:
192,192,179680,1,0,0:0:0:0:
64,192,179760,1,0,0:0:0:0:
448,192,179760,1,0,0:0:0:0:
320,192,179839,1,0,0:0:0:0:
64,192,179919,1,0,0:0:0:0:
320,192,179999,1,0,0:0:0:0:
192,192,180079,1,0,0:0:0:0:
448,192,180079,1,0,0:0:0:0:
64,192,180158,1,0,0:0:0:0:
320,192,180238,1,0,0:0:0:0:
448,192,180238,1,0,0:0:0:0:
64,192,180318,1,0,0:0:0:0:
192,192,180398,1,0,0:0:0:0:
320,192,180398,1,0,0:0:0:0:
448,192,180478,1,0,0:0:0:0:
320,192,180557,1,0,0:0:0:0:
448,192,180637,1,0,0:0:0:0:
64,192,180717,1,0,0:0:0:0:
192,192,180717,1,0,0:0:0:0:
320,192,180797,1,0,0:0:0:0:
64,192,180877,1,0,0:0:0:0:
448,192,180877,1,0,0:0:0:0:
192,192,180956,1,0,0:0:0:0:
320,192,181036,1,0,0:0:0:0:
448,192,181036,1,0,0:0:0:0:
192,192,181116,1,0,0:0:0:0:
64,192,181196,1,0,0:0:0:0:
320,192,181276,1,0,0:0:0:0:
64,192,181355,1,0,0:0:0:0:
448,192,181355,1,0,0:0:0:0:
192,192,181435,1,0,0:0:0:0:
320,192,181515,1,0,0:0:0:0:
448,192,181515,1,0,0:0:0:0:
192,192,181595,1,0,0:0:0:0:
448,192,181674,1,0,0:0:0:0:
64,192,181754,1,0,0:0:0:0:
192,192,181834,1,0,0:0:0:0:
320,192,181834,1,0,0:0:0:0:
448,192,181834,1,0,0:0:0:0:
64,192,181914,1,0,0:0:0:0:
320,192,181994,1,0,0:0:0:0:
448,192,182073,1,0,0:0:0:0:
64,192,182153,1,0,0:0:0:0:
192,192,182153,1,0,0:0:0:0:
320,192,182233,1,0,0:0:0:0:
64,192,182313,1,0,0:0:0:0:
192,192,182313,1,0,0:0:0:0:
448,192,182313,1,0,0:0:0:0:
320,192,182393,1,0,0:0:0:0:
64,192,182472,1,0,0:0:0:0:
192,192,182552,1,0,0:0:0:0:
320,192,182632,1,0,0:0:0:0:
448,192,182632,1,0,0:0:0:0:
192,192,182712,1,0,0:0:0:0:
64,192,182791,1,0,0:0:0:0:
320,192,182791,1,0,0:0:0:0:
448,192,182871,1,0,0:0:0:0:
64,192,182951,1,0,0:0:0:0:
192,192,182951,1,0,0:0:0:0:
320,192,182951,1,0,0:0:0:0:
448,192,183031,1,0,0:0:0:0:
192,192,183111,1,0,0:0:0:0:
320,192,183190,1,0,0:0:0:0:
64,192,183270,1,0,0:0:0:0:
448,192,183270,1,0,0:0:0:0:
192,192,183350,1,0,0:0:0:0:
320,192,183430,1,0,0:0:0:0:
448,192,183430,1,0,0:0:0:0:
192,192,183510,1,0,0:0:0:0:
64,192,183589,1,0,0:0:0:0:
320,192,183589,1,0,0:0:0:0:
448,192,183589,1,0,0:0:0:0:
192,192,183669,1,0,0:0:0:0:
64,192,183749,1,0,0:0:0:0:
448,192,183829,1,0,0:0:0:0:
64,192,183908,1,0,0:0:0:0:
320,192,183908,1,0,0:0:0:0:
192,192,183988,1,0,0:0:0:0:
320,192,184068,1,0,0:0:0:0:
448,192,184068,1,0,0:0:0:0:
64,192,184148,1,0,0:0:0:0:
192,192,184228,1,0,0:0:0:0:
320,192,184228,1,0,0:0:0:0:
448,192,184307,1,0,0:0:0:0:
64,192,184387,1,0,0:0:0:0:
192,192,184387,1,0,0:0:0:0:
320,192,184467,1,0,0:0:0:0:
64,192,184547,1,0,0:0:0:0:
320,192,184627,1,0,0:0:0:0:
64,192,184706,1,0,0:0:0:0:
448,192,184706,1,0,0:0:0:0:
192,192,184786,1,0,0:0:0:0:
320,192,184866,1,0,0:0:0:0:
64,192,184946,1,0,0:0:0:0:
320,192,185026,1,0,0:0:0:0:
448,192,185026,1,0,0:0:0:0:
192,192,185105,1,0,0:0:0:0:
448,192,185185,1,0,0:0:0:0:
192,192,185265,1,0,0:0:0:0:
64,192,185345,1,0,0:0:0:0:
448,192,185345,1,0,0:0:0:0:
320,192,185424,1,0,0:0:0:0:
192,192,185504,1,0,0:0:0:0:
448,192,185584,1,0,0:0:0:0:
64,192,185664,1,0,0:0:0:0:
192,192,185664,1,0,0:0:0:0:
320,192,185744,1,0,0:0:0:0:
64,192,185823,1,0,0:0:0:0:
192,192,185903,1,0,0:0:0:0:
64,192,185983,1,0,0:0:0:0:
448,192,185983,1,0,0:0:0:0:
320,192,186063,1,0,0:0:0:0:
448,192,186143,1,0,0:0:0:0:
64,192,186222,1,0,0:0:0:0:
192,192,186302,1,0,0:0:0:0:
448,192,186302,1,0,0:0:0:0:
320,192,186382,1,0,0:0:0:0:
64,192,186462,1,0,0:0:0:0:
192,192,186462,1,0,0:0:0:0:
448,192,186541,1,0,0:0:0:0:
192,192,186621,1,0,0:0:0:0:
320,192,186621,1,0,0:0:0:0:
64,192,186701,1,0,0:0:0:0:
320,192,186781,1,0,0:0:0:0:
448,192,186781,1,0,0:0:0:0:
192,192,186861,1,0,0:0:0:0:
64,192,186940,1,0,0:0:0:0:
320,192,186940,1,0,0:0:0:0:
448,192,187020,1,0,0:0:0:0:
320,192,187100,1,0,0:0:0:0:
448,192,187180,1,0,0:0:0:0:
64,192,187260,1,0,0:0:0:0:
192,192,187260,1,0,0:0:0:0:
320,192,187339,1,0,0:0:0:0:
192,192,187419,1,0,0:0:0:0:
448,192,187419,1,0,0:0:0:0:
64,192,187499,1,0,0:0:0:0:
448,192,187579,1,0,0:0:0:0:
64,192,187658,1,0,0:0:0:0:
192,192,187738,1,0,0:0:0:0:
320,192,187738,1,0,0:0:0:0:
448,192,187818,1,0,0:0:0:0:
64,192,187898,1,0,0:0:0:0:
192,192,187898,1,0,0:0:0:0:
320,192,187978,1,0,0:0:0:0:
64,192,188057,1,0,0:0:0:0:
448,192,188137,1,0,0:0:0:0:
192,192,188217,1,0,0:0:0:0:
320,192,188217,1,0,0:0:0:0:
64,192,188297,1,0,0:0:0:0:
192,192,188377,1,0,0:0:0:0:
64,192,188456,1,0,0:0:0:0:
320,192,188536,1,0,0:0:0:0:
448,192,188536,1,0,0:0:0:0:
192,192,188616,1,0,0:0:0:0:
64,192,188696,1,0,0:0:0:0:
320,192,188696,1,0,0:0:0:0:
448,192,188776,1,0,0:0:0:0:
64,192,188855,1,0,0:0:0:0:
448,192,188935,1,0,0:0:0:0:
192,192,189015,1,0,0:0:0:0:
320,192,189015,1,0,0:0:0:0:
64,192,189095,1,0,0:0:0:0:
320,192,189174,1,0,0:0:0:0:
448,192,189174,1,0,0:0:0:0:
192,192,189254,1,0,0:0:0:0:
320,192,189334,1,0,0:0:0:0:
64,192,189414,1,0,0:0:0:0:
192,192,189494,1,0,0:0:0:0:
448,192,189494,1,0,0:0:0:0:
320,192,189573,1,0,0:0:0:0:
448,192,189653,1,0,0:0:0:0:
320,192,189733,1,0,0:0:0:0:
64,192,189813,1,0,0:0:0:0:
192,192,189813,1,0,0:0:0:0:
448,192,189893,1,0,0:0:0:0:
192,192,189972,1,0,0:0:0:0:
320,192,189972,1,0,0:0:0:0:
64,192,190052,1,0,0:0:0:0:
320,192,190132,1,0,0:0:0:0:
64,192,190212,1,0,0:0:0:0:
192,192,190291,1,0,0:0:0:0:
448,192,190291,1,0,0:0:0:0:
320,192,190371,1,0,0:0:0:0:
64,192,190451,1,0,0:0:0:0:
192,192,190451,1,0,0:0:0:0:
320,192,190531,1,0,0:0:0:0:
64,192,190611,1,0,0:0:0:0:
448,192,190611,1,0,0:0:0:0:
192,192,190690,1,0,0:0:0:0:
64,192,190770,1,0,0:0:0:0:
192,192,190850,1,0,0:0:0:0:
320,192,190930,1,0,0:0:0:0:
448,192,190930,1,0,0:0:0:0:
64,192,191010,1,0,0:0:0:0:
192,192,191089,1,0,0:0:0:0:
320,192,191089,1,0,0:0:0:0:
64,192,191169,1,0,0:0:0:0:
320,192,191249,1,0,0:0:0:0:
448,192,191249,1,0,0:0:0:0:
192,192,191329,1,0,0:0:0:0:
448,192,191408,1,0,0:0:0:0:
64,192,191488,1,0,0:0:0:0:
192,192,191568,1,0,0:0:0:0:
320,192,191568,1,0,0:0:0:0:
448,192,191648,1,0,0:0:0:0:
64,192,191728,1,0,0:0:0:0:
192,192,191728,1,0,0:0:0:0:
448,192,191807,1,0,0:0:0:0:
192,192,191887,1,0,0:0:0:0:
320,192,191967,1,0,0:0:0:0:
64,192,192047,1,0,0:0:0:0:
192,192,192047,1,0,0:0:0:0:
448,192,192047,1,0,0:0:0:0:
320,192,192127,1,0,0:0:0:0:
64,192,192206,1,0,0:0:0:0:
192,192,192286,1,0,0:0:0:0:
320,192,192366,1,0,0:0:0:0:
448,192,192366,1,0,0:0:0:0:
64,192,192446,1,0,0:0:0:0:
192,192,192526,1,0,0:0:0:0:
320,192,192526,1,0,0:0:0:0:
448,192,192526,1,0,0:0:0:0:
64,192,192605,1,0,0:0:0:0:
320,192,192685,1,0,0:0:0:0:
192,192,192765,1,0,0:0:0:0:
64,192,192845,1,0,0:0:0:0:
448,192,192845,1,0,0:0:0:0:
320,192,192924,1,0,0:0:0:0:
64,192,193004,1,0,0:0:0:0:
192,192,193004,1,0,0:0:0:0:
448,192,193084,1,0,0:0:0:0:
64,192,193164,1,0,0:0:0:0:
192,192,193164,1,0,0:0:0:0:
320,192,193164,1,0,0:0:0:0:
448,192,193244,1,0,0:0:0:0:
192,192,193323,1,0,0:0:0:0:
320,192,193403,1,0,0:0:0:0:
64,192,193483,1,0,0:0:0:0:
448,192,193483,1,0,0:0:0:0:
192,192,193563,1,0,0:0:0:0:
320,192,193643,1,0,0:0:0:0:
448,192,193643,1,0,0:0:0:0:
192,192,193722,1,0,0:0:0:0:
64,192,193802,1,0,0:0:0:0:
320,192,193802,1,0,0:0:0:0:
448,192,193802,1,0,0:0:0:0:
192,192,193882,1,0,0:0:0:0:
320,192,193962,1,0,0:0:0:0:
64,192,194041,1,0,0:0:0:0:
192,192,194121,1,0,0:0:0:0:
448,192,194121,1,0,0:0:0:0:
320,192,194201,1,0,0:0:0:0:
64,192,194281,1,0,0:0:0:0:
448,192,194281,1,0,0:0:0:0:
192,192,194361,1,0,0:0:0:0:
64,192,194440,1,0,0:0:0:0:
320,192,194440,1,0,0:0:0:0:
448,192,194520,1,0,0:0:0:0:
64,192,194600,1,0,0:0:0:0:
192,192,194600,1,0,0:0:0:0:
320,192,194600,1,0,0:0:0:0:
448,192,194680,1,0,0:0:0:0:
192,192,194760,1,0,0:0:0:0:
320,192,194839,1,0,0:0:0:0:
64,192,194919,1,0,0:0:0:0:
192,192,194919,1,0,0:0:0:0:
448,192,194999,1,0,0:0:0:0:
64,192,195079,1,0,0:0:0:0:
320,192,195079,1,0,0:0:0:0:
192,192,195158,1,0,0:0:0:0:
64,192,195238,1,0,0:0:0:0:
448,192,195238,1,0,0:0:0:0:
320,192,195318,1,0,0:0:0:0:
192,192,195398,1,0,0:0:0:0:
448,192,195398,1,0,0:0:0:0:
64,192,195478,1,0,0:0:0:0:
320,192,195557,1,0,0:0:0:0:
448,192,195557,1,0,0:0:0:0:
64,192,195637,1,0,0:0:0:0:
192,192,195717,1,0,0:0:0:0:
320,192,195717,1,0,0:0:0:0:
64,192,195797,1,0,0:0:0:0:
192,192,195877,1,0,0:0:0:0:
320,192,195877,1,0,0:0:0:0:
448,192,195877,1,0,0:0:0:0:
64,192,196036,1,0,0:0:0:0:
320,192,196036,1,0,0:0:0:0:
448,192,196036,1,0,0:0:0:0:
64,192,196196,1,0,0:0:0:0:
320,192,196196,1,0,0:0:0:0:
448,192,196196,1,0,0:0:0:0:
192,192,196355,128,0,196515:0:0:0:0:
448,192,196515,128,0,196674:0:0:0:0:
320,192,196674,128,0,196834:0:0:0:0:
64,192,196834,128,0,196994:0:0:0:0:
192,192,196994,1,0,0:0:0:0:
320,192,196994,1,0,0:0:0:0:
448,192,196994,1,0,0:0:0:0:
64,192,197073,1,0,0:0:0:0:
192,192,197153,1,0,0:0:0:0:
64,192,197233,1,0,0:0:0:0:
192,192,197313,1,0,0:0:0:0:
64,192,197393,1,0,0:0:0:0:
320,192,197472,1,0,0:0:0:0:
448,192,197472,1,0,0:0:0:0:
192,192,197552,1,0,0:0:0:0:
64,192,197632,1,0,0:0:0:0:
320,192,197632,1,0,0:0:0:0:
448,192,197712,1,0,0:0:0:0:
64,192,197791,1,0,0:0:0:0:
448,192,197871,1,0,0:0:0:0:
192,192,197951,1,0,0:0:0:0:
320,192,197951,1,0,0:0:0:0:
64,192,198031,1,0,0:0:0:0:
320,192,198111,1,0,0:0:0:0:
448,192,198111,1,0,0:0:0:0:
192,192,198190,1,0,0:0:0:0:
448,192,198270,1,0,0:0:0:0:
64,192,198350,1,0,0:0:0:0:
192,192,198430,1,0,0:0:0:0:
320,192,198430,1,0,0:0:0:0:
448,192,198510,1,0,0:0:0:0:
320,192,198589,1,0,0:0:0:0:
448,192,198669,1,0,0:0:0:0:
64,192,198749,1,0,0:0:0:0:
192,192,198749,1,0,0:0:0:0:
320,192,198829,1,0,0:0:0:0:
192,192,198908,1,0,0:0:0:0:
448,192,198908,1,0,0:0:0:0:
64,192,198988,1,0,0:0:0:0:
448,192,199068,1,0,0:0:0:0:
64,192,199148,1,0,0:0:0:0:
192,192,199228,1,0,0:0:0:0:
320,192,199228,1,0,0:0:0:0:
448,192,199307,1,0,0:0:0:0:
64,192,199387,1,0,0:0:0:0:
192,192,199387,1,0,0:0:0:0:
320,192,199467,1,0,0:0:0:0:
192,192,199547,1,0,0:0:0:0:
448,192,199627,1,0,0:0:0:0:
64,192,199706,1,0,0:0:0:0:
320,192,199706,1,0,0:0:0:0:
192,192,199786,1,0,0:0:0:0:
64,192,199866,1,0,0:0:0:0:
192,192,199946,1,0,0:0:0:0:
320,192,200026,1,0,0:0:0:0:
448,192,200026,1,0,0:0:0:0:
64,192,200105,1,0,0:0:0:0:
192,192,200185,1,0,0:0:0:0:
320,192,200185,1,0,0:0:0:0:
448,192,200265,1,0,0:0:0:0:
192,192,200345,1,0,0:0:0:0:
448,192,200424,1,0,0:0:0:0:
64,192,200504,1,0,0:0:0:0:
320,192,200504,1,0,0:0:0:0:
192,192,200584,1,0,0:0:0:0:
320,192,200664,1,0,0:0:0:0:
448,192,200664,1,0,0:0:0:0:
192,192,200744,1,0,0:0:0:0:
64,192,200823,1,0,0:0:0:0:
448,192,200823,1,0,0:0:0:0:
320,192,200903,1,0,0:0:0:0:
448,192,200983,1,0,0:0:0:0:
320,192,201063,1,0,0:0:0:0:
64,192,201143,1,0,0:0:0:0:
192,192,201143,1,0,0:0:0:0:
448,192,201222,1,0,0:0:0:0:
192,192,201302,1,0,0:0:0:0:
320,192,201302,1,0,0:0:0:0:
64,192,201382,1,0,0:0:0:0:
320,192,201462,1,0,0:0:0:0:
448,192,201462,1,0,0:0:0:0:
64,192,201541,1,0,0:0:0:0:
192,192,201621,1,0,0:0:0:0:
448,192,201701,1,0,0:0:0:0:
192,192,201781,1,0,0:0:0:0:
320,192,201781,1,0,0:0:0:0:
64,192,201861,1,0,0:0:0:0:
320,192,201940,1,0,0:0:0:0:
448,192,201940,1,0,0:0:0:0:
64,192,202020,1,0,0:0:0:0:
320,192,202100,1,0,0:0:0:0:
192,192,202180,1,0,0:0:0:0:
64,192,202260,1,0,0:0:0:0:
320,192,202260,1,0,0:0:0:0:
448,192,202260,1,0,0:0:0:0:
192,192,202339,1,0,0:0:0:0:
448,192,202419,1,0,0:0:0:0:
320,192,202499,1,0,0:0:0:0:
64,192,202579,1,0,0:0:0:0:
192,192,202579,1,0,0:0:0:0:
448,192,202658,1,0,0:0:0:0:
64,192,202738,1,0,0:0:0:0:
192,192,202738,1,0,0:0:0:0:
320,192,202738,1,0,0:0:0:0:
448,192,202818,1,0,0:0:0:0:
192,192,202898,1,0,0:0:0:0:
64,192,202978,1,0,0:0:0:0:
320,192,203057,1,0,0:0:0:0:
448,192,203057,1,0,0:0:0:0:
64,192,203137,1,0,0:0:0:0:
192,192,203217,1,0,0:0:0:0:
448,192,203217,1,0,0:0:0:0:
320,192,203297,1,0,0:0:0:0:
64,192,203377,1,0,0:0:0:0:
192,192,203377,1,0,0:0:0:0:
448,192,203377,1,0,0:0:0:0:
320,192,203456,1,0,0:0:0:0:
64,192,203536,1,0,0:0:0:0:
448,192,203616,1,0,0:0:0:0:
192,192,203696,1,0,0:0:0:0:
320,192,203696,1,0,0:0:0:0:
64,192,203776,1,0,0:0:0:0:
320,192,203855,1,0,0:0:0:0:
448,192,203855,1,0,0:0:0:0:
64,192,203935,1,0,0:0:0:0:
192,192,204015,1,0,0:0:0:0:
320,192,204015,1,0,0:0:0:0:
448,192,204015,1,0,0:0:0:0:
64,192,204095,1,0,0:0:0:0:
192,192,204174,1,0,0:0:0:0:
320,192,204254,1,0,0:0:0:0:
192,192,204334,1,0,0:0:0:0:
448,192,204334,1,0,0:0:0:0:
64,192,204414,1,0,0:0:0:0:
320,192,204494,1,0,0:0:0:0:
448,192,204494,1,0,0:0:0:0:
192,192,204573,1,0,0:0:0:0:
64,192,204653,1,0,0:0:0:0:
448,192,204653,1,0,0:0:0:0:
320,192,204733,1,0,0:0:0:0:
64,192,204813,1,0,0:0:0:0:
192,192,204813,1,0,0:0:0:0:
448,192,204893,1,0,0:0:0:0:
192,192,204972,1,0,0:0:0:0:
448,192,205052,1,0,0:0:0:0:
192,192,205132,1,0,0:0:0:0:
320,192,205132,1,0,0:0:0:0:
64,192,205212,1,0,0:0:0:0:
448,192,205291,1,0,0:0:0:0:
192,192,205371,1,0,0:0:0:0:
320,192,205451,1,0,0:0:0:0:
448,192,205451,1,0,0:0:0:0:
64,192,205531,1,0,0:0:0:0:
320,192,205611,1,0,0:0:0:0:
64,192,205690,1,0,0:0:0:0:
192,192,205770,1,0,0:0:0:0:
320,192,205770,1,0,0:0:0:0:
448,192,205850,1,0,0:0:0:0:
64,192,205930,1,0,0:0:0:0:
320,192,206010,1,0,0:0:0:0:
64,192,206089,1,0,0:0:0:0:
192,192,206089,1,0,0:0:0:0:
448,192,206089,1,0,0:0:0:0:
320,192,206169,1,0,0:0:0:0:
192,192,206249,1,0,0:0:0:0:
64,192,206329,1,0,0:0:0:0:
192,192,206408,1,0,0:0:0:0:
320,192,206408,1,0,0:0:0:0:
448,192,206488,1,0,0:0:0:0:
320,192,206568,1,0,0:0:0:0:
192,192,206648,1,0,0:0:0:0:
64,192,206728,1,0,0:0:0:0:
320,192,206728,1,0,0:0:0:0:
448,192,206807,1,0,0:0:0:0:
64,192,206887,1,0,0:0:0:0:
192,192,206887,1,0,0:0:0:0:
320,192,206967,1,0,0:0:0:0:
64,192,207047,1,0,0:0:0:0:
448,192,207047,1,0,0:0:0:0:
192,192,207127,1,0,0:0:0:0:
320,192,207206,1,0,0:0:0:0:
448,192,207206,1,0,0:0:0:0:
192,192,207286,1,0,0:0:0:0:
64,192,207366,1,0,0:0:0:0:
320,192,207366,1,0,0:0:0:0:
448,192,207366,1,0,0:0:0:0:
192,192,207446,1,0,0:0:0:0:
64,192,207526,1,0,0:0:0:0:
448,192,207526,1,0,0:0:0:0:
320,192,207605,1,0,0:0:0:0:
64,192,207685,1,0,0:0:0:0:
192,192,207685,1,0,0:0:0:0:
448,192,207765,1,0,0:0:0:0:
192,192,207845,1,0,0:0:0:0:
320,192,207924,1,0,0:0:0:0:
64,192,208004,1,0,0:0:0:0:
192,192,208004,1,0,0:0:0:0:
448,192,208004,1,0,0:0:0:0:
320,192,208084,1,0,0:0:0:0:
64,192,208164,1,0,0:0:0:0:
448,192,208164,1,0,0:0:0:0:
192,192,208244,1,0,0:0:0:0:
320,192,208323,1,0,0:0:0:0:
448,192,208323,1,0,0:0:0:0:
64,192,208403,1,0,0:0:0:0:
192,192,208483,1,0,0:0:0:0:
320,192,208483,1,0,0:0:0:0:
448,192,208483,1,0,0:0:0:0:
64,192,208563,1,0,0:0:0:0:
320,192,208643,1,0,0:0:0:0:
192,192,208722,1,0,0:0:0:0:
64,192,208802,1,0,0:0:0:0:
448,192,208802,1,0,0:0:0:0:
320,192,208882,1,0,0:0:0:0:
64,192,208962,1,0,0:0:0:0:
192,192,208962,1,0,0:0:0:0:
448,192,209041,1,0,0:0:0:0:
64,192,209121,1,0,0:0:0:0:
192,192,209121,1,0,0:0:0:0:
320,192,209121,1,0,0:0:0:0:
448,192,209201,1,0,0:0:0:0:
192,192,209281,1,0,0:0:0:0:
320,192,209361,1,0,0:0:0:0:
64,192,209440,1,0,0:0:0:0:
192,192,209520,1,0,0:0:0:0:
64,192,209600,1,0,0:0:0:0:
448,192,209600,1,0,0:0:0:0:
320,192,209680,1,0,0:0:0:0:
448,192,209760,1,0,0:0:0:0:
192,192,209839,1,0,0:0:0:0:
64,192,209919,1,0,0:0:0:0:
320,192,209919,1,0,0:0:0:0:
448,192,209919,1,0,0:0:0:0:
192,192,209999,1,0,0:0:0:0:
320,192,210079,1,0,0:0:0:0:
448,192,210158,1,0,0:0:0:0:
64,192,210238,1,0,0:0:0:0:
192,192,210238,1,0,0:0:0:0:
448,192,210318,1,0,0:0:0:0:
64,192,210398,1,0,0:0:0:0:
320,192,210398,1,0,0:0:0:0:
192,192,210478,1,0,0:0:0:0:
320,192,210557,1,0,0:0:0:0:
192,192,210637,1,0,0:0:0:0:
64,192,210717,1,0,0:0:0:0:
448,192,210717,1,0,0:0:0:0:
320,192,210797,1,0,0:0:0:0:
64,192,210877,1,0,0:0:0:0:
192,192,210877,1,0,0:0:0:0:
448,192,210956,1,0,0:0:0:0:
64,192,211036,1,0,0:0:0:0:
192,192,211036,128,0,211355:0:0:0:0:
320,192,211036,128,0,211355:0:0:0:0:
448,192,211355,1,0,0:0:0:0:
64,192,211515,128,0,211674:0:0:0:0:
192,192,211515,128,0,211674:0:0:0:0:
448,192,211515,1,0,0:0:0:0:
320,192,211674,1,0,0:0:0:0:
192,192,211834,128,0,211994:0:0:0:0:
320,192,211834,128,0,211994:0:0:0:0:
448,192,211834,1,0,0:0:0:0:
64,192,211994,1,0,0:0:0:0:
64,192,212153,1,0,0:0:0:0:
320,192,212153,128,0,212313:0:0:0:0:
448,192,212153,128,0,212313:0:0:0:0:
64,192,212472,1,0,0:0:0:0:
448,192,212472,1,0,0:0:0:0:
192,192,212472,1,0,0:0:0:0:
320,192,212552,1,0,0:0:0:0:
64,192,212632,1,0,0:0:0:0:
448,192,212712,1,0,0:0:0:0:
192,192,212791,1,0,0:0:0:0:
320,192,212791,1,0,0:0:0:0:
448,192,212871,1,0,0:0:0:0:
64,192,212951,1,0,0:0:0:0:
320,192,213031,1,0,0:0:0:0:
64,192,213111,1,0,0:0:0:0:
448,192,213190,1,0,0:0:0:0:
192,192,213270,1,0,0:0:0:0:
320,192,213270,1,0,0:0:0:0:
448,192,213350,1,0,0:0:0:0:
64,192,213430,1,0,0:0:0:0:
192,192,213430,1,0,0:0:0:0:
320,192,213510,1,0,0:0:0:0:
64,192,213589,1,0,0:0:0:0:
448,192,213669,1,0,0:0:0:0:
192,192,213749,1,0,0:0:0:0:
320,192,213749,1,0,0:0:0:0:
448,192,213829,1,0,0:0:0:0:
64,192,213908,1,0,0:0:0:0:
320,192,213988,1,0,0:0:0:0:
64,192,214068,1,0,0:0:0:0:
192,192,214068,1,0,0:0:0:0:
448,192,214148,1,0,0:0:0:0:
192,192,214228,1,0,0:0:0:0:
320,192,214228,1,0,0:0:0:0:
448,192,214307,1,0,0:0:0:0:
64,192,214387,1,0,0:0:0:0:
320,192,214467,1,0,0:0:0:0:
64,192,214547,1,0,0:0:0:0:
448,192,214627,1,0,0:0:0:0:
192,192,214706,1,0,0:0:0:0:
320,192,214706,1,0,0:0:0:0:
448,192,214786,1,0,0:0:0:0:
64,192,214866,1,0,0:0:0:0:
192,192,214946,1,0,0:0:0:0:
320,192,215026,1,0,0:0:0:0:
448,192,215026,1,0,0:0:0:0:
192,192,215105,1,0,0:0:0:0:
448,192,215185,1,0,0:0:0:0:
64,192,215265,1,0,0:0:0:0:
192,192,215345,1,0,0:0:0:0:
320,192,215345,1,0,0:0:0:0:
64,192,215424,1,0,0:0:0:0:
448,192,215504,1,0,0:0:0:0:
192,192,215584,1,0,0:0:0:0:
448,192,215664,1,0,0:0:0:0:
64,192,215744,1,0,0:0:0:0:
192,192,215823,1,0,0:0:0:0:
320,192,215823,1,0,0:0:0:0:
64,192,215903,1,0,0:0:0:0:
320,192,215983,1,0,0:0:0:0:
448,192,215983,1,0,0:0:0:0:
192,192,216063,1,0,0:0:0:0:
448,192,216143,1,0,0:0:0:0:
64,192,216222,1,0,0:0:0:0:
192,192,216302,1,0,0:0:0:0:
320,192,216302,1,0,0:0:0:0:
64,192,216382,1,0,0:0:0:0:
448,192,216462,1,0,0:0:0:0:
192,192,216541,1,0,0:0:0:0:
320,192,216621,1,0,0:0:0:0:
448,192,216621,1,0,0:0:0:0:
64,192,216701,1,0,0:0:0:0:
192,192,216781,1,0,0:0:0:0:
320,192,216781,1,0,0:0:0:0:
64,192,216861,1,0,0:0:0:0:
448,192,216940,1,0,0:0:0:0:
192,192,217020,1,0,0:0:0:0:
320,192,217100,1,0,0:0:0:0:
448,192,217100,1,0,0:0:0:0:
64,192,217180,1,0,0:0:0:0:
192,192,217260,1,0,0:0:0:0:
320,192,217260,1,0,0:0:0:0:
448,192,217339,1,0,0:0:0:0:
64,192,217419,1,0,0:0:0:0:
192,192,217419,1,0,0:0:0:0:
320,192,217499,1,0,0:0:0:0:
64,192,217579,1,0,0:0:0:0:
192,192,217579,1,0,0:0:0:0:
448,192,217579,1,0,0:0:0:0:
320,192,217658,1,0,0:0:0:0:
192,192,217738,1,0,0:0:0:0:
448,192,217818,1,0,0:0:0:0:
64,192,217898,1,0,0:0:0:0:
320,192,217898,1,0,0:0:0:0:
448,192,217978,1,0,0:0:0:0:
192,192,218057,1,0,0:0:0:0:
320,192,218137,1,0,0:0:0:0:
192,192,218217,1,0,0:0:0:0:
448,192,218297,1,0,0:0:0:0:
64,192,218377,1,0,0:0:0:0:
320,192,218377,1,0,0:0:0:0:
448,192,218456,1,0,0:0:0:0:
64,192,218536,1,0,0:0:0:0:
192,192,218536,1,0,0:0:0:0:
320,192,218616,1,0,0:0:0:0:
192,192,218696,1,0,0:0:0:0:
448,192,218776,1,0,0:0:0:0:
64,192,218855,1,0,0:0:0:0:
320,192,218855,1,0,0:0:0:0:
448,192,218935,1,0,0:0:0:0:
192,192,219015,1,0,0:0:0:0:
320,192,219095,1,0,0:0:0:0:
64,192,219174,1,0,0:0:0:0:
192,192,219174,1,0,0:0:0:0:
448,192,219254,1,0,0:0:0:0:
64,192,219334,1,0,0:0:0:0:
320,192,219334,1,0,0:0:0:0:
448,192,219414,1,0,0:0:0:0:
192,192,219494,1,0,0:0:0:0:
320,192,219573,1,0,0:0:0:0:
192,192,219653,1,0,0:0:0:0:
448,192,219733,1,0,0:0:0:0:
64,192,219813,1,0,0:0:0:0:
320,192,219813,1,0,0:0:0:0:
448,192,219893,1,0,0:0:0:0:
192,192,219972,1,0,0:0:0:0:
64,192,220052,1,0,0:0:0:0:
320,192,220132,1,0,0:0:0:0:
448,192,220132,1,0,0:0:0:0:
192,192,220212,1,0,0:0:0:0:
320,192,220291,1,0,0:0:0:0:
64,192,220371,1,0,0:0:0:0:
192,192,220451,1,0,0:0:0:0:
448,192,220451,1,0,0:0:0:0:
64,192,220531,1,0,0:0:0:0:
320,192,220611,1,0,0:0:0:0:
192,192,220690,1,0,0:0:0:0:
320,192,220770,1,0,0:0:0:0:
64,192,220850,1,0,0:0:0:0:
192,192,220930,1,0,0:0:0:0:
448,192,220930,1,0,0:0:0:0:
64,192,221010,1,0,0:0:0:0:
320,192,221089,1,0,0:0:0:0:
448,192,221089,1,0,0:0:0:0:
192,192,221169,1,0,0:0:0:0:
320,192,221249,1,0,0:0:0:0:
64,192,221329,1,0,0:0:0:0:
192,192,221408,1,0,0:0:0:0:
320,192,221408,1,0,0:0:0:0:
448,192,221408,1,0,0:0:0:0:
64,192,221568,1,0,0:0:0:0:
448,192,221568,1,0,0:0:0:0:
192,192,221648,1,0,0:0:0:0:
320,192,221648,1,0,0:0:0:0:
64,192,221728,1,0,0:0:0:0:
448,192,221728,1,0,0:0:0:0:
64,192,221887,1,0,0:0:0:0:
192,192,221887,1,0,0:0:0:0:
320,192,221887,1,0,0:0:0:0:
320,192,222047,1,0,0:0:0:0:
448,192,222047,1,0,0:0:0:0:
64,192,222206,1,0,0:0:0:0:
192,192,222206,1,0,0:0:0:0:
320,192,222286,1,0,0:0:0:0:
64,192,222366,1,0,0:0:0:0:
192,192,222366,1,0,0:0:0:0:
448,192,222366,1,0,0:0:0:0:
320,192,222526,1,0,0:0:0:0:
64,192,222685,1,0,0:0:0:0:
320,192,222685,1,0,0:0:0:0:
448,192,222685,1,0,0:0:0:0:
192,192,222765,1,0,0:0:0:0:
448,192,222845,1,0,0:0:0:0:
192,192,222924,1,0,0:0:0:0:
64,192,223004,1,0,0:0:0:0:
320,192,223004,1,0,0:0:0:0:
448,192,223084,1,0,0:0:0:0:
64,192,223164,1,0,0:0:0:0:
320,192,223164,1,0,0:0:0:0:
192,192,223244,1,0,0:0:0:0:
448,192,223323,1,0,0:0:0:0:
192,192,223403,1,0,0:0:0:0:
64,192,223483,1,0,0:0:0:0:
320,192,223483,1,0,0:0:0:0:
448,192,223563,1,0,0:0:0:0:
64,192,223643,1,0,0:0:0:0:
320,192,223643,1,0,0:0:0:0:
192,192,223722,1,0,0:0:0:0:
448,192,223802,1,0,0:0:0:0:
64,192,223882,1,0,0:0:0:0:
192,192,223962,1,0,0:0:0:0:
448,192,223962,1,0,0:0:0:0:
320,192,224041,1,0,0:0:0:0:
64,192,224121,1,0,0:0:0:0:
320,192,224201,1,0,0:0:0:0:
192,192,224281,1,0,0:0:0:0:
448,192,224281,1,0,0:0:0:0:
64,192,224361,1,0,0:0:0:0:
192,192,224440,1,0,0:0:0:0:
448,192,224440,1,0,0:0:0:0:
320,192,224520,1,0,0:0:0:0:
64,192,224600,1,0,0:0:0:0:
320,192,224680,1,0,0:0:0:0:
192,192,224760,1,0,0:0:0:0:
448,192,224760,1,0,0:0:0:0:
320,192,224839,1,0,0:0:0:0:
64,192,224919,1,0,0:0:0:0:
192,192,224919,1,0,0:0:0:0:
320,192,224999,1,0,0:0:0:0:
64,192,225079,1,0,0:0:0:0:
448,192,225079,1,0,0:0:0:0:
192,192,225158,1,0,0:0:0:0:
320,192,225238,1,0,0:0:0:0:
448,192,225238,1,0,0:0:0:0:
192,192,225318,1,0,0:0:0:0:
320,192,225398,1,0,0:0:0:0:
448,192,225398,1,0,0:0:0:0:
64,192,225478,1,0,0:0:0:0:
192,192,225557,1,0,0:0:0:0:
448,192,225557,1,0,0:0:0:0:
320,192,225637,1,0,0:0:0:0:
64,192,225717,1,0,0:0:0:0:
448,192,225717,1,0,0:0:0:0:
192,192,225797,1,0,0:0:0:0:
64,192,225877,1,0,0:0:0:0:
320,192,225877,1,0,0:0:0:0:
448,192,225956,1,0,0:0:0:0:
64,192,226036,1,0,0:0:0:0:
192,192,226036,1,0,0:0:0:0:
320,192,226116,1,0,0:0:0:0:
64,192,226196,1,0,0:0:0:0:
192,192,226196,1,0,0:0:0:0:
448,192,226276,1,0,0:0:0:0:
64,192,226355,1,0,0:0:0:0:
320,192,226355,1,0,0:0:0:0:
192,192,226435,1,0,0:0:0:0:
320,192,226515,1,0,0:0:0:0:
448,192,226515,1,0,0:0:0:0:
192,192,226595,1,0,0:0:0:0:
64,192,226674,1,0,0:0:0:0:
448,192,226674,1,0,0:0:0:0:
320,192,226754,1,0,0:0:0:0:
64,192,226834,1,0,0:0:0:0:
192,192,226834,1,0,0:0:0:0:
448,192,226914,1,0,0:0:0:0:
192,192,226994,1,0,0:0:0:0:
320,192,226994,1,0,0:0:0:0:
448,192,227073,1,0,0:0:0:0:
64,192,227153,1,0,0:0:0:0:
192,192,227153,1,0,0:0:0:0:
320,192,227233,1,0,0:0:0:0:
64,192,227313,1,0,0:0:0:0:
448,192,227313,1,0,0:0:0:0:
192,192,227393,1,0,0:0:0:0:
320,192,227472,1,0,0:0:0:0:
448,192,227472,1,0,0:0:0:0:
64,192,227552,1,0,0:0:0:0:
192,192,227552,1,0,0:0:0:0:
320,192,227632,1,0,0:0:0:0:
448,192,227632,1,0,0:0:0:0:
192,192,227712,1,0,0:0:0:0:
64,192,227791,1,0,0:0:0:0:
320,192,227791,1,0,0:0:0:0:
448,192,227791,1,0,0:0:0:0:
192,192,227871,1,0,0:0:0:0:
64,192,227951,1,0,0:0:0:0:
448,192,227951,1,0,0:0:0:0:
320,192,228031,1,0,0:0:0:0:
64,192,228111,1,0,0:0:0:0:
192,192,228111,1,0,0:0:0:0:
448,192,228190,1,0,0:0:0:0:
192,192,228270,1,0,0:0:0:0:
320,192,228270,1,0,0:0:0:0:
64,192,228350,1,0,0:0:0:0:
320,192,228430,1,0,0:0:0:0:
448,192,228430,1,0,0:0:0:0:
64,192,228510,1,0,0:0:0:0:
192,192,228589,1,0,0:0:0:0:
320,192,228589,1,0,0:0:0:0:
448,192,228669,1,0,0:0:0:0:
64,192,228749,1,0,0:0:0:0:
192,192,228749,1,0,0:0:0:0:
320,192,228829,1,0,0:0:0:0:
64,192,228908,1,0,0:0:0:0:
448,192,228908,1,0,0:0:0:0:
192,192,228988,1,0,0:0:0:0:
320,192,229068,1,0,0:0:0:0:
448,192,229068,1,0,0:0:0:0:
64,192,229148,1,0,0:0:0:0:
192,192,229228,1,0,0:0:0:0:
320,192,229228,1,0,0:0:0:0:
448,192,229307,1,0,0:0:0:0:
64,192,229387,1,0,0:0:0:0:
192,192,229387,1,0,0:0:0:0:
448,192,229467,1,0,0:0:0:0:
192,192,229547,1,0,0:0:0:0:
320,192,229547,1,0,0:0:0:0:
64,192,229627,1,0,0:0:0:0:
320,192,229706,1,0,0:0:0:0:
448,192,229706,1,0,0:0:0:0:
192,192,229786,1,0,0:0:0:0:
64,192,229866,1,0,0:0:0:0:
448,192,229866,1,0,0:0:0:0:
320,192,229946,1,0,0:0:0:0:
64,192,230026,1,0,0:0:0:0:
192,192,230026,1,0,0:0:0:0:
448,192,230105,1,0,0:0:0:0:
192,192,230185,1,0,0:0:0:0:
320,192,230185,1,0,0:0:0:0:
64,192,230265,1,0,0:0:0:0:
192,192,230345,1,0,0:0:0:0:
448,192,230345,1,0,0:0:0:0:
320,192,230424,1,0,0:0:0:0:
64,192,230504,1,0,0:0:0:0:
448,192,230504,1,0,0:0:0:0:
192,192,230584,1,0,0:0:0:0:
64,192,230664,1,0,0:0:0:0:
320,192,230664,1,0,0:0:0:0:
448,192,230744,1,0,0:0:0:0:
192,192,230823,1,0,0:0:0:0:
320,192,230823,1,0,0:0:0:0:
64,192,230903,1,0,0:0:0:0:
320,192,230983,1,0,0:0:0:0:
192,192,231063,1,0,0:0:0:0:
64,192,231143,1,0,0:0:0:0:
448,192,231143,1,0,0:0:0:0:
320,192,231222,1,0,0:0:0:0:
192,192,231302,1,0,0:0:0:0:
448,192,231302,1,0,0:0:0:0:
64,192,231382,1,0,0:0:0:0:
192,192,231462,1,0,0:0:0:0:
320,192,231462,1,0,0:0:0:0:
448,192,231541,1,0,0:0:0:0:
64,192,231621,1,0,0:0:0:0:
192,192,231621,1,0,0:0:0:0:
320,192,231701,1,0,0:0:0:0:
64,192,231781,1,0,0:0:0:0:
448,192,231781,1,0,0:0:0:0:
192,192,231861,1,0,0:0:0:0:
320,192,231861,1,0,0:0:0:0:
64,192,231940,1,0,0:0:0:0:
448,192,231940,1,0,0:0:0:0:
192,192,232020,1,0,0:0:0:0:
320,192,232100,1,0,0:0:0:0:
448,192,232100,1,0,0:0:0:0:
64,192,232180,1,0,0:0:0:0:
320,192,232260,1,0,0:0:0:0:
448,192,232260,1,0,0:0:0:0:
192,192,232339,1,0,0:0:0:0:
64,192,232419,1,0,0:0:0:0:
448,192,232419,1,0,0:0:0:0:
192,192,232499,1,0,0:0:0:0:
320,192,232499,1,0,0:0:0:0:
64,192,232579,1,0,0:0:0:0:
448,192,232579,1,0,0:0:0:0:
320,192,232658,1,0,0:0:0:0:
64,192,232738,1,0,0:0:0:0:
192,192,232738,1,0,0:0:0:0:
320,192,232818,1,0,0:0:0:0:
64,192,232898,1,0,0:0:0:0:
192,192,232898,1,0,0:0:0:0:
448,192,232898,1,0,0:0:0:0:
320,192,232978,1,0,0:0:0:0:
448,192,233057,1,0,0:0:0:0:
64,192,233137,1,0,0:0:0:0:
320,192,233217,1,0,0:0:0:0:
448,192,233217,1,0,0:0:0:0:
192,192,233297,1,0,0:0:0:0:
320,192,233377,1,0,0:0:0:0:
192,192,233456,1,0,0:0:0:0:
64,192,233536,1,0,0:0:0:0:
448,192,233536,1,0,0:0:0:0:
320,192,233616,1,0,0:0:0:0:
64,192,233696,1,0,0:0:0:0:
192,192,233696,1,0,0:0:0:0:
448,192,233776,1,0,0:0:0:0:
192,192,233855,1,0,0:0:0:0:
320,192,233855,1,0,0:0:0:0:
448,192,233935,1,0,0:0:0:0:
64,192,234015,1,0,0:0:0:0:
192,192,234015,1,0,0:0:0:0:
320,192,234095,1,0,0:0:0:0:
448,192,234174,1,0,0:0:0:0:
320,192,234254,1,0,0:0:0:0:
64,192,234334,1,0,0:0:0:0:
448,192,234414,1,0,0:0:0:0:
64,192,234494,1,0,0:0:0:0:
192,192,234494,1,0,0:0:0:0:
320,192,234573,1,0,0:0:0:0:
192,192,234653,1,0,0:0:0:0:
320,192,234733,1,0,0:0:0:0:
64,192,234813,1,0,0:0:0:0:
448,192,234813,1,0,0:0:0:0:
192,192,234893,1,0,0:0:0:0:
320,192,234972,1,0,0:0:0:0:
448,192,234972,1,0,0:0:0:0:
64,192,235052,1,0,0:0:0:0:
192,192,235132,1,0,0:0:0:0:
320,192,235132,1,0,0:0:0:0:
64,192,235212,1,0,0:0:0:0:
320,192,235291,1,0,0:0:0:0:
448,192,235291,1,0,0:0:0:0:
192,192,235371,1,0,0:0:0:0:
64,192,235451,1,0,0:0:0:0:
448,192,235451,1,0,0:0:0:0:
192,192,235531,1,0,0:0:0:0:
320,192,235611,1,0,0:0:0:0:
64,192,235690,1,0,0:0:0:0:
320,192,235770,1,0,0:0:0:0:
448,192,235770,1,0,0:0:0:0:
192,192,235850,1,0,0:0:0:0:
320,192,235930,1,0,0:0:0:0:
192,192,236010,1,0,0:0:0:0:
64,192,236089,1,0,0:0:0:0:
448,192,236089,1,0,0:0:0:0:
320,192,236169,1,0,0:0:0:0:
64,192,236249,1,0,0:0:0:0:
192,192,236249,1,0,0:0:0:0:
448,192,236329,1,0,0:0:0:0:
192,192,236408,1,0,0:0:0:0:
320,192,236408,1,0,0:0:0:0:
64,192,236488,1,0,0:0:0:0:
192,192,236568,1,0,0:0:0:0:
448,192,236568,1,0,0:0:0:0:
320,192,236648,1,0,0:0:0:0:
448,192,236728,1,0,0:0:0:0:
320,192,236807,1,0,0:0:0:0:
64,192,236887,1,0,0:0:0:0:
192,192,236887,1,0,0:0:0:0:
448,192,236967,1,0,0:0:0:0:
64,192,237047,1,0,0:0:0:0:
320,192,237047,1,0,0:0:0:0:
192,192,237127,1,0,0:0:0:0:
320,192,237206,1,0,0:0:0:0:
448,192,237206,1,0,0:0:0:0:
64,192,237286,1,0,0:0:0:0:
192,192,237366,1,0,0:0:0:0:
448,192,237366,1,0,0:0:0:0:
64,192,237446,1,0,0:0:0:0:
320,192,237526,1,0,0:0:0:0:
448,192,237526,1,0,0:0:0:0:
192,192,237605,1,0,0:0:0:0:
64,192,237685,1,0,0:0:0:0:
320,192,237685,1,0,0:0:0:0:
448,192,237765,1,0,0:0:0:0:
320,192,237845,1,0,0:0:0:0:
448,192,237924,1,0,0:0:0:0:
64,192,238004,1,0,0:0:0:0:
192,192,238004,1,0,0:0:0:0:
320,192,238084,1,0,0:0:0:0:
64,192,238164,1,0,0:0:0:0:
448,192,238244,1,0,0:0:0:0:
64,192,238323,1,0,0:0:0:0:
192,192,238323,1,0,0:0:0:0:
320,192,238403,1,0,0:0:0:0:
192,192,238483,1,0,0:0:0:0:
320,192,238563,1,0,0:0:0:0:
64,192,238643,1,0,0:0:0:0:
448,192,238643,1,0,0:0:0:0:
192,192,238722,1,0,0:0:0:0:
320,192,238802,1,0,0:0:0:0:
448,192,238802,1,0,0:0:0:0:
64,192,238882,1,0,0:0:0:0:
192,192,238962,1,0,0:0:0:0:
320,192,238962,1,0,0:0:0:0:
64,192,239041,1,0,0:0:0:0:
320,192,239121,1,0,0:0:0:0:
448,192,239121,1,0,0:0:0:0:
192,192,239201,1,0,0:0:0:0:
64,192,239281,1,0,0:0:0:0:
192,192,239361,1,0,0:0:0:0:
448,192,239440,1,0,0:0:0:0:
64,192,239520,1,0,0:0:0:0:
320,192,239600,1,0,0:0:0:0:
448,192,239600,1,0,0:0:0:0:
192,192,239680,1,0,0:0:0:0:
320,192,239760,1,0,0:0:0:0:
192,192,239839,1,0,0:0:0:0:
64,192,239919,1,0,0:0:0:0:
448,192,239919,1,0,0:0:0:0:
320,192,239999,1,0,0:0:0:0:
64,192,240079,1,0,0:0:0:0:
192,192,240079,1,0,0:0:0:0:
448,192,240158,1,0,0:0:0:0:
192,192,240238,1,0,0:0:0:0:
320,192,240238,1,0,0:0:0:0:
448,192,240318,1,0,0:0:0:0:
64,192,240398,1,0,0:0:0:0:
192,192,240398,1,0,0:0:0:0:
320,192,240478,1,0,0:0:0:0:
64,192,240557,1,0,0:0:0:0:
448,192,240557,1,0,0:0:0:0:
320,192,240637,1,0,0:0:0:0:
192,192,240717,1,0,0:0:0:0:
448,192,240797,1,0,0:0:0:0:
64,192,240877,1,0,0:0:0:0:
192,192,240877,1,0,0:0:0:0:
320,192,240956,1,0,0:0:0:0:
192,192,241036,1,0,0:0:0:0:
320,192,241116,1,0,0:0:0:0:
64,192,241196,1,0,0:0:0:0:
448,192,241196,1,0,0:0:0:0:
192,192,241276,1,0,0:0:0:0:
320,192,241355,1,0,0:0:0:0:
448,192,241355,1,0,0:0:0:0:
64,192,241435,1,0,0:0:0:0:
192,192,241515,1,0,0:0:0:0:
320,192,241515,1,0,0:0:0:0:
448,192,241595,1,0,0:0:0:0:
64,192,241674,128,0,241994:0:0:0:0:
192,192,241674,128,0,241994:0:0:0:0:
320,192,241674,1,0,0:0:0:0:
320,192,241994,1,0,0:0:0:0:
448,192,241994,1,0,0:0:0:0:
64,192,242153,1,0,0:0:0:0:
192,192,242153,1,0,0:0:0:0:
192,192,242313,1,0,0:0:0:0:
320,192,242313,128,0,242791:0:0:0:0:
448,192,242313,128,0,242951:0:0:0:0:
64,192,242632,1,0,0:0:0:0:
64,192,242791,1,0,0:0:0:0:
192,192,242791,1,0,0:0:0:0:
320,192,242951,1,0,0:0:0:0:
64,192,243111,1,0,0:0:0:0:
192,192,243111,1,0,0:0:0:0:
448,192,243111,1,0,0:0:0:0:
320,192,243190,1,0,0:0:0:0:
64,192,243270,1,0,0:0:0:0:
448,192,243350,1,0,0:0:0:0:
64,192,243430,1,0,0:0:0:0:
192,192,243430,1,0,0:0:0:0:
320,192,243510,1,0,0:0:0:0:
192,192,243589,1,0,0:0:0:0:
320,192,243669,1,0,0:0:0:0:
64,192,243749,1,0,0:0:0:0:
448,192,243749,1,0,0:0:0:0:
192,192,243829,1,0,0:0:0:0:
320,192,243908,1,0,0:0:0:0:
448,192,243908,1,0,0:0:0:0:
64,192,243988,1,0,0:0:0:0:
192,192,244068,1,0,0:0:0:0:
320,192,244068,1,0,0:0:0:0:
64,192,244148,1,0,0:0:0:0:
320,192,244228,1,0,0:0:0:0:
448,192,244228,1,0,0:0:0:0:
192,192,244307,1,0,0:0:0:0:
64,192,244387,1,0,0:0:0:0:
192,192,244467,1,0,0:0:0:0:
448,192,244547,1,0,0:0:0:0:
64,192,244627,1,0,0:0:0:0:
320,192,244706,1,0,0:0:0:0:
448,192,244706,1,0,0:0:0:0:
192,192,244786,1,0,0:0:0:0:
320,192,244866,1,0,0:0:0:0:
192,192,244946,1,0,0:0:0:0:
64,192,245026,1,0,0:0:0:0:
448,192,245026,1,0,0:0:0:0:
320,192,245105,1,0,0:0:0:0:
64,192,245185,1,0,0:0:0:0:
192,192,245185,1,0,0:0:0:0:
448,192,245265,1,0,0:0:0:0:
192,192,245345,1,0,0:0:0:0:
320,192,245345,1,0,0:0:0:0:
448,192,245424,1,0,0:0:0:0:
64,192,245504,1,0,0:0:0:0:
192,192,245504,1,0,0:0:0:0:
320,192,245584,1,0,0:0:0:0:
64,192,245664,1,0,0:0:0:0:
448,192,245664,1,0,0:0:0:0:
320,192,245744,1,0,0:0:0:0:
192,192,245823,1,0,0:0:0:0:
448,192,245903,1,0,0:0:0:0:
64,192,245983,1,0,0:0:0:0:
192,192,245983,1,0,0:0:0:0:
320,192,246063,1,0,0:0:0:0:
192,192,246143,1,0,0:0:0:0:
320,192,246222,1,0,0:0:0:0:
64,192,246302,1,0,0:0:0:0:
448,192,246302,1,0,0:0:0:0:
192,192,246382,1,0,0:0:0:0:
320,192,246462,1,0,0:0:0:0:
448,192,246462,1,0,0:0:0:0:
64,192,246541,1,0,0:0:0:0:
192,192,246621,1,0,0:0:0:0:
320,192,246621,1,0,0:0:0:0:
448,192,246701,1,0,0:0:0:0:
64,192,246781,1,0,0:0:0:0:
320,192,246781,1,0,0:0:0:0:
192,192,246861,1,0,0:0:0:0:
64,192,246940,1,0,0:0:0:0:
192,192,247020,1,0,0:0:0:0:
320,192,247100,1,0,0:0:0:0:
448,192,247100,1,0,0:0:0:0:
64,192,247180,1,0,0:0:0:0:
192,192,247260,1,0,0:0:0:0:
448,192,247260,1,0,0:0:0:0:
320,192,247339,1,0,0:0:0:0:
64,192,247419,1,0,0:0:0:0:
192,192,247419,1,0,0:0:0:0:
448,192,247499,1,0,0:0:0:0:
64,192,247579,1,0,0:0:0:0:
320,192,247579,1,0,0:0:0:0:
448,192,247658,1,0,0:0:0:0:
64,192,247738,1,0,0:0:0:0:
192,192,247738,1,0,0:0:0:0:
320,192,247818,1,0,0:0:0:0:
192,192,247898,1,0,0:0:0:0:
448,192,247898,1,0,0:0:0:0:
64,192,247978,1,0,0:0:0:0:
192,192,248057,1,0,0:0:0:0:
64,192,248137,1,0,0:0:0:0:
320,192,248217,1,0,0:0:0:0:
448,192,248217,1,0,0:0:0:0:
192,192,248297,1,0,0:0:0:0:
448,192,248377,1,0,0:0:0:0:
64,192,248456,1,0,0:0:0:0:
320,192,248536,1,0,0:0:0:0:
448,192,248536,1,0,0:0:0:0:
192,192,248616,1,0,0:0:0:0:
320,192,248696,1,0,0:0:0:0:
192,192,248776,1,0,0:0:0:0:
64,192,248855,1,0,0:0:0:0:
448,192,248855,1,0,0:0:0:0:
320,192,248935,1,0,0:0:0:0:
64,192,249015,1,0,0:0:0:0:
192,192,249015,1,0,0:0:0:0:
448,192,249095,1,0,0:0:0:0:
192,192,249174,1,0,0:0:0:0:
320,192,249174,1,0,0:0:0:0:
448,192,249254,1,0,0:0:0:0:
64,192,249334,1,0,0:0:0:0:
192,192,249334,1,0,0:0:0:0:
320,192,249414,1,0,0:0:0:0:
448,192,249494,1,0,0:0:0:0:
320,192,249573,1,0,0:0:0:0:
64,192,249653,1,0,0:0:0:0:
448,192,249733,1,0,0:0:0:0:
64,192,249813,1,0,0:0:0:0:
192,192,249813,1,0,0:0:0:0:
320,192,249893,1,0,0:0:0:0:
192,192,249972,1,0,0:0:0:0:
320,192,250052,1,0,0:0:0:0:
64,192,250132,1,0,0:0:0:0:
448,192,250132,1,0,0:0:0:0:
192,192,250212,1,0,0:0:0:0:
320,192,250291,1,0,0:0:0:0:
448,192,250291,1,0,0:0:0:0:
64,192,250371,1,0,0:0:0:0:
192,192,250451,1,0,0:0:0:0:
320,192,250451,1,0,0:0:0:0:
64,192,250531,1,0,0:0:0:0:
320,192,250611,1,0,0:0:0:0:
448,192,250611,1,0,0:0:0:0:
192,192,250690,1,0,0:0:0:0:
64,192,250770,1,0,0:0:0:0:
448,192,250770,1,0,0:0:0:0:
192,192,250850,1,0,0:0:0:0:
320,192,250930,1,0,0:0:0:0:
64,192,251010,1,0,0:0:0:0:
320,192,251089,1,0,0:0:0:0:
448,192,251089,1,0,0:0:0:0:
192,192,251169,1,0,0:0:0:0:
320,192,251249,1,0,0:0:0:0:
192,192,251329,1,0,0:0:0:0:
64,192,251408,1,0,0:0:0:0:
320,192,251408,1,0,0:0:0:0:
448,192,251408,1,0,0:0:0:0:
192,192,251568,1,0,0:0:0:0:
448,192,251568,1,0,0:0:0:0:
64,192,251728,1,0,0:0:0:0:
320,192,251728,1,0,0:0:0:0:
64,192,251887,1,0,0:0:0:0:
192,192,251887,1,0,0:0:0:0:
320,192,251887,128,0,252206:0:0:0:0:
448,192,251887,128,0,252206:0:0:0:0:
64,192,252206,1,0,0:0:0:0:
192,192,252206,1,0,0:0:0:0:
320,192,252366,1,0,0:0:0:0:
448,192,252366,1,0,0:0:0:0:
64,192,252526,128,0,253164:0:0:0:0:
192,192,252526,128,0,253164:0:0:0:0:
320,192,252526,1,0,0:0:0:0:
448,192,252526,1,0,0:0:0:0:
448,192,252845,1,0,0:0:0:0:
320,192,253004,128,0,253164:0:0:0:0:
448,192,253004,128,0,253164:0:0:0:0:
192,192,253323,128,0,253483:0:0:0:0:
320,192,253323,128,0,253483:0:0:0:0:
448,192,253323,128,0,253483:0:0:0:0:
64,192,253643,1,0,0:0:0:0:
192,192,253643,1,0,0:0:0:0:
448,192,253643,1,0,0:0:0:0:
64,192,253802,128,0,253962:0:0:0:0:
192,192,253802,128,0,253962:0:0:0:0:
320,192,253802,128,0,253962:0:0:0:0:
320,192,254041,1,0,0:0:0:0:
64,192,254121,1,0,0:0:0:0:
192,192,254121,1,0,0:0:0:0:
448,192,254121,1,0,0:0:0:0:
64,192,254281,1,0,0:0:0:0:
320,192,254281,1,0,0:0:0:0:
192,192,254440,128,0,260822:0:0:0:0:
320,192,254440,128,0,260822:0:0:0:0:
448,192,254440,128,0,260822:0:0:0:0:
64,192,260822,128,0,261301:0:0:0:0:
