osu file format v14

[General]
AudioFilename: Sen No Kiseki 2 - I'll remember you.mp3
AudioLeadIn: 0
PreviewTime: 236419
Countdown: 1
SampleSet: Soft
StackLeniency: 0.7
Mode: 0
LetterboxInBreaks: 0
WidescreenStoryboard: 0

[Editor]
Bookmarks: 53291,88967,127885,157075,195994,275453,301385,322480
DistanceSpacing: 0.9
BeatDivisor: 4
GridSize: 4
TimelineZoom: 5.35

[Metadata]
Title:I'll remember you
TitleUnicode:I'll remember you
Artist:Falcom Sound Team jdk
ArtistUnicode:Falcom Sound Team jdk
Creator:Deca
Version:Collab Requiem
Source:英雄伝説 閃の軌跡II
Tags:gillstar fixxis heroes j.d.k. megumi sasaka 佐坂めぐみ parallel 佐坂 めぐみthe legend of black man trails of agatsu 2 ending eiyuu densetsu sen no kiseki cold steel video game feet japanese demetori nihon crow armbrust rean schwarzer video game japanese
BeatmapID:2126592
BeatmapSetID:1016042

[Difficulty]
HPDrainRate:7
CircleSize:4
OverallDifficulty:7
ApproachRate:8.6
SliderMultiplier:1.4
SliderTickRate:1

[Events]
//Background and Video events
0,0,"69764552_p0.jpg",0,0
//Break Periods
2,236521,258564
//Storyboard Layer 0 (Background)
//Storyboard Layer 1 (Fail)
//Storyboard Layer 2 (Pass)
//Storyboard Layer 3 (Foreground)
//Storyboard Layer 4 (Overlay)
//Storyboard Sound Samples

[TimingPoints]
1386,405.405405405405,4,2,1,44,1,0
1386,-99.9999999999999,4,2,1,44,0,0
14358,-83.3333333333333,4,2,1,48,0,0
28142,-83.3333333333333,4,2,1,44,0,0
29764,-83.3333333333333,4,2,1,42,0,0
30575,-83.3333333333333,4,2,1,38,0,0
33413,-83.3333333333333,4,2,1,28,0,0
38480,-100,4,2,1,28,0,0
40304,-100,4,2,1,32,0,0
63007,-83.3333333333333,4,2,1,42,0,0
64629,-166.666666666667,4,2,1,42,0,0
66250,-83.3333333333333,4,2,1,42,0,0
67872,-166.666666666667,4,2,1,42,0,0
69494,-83.3333333333333,4,2,1,42,0,0
71115,-166.666666666667,4,2,1,42,0,0
71926,-83.3333333333333,4,2,1,42,0,0
72737,-166.666666666667,4,2,1,42,0,0
75980,-83.3333333333333,4,2,1,42,0,0
85710,-166.666666666667,4,2,1,42,0,0
88953,-83.3333333333333,4,2,1,64,0,0
95440,-83.3333333333333,4,2,1,72,0,0
101926,-76.9230769230769,4,2,1,80,0,0
103548,-66.6666666666667,4,2,1,70,0,0
104156,-76.9230769230769,4,2,1,70,0,0
117129,-66.6666666666667,4,2,1,70,0,0
118142,-76.9230769230769,4,2,1,70,0,0
126250,-66.6666666666667,4,2,1,70,0,0
126858,-76.9230769230769,4,2,1,70,0,0
127872,-111.111111111111,4,2,1,45,0,0
131115,-111.111111111111,4,2,1,42,0,0
157061,-83.3333333333333,4,2,1,70,0,0
170034,-76.9230769230769,4,2,1,70,0,0
196385,-66.6666666666667,4,2,1,70,0,0
208953,-58.8235294117647,4,2,1,75,0,1
211791,-66.6666666666667,4,2,1,70,0,1
215980,-62.5,4,2,1,70,0,1
216385,-58.8235294117647,4,2,1,70,0,1
216791,-55.5555555555556,4,2,1,70,0,1
218277,-52.6315789473684,4,2,1,70,0,1
221926,-125,4,2,1,70,0,0
223548,-83.3333333333333,4,2,1,62,0,0
262467,-76.9230769230769,4,2,1,70,0,0
264088,-66.6666666666667,4,2,1,70,0,0
264494,-76.9230769230769,4,2,1,70,0,0
301385,-76.9230769230769,4,2,1,70,0,0
301588,-76.9230769230769,4,2,2,68,0,0
301791,-76.9230769230769,4,2,1,66,0,0
301994,-76.9230769230769,4,2,2,64,0,0
302196,-76.9230769230769,4,2,1,62,0,0
302399,-76.9230769230769,4,2,2,60,0,0
302602,-76.9230769230769,4,2,1,58,0,0
302805,-76.9230769230769,4,2,2,56,0,0
303007,-76.9230769230769,4,2,1,54,0,0
303210,-33.3333333333333,4,2,2,52,0,0
303413,-76.9230769230769,4,2,1,50,0,0
303616,-76.9230769230769,4,2,2,48,0,0
303818,-76.9230769230769,4,2,1,46,0,0
304021,-76.9230769230769,4,2,2,44,0,0
304224,-76.9230769230769,4,2,1,42,0,0
304427,-76.9230769230769,4,2,2,40,0,0
304629,-76.9230769230769,4,2,1,38,0,0
304832,-76.9230769230769,4,2,2,36,0,0
305035,-76.9230769230769,4,2,1,34,0,0
305238,-76.9230769230769,4,2,2,32,0,0
305440,-76.9230769230769,4,2,1,30,0,0
305643,-33.3333333333333,4,2,2,28,0,0
305846,-76.9230769230769,4,2,1,26,0,0
306049,-76.9230769230769,4,2,2,24,0,0
306251,-76.9230769230769,4,2,1,22,0,0
306453,-76.9230769230769,4,2,2,20,0,0
306656,-76.9230769230769,4,2,1,18,0,0
306858,-76.9230769230769,4,2,2,16,0,0
307061,-76.9230769230769,4,2,1,5,0,0
307467,-76.9230769230769,4,2,1,35,0,0
307872,416.666666666667,4,2,1,28,1,0
307872,-125,4,2,1,28,0,0
312663,441.176470588235,4,2,1,28,1,0
312663,-142.857142857143,4,2,1,28,0,0
313765,444.444444444444,4,2,1,28,1,0
313765,-125,4,2,1,28,0,0
314876,-200,4,2,1,28,0,0
314987,-200,4,2,1,15,0,0
320876,-200,4,2,2,14,0,0
321098,-200,4,2,2,13,0,0
321320,-200,4,2,2,12,0,0
321542,-200,4,2,1,11,0,0
321765,-200,4,2,2,10,0,0
321987,-200,4,2,1,9,0,0
322209,-200,4,2,2,8,0,0
322431,-200,4,2,1,7,0,0
322653,-200,4,2,2,6,0,0
322876,-200,4,2,1,5,0,0

[Colours]
Combo1 : 187,176,176
Combo2 : 174,83,83
Combo3 : 107,106,145
Combo4 : 137,104,147

[HitObjects]
101,100,1386,6,0,B|222:110|150:178|286:194,1,210,2|0,0:0|0:0,0:0:0:0:
433,176,2602,1,2,0:0:0:0:
276,104,2804,1,0,0:0:0:0:
276,104,3007,2,0,P|293:166|304:260,1,140,2|0,0:0|0:0,0:0:0:0:
412,281,3615,2,0,P|463:283|505:199,1,140,2|0,0:0|0:0,0:0:0:0:
392,94,4223,1,2,0:0:0:0:
289,169,4426,1,0,0:0:0:0:
289,169,4527,1,0,0:0:0:0:
289,169,4629,2,0,B|148:165|237:114|83:101,2,210,2|0|0,0:0|0:0|0:0,0:0:0:0:
444,269,6048,5,0,0:0:0:0:
444,269,6149,1,0,0:0:0:0:
444,269,6250,2,0,P|392:223|427:95,1,210,2|0,0:0|0:0,0:0:0:0:
512,38,7061,2,0,B|458:30|458:30|441:17|441:17|361:4,1,140,2|0,0:0|0:0,0:0:0:0:
164,104,7669,1,0,0:0:0:0:
235,42,7872,2,0,P|279:56|306:151,1,140,2|0,0:0|0:0,0:0:0:0:
92,197,8480,2,0,P|159:187|241:176,1,140,2|0,0:0|0:0,0:0:0:0:
365,267,9088,5,2,0:0:0:0:
269,351,9291,1,0,0:0:0:0:
269,351,9494,2,0,L|284:255,1,70,2|0,0:0|0:0,0:0:0:0:
302,116,9899,1,2,0:0:0:0:
467,185,10102,2,0,P|424:179|365:175,1,70,2|0,0:0|0:0,0:0:0:0:
224,221,10507,2,0,B|235:190|235:190|225:144,1,70,2|0,0:0|0:0,0:0:0:0:
126,12,10913,1,0,0:0:0:0:
83,84,11115,2,0,P|146:98|233:-7,1,210,2|0,0:0|0:0,0:0:0:0:
8,135,12129,5,2,0:0:0:0:
31,217,12331,1,0,0:0:0:0:
64,306,12534,1,0,0:0:0:0:
64,306,12635,1,0,0:0:0:0:
64,306,12737,2,0,P|138:298|340:378,1,280,2|0,0:0|0:0,0:0:0:0:
323,363,13953,2,0,P|313:309|307:253,1,105,2|0,0:0|0:0,0:0:0:0:
432,193,14358,6,0,P|390:190|349:185,1,83.9999974365235,2|0,1:2|0:0,0:0:0:0:
504,111,14764,1,8,0:0:0:0:
388,29,14967,2,0,B|403:74|403:74|384:124,1,83.9999974365235,2|0,0:0|0:0,0:0:0:0:
267,212,15372,1,2,0:0:0:0:
217,117,15575,1,10,0:0:0:0:
280,234,15777,5,0,0:0:0:0:
280,234,15879,1,0,0:0:0:0:
280,234,15980,2,0,B|174:227|223:287|96:272,1,167.999994873047,2|8,0:2|0:0,0:0:0:0:
49,237,16588,2,0,P|57:196|67:147,1,83.9999974365235,2|0,0:0|0:0,0:0:0:0:
157,162,16892,1,0,0:0:0:0:
157,162,16994,2,0,P|147:114|140:78,1,83.9999974365235,8|0,0:0|0:0,0:0:0:0:
68,15,17399,1,2,0:0:0:0:
230,107,17602,6,0,B|319:112|286:73|396:76,2,167.999994873047,2|8|2,0:0|0:0|0:0,0:0:0:0:
336,176,18615,1,0,0:0:0:0:
209,186,18818,2,0,B|225:230|225:230|210:276,1,83.9999974365235,8|0,0:0|0:0,0:0:0:0:
302,284,19122,5,0,0:0:0:0:
302,284,19223,2,0,P|365:295|405:304,1,83.9999974365235,2|0,0:0|0:0,0:0:0:0:
229,352,19629,1,8,0:0:0:0:
134,253,19831,2,0,P|80:263|33:269,1,83.9999974365235,2|0,0:0|0:0,0:0:0:0:
0,333,20135,1,0,0:0:0:0:
0,333,20237,2,0,P|15:296|11:230,1,83.9999974365235,2|8,0:0|0:0,0:0:0:0:
12,87,20642,5,0,0:0:0:0:
12,87,20744,1,0,0:0:0:0:
12,87,20845,1,2,0:0:0:0:
104,175,21048,1,2,0:0:0:0:
105,13,21250,2,0,B|71:104|148:74|95:202,1,167.999994873047,10|0,0:0|0:0,0:0:0:0:
183,65,21858,2,0,P|216:70|280:79,2,83.9999974365235,2|8|0,0:0|0:0|0:0,0:0:0:0:
172,236,22467,6,0,P|184:203|184:146,1,83.9999974365235,2|0,0:0|0:0,0:0:0:0:
59,301,22872,1,10,0:0:0:0:
256,270,23075,2,0,P|316:277|371:286,1,83.9999974365235,2|0,0:0|0:0,0:0:0:0:
279,112,23480,2,0,P|318:106|376:95,1,83.9999974365235,2|8,0:0|0:0,0:0:0:0:
454,303,23885,5,0,0:0:0:0:
454,303,23987,1,0,0:0:0:0:
454,303,24088,2,0,P|423:248|451:135,1,167.999994873047,2|8,0:0|0:0,0:0:0:0:
364,8,24696,1,0,0:0:0:0:
512,64,24899,2,0,P|450:59|413:56,1,83.9999974365235,2|0,0:0|0:0,0:0:0:0:
348,217,25304,2,0,P|306:224|264:229,1,83.9999974365235,2|0,0:0|0:0,0:0:0:0:
219,300,25608,5,0,0:0:0:0:
219,300,25710,2,0,P|147:270|147:166,1,167.999994873047,2|8,0:0|0:0,0:0:0:0:
46,319,26318,2,0,B|57:279|57:279|29:226,1,83.9999974365235,2|0,0:0|0:0,0:0:0:0:
37,241,26622,1,0,0:0:0:0:
37,241,26723,1,2,0:0:0:0:
146,367,26926,1,0,0:0:0:0:
290,240,27129,5,0,0:0:0:0:
290,240,27230,1,0,0:0:0:0:
290,240,27331,2,0,B|384:249|339:292|467:299,1,167.999994873047,6|8,0:0|0:0,0:0:0:0:
444,297,27940,1,0,0:0:0:0:
449,198,28142,2,0,P|454:156|457:109,1,83.9999974365235,2|0,0:0|0:0,0:0:0:0:
321,170,28548,2,0,P|313:115|310:82,1,83.9999974365235,2|0,0:0|0:0,0:0:0:0:
172,146,28953,5,0,0:0:0:0:
110,65,29156,1,0,0:0:0:0:
208,27,29358,2,0,P|243:34|320:39,1,83.9999974365235,8|0,0:0|0:0,0:0:0:0:
382,113,29764,1,10,0:0:0:0:
382,113,29865,1,8,0:0:0:0:
382,113,29967,1,8,0:0:0:0:
465,171,30169,1,0,0:0:0:0:
383,239,30372,5,0,0:0:0:0:
304,207,30575,2,0,P|362:214|409:223,1,83.9999974365235,2|0,0:0|0:0,0:0:0:0:
443,297,30980,1,8,0:0:0:0:
323,384,31183,2,0,P|379:373|426:369,1,83.9999974365235,2|0,0:0|0:0,0:0:0:0:
323,384,31588,1,0,0:0:0:0:
209,188,31791,2,0,P|229:262|192:352,1,167.999994873047,8|0,0:0|0:0,0:0:0:0:
135,220,32399,1,0,0:0:0:0:
104,298,32602,2,0,P|63:290|4:287,1,83.9999974365235,8|0,0:0|0:0,0:0:0:0:
52,170,33007,1,0,0:0:0:0:
52,170,33108,1,0,0:0:0:0:
52,170,33210,1,0,0:0:0:0:
201,141,33413,5,2,0:0:0:0:
372,82,33615,1,0,0:0:0:0:
301,12,33818,2,0,P|332:93|316:195,1,167.999994873047,2|0,0:0|0:0,0:0:0:0:
383,280,34426,2,0,B|285:273|343:239|209:230,1,167.999994873047,2|0,0:0|0:0,0:0:0:0:
29,307,35034,1,2,0:0:0:0:
97,361,35237,2,0,P|139:292|78:200,1,167.999994873047,2|0,0:0|0:0,0:0:0:0:
62,127,35845,1,2,0:0:0:0:
192,91,36048,2,0,P|144:79|103:59,1,83.9999974365235,2|0,0:0|0:0,0:0:0:0:
278,182,36453,2,0,P|226:207|186:243,1,83.9999974365235,2|0,0:0|0:0,0:0:0:0:
370,73,36858,5,0,0:0:0:0:
409,184,37061,2,0,P|363:220|321:350,1,167.999994873047,2|0,0:0|0:0,0:0:0:0:
160,316,37669,2,0,B|198:301|198:301|241:305,1,83.9999974365235,2|0,0:0|0:0,0:0:0:0:
430,338,38075,1,2,0:0:0:0:
502,257,38277,1,2,0:0:0:0:
473,77,38480,2,0,P|317:47|240:154,1,280,2|0,0:0|0:0,0:0:0:0:
69,200,39494,2,0,P|121:213|161:222,1,70,2|0,0:0|0:0,0:0:0:0:
283,213,39899,1,0,0:0:0:0:
185,330,40102,1,0,0:0:0:0:
270,303,40304,6,0,B|348:316|317:344|396:359,1,140,2|0,0:0|0:0,0:0:0:0:
495,229,40913,2,0,P|505:310|516:394,2,140,2|0|0,0:0|0:0|0:0,0:0:0:0:
387,272,41926,2,0,P|388:243|433:207,1,70,2|0,0:0|0:0,0:0:0:0:
355,142,42331,1,0,0:0:0:0:
283,201,42534,2,0,P|243:206|138:219,1,140,2|2,0:0|0:0,0:0:0:0:
84,152,43142,1,2,0:0:0:0:
13,225,43345,5,0,0:0:0:0:
13,225,43548,2,0,B|32:156|32:156|-3:71,1,140,2|0,0:0|0:0,0:0:0:0:
98,58,44156,2,0,P|147:63|184:70,1,70,2|0,0:0|0:0,0:0:0:0:
241,0,44561,2,0,P|252:42|254:92,1,70,2|0,0:0|0:0,0:0:0:0:
329,143,44967,1,0,0:0:0:0:
239,245,45169,2,0,P|273:235|318:225,1,70,2|0,0:0|0:0,0:0:0:0:
417,197,45575,1,0,0:0:0:0:
323,60,45777,2,0,P|371:64|450:143,1,140,2|0,0:0|0:0,0:0:0:0:
323,60,46385,1,0,0:0:0:0:
205,118,46588,5,0,0:0:0:0:
151,180,46791,2,0,B|246:177|196:145|316:144,1,140,2|0,0:0|0:0,0:0:0:0:
332,276,47399,2,0,P|339:233|344:186,1,70,2|0,0:0|0:0,0:0:0:0:
456,302,47804,1,2,0:0:0:0:
438,220,48007,1,0,0:0:0:0:
338,298,48210,1,0,0:0:0:0:
338,298,48413,2,0,B|238:304|303:336|176:340,1,140,2|0,0:0|0:0,0:0:0:0:
116,336,49021,1,0,0:0:0:0:
73,268,49223,6,0,P|79:223|83:175,1,70,2|0,0:0|0:0,0:0:0:0:
119,63,49629,2,0,B|135:98|135:98|130:155,1,70,2|0,0:0|0:0,0:0:0:0:
316,142,50034,2,0,P|250:142|211:72,1,140,2|0,0:0|0:0,0:0:0:0:
163,248,50642,2,0,P|232:244|319:234,1,140,2|0,0:0|0:0,0:0:0:0:
380,190,51250,1,0,0:0:0:0:
394,103,51453,1,0,0:0:0:0:
302,10,51656,6,0,P|348:22|391:27,1,70,2|0,0:0|0:0,0:0:0:0:
454,35,52061,1,0,0:0:0:0:
499,143,52264,2,0,P|485:212|475:287,1,140,2|0,0:0|0:0,0:0:0:0:
386,229,52872,1,0,0:0:0:0:
295,347,53075,1,0,0:0:0:0:
295,347,53277,6,0,B|280:309|280:309|291:269,1,70,2|0,0:0|0:0,0:0:0:0:
383,351,53683,1,0,0:0:0:0:
291,196,53885,2,0,L|162:212,1,105,2|0,0:0|0:0,0:0:0:0:
183,230,54291,6,0,B|168:192|168:192|175:163,1,70,2|0,0:0|0:0,0:0:0:0:
53,312,54696,2,0,P|108:319|139:324,1,70,2|0,0:0|0:0,0:0:0:0:
290,365,55102,2,0,P|283:300|274:214,1,140,2|0,0:0|0:0,0:0:0:0:
464,129,55913,1,2,0:0:0:0:
490,204,56115,1,0,0:0:0:0:
325,157,56318,6,0,P|265:137|183:186,1,140,2|0,0:0|0:0,0:0:0:0:
32,65,56926,1,0,0:0:0:0:
105,36,57129,2,0,P|141:40|178:43,1,70,2|0,0:0|0:0,0:0:0:0:
51,224,57534,2,0,B|39:189|39:189|50:154,1,70,2|0,0:0|0:0,0:0:0:0:
232,269,57940,2,0,B|241:300|241:300|229:335,1,70,2|0,0:0|0:0,0:0:0:0:
124,356,58345,6,0,L|140:188,1,140,2|0,0:0|0:0,0:0:0:0:
138,205,59156,5,2,0:0:0:0:
279,103,59358,1,0,0:0:0:0:
329,164,59561,2,0,B|324:76|370:113|348:17,1,140,2|0,0:0|0:0,0:0:0:0:
486,157,60169,1,0,0:0:0:0:
486,157,60372,2,0,P|451:150|416:146,1,70,2|0,0:0|0:0,0:0:0:0:
280,249,60777,2,0,P|245:253|210:259,1,70,2|0,0:0|0:0,0:0:0:0:
340,328,61183,2,0,P|411:336|452:272,2,140,2|0|0,0:0|0:0|0:0,0:0:0:0:
64,356,62399,5,2,0:0:0:0:
159,288,62602,1,0,0:0:0:0:
192,358,62804,1,2,0:0:0:0:
61,274,63007,6,0,P|52:228|42:174,1,83.9999974365235,2|0,1:2|0:0,0:0:0:0:
194,62,63413,1,2,0:0:0:0:
122,28,63615,2,0,B|109:70|109:70|134:123,1,83.9999974365235,2|0,1:2|0:0,0:0:0:0:
309,171,64021,2,0,L|137:200,1,167.999994873047,2|2,0:0|0:0,0:0:0:0:
142,207,64629,6,0,P|141:234|156:268,2,62.9999980773926,0|0|0,1:2|1:0|1:0,0:0:0:0:
201,99,65642,1,2,0:0:0:0:
217,23,65845,1,0,0:0:0:0:
114,39,66048,1,2,0:0:0:0:
300,85,66250,6,0,P|389:103|463:42,1,167.999994873047,2|0,1:2|0:0,0:0:0:0:
302,181,66858,2,0,P|296:232|284:285,1,83.9999974365235,2|0,1:2|0:0,0:0:0:0:
473,278,67264,2,0,P|479:329|491:382,1,83.9999974365235,2|0,0:0|0:0,0:0:0:0:
337,371,67669,1,2,0:0:0:0:
380,304,67872,2,0,L|387:227,2,62.9999980773926,0|0|0,1:0|1:0|1:0,0:0:0:0:
309,204,68885,5,2,1:2:0:0:
464,272,69088,1,2,0:0:0:0:
311,358,69291,1,0,1:2:0:0:
374,310,69494,6,0,B|369:222|416:250|397:142,1,167.999994873047,2|0,1:2|0:0,0:0:0:0:
328,54,70102,2,0,P|409:64|508:72,2,167.999994873047,2|2|2,1:2|0:0|0:0,0:0:0:0:
248,77,71115,6,0,B|244:44|244:44|260:12,2,62.9999980773926,0|0|0,1:0|1:0|1:0,0:0:0:0:
331,196,71926,2,0,P|289:179|234:172,1,83.9999974365235,2|0,0:0|0:0,0:0:0:0:
155,76,72331,2,0,P|118:96|78:109,1,83.9999974365235,2|0,0:0|0:0,0:0:0:0:
61,239,72737,6,0,P|98:249|130:263,2,62.9999980773926,2|0|0,1:2|1:0|1:0,0:0:0:0:
384,351,74358,6,0,P|413:339|444:332,2,62.9999980773926,0|0|0,1:0|1:0|1:0,0:0:0:0:
282,292,75372,1,2,0:0:0:0:
173,358,75575,1,0,0:0:0:0:
307,372,75777,1,2,0:0:0:0:
194,264,75980,6,0,P|175:185|205:101,1,167.999994873047,2|0,1:2|0:0,0:0:0:0:
383,46,76588,2,0,B|399:86|399:86|383:133,1,83.9999974365235,2|0,1:2|0:0,0:0:0:0:
209,23,76994,2,0,P|255:33|291:39,1,83.9999974365235,2|0,0:0|0:0,0:0:0:0:
201,30,77399,1,2,0:0:0:0:
107,149,77602,5,0,1:0:0:0:
256,219,77906,1,0,1:0:0:0:
384,107,78210,1,0,1:0:0:0:
384,107,78615,5,2,0:0:0:0:
220,36,78818,1,0,0:0:0:0:
297,12,79021,1,2,0:0:0:0:
181,147,79223,6,0,L|157:322,1,167.999994873047,2|0,1:2|0:0,0:0:0:0:
10,270,79831,2,0,L|31:358,1,83.9999974365235,2|0,1:2|0:0,0:0:0:0:
190,235,80237,2,0,L|167:321,1,83.9999974365235,2|0,0:0|0:0,0:0:0:0:
61,202,80642,1,2,0:0:0:0:
200,233,80845,5,0,1:0:0:0:
308,118,81149,1,0,1:0:0:0:
188,39,81453,1,0,1:0:0:0:
188,39,81858,5,2,1:2:0:0:
53,75,82061,1,0,0:0:0:0:
248,101,82264,5,2,1:2:0:0:
383,137,82467,2,0,P|414:219|392:299,1,167.999994873047,0|0,1:0|0:0,0:0:0:0:
237,342,83075,2,0,P|284:352|327:366,1,83.9999974365235,2|0,1:2|0:0,0:0:0:0:
477,375,83480,2,0,L|454:197,1,167.999994873047,2|0,0:0|0:0,0:0:0:0:
431,6,84088,5,0,1:0:0:0:
341,127,84392,1,0,1:0:0:0:
455,208,84696,1,0,1:0:0:0:
480,126,84899,2,0,P|423:126|350:218,1,167.999994873047,2|0,0:0|0:0,0:0:0:0:
141,222,85507,5,2,0:0:0:0:
141,222,85608,1,2,0:0:0:0:
141,222,85710,1,0,1:0:0:0:
33,98,86014,1,0,1:0:0:0:
179,17,86318,1,0,1:0:0:0:
382,40,87331,6,0,P|376:71|373:102,2,62.9999980773926,0|0|0,1:0|1:0|1:0,0:0:0:0:
112,246,88750,5,0,0:0:0:0:
112,246,88852,1,0,0:0:0:0:
112,246,88953,2,0,P|39:234|15:226,1,83.9999974365235,2|0,1:2|0:0,0:0:0:0:
134,339,89358,1,10,0:0:0:0:
283,222,89561,2,0,B|381:216|344:174|451:169,1,167.999994873047,2|2,1:2|0:0,0:0:0:0:
439,169,90169,1,8,0:0:0:0:
277,104,90372,1,2,0:0:0:0:
391,0,90575,6,0,P|383:77|384:105,1,83.9999974365235,2|0,1:2|0:0,0:0:0:0:
274,17,90980,1,8,0:0:0:0:
176,202,91183,2,0,P|173:103|163:23,1,167.999994873047,2|2,0:0|0:0,0:0:0:0:
262,213,91791,1,10,0:0:0:0:
177,348,91994,5,2,0:0:0:0:
177,348,92095,1,0,0:0:0:0:
177,348,92196,2,0,P|121:338|82:337,1,83.9999974365235,2|0,1:2|0:0,0:0:0:0:
30,271,92500,2,0,P|40:215|41:176,1,83.9999974365235,2|0,1:2|0:0,0:0:0:0:
112,130,92804,2,0,B|208:128|175:89|279:91,1,167.999994873047,2|2,1:2|0:0,0:0:0:0:
423,199,93413,1,10,0:0:0:0:
512,104,93615,5,2,0:0:0:0:
512,104,93717,1,0,0:0:0:0:
512,104,93818,2,0,P|454:99|412:89,1,83.9999974365235,2|0,1:2|0:0,0:0:0:0:
371,25,94122,2,0,L|318:15,1,41.9999987182618,0|8,1:0|0:0,0:0:0:0:
160,158,94426,1,2,1:2:0:0:
267,277,94629,2,0,P|265:144|271:89,1,167.999994873047,2|0,0:0|0:0,0:0:0:0:
157,310,95237,5,0,0:0:0:0:
157,310,95338,1,0,0:0:0:0:
157,310,95440,2,0,B|64:310|91:264|-3:263,1,167.999994873047,6|0,1:2|1:0,0:0:0:0:
172,195,96048,2,0,P|241:188|273:182,1,83.9999974365235,2|0,0:0|1:0,0:0:0:0:
141,89,96453,1,2,0:0:0:0:
319,13,96656,2,0,P|404:22|452:22,1,125.999996154785,10|0,1:0|0:0,0:0:0:0:
443,26,97061,6,0,B|417:129|474:78|443:199,1,167.999994873047,2|2,1:2|1:2,0:0:0:0:
277,90,97669,2,0,P|219:82|186:73,1,83.9999974365235,2|0,0:0|1:0,0:0:0:0:
34,216,98075,1,0,1:0:0:0:
34,216,98176,1,0,1:0:0:0:
34,216,98277,1,10,1:0:0:0:
154,347,98480,5,0,1:0:0:0:
154,347,98581,1,0,1:0:0:0:
154,347,98683,2,0,P|141:227|140:163,1,167.999994873047,2|8,1:2|1:0,0:0:0:0:
61,62,99291,1,0,1:0:0:0:
223,6,99494,1,0,1:0:0:0:
61,62,99696,1,0,1:0:0:0:
274,137,99899,1,8,1:0:0:0:
274,137,100000,1,0,1:0:0:0:
274,137,100102,1,2,1:2:0:0:
364,88,100304,5,10,1:0:0:0:
135,206,100507,1,10,1:0:0:0:
369,319,100710,1,10,1:0:0:0:
205,276,100913,1,10,1:0:0:0:
486,25,101723,5,0,0:0:0:0:
486,25,101825,1,2,0:0:0:0:
486,25,101926,2,0,B|468:139|523:78|505:210,1,181.999991668702,6|8,1:0|1:0,0:0:0:0:
374,40,102534,2,0,P|284:24|264:17,1,90.9999958343508,0|0,0:0|1:0,0:0:0:0:
284,24,102940,1,2,0:0:0:0:
405,160,103142,1,10,1:0:0:0:
267,346,103345,5,2,0:1:0:0:
267,346,103446,1,2,0:0:0:0:
267,346,103548,2,0,P|310:299|403:294,1,157.500006008148,2|0,1:0|0:0,0:0:0:0:
396,312,103953,1,10,1:0:0:0:
210,207,104156,2,0,B|109:207|139:163|30:165,1,181.999991668702,2|0,1:1|1:0,0:0:0:0:
227,97,104764,1,10,1:0:0:0:
51,273,104967,1,2,1:0:0:0:
227,97,105169,6,0,P|355:128|423:136,1,181.999991668702,2|8,1:2|1:0,0:0:0:0:
211,306,105777,2,0,B|232:266|232:266|213:219,1,90.9999958343508,2|0,0:0|1:0,0:0:0:0:
311,135,106183,1,0,0:0:0:0:
163,22,106385,2,0,P|86:14|63:8,1,90.9999958343508,8|2,1:0|0:0,0:0:0:0:
37,49,106690,5,2,0:0:0:0:
37,49,106791,2,0,P|45:195|44:245,1,181.999991668702,2|8,1:2|1:0,0:0:0:0:
220,85,107399,2,0,P|302:73|330:64,1,90.9999958343508,0|0,0:0|1:0,0:0:0:0:
460,218,107804,1,0,1:2:0:0:
460,218,107906,1,0,1:2:0:0:
460,218,108007,1,10,1:0:0:0:
322,368,108210,5,0,1:0:0:0:
322,368,108311,1,0,1:2:0:0:
322,368,108413,2,0,B|336:247|283:310|301:184,1,181.999991668702,2|10,1:2|1:0,0:0:0:0:
459,44,109021,2,0,B|433:83|433:83|451:130,1,90.9999958343508,2|0,0:1|1:0,0:0:0:0:
319,51,109426,1,0,0:0:0:0:
149,157,109629,1,10,1:0:0:0:
29,88,109831,5,0,1:1:0:0:
29,88,109933,1,0,1:2:0:0:
29,88,110034,2,0,P|41:237|39:277,1,181.999991668702,2|10,1:2|1:0,0:0:0:0:
207,98,110642,2,0,P|283:89|309:82,1,90.9999958343508,2|0,0:0|1:0,0:0:0:0:
196,210,111048,1,2,0:0:0:0:
353,366,111250,1,8,1:0:0:0:
196,210,111453,1,2,0:0:0:0:
44,372,111656,6,0,B|149:370|110:326|218:327,1,181.999991668702,0|8,1:0|1:0,0:0:0:0:
405,185,112264,2,0,P|400:272|401:287,1,90.9999958343508,2|0,0:0|1:0,0:0:0:0:
295,208,112669,1,2,0:0:0:0:
442,78,112872,1,8,1:0:0:0:
282,0,113075,5,0,1:0:0:0:
282,0,113176,1,0,1:0:0:0:
282,0,113277,2,0,P|151:25|101:28,1,181.999991668702,2|8,1:0|1:0,0:0:0:0:
292,195,113885,2,0,B|265:231|265:231|282:279,1,90.9999958343508,0|0,0:0|1:0,0:0:0:0:
135,193,114291,1,0,1:0:0:0:
135,193,114392,1,0,1:0:0:0:
135,193,114494,1,10,1:0:0:0:
321,60,114696,5,0,1:0:0:0:
321,60,114798,1,0,1:0:0:0:
321,60,114899,2,0,B|421:56|386:14|495:17,1,181.999991668702,6|8,1:0|1:0,0:0:0:0:
356,179,115507,2,0,P|364:250|364:282,1,90.9999958343508,2|0,0:0|1:0,0:0:0:0:
478,197,115913,1,2,0:0:0:0:
321,60,116115,1,10,1:0:0:0:
478,197,116318,1,2,0:0:0:0:
325,343,116521,6,0,P|207:326|133:323,1,181.999991668702,0|8,1:0|1:0,0:0:0:0:
0,136,117129,2,0,P|58:194|130:196,1,157.500006008148,0|0,1:0|0:0,0:0:0:0:
139,173,117534,1,0,1:0:0:0:
381,122,117737,1,8,1:0:0:0:
247,0,117940,5,0,1:0:0:0:
247,0,118041,1,0,1:0:0:0:
247,0,118142,2,0,P|255:143|253:186,1,181.999991668702,2|8,1:0|1:0,0:0:0:0:
339,252,118750,1,0,0:0:0:0:
198,382,118953,2,0,P|268:373|297:373,1,90.9999958343508,2|0,1:0|0:0,0:0:0:0:
141,246,119358,1,8,1:0:0:0:
303,86,119561,5,0,1:0:0:0:
303,86,119663,1,0,1:0:0:0:
303,86,119764,2,0,B|201:87|233:39|128:41,1,181.999991668702,2|10,1:0|1:0,0:0:0:0:
268,207,120372,2,0,B|242:245|242:245|256:290,1,90.9999958343508,2|0,0:0|1:0,0:0:0:0:
365,198,120777,1,2,0:0:0:0:
188,375,120980,1,8,1:0:0:0:
62,289,121183,5,0,1:0:0:0:
62,289,121284,1,0,1:0:0:0:
62,289,121385,2,0,P|74:169|74:159,1,90.9999958343508,2|2,1:0|0:0,0:0:0:0:
224,75,121791,1,10,1:0:0:0:
73,198,121994,1,0,0:0:0:0:
7,58,122196,2,0,P|79:82|107:87,1,90.9999958343508,0|0,1:0|0:0,0:0:0:0:
226,225,122602,1,8,1:0:0:0:
381,92,122804,5,0,1:0:0:0:
381,92,122906,1,0,1:0:0:0:
381,92,123007,2,0,B|359:199|415:149|393:274,1,181.999991668702,2|8,1:0|1:0,0:0:0:0:
273,95,123615,2,0,P|190:82|176:78,1,90.9999958343508,2|0,0:0|1:0,0:0:0:0:
35,193,124021,1,2,0:0:0:0:
172,331,124223,1,8,1:0:0:0:
83,375,124426,1,0,0:0:0:0:
171,215,124629,6,0,P|252:208|277:203,1,90.9999958343508,2|0,1:0|0:0,0:0:0:0:
394,315,125034,1,8,1:0:0:0:
512,189,125237,2,0,P|499:54|499:-2,1,181.999991668702,0|0,1:0|1:0,0:0:0:0:
390,200,125845,1,10,1:0:0:0:
258,73,126048,5,0,1:0:0:0:
258,73,126149,1,0,1:0:0:0:
258,73,126250,2,0,P|132:53|92:43,1,157.500006008148,2|0,1:0|0:0,0:0:0:0:
81,61,126656,1,10,1:0:0:0:
225,211,126858,2,0,B|198:248|198:248|217:306,1,90.9999958343508,2|0,0:0|1:0,0:0:0:0:
374,162,127264,1,0,1:0:0:0:
374,162,127365,1,0,1:0:0:0:
374,162,127467,1,10,1:0:0:0:
508,303,127669,5,0,1:0:0:0:
508,303,127771,1,0,1:0:0:0:
508,303,127872,2,0,P|449:318|376:336,1,125.999996154785,2|2,1:0|0:0,0:0:0:0:
235,222,128480,2,0,P|250:278|318:302,2,125.999996154785,2|0|0,0:0|0:0|0:0,0:0:0:0:
269,154,129494,1,2,0:0:0:0:
13,32,130507,6,0,P|19:86|23:116,1,62.9999980773926,2|0,0:0|0:0,0:0:0:0:
77,148,130913,1,2,0:0:0:0:
4,289,131115,2,0,P|50:310|124:275,1,125.999996154785,2|2,1:2|0:0,0:0:0:0:
184,368,131723,2,0,P|190:319|200:237,1,125.999996154785,2|2,1:2|0:0,0:0:0:0:
331,182,132331,1,0,0:0:0:0:
407,204,132534,1,2,0:0:0:0:
472,166,132737,6,0,P|461:122|444:58,2,94.499997116089,0|0|0,1:2|1:0|1:0,0:0:0:0:
212,248,133750,2,0,L|205:314,1,62.9999980773926,2|0,0:0|0:0,0:0:0:0:
145,205,134156,1,2,0:0:0:0:
68,109,134358,6,0,P|138:101|210:89,1,125.999996154785,2|0,1:2|0:0,0:0:0:0:
325,146,134967,2,0,B|349:78|306:89|330:10,1,125.999996154785,2|2,1:2|0:0,0:0:0:0:
255,111,135575,1,0,0:0:0:0:
368,221,135777,1,2,0:0:0:0:
310,286,135980,6,0,P|242:274|195:271,2,94.499997116089,0|0|0,1:0|1:0|1:0,0:0:0:0:
430,277,136994,6,0,P|471:284|495:288,1,62.9999980773926,2|0,1:2|0:0,0:0:0:0:
411,359,137399,1,0,1:2:0:0:
248,228,137602,6,0,P|290:207|360:233,1,125.999996154785,2|0,1:2|0:0,0:0:0:0:
310,367,138210,2,0,P|301:337|292:294,1,62.9999980773926,2|0,1:2|0:0,0:0:0:0:
248,154,138615,2,0,P|243:203|242:228,1,62.9999980773926,2|0,0:0|0:0,0:0:0:0:
181,266,139021,1,2,0:0:0:0:
110,230,139223,6,0,P|68:252|22:272,2,94.499997116089,0|0|0,1:0|1:0|1:0,0:0:0:0:
9,37,140034,2,0,P|67:26|93:22,1,62.9999980773926,2|0,0:0|0:0,0:0:0:0:
142,74,140440,6,0,P|155:52|178:12,1,62.9999980773926,2|0,0:0|0:0,0:0:0:0:
79,159,140845,2,0,P|122:177|194:164,2,94.499997116089,2|0|0,1:2|1:0|1:0,0:0:0:0:
172,295,141858,5,0,0:0:0:0:
321,293,142061,1,0,0:0:0:0:
225,367,142264,1,0,0:0:0:0:
359,190,142467,5,0,1:0:0:0:
246,254,142771,1,0,1:0:0:0:
475,334,143075,1,0,1:0:0:0:
285,28,143480,6,0,P|328:17|358:12,1,62.9999980773926,2|0,0:0|0:0,0:0:0:0:
417,52,143885,1,2,0:0:0:0:
270,155,144088,6,0,P|222:137|137:105,1,125.999996154785,2|0,1:2|0:0,0:0:0:0:
0,98,144696,2,0,B|78:130|23:146|99:186,1,125.999996154785,2|2,1:2|0:0,0:0:0:0:
145,229,145304,1,0,0:0:0:0:
102,308,145507,1,2,0:0:0:0:
184,299,145710,5,0,1:0:0:0:
336,229,146014,1,0,1:2:0:0:
486,358,146318,1,0,1:0:0:0:
500,173,146723,6,0,P|458:166|429:162,1,62.9999980773926,2|0,0:0|0:0,0:0:0:0:
477,90,147129,1,2,0:0:0:0:
333,14,147331,2,0,P|290:51|283:143,1,125.999996154785,2|0,1:2|0:0,0:0:0:0:
245,245,147940,2,0,P|232:213|221:178,1,62.9999980773926,2|0,1:2|0:0,0:0:0:0:
178,295,148345,1,2,0:0:0:0:
297,305,148548,1,0,0:0:0:0:
234,359,148750,1,2,0:0:0:0:
141,215,148953,5,0,1:0:0:0:
315,162,149257,1,0,1:0:0:0:
216,50,149561,1,0,1:0:0:0:
78,176,149967,6,0,P|38:170|3:165,1,62.9999980773926,2|0,1:2|0:0,0:0:0:0:
50,95,150372,1,2,1:2:0:0:
175,119,150575,2,0,P|211:93|291:41,1,125.999996154785,0|0,1:0|0:0,0:0:0:0:
293,191,151183,2,0,P|358:177|427:167,1,125.999996154785,2|2,1:2|0:0,0:0:0:0:
486,83,151791,1,0,0:0:0:0:
506,9,151994,1,0,0:0:0:0:
424,175,152196,5,0,1:0:0:0:
505,274,152500,1,0,1:0:0:0:
436,384,152804,1,0,1:0:0:0:
436,384,153007,2,0,P|443:329|450:247,1,125.999996154785,2|0,0:0|0:0,0:0:0:0:
361,278,153615,1,2,0:0:0:0:
283,242,153818,5,2,1:2:0:0:
112,274,154122,1,0,1:0:0:0:
259,323,154426,1,0,1:0:0:0:
161,204,154831,5,0,0:0:0:0:
144,362,155034,1,0,0:0:0:0:
203,264,155237,1,0,0:0:0:0:
25,209,155440,6,0,P|39:251|58:306,2,94.499997116089,2|0|0,1:2|1:0|1:0,0:0:0:0:
313,33,156858,5,0,0:0:0:0:
313,33,156960,1,0,0:0:0:0:
313,33,157061,2,0,P|319:80|331:133,1,83.9999974365235,2|0,1:2|0:0,0:0:0:0:
502,284,157467,1,10,0:0:0:0:
502,284,157669,2,0,P|441:253|341:282,1,167.999994873047,2|2,1:2|0:0,0:0:0:0:
230,349,158277,1,8,0:0:0:0:
285,207,158480,1,2,0:0:0:0:
123,234,158683,6,0,P|131:176|135:129,1,83.9999974365235,2|0,1:2|0:0,0:0:0:0:
116,243,159088,1,8,0:0:0:0:
12,88,159291,2,0,B|112:103|72:44|199:61,1,167.999994873047,2|2,1:0|0:0,0:0:0:0:
328,108,159899,1,10,0:0:0:0:
232,220,160102,5,2,0:0:0:0:
232,220,160203,1,0,0:0:0:0:
232,220,160304,2,0,B|217:177|217:177|233:123,1,83.9999974365235,2|0,1:2|0:0,0:0:0:0:
256,32,160608,2,0,P|302:27|354:18,1,83.9999974365235,2|0,1:2|0:0,0:0:0:0:
318,120,160913,2,0,P|380:127|498:160,1,167.999994873047,2|2,1:2|0:0,0:0:0:0:
454,58,161521,1,10,0:0:0:0:
456,284,161723,5,2,0:0:0:0:
456,284,161825,1,0,0:0:0:0:
456,284,161926,2,0,P|394:291|321:314,1,125.999996154785,2|0,1:2|1:0,0:0:0:0:
328,318,162331,1,8,0:0:0:0:
200,290,162534,1,2,1:2:0:0:
107,366,162737,2,0,B|116:269|73:305|86:175,1,167.999994873047,2|0,0:0|0:0,0:0:0:0:
326,123,163345,5,0,1:0:0:0:
326,123,163446,1,0,1:0:0:0:
326,123,163548,2,0,P|375:137|478:45,1,167.999994873047,6|0,1:2|1:0,0:0:0:0:
403,276,164156,2,0,P|359:287|299:305,1,83.9999974365235,2|0,0:0|1:0,0:0:0:0:
409,283,164561,1,2,0:0:0:0:
202,225,164764,2,0,P|212:292|218:370,1,125.999996154785,10|0,1:0|0:0,0:0:0:0:
214,358,165169,6,0,P|220:312|251:176,1,167.999994873047,2|2,1:2|1:2,0:0:0:0:
32,230,165777,2,0,P|25:173|19:137,1,83.9999974365235,2|0,0:0|1:0,0:0:0:0:
95,317,166183,1,0,1:0:0:0:
95,317,166284,1,0,1:0:0:0:
95,317,166385,1,10,1:0:0:0:
179,111,166588,5,0,1:0:0:0:
179,111,166690,1,0,1:0:0:0:
179,111,166791,2,0,P|256:91|325:137,1,167.999994873047,2|8,1:2|1:0,0:0:0:0:
465,281,167399,1,0,1:0:0:0:
303,354,167602,1,0,1:0:0:0:
479,358,167804,1,0,1:0:0:0:
285,264,168007,1,8,1:0:0:0:
481,120,168210,5,2,1:2:0:0:
481,120,168311,1,0,0:0:0:0:
481,120,168413,1,10,1:0:0:0:
284,166,168615,1,10,1:0:0:0:
43,38,168818,5,10,1:0:0:0:
240,84,169020,1,10,1:0:0:0:
56,375,169831,5,0,0:0:0:0:
56,375,169933,1,2,0:0:0:0:
56,375,170034,2,0,P|64:314|75:221,1,136.499993751526,6|0,1:0|0:0,0:0:0:0:
78,233,170440,2,0,P|23:244|-22:254,1,90.9999958343508,8|0,1:0|0:0,0:0:0:0:
190,374,170845,2,0,P|205:324|190:257,1,90.9999958343508,0|0,1:0|0:0,0:0:0:0:
58,131,171250,1,10,1:0:0:0:
237,38,171453,5,2,0:1:0:0:
237,38,171554,1,2,0:0:0:0:
237,38,171656,2,0,B|230:124|262:83|250:180,1,136.499993751526,2|0,1:0|0:0,0:0:0:0:
251,180,172061,2,0,P|196:169|148:161,1,90.9999958343508,10|2,1:0|0:1,0:0:0:0:
379,361,172467,2,0,P|388:290|395:250,1,90.9999958343508,2|0,1:0|0:0,0:0:0:0:
289,322,172872,1,10,1:0:0:0:
483,272,173075,1,2,1:0:0:0:
345,174,173277,6,0,L|331:33,1,136.499993751526,2|0,1:2|0:0,0:0:0:0:
335,24,173683,2,0,L|322:118,1,90.9999958343508,8|0,1:0|0:0,0:0:0:0:
121,249,174088,2,0,P|56:261|10:272,1,90.9999958343508,0|0,1:0|0:0,0:0:0:0:
218,364,174494,2,0,B|237:323|237:323|224:255,1,90.9999958343508,8|2,1:0|0:0,0:0:0:0:
85,71,174899,2,0,B|76:115|76:115|95:156,1,90.9999958343508,2|0,1:2|0:0,0:0:0:0:
318,185,175304,5,8,1:0:0:0:
413,88,175507,1,0,0:0:0:0:
286,37,175710,1,0,1:0:0:0:
203,139,175913,1,2,0:2:0:0:
203,139,176014,1,2,1:2:0:0:
203,139,176115,1,10,1:0:0:0:
416,343,176318,5,2,1:0:0:0:
416,343,176419,1,2,1:2:0:0:
416,343,176521,2,0,P|421:273|429:196,1,136.499993751526,2|0,1:2|0:0,0:0:0:0:
425,216,176926,2,0,L|329:243,1,90.9999958343508,10|2,1:0|0:1,0:0:0:0:
104,321,177331,2,0,L|200:348,1,90.9999958343508,0|0,1:0|0:0,0:0:0:0:
321,347,177737,1,10,1:0:0:0:
209,247,177940,1,2,0:1:0:0:
306,128,178142,6,0,P|385:151|471:79,1,181.999991668702,2|10,1:2|1:0,0:0:0:0:
205,54,178750,2,0,B|190:101|190:101|205:152,1,90.9999958343508,2|0,0:0|1:0,0:0:0:0:
332,355,179156,2,0,P|341:299|351:253,1,90.9999958343508,2|8,0:0|1:0,0:0:0:0:
48,328,179561,5,2,1:0:0:0:
48,328,179663,1,0,1:0:0:0:
48,328,179764,2,0,P|37:248|27:187,1,136.499993751526,0|0,1:0|0:0,0:0:0:0:
36,190,180169,2,0,P|82:198|130:203,1,90.9999958343508,8|2,1:0|0:0,0:0:0:0:
277,352,180575,1,0,1:0:0:0:
167,290,180777,1,2,0:0:0:0:
300,197,180980,1,8,1:0:0:0:
219,20,181183,5,2,1:0:0:0:
219,20,181285,1,2,1:0:0:0:
219,20,181386,2,0,P|208:99|198:161,1,136.499993751526,2|0,1:0|0:0,0:0:0:0:
202,172,181791,2,0,P|197:109|193:78,1,90.9999958343508,8|0,1:0|0:0,0:0:0:0:
112,227,182196,1,0,1:0:0:0:
299,110,182399,1,0,1:0:0:0:
299,110,182500,1,0,1:0:0:0:
299,110,182602,1,10,1:0:0:0:
49,19,182804,5,0,1:0:0:0:
49,19,182905,1,0,1:0:0:0:
49,19,183007,2,0,B|56:105|24:64|36:161,1,136.499993751526,6|0,1:0|0:0,0:0:0:0:
33,161,183412,2,0,P|79:154|129:149,1,90.9999958343508,8|2,1:0|0:0,0:0:0:0:
233,337,183818,2,0,B|245:293|245:293|228:232,1,90.9999958343508,0|2,1:0|0:0,0:0:0:0:
25,362,184223,1,10,1:0:0:0:
134,284,184426,1,2,0:0:0:0:
19,158,184629,6,0,P|108:179|213:159,1,181.999991668702,0|8,1:0|1:0,0:0:0:0:
469,119,185237,1,0,0:0:0:0:
327,37,185440,1,0,1:0:0:0:
488,31,185642,1,0,0:0:0:0:
308,120,185845,1,8,1:0:0:0:
493,261,186048,5,0,1:0:0:0:
493,261,186149,1,0,1:0:0:0:
493,261,186250,2,0,L|346:296,1,136.499993751526,2|0,1:0|0:0,0:0:0:0:
352,294,186656,2,0,P|403:305|443:316,1,90.9999958343508,8|0,1:0|0:0,0:0:0:0:
228,161,187061,2,0,P|272:151|316:139,1,90.9999958343508,2|0,1:0|0:0,0:0:0:0:
30,321,187467,2,0,P|74:330|118:342,1,90.9999958343508,8|0,1:0|1:0,0:0:0:0:
125,351,187771,1,0,1:0:0:0:
125,351,187872,6,0,P|116:278|105:200,1,136.499993751526,2|0,1:0|0:0,0:0:0:0:
102,208,188277,1,10,1:0:0:0:
203,300,188480,1,2,0:0:0:0:
5,244,188683,1,0,1:0:0:0:
170,136,188885,1,2,0:0:0:0:
318,276,189088,1,8,1:0:0:0:
473,109,189291,5,0,1:0:0:0:
473,109,189392,1,0,1:0:0:0:
473,109,189494,2,0,P|479:172|487:237,1,90.9999958343508,2|2,1:0|0:0,0:0:0:0:
393,372,189899,2,0,P|398:326|402:281,1,90.9999958343508,10|0,1:0|0:0,0:0:0:0:
301,347,190304,1,0,1:0:0:0:
494,285,190507,1,0,0:0:0:0:
365,174,190710,2,0,P|318:183|275:189,1,90.9999958343508,8|0,1:0|0:0,0:0:0:0:
27,324,191115,6,0,P|100:300|171:317,1,136.499993751526,2|0,1:0|0:0,0:0:0:0:
161,319,191521,1,8,1:0:0:0:
53,213,191723,2,0,B|38:170|38:170|52:121,1,90.9999958343508,2|0,0:0|1:0,0:0:0:0:
215,48,192129,2,0,L|123:30,1,90.9999958343508,2|8,0:0|1:0,0:0:0:0:
220,59,192534,1,0,0:0:0:0:
152,222,192737,6,0,P|239:211|323:276,1,181.999991668702,0|8,1:0|1:0,0:0:0:0:
497,331,193345,1,0,0:0:0:0:
400,384,193548,2,0,B|385:339|385:339|401:294,1,90.9999958343508,0|0,1:0|0:0,0:0:0:0:
337,131,193953,2,0,P|285:140|248:147,1,90.9999958343508,10|0,1:0|0:0,0:0:0:0:
479,226,194358,2,0,B|494:181|494:181|478:136,1,90.9999958343508,0|0,1:0|0:0,0:0:0:0:
345,223,194764,1,10,1:0:0:0:
371,43,194967,6,0,P|326:34|281:26,1,90.9999958343508,2|0,0:0|1:0,0:0:0:0:
486,30,195372,1,2,1:0:0:0:
486,30,195473,1,0,1:0:0:0:
486,30,195575,1,8,1:0:0:0:
252,140,195777,1,2,1:0:0:0:
252,140,195879,1,0,1:0:0:0:
252,140,195980,2,0,P|287:130|355:120,1,90.9999958343508,0|0,1:0|0:0,0:0:0:0:
483,352,196385,6,0,P|488:322|503:297,1,52.5000020027161,10|0,1:0|0:0,0:0:0:0:
512,286,196588,2,0,P|466:271|406:233,1,105.000004005432,2|0,0:0|1:0,0:0:0:0:
289,277,196994,1,0,0:0:0:0:
252,140,197196,1,8,1:0:0:0:
512,157,197399,6,0,P|477:153|444:143,1,52.5000020027161,2|0,0:0|0:0,0:0:0:0:
417,242,197602,2,0,B|391:186|427:160|427:160|439:154|439:154|489:120|452:42,1,210.000008010865,2|10,1:0|1:0,0:0:0:0:
363,0,198210,2,0,B|354:52|354:52|378:98,1,105.000004005432,2|0,0:0|1:0,0:0:0:0:
491,282,198615,1,2,0:0:0:0:
316,215,198818,1,10,1:0:0:0:
491,282,199020,1,2,0:0:0:0:
177,384,199223,5,2,1:0:0:0:
122,300,199426,1,2,0:0:0:0:
216,270,199629,1,10,1:0:0:0:
269,358,199831,2,0,B|377:342|307:305|437:300,1,157.500006008148,2|0,1:0|0:0,0:0:0:0:
414,305,200237,2,0,B|429:259|429:259|392:198,1,105.000004005432,2|8,1:0|1:0,0:0:0:0:
216,270,200642,5,2,1:0:0:0:
216,270,200744,1,2,1:0:0:0:
216,270,200845,2,0,B|167:201|167:201|210:122,1,157.500006008148,2|0,1:0|0:0,0:0:0:0:
201,136,201250,2,0,P|162:149|94:145,1,105.000004005432,8|2,1:0|0:0,0:0:0:0:
70,162,201554,1,2,0:0:0:0:
70,162,201656,1,2,1:0:0:0:
152,22,201858,2,0,P|181:31|204:34,1,52.5000020027161
320,53,202061,1,8,1:0:0:0:
295,271,202264,5,2,1:0:0:0:
307,249,202365,1,2,1:0:0:0:
321,242,202467,2,0,B|365:217|408:230|408:230|432:201|432:201|477:210|529:186,1,210.000008010865,2|8,1:0|1:0,0:0:0:0:
328,343,203075,1,2,0:0:0:0:
198,266,203277,2,0,P|178:244|241:145,1,157.500006008148,0|0,1:0|0:0,0:0:0:0:
225,145,203683,1,8,1:0:0:0:
86,219,203885,5,0,1:0:0:0:
86,219,203987,1,0,1:0:0:0:
86,219,204088,2,0,P|22:197|-28:183,1,105.000004005432,0|0,1:0|0:0,0:0:0:0:
208,283,204494,1,10,1:0:0:0:
355,155,204696,2,0,P|368:150|395:146,2,35.0000013351441,2|0|0,1:0|0:0|0:0,0:0:0:0:
295,217,204899,5,2,1:0:0:0:
290,264,205000,1,2,0:0:0:0:
318,299,205102,1,2,0:0:0:0:
362,300,205203,1,2,0:0:0:0:
395,279,205304,1,10,1:0:0:0:
420,272,205406,1,2,0:0:0:0:
437,281,205507,1,2,0:0:0:0:
454,301,205608,1,2,0:0:0:0:
449,310,205710,5,2,1:0:0:0:
412,279,205811,1,2,0:0:0:0:
421,227,205913,1,2,0:0:0:0:
458,199,206014,1,2,0:0:0:0:
481,198,206115,5,10,1:0:0:0:
510,155,206217,1,2,0:0:0:0:
492,112,206318,1,2,0:0:0:0:
456,102,206419,1,2,0:0:0:0:
445,109,206521,6,0,P|412:116|388:119,1,52.5000020027161,2|0,1:0|0:0,0:0:0:0:
196,147,206723,1,2,0:0:0:0:
254,266,206926,2,0,B|352:171|266:52|266:52,1,210.000008010865,8|0,1:0|1:0,0:0:0:0:
201,28,207534,1,2,0:0:0:0:
83,74,207737,1,10,1:0:0:0:
35,217,207940,1,2,0:0:0:0:
156,359,208142,2,0,P|204:346|286:345,1,105.000004005432,2|0,1:0|0:0,0:0:0:0:
271,348,208446,1,2,0:0:0:0:
289,367,208548,2,0,P|297:341|295:296,1,52.5000020027161,8|0,1:0|0:0,0:0:0:0:
225,137,208750,5,2,1:0:0:0:
205,110,208852,1,2,1:0:0:0:
184,96,208953,2,2,B|113:108|88:24|112:-39|246:-45|303:25|315:125,1,357.000006809235,6|2,1:0|1:0,0:1:0:0:
424,234,209764,5,2,1:0:0:0:
409,226,209865,1,2,0:0:0:0:
396,217,209967,1,2,0:0:0:0:
384,206,210068,1,2,0:0:0:0:
404,177,210169,5,10,1:0:0:0:
342,178,210271,1,2,0:0:0:0:
301,205,210372,1,2,0:0:0:0:
279,248,210473,1,2,0:0:0:0:
285,262,210575,5,2,1:0:0:0:
253,288,210676,1,2,0:0:0:0:
205,296,210777,1,2,0:0:0:0:
156,282,210879,1,2,0:0:0:0:
152,270,210980,2,0,P|161:233|162:201,1,59.5000011348725,10|0,1:0|0:0,0:0:0:0:
34,34,211183,5,2,0:0:0:0:
34,34,211284,1,2,0:0:0:0:
34,34,211385,2,0,P|37:78|58:115,1,59.5000011348725,2|0,1:0|0:0,0:0:0:0:
254,151,211588,2,0,P|211:141|167:129,1,59.5000011348725,2|0,0:0|0:0,0:0:0:0:
0,183,211791,2,0,P|30:179|127:147,1,105.000004005432,10|0,1:0|1:0,0:0:0:0:
113,143,212095,1,0,1:0:0:0:
113,143,212196,1,2,1:0:0:0:
267,59,212399,1,2,0:0:0:0:
438,227,212602,5,10,1:0:0:0:
347,187,212804,2,0,P|293:179|226:177,2,105.000004005432,2|0|0,0:0|1:0|0:0,0:0:0:0:
446,233,213413,1,10,1:0:0:0:
507,304,213615,1,2,0:0:0:0:
334,54,213818,5,2,1:0:0:0:
346,186,214021,1,2,0:0:0:0:
358,318,214223,2,0,B|272:302|272:302|256:286|256:286|116:266,1,210.000008010865,10|0,1:0|1:0,0:0:0:0:
104,383,214831,1,0,1:0:0:0:
104,383,214933,1,0,1:0:0:0:
104,383,215034,2,0,P|100:347|92:310,1,52.5000020027161,8|0,1:0|0:0,0:0:0:0:
0,276,215237,2,0,P|9:252|16:227,1,52.5000020027161,0|0,1:0|0:0,0:0:0:0:
150,83,215440,5,2,1:0:0:0:
182,112,215575,2,0,P|234:120|272:121,1,70.0000026702882
512,110,215845,5,10,1:0:0:0:
468,140,215980,2,0,P|433:142|391:150,1,74.6666666666667
109,166,216250,5,2,1:0:0:0:
172,212,216385,2,0,P|224:220|271:222,1,79.3333348464966
512,217,216655,5,10,1:0:0:0:
440,266,216791,2,0,P|405:268|332:285,1,83.9999974365235
150,83,217061,5,2,1:0:0:0:
186,72,217196,1,2,0:0:0:0:
225,82,217331,1,2,0:0:0:0:
277,139,217467,5,10,1:0:0:0:
318,167,217602,1,2,0:0:0:0:
364,158,217737,1,2,0:0:0:0:
427,107,217872,5,2,1:0:0:0:
500,122,218007,1,2,0:0:0:0:
512,203,218142,1,2,0:0:0:0:
440,266,218277,6,0,P|426:308|425:334,3,44.3333321495057,10|0|0|0,1:0|0:0|0:0|0:0,0:0:0:0:
443,179,218548,1,0,0:0:0:0:
374,384,218683,5,6,1:0:0:0:
231,273,218885,1,0,1:0:0:0:
364,158,219088,1,0,1:0:0:0:
492,282,219291,1,2,1:0:0:0:
358,264,219494,5,0,1:0:0:0:
189,172,219696,1,0,1:0:0:0:
175,341,219899,5,2,1:0:0:0:
343,187,220102,1,2,1:0:0:0:
136,62,220304,5,0,1:0:0:0:
294,115,220507,1,0,1:0:0:0:
458,59,220710,5,8,1:0:0:0:
294,115,220913,1,8,1:0:0:0:
38,146,221115,5,0,1:0:0:0:
166,250,221318,1,0,1:0:0:0:
262,27,221521,2,0,P|270:76|282:124,1,66.4999982242585,8|0,1:0|1:0,0:0:0:0:
440,147,221723,5,2,1:0:0:0:
460,192,221825,1,2,1:0:0:0:
426,225,221926,2,0,B|225:208|355:102|128:84,1,336,2|0,1:0|0:0,0:0:0:0:
155,349,223548,6,0,B|171:313|171:313|157:271,1,83.9999974365235,2|0,1:0|0:0,0:0:0:0:
129,163,223953,1,10,0:0:0:0:
30,256,224156,2,0,P|99:249|202:225,1,167.999994873047,2|0,1:0|0:0,0:0:0:0:
215,217,224764,1,8,0:0:0:0:
297,139,224967,1,2,0:0:0:0:
352,308,225169,2,0,P|311:287|302:236,1,83.9999974365235,2|0,1:0|0:0,0:0:0:0:
371,187,225575,1,8,0:0:0:0:
471,67,225777,2,0,P|468:133|459:253,1,167.999994873047,0|0,1:0|0:0,0:0:0:0:
480,321,226385,1,8,0:0:0:0:
352,308,226588,5,2,1:0:0:0:
352,308,226690,1,0,1:0:0:0:
352,308,226791,2,0,P|300:313|245:331,1,83.9999974365235,2|0,1:0|0:0,0:0:0:0:
164,382,227095,2,0,P|182:338|177:271,1,83.9999974365235,0|0,1:0|0:0,0:0:0:0:
70,256,227399,2,0,B|173:254|110:202|253:202,1,167.999994873047,2|0,1:0|0:0,0:0:0:0:
307,259,228007,1,10,0:0:0:0:
297,71,228210,5,2,1:0:0:0:
297,71,228311,1,0,1:0:0:0:
297,71,228413,2,0,B|278:110|278:110|298:168,1,83.9999974365235,2|0,0:0|0:0,0:0:0:0:
335,174,228717,1,0,1:0:0:0:
335,174,228818,1,8,0:0:0:0:
494,118,229021,1,2,1:0:0:0:
419,241,229223,2,0,B|457:154|382:170|427:64,1,167.999994873047,2|8,0:0|0:0,0:0:0:0:
231,161,229831,5,0,1:0:0:0:
231,161,229933,1,0,1:0:0:0:
231,161,230034,2,0,P|154:172|45:201,1,167.999994873047,6|0,1:0|1:0,0:0:0:0:
280,71,230642,2,0,P|221:55|176:33,1,83.9999974365235,2|0,0:0|1:0,0:0:0:0:
315,143,231048,1,2,0:0:0:0:
308,348,231250,2,0,P|274:318|285:227,1,125.999996154785,10|0,1:0|0:0,0:0:0:0:
280,241,231656,6,0,B|386:252|329:295|447:302,1,167.999994873047,2|8,1:0|1:1,0:0:0:0:
502,124,232264,1,2,0:0:0:0:
424,175,232467,1,0,1:0:0:0:
256,75,232669,1,2,1:0:0:0:
256,75,232771,1,0,1:0:0:0:
256,75,232872,1,10,1:0:0:0:
152,246,233075,5,2,1:0:0:0:
152,246,233176,1,0,1:0:0:0:
152,246,233277,2,0,P|142:190|124:69,1,167.999994873047,2|8,1:0|1:0,0:0:0:0:
125,80,233885,1,0,1:0:0:0:
32,158,234088,1,0,1:0:0:0:
152,246,234291,1,0,1:0:0:0:
300,164,234494,1,8,1:0:0:0:
468,312,234696,5,0,1:0:0:0:
468,312,234798,1,0,1:0:0:0:
468,312,234899,1,10,1:0:0:0:
355,82,235102,1,8,1:0:0:0:
241,330,235304,5,10,1:0:0:0:
510,177,235507,1,10,1:0:0:0:
256,192,259223,12,0,262061,0:0:0:0:
348,142,262467,6,0,B|221:166|301:207|174:225,1,181.999991668702,6|8,1:0|1:0,0:0:0:0:
414,317,263075,2,0,B|392:274|392:274|411:233,1,90.9999958343508,2|0,0:0|1:0,0:0:0:0:
418,104,263480,1,0,0:0:0:0:
183,130,263683,1,10,1:0:0:0:
65,345,263885,5,2,0:1:0:0:
65,345,263987,1,2,0:0:0:0:
65,345,264088,2,0,P|89:297|65:184,1,157.500006008148,2|0,1:0|0:0,0:0:0:0:
64,186,264494,1,10,1:0:0:0:
180,287,264696,1,2,0:2:0:0:
305,232,264899,2,0,P|252:221|198:212,1,90.9999958343508,0|0,1:0|0:0,0:0:0:0:
391,160,265304,1,10,1:0:0:0:
448,297,265507,5,2,1:0:0:0:
448,297,265608,1,0,1:0:0:0:
448,297,265710,2,0,P|454:245|461:193,1,90.9999958343508,2|0,1:2|0:0,0:0:0:0:
512,46,266115,2,0,P|461:75|327:37,1,181.999991668702,8|0,1:0|1:0,0:0:0:0:
276,93,266723,1,0,0:0:0:0:
84,131,266926,2,0,P|126:136|190:174,1,90.9999958343508,8|2,1:0|0:0,0:0:0:0:
194,191,267230,5,2,0:0:0:0:
194,191,267331,2,0,B|217:88|150:117|182:7,1,181.999991668702,2|8,1:2|1:0,0:0:0:0:
377,225,267940,2,0,P|318:196|273:180,1,90.9999958343508,2|0,0:0|1:0,0:0:0:0:
134,247,268345,1,2,0:2:0:0:
249,364,268548,1,10,1:0:0:0:
468,287,268750,5,2,1:0:0:0:
468,287,268852,1,2,1:2:0:0:
468,287,268953,2,0,P|476:237|498:181,1,90.9999958343508,2|0,1:2|0:0,0:0:0:0:
382,132,269358,1,10,1:0:0:0:
271,276,269561,2,0,P|328:286|374:305,1,90.9999958343508,2|0,0:1|1:0,0:0:0:0:
468,287,269967,1,0,0:0:0:0:
260,286,270169,1,10,1:0:0:0:
191,203,270372,5,2,0:1:0:0:
191,203,270473,1,2,0:2:0:0:
191,203,270575,2,0,P|125:203|0:265,1,181.999991668702,2|10,1:2|1:0,0:0:0:0:
296,178,271183,2,0,B|321:140|321:140|304:92,1,90.9999958343508,2|0,0:0|1:0,0:0:0:0:
242,22,271588,1,2,0:0:0:0:
388,69,271791,1,8,1:0:0:0:
202,116,271994,1,2,0:0:0:0:
202,116,272095,1,0,0:0:0:0:
202,116,272196,2,0,P|150:112|43:99,1,136.499993751526,0|0,1:0|0:0,0:0:0:0:
54,98,272602,2,0,B|22:137|22:137|34:186,1,90.9999958343508,8|2,1:0|0:0,0:0:0:0:
108,357,273007,5,0,1:0:0:0:
215,286,273210,1,2,0:0:0:0:
139,196,273413,1,8,1:0:0:0:
39,263,273615,1,2,1:0:0:0:
39,263,273717,1,2,1:0:0:0:
39,263,273818,2,0,P|80:266|140:292,1,90.9999958343508,2|0,1:0|0:0,0:0:0:0:
259,189,274223,2,0,B|365:178|295:129|453:117,1,181.999991668702,8|0,1:0|1:0,0:0:0:0:
370,244,274831,1,0,1:0:0:0:
370,244,274933,1,0,1:0:0:0:
370,244,275034,1,10,1:0:0:0:
230,113,275237,5,0,1:0:0:0:
230,113,275338,1,0,1:0:0:0:
230,113,275440,2,0,B|301:200|222:283|222:283,2,181.999991668702,6|8|0,1:0|1:0|1:0,0:0:0:0:
154,149,276453,1,2,0:0:0:0:
308,293,276656,2,0,P|356:284|404:284,1,90.9999958343508,10|0,1:0|0:0,0:0:0:0:
481,151,277061,6,0,P|391:160|302:84,1,181.999991668702,2|8,1:0|1:0,0:0:0:0:
270,49,277669,1,0,0:0:0:0:
134,145,277872,1,0,1:0:0:0:
297,130,278075,1,0,0:0:0:0:
133,67,278277,1,10,1:0:0:0:
196,236,278480,5,0,1:0:0:0:
198,254,278581,1,0,1:0:0:0:
200,268,278683,2,0,B|171:166|235:203|207:80,1,181.999991668702,2|8,1:0|1:0,0:0:0:0:
118,207,279291,1,0,0:0:0:0:
303,207,279494,6,0,P|355:188|404:66,1,181.999991668702,2|8,1:0|1:0,0:0:0:0:
355,282,280102,1,0,1:0:0:0:
355,282,280203,1,0,1:0:0:0:
355,282,280304,1,2,1:0:0:0:
276,322,280507,1,0,0:0:0:0:
230,252,280710,1,10,1:0:0:0:
104,138,280913,6,0,P|59:152|-14:172,1,90.9999958343508,2|0,0:0|1:0,0:0:0:0:
229,20,281318,2,0,P|274:34|347:54,1,90.9999958343508,2|8,0:0|1:0,0:0:0:0:
143,50,281723,5,0,1:0:0:0:
143,50,281825,1,0,1:0:0:0:
143,50,281926,1,2,1:0:0:0:
251,117,282129,1,2,0:0:0:0:
111,257,282331,2,0,B|223:262|186:310|306:328,1,181.999991668702,10|0,1:0|1:0,0:0:0:0:
410,156,282940,5,0,0:0:0:0:
335,120,283142,2,0,L|297:208,1,90.9999958343508,8|0,1:0|1:0,0:0:0:0:
245,35,283548,6,0,P|168:26|81:116,1,181.999991668702,2|8,1:0|1:0,0:0:0:0:
216,217,284156,2,0,L|183:114,1,90.9999958343508,2|0,0:0|1:0,0:0:0:0:
34,273,284561,2,0,B|82:289|82:289|127:274,1,90.9999958343508,2|8,0:0|1:0,0:0:0:0:
305,344,284967,5,0,0:0:0:0:
305,344,285068,1,0,0:0:0:0:
305,344,285169,2,0,P|404:327|506:309,1,181.999991668702,2|8,1:0|1:0,0:0:0:0:
424,193,285777,1,0,1:0:0:0:
363,243,285980,1,0,1:0:0:0:
242,117,286183,1,2,1:0:0:0:
290,281,286385,1,8,1:0:0:0:
329,122,286588,5,0,1:0:0:0:
329,122,286690,1,0,1:0:0:0:
329,122,286791,2,0,B|210:136|277:187|129:196,1,181.999991668702,2|10,1:0|1:0,0:0:0:0:
40,114,287399,1,2,0:0:0:0:
99,245,287602,1,0,1:0:0:0:
131,115,287804,1,2,1:0:0:0:
140,81,287906,1,0,1:0:0:0:
151,49,288007,1,8,1:0:0:0:
0,265,288210,5,0,1:0:0:0:
0,265,288311,1,0,1:0:0:0:
0,265,288413,2,0,B|111:287|39:335|166:355,1,181.999991668702,6|8,1:0|1:0,0:0:0:0:
284,384,289021,2,0,B|274:343|274:343|324:292,1,90.9999958343508,2|0,0:0|1:0,0:0:0:0:
394,344,289426,1,2,0:0:0:0:
330,215,289629,1,10,1:0:0:0:
453,279,289831,5,2,0:0:0:0:
462,275,289933,1,0,0:0:0:0:
477,264,290034,2,0,P|481:176|483:82,1,181.999991668702,0|8,1:0|1:0,0:0:0:0:
260,129,290642,1,0,0:0:0:0:
394,66,290845,1,0,1:0:0:0:
309,197,291048,1,0,1:0:0:0:
324,34,291250,1,8,1:0:0:0:
146,104,291453,5,2,0:0:0:0:
131,103,291554,1,2,0:0:0:0:
104,114,291656,2,0,P|168:123|219:237,1,181.999991668702,2|8,1:0|1:0,0:0:0:0:
221,218,292264,1,0,0:0:0:0:
27,268,292467,2,0,B|152:285|74:320|205:343,1,181.999991668702,2|8,1:0|1:0,0:0:0:0:
121,204,293075,5,0,1:0:0:0:
121,204,293176,1,0,1:0:0:0:
121,204,293277,1,2,1:0:0:0:
0,141,293480,1,0,0:0:0:0:
214,152,293683,5,10,1:0:0:0:
335,104,293885,2,0,P|342:53|348:2,1,90.9999958343508,2|0,0:0|1:0,0:0:0:0:
205,241,294291,2,0,P|216:285|227:345,1,90.9999958343508,2|8,0:0|1:0,0:0:0:0:
450,208,294696,5,0,1:0:0:0:
452,202,294798,1,0,1:0:0:0:
452,196,294899,2,0,B|323:200|391:245|264:256,1,181.999991668702,2|10,1:0|1:0,0:0:0:0:
283,253,295507,1,0,0:0:0:0:
309,114,295710,1,0,1:0:0:0:
380,141,295913,1,0,0:0:0:0:
362,290,296115,1,8,1:0:0:0:
223,323,296318,5,0,1:0:0:0:
211,303,296419,1,0,1:0:0:0:
201,289,296521,2,0,B|191:209|176:103,1,181.999991668702,2|8,1:0|1:0,0:0:0:0:
77,262,297129,2,0,L|55:350,1,90.9999958343508,2|0,0:0|1:0,0:0:0:0:
17,208,297534,1,2,0:0:0:0:
87,178,297737,1,8,1:0:0:0:
146,228,297940,1,0,0:0:0:0:
298,296,298142,5,0,1:0:0:0:
336,228,298345,1,0,0:0:0:0:
294,163,298548,5,0,1:0:0:0:
265,91,298750,1,0,1:0:0:0:
294,18,298953,5,0,1:0:0:0:
409,58,299156,1,8,1:0:0:0:
265,91,299358,5,2,1:0:0:0:
152,147,299561,1,8,1:0:0:0:
294,163,299764,5,2,1:0:0:0:
415,214,299967,1,8,1:0:0:0:
336,228,300169,5,2,1:0:0:0:
227,267,300372,1,10,1:0:0:0:
298,296,300575,1,0,1:0:0:0:
265,384,300777,5,10,1:0:0:0:
265,384,300879,1,0,1:0:0:0:
265,384,300980,1,0,1:0:0:0:
265,384,301081,1,0,1:0:0:0:
265,384,301183,1,10,1:0:0:0:
265,384,301284,1,0,1:0:0:0:
265,384,301385,1,6,1:0:0:0:
256,192,301487,12,0,307061,0:0:0:0:
272,224,307467,5,0,0:0:0:0:
220,287,307669,1,0,0:0:0:0:
220,287,307872,2,0,B|319:268|249:237|373:213,2,168,2|0|0,0:0|0:0|0:0,0:0:0:0:
119,384,309330,2,0,P|144:323|92:233,1,168,2|0,0:0|0:0,0:0:0:0:
6,134,310163,2,0,P|45:143|129:161,1,112,2|0,0:0|0:0,0:0:0:0:
397,197,310997,5,0,0:0:0:0:
377,116,311205,2,0,P|317:116|255:204,1,168,2|0,0:0|0:0,0:0:0:0:
265,203,312247,2,0,P|225:192|189:191,1,56,2|0,0:0|0:0,0:0:0:0:
115,283,312663,2,0,B|131:203|131:203|126:195|126:195|148:73,1,195.999994018555,2|0,0:0|0:0,0:0:0:0:
350,19,313765,6,0,P|298:28|318:171,1,224,2|0,0:0|0:0,0:0:0:0:
310,186,314765,1,0,0:0:0:0:
310,186,314876,2,0,B|266:357|411:431|512:369|418:245|303:278|303:278|271:290|135:301|76:263|42:174|65:96|140:55|218:70|299:180|219:373|134:403|-2:368|-2:368|47:365|80:338,1,1260,2|0,0:0|0:0,0:0:0:0:
