osu file format v14

[General]
AudioFilename: audio.mp3
AudioLeadIn: 0
PreviewTime: 67346
Countdown: 0
SampleSet: Soft
StackLeniency: 0.7
Mode: 0
LetterboxInBreaks: 0
WidescreenStoryboard: 1

[Editor]
Bookmarks: 64371
DistanceSpacing: 1.5
BeatDivisor: 4
GridSize: 4
TimelineZoom: 1.6

[Metadata]
Title:Hope Alive
TitleUnicode:Hope Alive
Artist:Falcom Sound Team jdk
ArtistUnicode:Falcom Sound Team jdk
Creator:Shurelia
Version:Yogurkk's Nightmare
Source:イースVIII -Lacrimosa of DANA-
Tags:J.D.K. Ys VIII 8 Lacrimosa Io DANA Alive 真我 光生 Mitsuo Singa video game JRPG instrumental rock silent_rock shizuku- shikibe mayu ayesha altugle kazato asa creamy candy ponbot yogurtt zekk
BeatmapID:4210439
BeatmapSetID:2007277

[Difficulty]
HPDrainRate:6
CircleSize:4
OverallDifficulty:8
ApproachRate:9
SliderMultiplier:1.8
SliderTickRate:1

[Events]
//Background and Video events
0,0,"hopealivebg.jpg",0,0
//Break Periods
2,91654,95881
//Storyboard Layer 0 (Background)
//Storyboard Layer 1 (Fail)
//Storyboard Layer 2 (Pass)
//Storyboard Layer 3 (Foreground)
//Storyboard Layer 4 (Overlay)
//Storyboard Sound Samples

[TimingPoints]
642,324.324324324324,4,2,1,60,1,0
642,-111.111111111111,4,2,1,60,0,0
9560,-200,4,2,1,60,0,0
10858,-142.857142857143,4,2,1,60,0,0
12155,-100,4,2,1,70,0,0
20831,-66.6666666666667,4,2,1,70,0,0
21236,-166.666666666667,4,2,1,70,0,0
23020,-100,4,2,1,70,0,0
23993,-100,4,2,1,70,0,0
44750,-142.857142857143,4,2,1,60,0,0
51885,-142.857142857143,4,2,1,60,0,0
53344,-100,4,2,1,60,0,0
55128,-100,4,2,1,70,0,0
65669,-83.3333333333333,4,2,1,70,0,0
66641,-100,4,2,1,70,0,0
66966,-50,4,2,1,70,0,0
67129,290.556900726392,4,2,1,70,1,0
67129,-71.4285714285714,4,2,1,70,0,0
67346,-71.4285714285714,4,2,1,5,0,0
67425,338.983050847457,4,2,1,60,1,0
67425,-500,4,2,1,60,0,0
67679,-500,4,2,1,5,0,0
67763,-500,4,2,1,60,0,0
68018,-500,4,2,1,5,0,0
68103,324.324324324324,4,2,1,80,1,1
68427,-100,4,2,1,80,0,1
73292,-111.111111111111,4,2,1,70,0,0
75886,-90.9090909090908,4,2,1,80,0,1
76211,-100,4,2,1,80,0,1
77832,-111.111111111111,4,2,1,70,0,0
78481,-100,4,2,1,80,0,1
88859,-153.846153846153,4,2,1,60,0,0
90157,-153.846153846153,4,2,1,70,0,0
91454,-142.857142857143,4,2,1,60,0,0
97130,-117.647058823529,4,2,1,60,0,0
100373,-200,4,2,1,60,0,0
101670,-142.857142857143,4,2,1,60,0,0
102967,-100,4,2,1,70,0,0
112048,-166.666666666667,4,2,1,70,0,0
113508,-100,4,2,1,70,0,0

[Colours]
Combo1 : 250,180,240
Combo2 : 120,200,230
Combo3 : 255,230,130
Combo4 : 160,230,150

[HitObjects]
138,93,155,5,2,0:0:0:0:
121,121,317,1,2,0:0:0:0:
201,153,479,1,2,0:0:0:0:
228,245,642,2,0,L|215:332,1,80.9999975280762,2|0,0:0|0:0,0:0:0:0:
228,245,966,1,0,0:0:0:0:
310,295,1128,6,0,P|373:307|469:256,1,161.999995056152,2|0,0:0|0:0,0:0:0:0:
369,216,1614,1,0,0:0:0:0:
244,356,1777,2,0,P|173:318|94:328,1,161.999995056152,2|0,0:0|0:0,0:0:0:0:
144,219,2263,2,0,L|138:113,1,80.9999975280762,0|2,0:0|0:0,0:0:0:0:
411,191,2750,5,0,0:0:0:0:
376,211,2912,1,0,0:0:0:0:
359,121,3074,1,0,0:0:0:0:
286,95,3236,2,0,P|275:56|280:0,1,80.9999975280762,2|0,0:0|0:0,0:0:0:0:
380,100,3560,1,0,0:0:0:0:
264,186,3723,6,0,P|197:184|107:267,1,161.999995056152,2|0,0:0|0:0,0:0:0:0:
63,133,4209,1,0,0:0:0:0:
181,105,4371,2,0,L|210:291,1,161.999995056152,2|0,0:0|0:0,0:0:0:0:
49,378,4858,2,0,L|56:297,1,80.9999975280762,0|2,0:0|0:0,0:0:0:0:
364,322,5344,5,0,0:0:0:0:
243,358,5506,1,2,0:0:0:0:
302,210,5669,1,0,0:0:0:0:
482,314,5831,2,0,P|490:239|454:136,1,161.999995056152,2|0,3:2|3:2,0:0:0:0:
319,118,6317,2,0,P|278:131|208:145,1,80.9999975280763,2|0,0:0|3:2,0:0:0:0:
92,69,6641,1,0,0:0:0:0:
242,140,6804,1,0,3:2:0:0:
36,231,6966,6,0,P|115:244|195:261,1,161.999995056153,2|0,0:0|0:0,0:0:0:0:
360,363,7452,1,0,3:2:0:0:
246,340,7614,2,0,P|226:276|260:171,1,161.999995056153,2|0,0:0|0:0,0:0:0:0:
386,164,8101,1,0,3:2:0:0:
307,263,8263,1,0,0:0:0:0:
309,78,8425,1,10,3:2:0:0:
497,195,8587,1,2,0:0:0:0:
497,195,8912,5,0,0:0:0:0:
421,232,9074,1,10,0:0:0:0:
307,165,9236,1,8,0:3:0:0:
177,278,9398,1,8,0:3:0:0:
47,153,9560,1,6,0:0:0:0:
256,192,9641,12,0,10858,3:2:0:0:
118,211,11182,6,0,L|131:282,1,62.9999980773926,0|8,3:2|0:0,0:0:0:0:
325,206,11506,1,0,3:2:0:0:
203,164,11669,6,0,L|209:133,1,31.4999990386963,8|0,0:3|0:0,0:0:0:0:
174,48,11831,1,0,3:2:0:0:
234,252,11993,1,4,0:3:0:0:
442,75,12155,6,0,P|382:59|284:137,1,180,6|0,0:0|3:2,0:0:0:0:
391,242,12641,2,0,B|395:198|395:198|381:143,1,90,10|0,0:0|0:0,0:0:0:0:
314,296,12966,2,0,B|310:340|310:340|321:384,1,90,2|0,3:2|3:2,0:0:0:0:
466,292,13290,1,10,0:0:0:0:
306,206,13452,1,0,0:0:0:0:
224,353,13614,1,2,3:2:0:0:
402,231,13777,1,0,3:2:0:0:
239,131,13939,1,10,0:0:0:0:
239,131,14263,5,10,0:0:0:0:
394,329,14425,1,2,3:2:0:0:
197,249,14587,1,10,0:0:0:0:
18,353,14750,2,0,P|0:288|21:168,1,180,6|0,0:0|3:2,0:0:0:0:
121,105,15236,1,10,0:0:0:0:
165,266,15398,2,0,L|152:332,1,45,0|0,3:2|0:0,0:0:0:0:
286,219,15560,1,10,0:0:0:0:
380,268,15723,1,0,3:2:0:0:
376,163,15885,1,10,0:0:0:0:
345,216,16047,5,0,3:2:0:0:
104,130,16209,1,8,3:2:0:0:
192,101,16371,2,0,P|193:156|166:202,1,90,8|0,3:2|0:0,0:0:0:0:
86,213,16696,1,8,3:2:0:0:
86,213,16858,2,0,L|-5:185,1,90,8|8,3:2|3:3,0:0:0:0:
54,59,17182,2,0,L|96:45,1,45,4|0,3:3|0:0,0:0:0:0:
278,172,17344,6,0,B|295:125|295:125|256:-15,1,180,6|0,0:0|3:2,0:0:0:0:
204,120,17831,1,10,0:0:0:0:
251,252,17993,1,0,0:0:0:0:
304,373,18155,1,2,3:2:0:0:
351,241,18317,1,0,3:2:0:0:
182,323,18479,5,10,0:0:0:0:
427,294,18641,1,0,0:0:0:0:
241,167,18804,1,2,3:2:0:0:
366,100,18966,1,0,3:2:0:0:
312,334,19128,1,10,0:0:0:0:
312,334,19452,5,10,0:0:0:0:
385,92,19614,1,2,3:2:0:0:
143,19,19776,1,10,0:0:0:0:
70,261,19939,2,0,B|113:233|154:240|154:240|196:274|264:259,1,180,6|0,0:0|3:2,0:0:0:0:
211,133,20425,2,0,L|219:204,1,45,10|0,0:0|0:0,0:0:0:0:
318,253,20587,1,8,3:3:0:0:
318,253,20669,2,0,L|310:324,1,45,8|8,3:3|3:3,0:0:0:0:
141,297,20831,5,0,0:0:0:0:
141,297,20912,2,0,P|177:287|221:284,1,67.5000025749208,8|8,3:3|3:3,0:0:0:0:
375,176,21074,2,0,P|342:166|309:162,1,67.5000025749208,4|4,3:3|3:3,0:0:0:0:
173,51,21236,1,4,0:0:0:0:
256,192,21317,12,8,22371,0:2:0:0:
0,160,22696,5,8,0:0:0:0:
0,160,22777,1,8,0:0:0:0:
0,160,22858,1,0,3:2:0:0:
0,160,22939,1,0,3:2:0:0:
0,160,23020,2,0,L|63:149,1,45,8|8,0:3|0:3,0:0:0:0:
116,225,23182,2,0,L|71:232,1,45,0|0,3:2|3:2,0:0:0:0:
141,92,23344,2,0,L|204:81,1,45,8|8,0:3|0:3,0:0:0:0:
297,225,23506,2,0,L|252:232,1,45,0|0,3:2|3:2,0:0:0:0:
282,36,23669,2,0,L|345:25,1,45,4|4,0:3|0:3,0:0:0:0:
462,253,23831,2,0,L|417:260,1,45,4|4,3:3|3:3,0:0:0:0:
499,88,23993,5,6,3:2:0:0:
499,88,24317,2,0,L|487:194,2,90,8|0|0,0:0|0:0|3:2,0:0:0:0:
380,162,24804,1,2,3:2:0:0:
265,92,24966,1,10,0:0:0:0:
375,25,25128,1,2,0:0:0:0:
400,182,25290,6,0,P|407:235|403:296,1,90,2|0,3:2|0:0,0:0:0:0:
361,49,25614,1,10,0:0:0:0:
185,138,25777,2,0,P|178:93|178:48,1,90,2|0,3:2|0:0,0:0:0:0:
289,199,26101,5,2,3:2:0:0:
106,261,26263,1,8,0:0:0:0:
323,324,26425,1,2,0:0:0:0:
323,324,26506,1,2,0:0:0:0:
323,324,26587,1,2,3:2:0:0:
185,138,26750,5,0,0:0:0:0:
270,236,26912,1,8,0:0:0:0:
156,338,27074,1,2,0:0:0:0:
156,338,27155,1,2,0:0:0:0:
156,338,27236,2,0,P|108:348|66:345,1,90,0|0,3:2|3:2,0:0:0:0:
105,176,27560,2,0,P|102:131|112:87,1,90,8|2,0:0|0:0,0:0:0:0:
273,183,27885,2,0,P|282:226|280:271,1,90,0|0,3:2|0:0,0:0:0:0:
112,87,28209,5,8,0:0:0:0:
299,206,28371,2,0,B|391:190|386:233|510:202,1,180,0|2,3:2|3:2,0:0:0:0:
424,340,28858,1,8,0:0:0:0:
228,302,29020,2,0,L|290:286,1,45,2|0,3:2|0:0,0:0:0:0:
427,124,29182,5,6,3:2:0:0:
427,124,29506,2,0,L|415:19,2,90,8|0|0,0:0|0:0|3:2,0:0:0:0:
238,223,29993,1,2,3:2:0:0:
109,177,30155,1,10,0:0:0:0:
212,76,30317,1,2,0:0:0:0:
331,193,30479,6,0,L|320:282,1,90,2|0,3:2|0:0,0:0:0:0:
125,156,30804,1,10,0:0:0:0:
101,303,30966,2,0,P|144:301|190:292,1,90,2|0,3:2|0:0,0:0:0:0:
387,118,31290,2,0,P|342:109|297:107,1,90,2|8,3:2|0:0,0:0:0:0:
165,3,31614,1,0,0:0:0:0:
337,270,31777,5,6,3:2:0:0:
337,270,32101,1,10,0:0:0:0:
337,270,32425,1,2,3:2:0:0:
251,245,32587,1,2,3:2:0:0:
408,207,32750,1,2,0:0:0:0:
201,334,32912,1,6,3:2:0:0:
201,334,33236,5,2,3:2:0:0:
481,375,33398,1,10,0:0:0:0:
337,270,33560,1,10,0:0:0:0:
337,270,33641,1,8,0:3:0:0:
337,270,33723,1,8,0:3:0:0:
398,190,33885,1,8,0:3:0:0:
382,89,34047,1,8,0:3:0:0:
302,25,34209,1,4,0:3:0:0:
151,175,34371,5,6,3:2:0:0:
151,175,34696,2,0,P|212:144|327:152,1,180,8|0,0:0|3:2,0:0:0:0:
402,72,35182,1,2,3:2:0:0:
229,115,35344,1,10,0:0:0:0:
445,211,35506,1,2,0:0:0:0:
270,311,35669,6,0,B|258:272|258:272|266:211,1,90,2|0,3:2|0:0,0:0:0:0:
321,149,35993,1,10,0:0:0:0:
371,354,36155,1,2,3:2:0:0:
181,325,36317,1,0,0:0:0:0:
181,325,36479,2,0,P|231:319|293:304,1,90,2|8,3:2|0:0,0:0:0:0:
134,128,36804,6,0,L|147:172,1,45,2|2,0:0|0:0,0:0:0:0:
107,251,36966,2,0,P|62:260|18:265,1,90,2|0,3:2|0:0,0:0:0:0:
29,120,37290,5,8,0:0:0:0:
29,120,37371,1,2,0:0:0:0:
29,120,37452,2,0,L|41:76,1,45,2|2,0:0|0:0,0:0:0:0:
170,36,37614,2,0,P|214:40|258:50,1,90,0|0,3:2|3:2,0:0:0:0:
428,180,37939,5,8,0:0:0:0:
428,180,38020,1,2,0:0:0:0:
428,180,38101,2,0,L|440:223,1,45,2|2,0:0|0:0,0:0:0:0:
338,262,38263,2,0,P|317:207|351:70,1,180,0|8,3:2|0:0,0:0:0:0:
443,9,38750,1,0,3:2:0:0:
421,231,38912,2,0,P|423:295|408:330,1,90,0|2,0:0|3:2,0:0:0:0:
248,373,39236,2,0,L|233:326,1,45,8|0,0:0|0:0,0:0:0:0:
150,258,39398,2,0,L|163:215,1,45,2|0,3:2|0:0,0:0:0:0:
295,176,39560,5,6,3:2:0:0:
414,318,39723,1,2,3:2:0:0:
233,249,39885,1,10,0:0:0:0:
336,90,40047,1,2,3:2:0:0:
93,172,40209,1,8,0:0:0:0:
310,199,40371,5,2,3:2:0:0:
86,145,40533,1,10,0:0:0:0:
315,285,40696,1,2,3:2:0:0:
13,301,40858,2,0,P|54:296|108:278,1,90,2|0,3:2|3:2,0:0:0:0:
298,177,41182,2,0,P|255:163|210:157,1,90,10|0,0:0|0:0,0:0:0:0:
63,67,41506,2,0,P|107:61|150:47,1,90,10|0,0:0|3:2,0:0:0:0:
177,25,41750,1,2,0:0:0:0:
177,25,41831,1,8,0:0:0:0:
119,196,41993,1,2,3:2:0:0:
355,71,42155,5,8,0:0:0:0:
198,129,42317,1,2,3:2:0:0:
424,192,42479,1,8,0:0:0:0:
119,196,42641,1,2,3:2:0:0:
103,176,42966,2,0,B|102:224|102:224|119:281,1,90,2|0,3:2|0:0,0:0:0:0:
381,170,43290,2,0,L|184:208,1,180,6|0,3:2|3:2,0:0:0:0:
136,59,43777,5,8,0:0:0:0:
256,91,43939,1,8,0:0:0:0:
232,220,44101,1,8,0:3:0:0:
232,220,44182,1,8,0:3:0:0:
232,220,44263,1,8,0:3:0:0:
67,171,44425,2,0,L|163:155,1,90,8|4,0:3|0:3,0:0:0:0:
332,56,44750,6,0,P|364:69|464:64,1,125.999996154785,6|2,3:2|0:0,0:0:0:0:
454,67,45236,1,0,3:0:0:0:
394,239,45398,1,10,0:0:0:0:
250,158,45723,1,2,0:0:0:0:
214,350,46047,2,0,P|238:341|322:341,1,94.499997116089,2|0,0:2|0:0,0:0:0:0:
307,338,46371,2,0,P|298:308|297:266,1,62.9999980773926,2|0,3:2|0:0,0:0:0:0:
182,200,46696,2,0,P|173:230|172:272,1,62.9999980773926,10|0,0:0|0:0,0:0:0:0:
330,132,47020,1,2,0:0:0:0:
81,43,47344,5,2,3:2:0:0:
81,43,47506,2,0,P|127:63|215:55,1,125.999996154785,2|0,0:0|3:0,0:0:0:0:
345,2,47993,2,0,P|365:48|362:128,1,125.999996154785,10|0,0:0|0:0,0:0:0:0:
293,201,48479,1,0,3:0:0:0:
214,154,48641,1,0,3:0:0:0:
188,311,48804,2,0,P|199:281|204:250,1,62.9999980773926,8|0,0:0|0:0,0:0:0:0:
123,184,49128,1,2,3:2:0:0:
271,48,49290,2,0,P|182:80|89:71,1,188.999994232178,8|8,0:0|0:0,0:0:0:0:
39,190,49939,5,6,3:2:0:0:
33,176,50263,1,2,0:0:0:0:
258,239,50587,5,10,0:0:0:0:
221,335,50912,1,2,3:2:0:0:
484,217,51236,5,2,3:2:0:0:
399,52,51560,1,2,3:2:0:0:
369,303,51885,6,0,P|321:313|282:310,1,62.9999980773926,8|0,0:0|0:0,0:0:0:0:
213,248,52209,1,8,0:0:0:0:
212,244,52290,1,8,0:0:0:0:
211,241,52371,1,8,0:0:0:0:
210,238,52452,1,8,0:0:0:0:
210,235,52533,1,12,0:0:0:0:
254,110,52696,5,0,3:2:0:0:
121,323,52858,1,8,0:0:0:0:
290,211,53020,1,4,3:2:0:0:
369,303,53182,1,0,0:0:0:0:
482,249,53344,2,0,P|488:215|480:155,1,90,8|8,0:0|0:0,0:0:0:0:
310,227,53669,6,0,P|228:262|142:247,1,180,4|0,3:2|3:2,0:0:0:0:
215,152,54155,1,8,0:0:0:0:
438,171,54317,2,0,L|504:155,2,45,4|0|0,3:2|0:0|0:0,0:0:0:0:
336,103,54641,5,8,0:3:0:0:
310,227,54804,1,0,3:2:0:0:
203,176,54966,1,4,0:3:0:0:
252,336,55128,2,0,P|296:353|349:355,1,90,6|0,3:2|0:0,0:0:0:0:
416,242,55452,2,0,P|408:195|384:147,1,90,8|0,0:0|0:0,0:0:0:0:
264,237,55777,2,0,P|220:254|166:256,1,90,0|2,3:2|3:2,0:0:0:0:
100,143,56101,2,0,P|107:96|131:48,1,90,10|2,0:0|0:0,0:0:0:0:
328,88,56425,5,2,3:2:0:0:
323,76,56587,1,0,0:0:0:0:
283,262,56750,1,10,0:0:0:0:
278,274,56912,1,0,3:2:0:0:
201,140,57074,1,2,0:0:0:0:
187,134,57236,1,0,3:2:0:0:
90,234,57398,1,10,0:0:0:0:
76,240,57560,1,0,0:0:0:0:
3,198,57723,6,0,B|102:189|82:243|198:222,1,180,2|10,3:2|0:0,0:0:0:0:
312,278,58209,2,0,P|364:239|490:268,1,180,2|2,3:2|3:2,0:0:0:0:
503,344,58696,1,8,0:0:0:0:
403,326,58858,6,0,P|384:236|370:113,1,180,6|0,3:2|3:2,0:0:0:0:
225,26,59344,2,0,P|243:114|255:203,1,180,10|2,0:0|3:2,0:0:0:0:
372,148,59831,5,2,3:2:0:0:
126,290,59993,1,10,0:0:0:0:
178,96,60155,1,2,0:0:0:0:
320,342,60317,1,6,3:2:0:0:
320,342,60641,6,0,P|274:353|219:364,1,90,8|0,0:0|0:0,0:0:0:0:
55,323,60966,2,0,P|99:313|142:303,1,90,0|0,3:2|3:2,0:0:0:0:
251,96,61290,6,0,P|262:141|273:197,1,90,10|0,0:0|0:0,0:0:0:0:
232,361,61615,2,0,P|222:316|212:273,1,90,2|0,3:2|0:0,0:0:0:0:
18,178,61939,6,0,P|73:209|188:183,1,180,10|2,0:0|0:0,0:0:0:0:
251,96,62425,1,0,3:2:0:0:
386,274,62587,2,0,P|347:265|274:261,1,90,10|8,0:0|0:0,0:0:0:0:
104,121,62912,5,6,0:0:0:0:
3,297,63074,1,2,3:2:0:0:
95,102,63236,1,8,0:0:0:0:
134,365,63398,5,2,0:0:0:0:
182,186,63560,1,2,3:2:0:0:
139,382,63723,1,0,3:2:0:0:
283,149,63885,5,2,0:0:0:0:
350,363,64047,1,2,3:2:0:0:
292,130,64209,1,0,0:0:0:0:
413,259,64371,5,2,3:2:0:0:
480,45,64533,1,10,0:0:0:0:
498,191,64696,1,8,0:0:0:0:
498,191,64777,1,8,0:0:0:0:
498,191,64858,2,0,P|447:181|403:167,1,90,10|8,0:0|0:3,0:0:0:0:
257,89,65182,2,0,L|270:158,1,45,6|4,0:3|0:3,0:0:0:0:
186,238,65344,2,0,L|171:171,1,45,4|4,0:3|0:3,0:0:0:0:
328,220,65506,1,4,3:3:0:0:
132,178,65669,5,10,0:0:0:0:
393,88,65831,1,10,0:0:0:0:
247,32,65993,1,0,0:0:0:0:
241,56,66074,1,0,0:0:0:0:
234,80,66155,1,10,0:0:0:0:
163,264,66317,1,10,0:0:0:0:
377,352,66479,1,0,3:2:0:0:
485,155,66641,2,0,L|379:168,1,90,10|0,3:2|0:0,0:0:0:0:
250,308,66966,5,10,3:2:0:0:
395,22,67129,2,0,P|341:76|197:56,1,188.999994232178,10|0,3:2|0:0,0:0:0:0:
156,44,67425,6,0,P|148:66|147:81,2,36,2|2|6,0:0|0:0|3:2,0:0:0:0:
283,193,68265,1,0,3:2:0:0:
191,98,68427,6,0,P|209:41|297:42,1,135,8|0,3:2|0:0,0:0:0:0:
344,66,68751,2,0,P|395:83|456:91,1,90,8|0,3:2|3:2,0:0:0:0:
244,201,69075,2,0,P|234:247|212:305,1,90,10|0,3:2|3:2,0:0:0:0:
376,210,69400,5,10,3:2:0:0:
168,105,69562,1,0,3:2:0:0:
277,198,69724,5,10,3:2:0:0:
77,329,69886,2,0,L|92:268,2,45,0|0|10,3:2|0:0|3:2,0:0:0:0:
175,201,70211,5,0,3:2:0:0:
44,361,70373,2,0,P|1:329|27:243,1,135,10|0,3:2|0:0,0:0:0:0:
71,193,70697,6,0,B|82:206|82:206|-18:227,1,90,10|0,3:2|3:2,0:0:0:0:
122,328,71021,1,8,3:2:0:0:
208,206,71184,1,0,3:2:0:0:
388,334,71346,6,0,L|509:367,1,90,10|0,3:2|3:2,0:0:0:0:
181,223,71670,2,0,L|59:249,1,90,8|0,3:2|3:2,0:0:0:0:
92,241,71913,1,0,0:0:0:0:
92,241,71994,1,10,3:2:0:0:
233,142,72157,1,0,3:2:0:0:
295,339,72319,1,8,3:2:0:0:
202,251,72481,1,0,3:2:0:0:
391,118,72643,2,0,P|360:133|359:237,1,135,10|0,3:2|0:0,0:0:0:0:
359,260,72967,6,0,P|327:249|310:226,1,45,10|8,3:2|0:0,0:0:0:0:
255,174,73130,2,0,P|248:140|259:114,1,45,8|8,3:2|0:0,0:0:0:0:
301,4,73292,6,0,B|328:42|328:42|180:66,1,161.999995056153,12|0,3:2|0:0,0:0:0:0:
139,18,73778,1,0,3:2:0:0:
20,105,73940,2,0,L|110:125,1,80.9999975280763,8|0,0:0|3:2,0:0:0:0:
240,193,74265,1,2,3:2:0:0:
194,86,74427,1,8,0:0:0:0:
112,201,74589,6,0,B|87:283|87:283|125:336|182:311,1,161.999995056153,2|2,3:2|3:2,0:0:0:0:
259,239,75075,2,0,L|271:289,2,40.4999987640381,0|0|10,3:2|0:0|0:0,0:0:0:0:
153,148,75400,1,0,3:2:0:0:
113,165,75481,1,0,3:2:0:0:
83,183,75562,1,10,0:0:0:0:
220,39,75724,1,0,3:2:0:0:
9,11,75886,6,0,P|27:64|114:54,1,148.50000453186,14|0,0:0|0:0,0:0:0:0:
108,60,76211,2,0,P|76:111|81:153,1,90,8|0,0:0|3:2,0:0:0:0:
234,293,76535,2,0,P|205:239|166:223,1,90,2|0,3:2|3:2,0:0:0:0:
9,325,76859,6,0,B|6:354|6:354|128:326,1,135,8|0,0:0|0:0,0:0:0:0:
205,295,77184,1,14,0:0:0:0:
334,364,77346,1,0,3:2:0:0:
457,159,77508,5,8,0:0:0:0:
280,258,77670,1,8,0:0:0:0:
274,239,77751,1,8,0:0:0:0:
270,218,77832,1,10,3:2:0:0:
287,125,77994,1,8,0:0:0:0:
186,255,78157,6,0,P|170:264|137:275,1,40.4999987640381,10|0,0:0|0:0,0:0:0:0:
392,175,78319,2,0,P|410:182|428:191,1,40.4999987640381,8|0,0:0|0:0,0:0:0:0:
175,162,78481,6,0,P|127:125|176:9,1,180,6|8,3:2|3:2,0:0:0:0:
251,93,78967,1,0,3:2:0:0:
156,25,79130,2,0,P|118:34|89:91,1,90,8|0,3:2|3:2,0:0:0:0:
311,144,79454,6,0,L|458:122,1,135,10|0,3:2|3:2,0:0:0:0:
463,106,79778,2,0,B|495:86|495:86|477:167,1,90,10|0,3:2|3:2,0:0:0:0:
349,245,80102,1,10,3:2:0:0:
477,317,80265,1,0,3:2:0:0:
380,216,80427,5,10,3:2:0:0:
267,341,80589,1,0,3:2:0:0:
45,241,80751,2,0,P|100:217|150:290,1,135,10|0,3:2|3:2,0:0:0:0:
150,262,81075,6,0,P|168:222|179:177,1,90,10|0,3:2|3:2,0:0:0:0:
308,318,81400,2,0,P|254:326|206:343,1,90,8|0,3:2|3:2,0:0:0:0:
405,27,81724,6,0,P|415:70|433:112,1,90,10|0,3:2|3:2,0:0:0:0:
162,116,82048,2,0,P|151:159|133:201,1,90,8|0,3:2|3:2,0:0:0:0:
301,85,82373,5,10,3:2:0:0:
255,265,82535,1,0,3:2:0:0:
438,190,82697,5,10,3:2:0:0:
349,342,82859,2,0,L|307:358,2,45,0|0|10,3:2|0:0|3:2,0:0:0:0:
350,180,83184,5,0,3:2:0:0:
469,309,83346,2,0,B|475:343|475:343|344:319,1,135,10|8,3:2|0:0,0:0:0:0:
211,307,83670,6,0,P|270:282|244:364,1,180,6|8,3:2|3:2,0:0:0:0:
115,219,84157,1,0,3:2:0:0:
37,257,84319,2,0,P|90:242|127:190,1,90,10|0,3:2|3:2,0:0:0:0:
194,12,84643,2,0,P|177:51|179:114,1,90,8|0,3:2|3:2,0:0:0:0:
361,240,84967,6,0,P|321:229|270:189,1,90,10|0,3:2|3:2,0:0:0:0:
142,71,85292,1,8,3:2:0:0:
183,258,85454,1,0,3:2:0:0:
337,139,85616,5,10,3:2:0:0:
252,334,85778,1,0,3:2:0:0:
423,288,85940,6,0,B|399:257|399:257|521:234,1,135,10|0,3:2|3:2,0:0:0:0:
503,234,86265,5,14,3:2:0:0:
373,151,86427,1,0,0:0:0:0:
486,81,86589,2,0,P|472:145|356:128,1,180,8|0,0:0|3:2,0:0:0:0:
205,28,87075,2,0,L|307:46,1,90,0|8,3:2|0:0,0:0:0:0:
173,169,87400,6,0,B|120:183|120:183|74:212|74:212|-16:227,1,180,4|0,3:2|3:2,0:0:0:0:
179,334,87886,1,8,0:0:0:0:
85,156,88048,5,8,0:0:0:0:
101,181,88130,1,8,0:0:0:0:
107,213,88211,1,4,3:2:0:0:
0,381,88535,1,4,3:2:0:0:
258,186,88859,6,0,P|308:175|346:233,2,116.999994644165,4|2|2,3:2|0:0|0:0,0:0:0:0:
185,326,89832,2,0,L|86:349,1,87.749995983124,2|0,0:0|0:0,0:0:0:0:
10,293,90157,5,10,3:2:0:0:
115,75,90319,1,8,3:2:0:0:
258,205,90481,1,8,3:2:0:0:
245,217,90967,5,2,0:0:0:0:
215,212,91130,1,2,0:0:0:0:
208,238,91292,1,2,0:0:0:0:
33,187,91454,5,2,0:0:0:0:
64,147,96481,5,2,0:0:0:0:
69,153,96562,1,2,0:0:0:0:
73,158,96643,1,2,3:2:0:0:
169,225,96805,1,0,0:0:0:0:
259,212,96967,1,0,3:2:0:0:
358,278,97130,2,0,P|305:287|269:187,1,153.000002918243,2|0,0:0|0:0,0:0:0:0:
389,300,97616,5,0,3:2:0:0:
262,298,97778,2,0,L|180:323,1,76.5000014591217,2|0,0:0|3:2,0:0:0:0:
111,188,98102,1,0,0:0:0:0:
178,227,98265,1,0,3:2:0:0:
2,235,98427,2,0,P|49:259|70:354,1,153.000002918243,2|0,0:0|0:0,0:0:0:0:
128,149,98913,1,0,3:2:0:0:
205,260,99075,1,0,0:0:0:0:
381,134,99238,5,10,3:2:0:0:
294,328,99400,1,2,0:0:0:0:
303,303,99886,5,10,0:0:0:0:
205,54,100048,1,8,0:3:0:0:
101,195,100211,5,8,0:3:0:0:
384,108,100373,1,6,0:0:0:0:
256,192,100454,12,0,101670,3:2:0:0:
256,192,101751,12,0,102886,0:0:0:0:
457,198,102967,6,0,B|402:197|348:160|348:160|369:195|362:229,1,180,6|0,0:0|3:2,0:0:0:0:
202,360,103454,2,0,P|151:315|173:249,1,135,10|0,0:0|0:0,0:0:0:0:
165,256,103778,2,0,B|176:272|176:272|100:290,1,90,2|0,3:2|3:2,0:0:0:0:
277,110,104102,2,0,B|266:125|266:125|342:143,1,90,10|0,0:0|0:0,0:0:0:0:
335,142,104346,1,0,0:0:0:0:
335,142,104427,5,2,3:2:0:0:
131,190,104589,1,0,3:2:0:0:
146,101,104751,5,10,0:0:0:0:
338,252,104913,1,0,3:2:0:0:
272,27,105075,6,0,L|260:73,1,45,10|0,0:0|0:0,0:0:0:0:
245,151,105238,6,0,P|256:171|284:210,1,45,2|0,3:2|0:0,0:0:0:0:
178,279,105400,6,0,P|167:299|139:338,1,45,10|0,0:0|0:0,0:0:0:0:
319,353,105562,6,0,B|425:383|425:383|416:301,1,180,6|0,0:0|3:2,0:0:0:0:
346,151,106048,2,0,P|353:88|415:75,1,135,10|0,0:0|0:0,0:0:0:0:
414,191,106373,6,0,P|438:185|469:151,1,45,10|0,0:0|0:0,0:0:0:0:
298,93,106535,2,0,P|305:72|323:58,1,45,0|0,3:2|0:0,0:0:0:0:
273,296,106697,2,0,B|284:363|284:363|313:335,1,90,10|0,0:0|3:2,0:0:0:0:
378,132,107021,5,8,3:2:0:0:
86,221,107184,1,8,3:2:0:0:
314,320,107508,5,8,3:2:0:0:
191,119,107670,1,8,3:2:0:0:
183,263,107832,6,0,P|201:253|223:227,1,45,8|0,3:3|0:0,0:0:0:0:
287,125,107994,2,0,P|299:143|306:164,1,45,4|0,3:3|0:0,0:0:0:0:
138,37,108157,6,0,P|64:41|69:120,1,135,6|0,0:0|0:0,0:0:0:0:
54,103,108481,1,0,3:2:0:0:
324,28,108643,6,0,B|308:53|308:53|439:72,1,135,10|0,0:0|0:0,0:0:0:0:
437,60,108967,2,0,B|476:49|476:49|459:105,1,90,2|0,3:2|3:2,0:0:0:0:
306,264,109292,2,0,L|291:167,1,90,10|0,0:0|0:0,0:0:0:0:
292,175,109535,1,0,0:0:0:0:
292,175,109616,5,2,3:2:0:0:
396,326,109778,1,0,3:2:0:0:
194,248,109940,1,10,0:0:0:0:
112,366,110102,1,0,3:2:0:0:
334,165,110265,6,0,P|336:192|345:218,1,45,10|0,0:0|0:0,0:0:0:0:
174,109,110427,6,0,P|191:128|214:144,1,45,2|0,3:2|0:0,0:0:0:0:
337,13,110589,6,0,P|320:42|312:74,1,45,10|0,0:0|0:0,0:0:0:0:
404,335,110751,6,0,P|341:350|295:304,1,135,6|0,0:0|0:0,0:0:0:0:
293,294,111075,1,0,3:2:0:0:
363,149,111238,1,10,0:0:0:0:
174,219,111400,5,8,3:3:0:0:
132,228,111481,1,8,3:3:0:0:
101,238,111562,1,8,3:3:0:0:
265,233,111724,6,0,P|276:216|282:184,1,45,8|8,3:3|3:3,0:0:0:0:
154,45,111886,2,0,P|167:63|171:85,1,45,4|4,3:3|3:3,0:0:0:0:
91,263,112048,6,0,B|-57:157|46:-1|159:39|150:110,1,350.99998928833,4|0,0:0|3:2,0:0:0:0:
141,115,113184,1,8,0:2:0:0:
130,94,113508,5,8,0:0:0:0:
163,80,113589,1,8,0:0:0:0:
199,80,113670,1,0,3:2:0:0:
232,93,113751,1,0,3:2:0:0:
258,118,113832,1,8,0:3:0:0:
273,150,113913,1,8,0:3:0:0:
275,186,113994,1,0,3:2:0:0:
264,220,114075,1,0,3:2:0:0:
239,213,114157,5,8,0:3:0:0:
221,249,114238,1,8,0:3:0:0:
219,289,114319,1,0,3:2:0:0:
235,326,114400,1,0,3:2:0:0:
264,353,114481,1,4,0:3:0:0:
303,366,114562,1,4,0:3:0:0:
343,362,114643,1,4,3:3:0:0:
377,341,114724,1,4,3:3:0:0:
442,281,114805,6,0,L|423:216,1,45,6|0,3:2|0:0,0:0:0:0:
