osu file format v14

[General]
AudioFilename: audio.mp3
AudioLeadIn: 0
PreviewTime: 67346
Countdown: 0
SampleSet: Soft
StackLeniency: 0.4
Mode: 0
LetterboxInBreaks: 0
WidescreenStoryboard: 0

[Editor]
DistanceSpacing: 1.4
BeatDivisor: 4
GridSize: 8
TimelineZoom: 1.6

[Metadata]
Title:Hope Alive
TitleUnicode:Hope Alive
Artist:Falcom Sound Team jdk
ArtistUnicode:Falcom Sound Team jdk
Creator:Shurelia
Version:Confrontation
Source:イースVIII -Lacrimosa of DANA-
Tags:J.D.K. Ys VIII 8 Lacrimosa Io DANA Alive 真我 光生 Mitsuo Singa video game JRPG instrumental rock silent_rock shizuku- shikibe mayu ayesha altugle kazato asa creamy candy ponbot yogurtt zekk
BeatmapID:4175158
BeatmapSetID:2007277

[Difficulty]
HPDrainRate:7
CircleSize:4.2
OverallDifficulty:9
ApproachRate:9.4
SliderMultiplier:2
SliderTickRate:1

[Events]
//Background and Video events
0,0,"hopealivebg.jpg",0,0
//Break Periods
//Storyboard Layer 0 (Background)
//Storyboard Layer 1 (Fail)
//Storyboard Layer 2 (Pass)
//Storyboard Layer 3 (Foreground)
//Storyboard Layer 4 (Overlay)
//Storyboard Sound Samples

[TimingPoints]
642,324.324324324324,4,2,1,60,1,0
642,-142.857142857143,4,2,1,60,0,0
9560,-200,4,2,1,60,0,0
10858,-142.857142857143,4,2,1,60,0,0
12155,-100,4,2,1,70,0,0
21236,-166.666666666667,4,2,1,70,0,0
23993,-100,4,2,1,70,0,0
44750,-142.857142857143,4,2,1,60,0,0
54317,-83.3333333333333,4,2,1,60,0,0
55128,-100,4,2,1,70,0,0
65669,-50,4,2,1,70,0,0
66641,-100,4,2,1,70,0,0
66966,-50,4,2,1,70,0,0
67129,290.556900726392,4,2,1,70,1,0
67129,-50,4,2,1,70,0,0
67425,338.983050847457,4,2,1,60,1,0
67425,-500,4,2,1,60,0,0
67679,-500,4,2,1,5,0,0
67763,-500,4,2,1,60,0,0
68018,-500,4,2,1,5,0,0
68103,324.324324324324,4,2,1,80,1,1
73292,-111.111111111111,4,2,1,70,0,0
75886,-111.111111111111,4,2,1,80,0,1
77832,-111.111111111111,4,2,1,70,0,0
78481,-100,4,2,1,80,0,1
88859,-100,4,2,1,60,0,0
90157,-100,4,2,1,70,0,0
91454,-142.857142857143,4,2,1,60,0,0
100373,-200,4,2,1,60,0,0
101670,-142.857142857143,4,2,1,60,0,0
102967,-100,4,2,1,70,0,0
112048,-166.666666666667,4,2,1,70,0,0

[Colours]
Combo1 : 250,180,240
Combo2 : 120,200,230
Combo3 : 255,230,130
Combo4 : 160,230,150

[HitObjects]
43,49,155,5,2,0:0:0:0:
64,52,317,1,2,0:0:0:0:
137,15,479,1,2,0:0:0:0:
199,76,642,6,0,P|193:111|189:146,2,69.9999978637696,2|0|0,0:0|0:0|0:0,0:0:0:0:
351,127,1128,2,0,P|308:182|274:243,1,139.999995727539,2|0,0:0|0:0,0:0:0:0:
318,313,1614,1,0,0:0:0:0:
464,234,1777,2,0,P|399:260|339:296,1,139.999995727539,2|0,0:0|0:0,0:0:0:0:
343,380,2263,1,0,0:0:0:0:
512,384,2425,2,0,P|443:375|373:376,1,139.999995727539,2|0,0:0|0:0,0:0:0:0:
244,384,2912,1,0,0:0:0:0:
145,375,3074,1,0,0:0:0:0:
145,375,3155,1,0,0:0:0:0:
146,375,3236,6,0,P|148:340|154:305,2,69.9999978637696,2|0|0,0:0|0:0|0:0,0:0:0:0:
54,248,3723,2,0,P|49:178|46:108,1,139.999995727539,2|0,0:0|0:0,0:0:0:0:
129,26,4209,1,0,0:0:0:0:
190,242,4371,2,0,P|220:179|253:117,1,139.999995727539,2|0,0:0|0:0,0:0:0:0:
335,43,4858,1,0,0:0:0:0:
442,146,5020,2,0,P|374:144|332:198,1,139.999995727539,2|0,0:0|0:0,0:0:0:0:
345,269,5506,1,2,0:0:0:0:
469,358,5669,1,0,0:0:0:0:
469,358,5750,1,0,0:0:0:0:
469,358,5831,5,2,3:2:0:0:
442,260,5993,1,0,0:0:0:0:
476,123,6155,1,0,3:2:0:0:
451,37,6317,2,0,P|416:36|381:29,1,69.9999978637696,2|0,0:0|3:2,0:0:0:0:
233,0,6641,5,0,0:0:0:0:
285,99,6804,1,0,3:2:0:0:
199,171,6966,2,0,P|194:136|185:102,1,69.9999978637696,2|0,0:0|3:2,0:0:0:0:
53,234,7290,5,0,0:0:0:0:
113,167,7452,1,0,3:2:0:0:
140,260,7614,2,0,P|135:294|126:328,1,69.9999978637696,2|0,0:0|3:2,0:0:0:0:
22,377,7939,1,0,0:0:0:0:
125,341,8101,1,0,3:2:0:0:
223,373,8263,1,0,0:0:0:0:
223,373,8344,1,0,0:0:0:0:
223,373,8425,5,10,3:2:0:0:
410,355,8587,1,2,0:0:0:0:
410,355,9074,1,10,0:0:0:0:
318,226,9236,1,8,0:3:0:0:
181,182,9398,1,8,0:3:0:0:
83,236,9560,6,0,B|167:184|264:232|264:232|331:313|429:261,1,375,6|0,0:0|0:0,0:0:0:0:
429,262,10858,6,0,B|451:233|451:233|433:204,1,69.9999978637696,0|0,3:2|0:0,0:0:0:0:
355,175,11182,1,0,3:2:0:0:
406,25,11344,1,8,0:0:0:0:
229,10,11506,1,0,3:2:0:0:
113,80,11669,1,8,0:3:0:0:
143,7,11831,1,0,3:2:0:0:
13,62,11993,1,4,0:3:0:0:
13,62,12074,1,0,0:0:0:0:
13,62,12155,6,0,B|38:95|38:95|22:252,1,200,6|0,0:0|3:2,0:0:0:0:
0,354,12641,1,10,0:0:0:0:
83,330,12804,1,0,0:0:0:0:
185,210,12966,1,2,3:2:0:0:
275,220,13128,1,0,3:2:0:0:
403,346,13290,1,10,0:0:0:0:
503,332,13452,1,0,0:0:0:0:
275,220,13614,5,2,3:2:0:0:
185,210,13777,1,0,3:2:0:0:
82,330,13939,1,10,0:0:0:0:
0,354,14101,1,0,3:2:0:0:
141,383,14263,2,0,L|189:372,1,50,10|0,0:0|0:0,0:0:0:0:
230,306,14425,2,0,L|278:317,1,50,2|0,3:2|0:0,0:0:0:0:
327,371,14587,2,0,L|375:360,1,50,10|0,0:0|0:0,0:0:0:0:
512,272,14750,6,0,B|414:294|414:294|324:250,1,200,6|0,0:0|3:2,0:0:0:0:
283,168,15236,1,10,0:0:0:0:
326,71,15398,1,0,3:2:0:0:
187,237,15560,1,10,0:0:0:0:
188,40,15723,1,0,3:2:0:0:
81,261,15885,1,10,0:0:0:0:
69,0,16047,2,0,L|45:44,1,50,0|0,3:2|0:0,0:0:0:0:
0,131,16209,5,8,3:2:0:0:
266,23,16371,1,8,3:2:0:0:
266,23,16696,1,8,3:2:0:0:
69,0,16858,1,8,3:2:0:0:
0,131,17020,1,8,3:3:0:0:
2,239,17182,1,4,3:3:0:0:
2,239,17263,1,0,0:0:0:0:
2,239,17344,6,0,P|100:219|199:208,1,200,6|0,0:0|3:2,0:0:0:0:
318,197,17831,1,10,0:0:0:0:
373,133,17993,1,0,0:0:0:0:
154,46,18155,1,2,3:2:0:0:
106,140,18317,1,0,3:2:0:0:
296,322,18479,1,10,0:0:0:0:
290,219,18641,1,0,0:0:0:0:
154,46,18804,5,2,3:2:0:0:
106,140,18966,1,0,3:2:0:0:
318,197,19128,1,10,0:0:0:0:
373,133,19290,1,0,3:2:0:0:
492,290,19452,2,0,P|468:291|443:296,1,50,10|0,0:0|0:0,0:0:0:0:
405,360,19614,2,0,P|380:364|355:366,1,50,2|0,3:2|0:0,0:0:0:0:
296,322,19777,2,0,P|271:323|246:328,1,50,10|0,0:0|0:0,0:0:0:0:
167,367,19939,6,0,P|71:371|23:289,1,200,6|0,0:0|3:2,0:0:0:0:
23,289,20425,1,10,0:0:0:0:
156,153,20587,1,8,3:3:0:0:
190,145,20669,1,8,3:3:0:0:
224,137,20750,1,8,3:3:0:0:
74,15,20912,1,8,3:3:0:0:
43,10,20993,1,8,3:3:0:0:
31,38,21074,1,4,3:3:0:0:
53,58,21155,1,4,3:3:0:0:
79,43,21236,6,0,P|240:24|416:28,1,329.9999899292,4|0,0:0|0:0,0:0:0:0:
434,61,22209,1,0,3:2:0:0:
447,103,22290,1,0,3:2:0:0:
444,153,22371,1,8,0:2:0:0:
444,153,22696,5,8,0:0:0:0:
433,187,22777,1,8,0:0:0:0:
426,222,22858,1,0,3:2:0:0:
433,257,22939,1,0,3:2:0:0:
444,278,23020,5,8,0:3:0:0:
428,296,23101,1,8,0:3:0:0:
405,305,23182,1,0,3:2:0:0:
381,302,23263,1,0,3:2:0:0:
358,292,23344,1,8,0:3:0:0:
339,277,23425,1,8,0:3:0:0:
321,261,23506,1,0,3:2:0:0:
299,250,23587,1,0,3:2:0:0:
275,244,23669,1,4,0:3:0:0:
251,243,23750,1,4,0:3:0:0:
227,247,23831,1,4,3:3:0:0:
205,258,23912,1,4,3:3:0:0:
192,274,23993,6,0,P|96:291|15:235,1,200,6|8,3:2|0:0,0:0:0:0:
294,0,24641,1,0,3:2:0:0:
210,29,24804,1,2,3:2:0:0:
275,88,24966,1,10,0:0:0:0:
361,67,25128,1,2,0:0:0:0:
361,67,25209,1,0,0:0:0:0:
361,66,25290,6,0,P|365:140|373:215,1,150,2|0,3:2|0:0,0:0:0:0:
372,231,25614,1,10,0:0:0:0:
464,375,25777,2,0,P|460:280|371:249,1,200,2|2,3:2|3:2,0:0:0:0:
0,368,26425,1,0,0:0:0:0:
24,334,26506,1,0,0:0:0:0:
57,346,26587,6,0,P|155:362|255:366,1,200,2|8,3:2|0:0,0:0:0:0:
511,276,27074,1,2,0:0:0:0:
491,243,27155,1,2,0:0:0:0:
454,254,27236,2,0,P|355:270|255:274,1,200,0|8,3:2|0:0,0:0:0:0:
10,192,27723,1,2,0:0:0:0:
10,192,27804,1,2,0:0:0:0:
10,192,27885,5,0,3:2:0:0:
34,108,28047,1,0,0:0:0:0:
142,218,28209,1,8,0:0:0:0:
127,298,28371,1,0,3:2:0:0:
55,259,28533,1,0,0:0:0:0:
59,30,28696,2,0,P|35:24|10:21,2,50,2|0|8,3:2|0:0|0:0,0:0:0:0:
208,91,29020,1,2,3:2:0:0:
253,79,29101,1,0,0:0:0:0:
298,62,29182,6,0,B|353:61|401:36|401:36|448:42|482:77,1,200,6|8,3:2|0:0,0:0:0:0:
475,371,29831,1,0,3:2:0:0:
389,348,29993,1,2,3:2:0:0:
426,263,30155,1,10,0:0:0:0:
512,289,30317,1,2,0:0:0:0:
285,373,30479,6,0,P|211:359|136:349,1,150,2|0,3:2|0:0,0:0:0:0:
65,377,30804,1,10,0:0:0:0:
187,279,30966,2,0,P|161:208|150:134,1,150,2|0,3:2|0:0,0:0:0:0:
173,70,31290,2,0,L|201:166,1,100,2|8,3:2|0:0,0:0:0:0:
408,298,31614,2,0,P|415:275|418:250,1,50
455,40,31777,5,6,3:2:0:0:
455,40,32101,2,0,B|365:37|397:58|306:54,1,150,10|0,0:0|0:0,0:0:0:0:
225,85,32425,1,2,3:2:0:0:
348,169,32587,1,2,3:2:0:0:
84,88,32750,1,2,0:0:0:0:
196,315,32912,6,0,P|211:216|225:117,1,200,6|2,3:2|3:2,0:0:0:0:
343,195,33398,1,10,0:0:0:0:
301,384,33560,1,10,0:0:0:0:
301,384,33641,1,8,0:3:0:0:
301,384,33723,1,8,0:3:0:0:
125,380,33885,1,8,0:3:0:0:
208,384,34047,1,8,0:3:0:0:
45,377,34209,1,4,0:3:0:0:
0,312,34371,6,0,B|49:217|49:217|37:124,1,200,6|8,3:2|0:0,0:0:0:0:
376,29,35019,1,0,3:2:0:0:
302,101,35182,1,2,3:2:0:0:
286,10,35344,1,10,0:0:0:0:
397,121,35506,1,2,0:0:0:0:
397,121,35587,1,0,0:0:0:0:
397,120,35668,6,0,P|401:195|409:270,1,150,2|0,3:2|0:0,0:0:0:0:
418,290,35992,1,10,0:0:0:0:
512,204,36155,2,0,P|412:200|312:203,1,200,2|2,3:2|3:2,0:0:0:0:
227,232,36641,1,8,0:0:0:0:
4,106,36803,1,0,0:0:0:0:
43,123,36884,1,0,0:0:0:0:
3,138,36965,6,0,P|16:237|24:336,1,200,2|8,3:2|0:0,0:0:0:0:
199,372,37452,1,2,0:0:0:0:
247,363,37533,1,2,0:0:0:0:
202,347,37614,2,0,P|215:247|223:148,1,200,0|8,3:2|0:0,0:0:0:0:
432,24,38101,1,2,0:0:0:0:
488,40,38182,1,2,0:0:0:0:
431,59,38263,6,0,P|422:158|418:258,1,200,0|8,3:2|0:0,0:0:0:0:
420,356,38749,1,0,3:2:0:0:
324,332,38911,1,0,0:0:0:0:
167,383,39074,1,2,3:2:0:0:
12,367,39236,1,8,0:0:0:0:
9,264,39398,1,2,3:2:0:0:
9,264,39479,1,0,0:0:0:0:
9,264,39560,5,6,3:2:0:0:
75,130,39723,1,2,3:2:0:0:
243,109,39885,1,10,0:0:0:0:
379,31,40047,1,2,3:2:0:0:
379,31,40209,5,8,0:0:0:0:
512,63,40371,1,2,3:2:0:0:
343,134,40533,1,10,0:0:0:0:
512,179,40695,1,2,3:2:0:0:
397,292,40857,6,0,B|322:270|322:270|256:300,1,150,2|0,3:2|0:0,0:0:0:0:
237,383,41182,2,0,L|208:235,1,150,10|0,0:0|0:0,0:0:0:0:
142,161,41506,2,0,B|207:198|207:198|290:185,2,150,10|2|2,0:0|0:0|3:2,0:0:0:0:
35,82,42155,5,8,0:0:0:0:
155,11,42317,1,2,3:2:0:0:
276,68,42479,1,8,0:0:0:0:
435,4,42641,1,2,3:2:0:0:
19,202,42965,1,2,3:2:0:0:
451,379,43290,6,0,P|446:304|443:229,1,150,6|0,3:2|0:0,0:0:0:0:
504,172,43614,1,0,3:2:0:0:
481,35,43777,1,8,0:0:0:0:
397,76,43939,1,8,0:0:0:0:
397,76,44019,1,0,0:0:0:0:
397,76,44101,1,8,0:3:0:0:
306,108,44263,1,8,0:3:0:0:
221,149,44426,1,8,0:3:0:0:
141,199,44587,1,4,0:3:0:0:
141,199,44669,1,0,0:0:0:0:
141,199,44750,5,6,3:2:0:0:
106,64,44912,2,0,L|142:200,1,139.999995727539,0|0,0:0|3:2,0:0:0:0:
29,365,45398,2,0,P|48:300|110:274,1,139.999995727539,10|2,0:0|3:2,0:0:0:0:
141,348,45885,1,0,3:2:0:0:
141,348,46047,1,2,3:2:0:0:
249,324,46209,1,8,0:0:0:0:
29,365,46371,1,2,3:2:0:0:
333,367,46696,2,0,P|398:342|466:328,1,139.999995727539,8|2,0:0|0:0,0:0:0:0:
512,237,47182,1,2,0:0:0:0:
512,237,47263,1,0,0:0:0:0:
512,237,47344,6,0,P|491:170|484:100,1,139.999995727539,2|0,3:2|0:0,0:0:0:0:
484,100,47831,1,2,3:2:0:0:
512,6,47993,1,10,0:0:0:0:
393,107,48155,2,0,P|325:94|256:82,1,139.999995727539,0|0,0:0|3:2,0:0:0:0:
172,19,48641,1,2,0:0:0:0:
156,177,48804,2,0,P|155:143|149:108,1,69.9999978637696,8|0,0:0|3:2,0:0:0:0:
172,19,49128,1,2,0:0:0:0:
0,72,49290,1,10,0:0:0:0:
320,349,49614,1,0,0:0:0:0:
249,323,49777,1,10,0:0:0:0:
381,293,49939,5,6,3:2:0:0:
182,370,50101,2,0,L|43:359,1,139.999995727539,0|0,0:0|3:2,0:0:0:0:
5,277,50506,1,0,3:2:0:0:
5,277,50587,2,0,P|15:207|15:137,1,139.999995727539,10|2,0:0|3:2,0:0:0:0:
8,41,51074,1,0,3:2:0:0:
122,100,51236,1,2,3:2:0:0:
195,56,51398,1,8,0:0:0:0:
86,0,51560,1,2,3:2:0:0:
479,19,51885,1,8,0:0:0:0:
479,19,52209,5,8,0:0:0:0:
459,47,52290,1,8,0:0:0:0:
447,79,52371,1,8,0:0:0:0:
445,115,52452,1,8,0:0:0:0:
457,147,52533,5,12,0:0:0:0:
349,113,52696,1,0,3:2:0:0:
242,77,52858,1,8,0:0:0:0:
135,44,53020,1,4,3:2:0:0:
135,44,53344,5,8,0:0:0:0:
88,175,53506,1,8,0:0:0:0:
41,307,53669,1,4,3:2:0:0:
41,307,53993,5,0,3:2:0:0:
205,338,54155,1,8,0:0:0:0:
366,370,54317,2,0,L|485:356,1,119.999996337891,4|0,3:2|0:0,0:0:0:0:
119,215,54641,2,0,L|0:201,1,119.999996337891,8|0,0:3|3:2,0:0:0:0:
154,24,54966,1,4,0:3:0:0:
154,24,55047,1,0,0:0:0:0:
154,24,55128,6,0,B|204:9|204:9|250:19,1,100,6|0,3:2|0:0,0:0:0:0:
484,119,55452,2,0,B|437:129|437:129|387:114,1,100,8|0,0:0|0:0,0:0:0:0:
273,114,55777,1,0,3:2:0:0:
268,213,55939,1,2,3:2:0:0:
372,218,56101,1,10,0:0:0:0:
237,192,56263,1,2,0:0:0:0:
127,261,56425,6,0,P|78:258|30:244,1,100,2|0,3:2|0:0,0:0:0:0:
235,49,56750,2,0,P|283:60|328:83,1,100,10|0,0:0|3:2,0:0:0:0:
106,307,57074,6,0,P|64:279|29:243,1,100,2|0,0:0|3:2,0:0:0:0:
265,7,57399,2,0,P|301:41|328:83,1,100,10|0,0:0|0:0,0:0:0:0:
342,376,57723,5,2,3:2:0:0:
465,310,57885,1,2,3:2:0:0:
471,170,58047,1,10,0:0:0:0:
348,102,58209,1,2,3:2:0:0:
0,260,58533,1,2,3:2:0:0:
512,384,58858,1,6,3:2:0:0:
512,384,59182,5,0,3:2:0:0:
365,368,59344,1,10,0:0:0:0:
365,368,59506,1,8,0:0:0:0:
397,280,59669,1,2,3:2:0:0:
274,303,59831,1,2,3:2:0:0:
158,260,59993,1,10,0:0:0:0:
110,154,60155,1,2,0:0:0:0:
146,39,60317,6,0,P|195:46|245:49,1,100,6|0,3:2|0:0,0:0:0:0:
311,108,60641,2,0,P|385:95|460:88,1,150,8|0,0:0|0:0,0:0:0:0:
512,33,60966,1,0,3:2:0:0:
445,166,61128,1,0,3:2:0:0:
512,241,61290,2,0,P|504:290|502:340,1,100,10|0,0:0|0:0,0:0:0:0:
409,368,61614,6,0,P|361:357|311:353,1,100,2|0,3:2|0:0,0:0:0:0:
69,288,61939,2,0,P|117:276|167:273,1,100,10|0,0:0|3:2,0:0:0:0:
445,166,62263,2,0,P|396:154|346:151,1,100,2|0,0:0|3:2,0:0:0:0:
154,129,62587,1,10,0:0:0:0:
204,124,62669,1,8,0:0:0:0:
251,107,62750,1,8,0:0:0:0:
283,69,62831,1,8,0:0:0:0:
284,19,62912,5,6,0:0:0:0:
305,245,63074,1,2,3:2:0:0:
305,245,63236,1,8,0:0:0:0:
419,83,63398,5,2,0:0:0:0:
440,309,63560,1,2,3:2:0:0:
440,309,63722,1,0,3:2:0:0:
169,95,63885,5,2,0:0:0:0:
193,381,64047,1,2,3:2:0:0:
193,381,64209,1,0,0:0:0:0:
17,29,64371,5,2,3:2:0:0:
38,255,64533,1,10,0:0:0:0:
38,255,64696,5,8,0:0:0:0:
43,289,64777,1,8,0:0:0:0:
54,333,64858,2,0,B|128:352|128:352|198:330,1,150,10|8,0:0|0:3,0:0:0:0:
275,327,65182,1,6,0:3:0:0:
314,333,65263,1,4,0:3:0:0:
353,338,65344,1,4,0:3:0:0:
391,346,65425,1,4,0:3:0:0:
430,353,65506,1,4,3:3:0:0:
430,353,65669,6,0,B|438:298|438:298|424:255,1,100,14|0,0:0|0:0,0:0:0:0:
366,75,65831,2,0,L|354:174,1,100,10|0,0:0|0:0,0:0:0:0:
206,384,66155,6,0,P|220:336|204:290,1,100,10|0,0:0|0:0,0:0:0:0:
139,96,66317,2,0,B|123:145|123:145|129:192,1,100,10|0,0:0|0:0,0:0:0:0:
129,193,66641,6,0,P|131:118|105:48,1,150,10|0,3:2|0:0,0:0:0:0:
19,0,66966,6,0,B|59:28|59:28|110:24,1,100,10|0,3:2|0:0,0:0:0:0:
413,10,67129,2,0,B|359:8|359:8|320:32,1,100,10|0,3:2|0:0,0:0:0:0:
320,32,67425,6,0,L|315:61,1,30,2|0,0:0|0:0,0:0:0:0:
276,163,67763,2,0,L|254:184,1,30,2|0,0:0|0:0,0:0:0:0:
129,231,68102,5,6,3:2:0:0:
191,309,68265,1,0,3:2:0:0:
290,309,68427,1,8,3:2:0:0:
385,260,68589,1,0,3:2:0:0:
382,164,68752,1,8,3:2:0:0:
442,89,68914,1,0,3:2:0:0:
289,55,69075,1,10,3:2:0:0:
159,25,69238,1,0,3:2:0:0:
35,133,69400,5,10,3:2:0:0:
202,116,69562,1,0,3:2:0:0:
414,230,69725,1,10,3:2:0:0:
257,195,69887,1,0,3:2:0:0:
48,312,70048,1,10,3:2:0:0:
205,277,70210,1,0,3:2:0:0:
436,381,70373,1,10,3:2:0:0:
397,368,70454,1,2,0:2:0:0:
361,350,70535,1,0,3:2:0:0:
323,334,70616,1,2,0:2:0:0:
285,315,70697,5,10,3:2:0:0:
205,277,70860,1,0,3:2:0:0:
220,353,71021,1,8,3:2:0:0:
269,236,71184,1,0,3:2:0:0:
172,377,71346,5,10,3:2:0:0:
305,194,71508,1,0,3:2:0:0:
144,225,71671,1,8,3:2:0:0:
335,360,71833,1,0,3:2:0:0:
88,303,71994,5,10,3:2:0:0:
385,118,72157,1,0,3:2:0:0:
39,151,72319,1,8,3:2:0:0:
368,267,72481,1,0,3:2:0:0:
126,19,72644,1,10,3:2:0:0:
281,13,72806,1,0,3:2:0:0:
486,34,72967,5,10,3:2:0:0:
482,74,73048,1,8,0:0:0:0:
477,114,73130,1,8,3:2:0:0:
472,153,73211,1,8,0:0:0:0:
470,196,73292,5,12,3:2:0:0:
470,196,73454,2,0,L|461:285,1,89.9999972534181,0|0,3:2|0:0,0:0:0:0:
496,368,73778,1,0,3:2:0:0:
305,374,73940,2,0,P|215:365|125:361,1,179.999994506836,8|2,0:0|3:2,0:0:0:0:
125,361,74589,6,0,P|120:317|123:272,1,89.9999972534181,2|8,3:2|0:0,0:0:0:0:
433,158,74913,2,0,P|435:202|430:247,1,89.9999972534181,2|0,3:2|3:2,0:0:0:0:
23,252,75238,2,0,P|40:211|68:174,1,89.9999972534181,10|0,0:0|3:2,0:0:0:0:
140,144,75481,1,0,3:2:0:0:
140,144,75562,1,10,0:0:0:0:
259,208,75724,1,0,3:2:0:0:
227,69,75886,5,14,0:0:0:0:
371,114,76048,1,0,3:2:0:0:
323,260,76211,1,8,0:0:0:0:
170,215,76373,1,0,3:2:0:0:
319,34,76535,5,2,3:2:0:0:
427,221,76697,1,0,3:2:0:0:
227,341,76859,1,8,0:0:0:0:
106,125,77021,1,0,3:2:0:0:
477,67,77184,5,14,0:0:0:0:
397,384,77346,1,0,3:2:0:0:
66,298,77508,1,8,0:0:0:0:
181,0,77670,1,8,0:0:0:0:
181,0,77751,1,8,0:0:0:0:
181,0,77832,5,10,3:2:0:0:
217,83,77994,1,8,0:0:0:0:
213,176,78157,1,10,0:0:0:0:
193,261,78319,1,8,0:0:0:0:
115,311,78481,5,6,3:2:0:0:
55,66,78643,1,0,3:2:0:0:
27,365,78805,1,8,3:2:0:0:
287,237,78967,1,0,3:2:0:0:
0,156,79130,1,8,3:2:0:0:
324,63,79292,1,0,3:2:0:0:
370,357,79454,1,10,3:2:0:0:
472,273,79616,1,0,3:2:0:0:
472,273,79697,1,0,3:2:0:0:
472,273,79778,5,10,3:2:0:0:
213,176,79940,1,0,3:2:0:0:
503,98,80102,1,10,3:2:0:0:
224,292,80265,1,0,3:2:0:0:
512,208,80427,1,10,3:2:0:0:
308,58,80589,1,0,3:2:0:0:
133,259,80751,1,10,3:2:0:0:
126,219,80832,1,0,3:2:0:0:
118,179,80913,1,0,3:2:0:0:
112,139,80994,1,0,3:2:0:0:
105,99,81075,5,10,3:2:0:0:
308,58,81237,1,0,3:2:0:0:
178,10,81399,1,8,3:2:0:0:
426,0,81561,1,0,3:2:0:0:
502,271,81724,5,10,3:2:0:0:
175,238,81886,1,0,3:2:0:0:
355,165,82048,1,8,3:2:0:0:
69,131,82210,1,0,3:2:0:0:
69,131,82291,1,0,3:2:0:0:
69,131,82373,5,10,3:2:0:0:
199,383,82535,1,0,3:2:0:0:
245,30,82697,1,10,3:2:0:0:
122,324,82859,1,0,3:2:0:0:
90,0,83022,1,10,3:2:0:0:
343,220,83184,1,0,3:2:0:0:
231,384,83346,5,10,3:2:0:0:
219,345,83427,1,8,0:0:0:0:
207,306,83508,1,8,3:2:0:0:
197,267,83589,1,8,0:0:0:0:
186,228,83670,5,6,3:2:0:0:
265,237,83832,1,0,3:2:0:0:
343,220,83994,1,8,3:2:0:0:
393,157,84156,1,0,3:2:0:0:
208,1,84319,5,10,3:2:0:0:
77,50,84481,1,0,3:2:0:0:
7,171,84643,1,8,3:2:0:0:
15,316,84805,1,0,3:2:0:0:
15,316,84886,1,2,3:2:0:0:
15,316,84967,5,10,3:2:0:0:
134,327,85129,1,0,3:2:0:0:
253,340,85291,1,8,3:2:0:0:
372,352,85453,1,0,3:2:0:0:
510,299,85616,5,10,3:2:0:0:
369,245,85778,1,0,3:2:0:0:
512,68,85940,1,10,3:2:0:0:
346,111,86102,1,0,3:2:0:0:
346,111,86183,1,0,3:2:0:0:
346,111,86265,5,14,3:2:0:0:
184,115,86427,1,0,0:0:0:0:
343,136,86589,1,8,0:0:0:0:
186,149,86751,1,0,0:0:0:0:
346,174,86914,1,0,3:2:0:0:
186,190,87075,1,0,3:2:0:0:
346,209,87238,1,8,0:0:0:0:
189,221,87400,1,4,3:2:0:0:
189,221,87724,5,0,3:2:0:0:
266,21,87886,1,8,0:0:0:0:
101,60,88048,1,8,0:0:0:0:
56,36,88130,1,8,0:0:0:0:
10,16,88210,1,4,3:2:0:0:
460,10,88535,1,4,3:2:0:0:
112,186,88859,5,4,3:2:0:0:
218,378,89184,1,2,0:0:0:0:
434,336,89508,1,2,0:0:0:0:
461,118,89832,1,2,0:0:0:0:
262,25,90157,5,10,3:2:0:0:
112,186,90319,1,8,3:2:0:0:
218,378,90481,1,8,3:2:0:0:
214,154,90805,5,2,0:2:0:0:
275,246,90967,1,0,0:0:0:0:
172,269,91130,1,0,0:0:0:0:
112,186,91292,1,0,0:0:0:0:
12,256,91454,6,0,P|47:260|81:266,2,69.9999978637696,2|0|0,0:0|0:0|0:0,0:0:0:0:
136,354,91940,2,0,P|196:321|265:315,1,139.999995727539,2|0,0:0|0:0,0:0:0:0:
337,342,92426,1,0,0:0:0:0:
161,245,92589,2,0,P|220:209|285:183,1,139.999995727539,2|0,0:0|0:0,0:0:0:0:
360,184,93075,1,0,0:0:0:0:
104,191,93237,2,0,P|113:122|132:54,1,139.999995727539,2|0,0:0|0:0,0:0:0:0:
193,7,93724,1,0,0:0:0:0:
426,36,93886,1,0,0:0:0:0:
426,36,93967,1,0,0:0:0:0:
426,36,94048,6,0,P|461:34|496:28,2,69.9999978637696,2|0|0,0:0|0:0|0:0,0:0:0:0:
361,101,94535,2,0,P|364:170|368:240,1,139.999995727539,2|0,0:0|0:0,0:0:0:0:
459,286,95021,1,0,0:0:0:0:
269,173,95183,2,0,P|200:159|131:146,1,139.999995727539,2|0,0:0|0:0,0:0:0:0:
96,65,95670,1,0,0:0:0:0:
64,290,95832,2,0,P|106:237|173:239,1,139.999995727539,2|0,0:0|0:0,0:0:0:0:
210,318,96318,1,2,0:0:0:0:
0,347,96481,1,0,0:0:0:0:
0,347,96562,1,0,0:0:0:0:
0,347,96643,5,2,3:2:0:0:
1,200,96805,1,0,0:0:0:0:
115,96,96967,1,0,3:2:0:0:
37,48,97129,2,0,P|30:82|29:117,1,69.9999978637696,2|0,0:0|3:2,0:0:0:0:
210,166,97453,5,0,0:0:0:0:
283,121,97616,1,0,3:2:0:0:
273,276,97778,2,0,P|277:241|286:207,1,69.9999978637696,2|0,0:0|3:2,0:0:0:0:
512,119,98102,5,0,0:0:0:0:
413,74,98264,1,0,3:2:0:0:
438,204,98426,2,0,P|443:238|452:272,1,69.9999978637696,2|0,0:0|3:2,0:0:0:0:
512,369,98751,5,0,0:0:0:0:
389,342,98913,1,0,3:2:0:0:
270,380,99075,1,0,0:0:0:0:
270,380,99156,1,0,0:0:0:0:
270,380,99237,5,10,3:2:0:0:
210,166,99399,1,2,0:0:0:0:
210,166,99886,1,10,0:0:0:0:
276,107,100048,1,8,0:3:0:0:
265,17,100210,1,8,0:3:0:0:
450,84,100373,6,0,B|352:136|285:55|285:55|188:7|104:59,1,375,6|0,0:0|0:0,0:0:0:0:
103,59,101670,6,0,B|93:128,1,69.9999978637696,0|0,3:2|0:0,0:0:0:0:
5,159,101994,1,0,3:2:0:0:
197,107,102156,1,8,0:0:0:0:
263,179,102318,1,0,3:2:0:0:
186,245,102481,1,8,0:3:0:0:
119,172,102643,1,0,3:2:0:0:
95,270,102805,1,4,0:3:0:0:
95,270,102886,1,0,0:0:0:0:
95,270,102967,6,0,B|128:295|128:295|284:268,1,200,6|0,0:0|3:2,0:0:0:0:
373,208,103453,1,10,0:0:0:0:
403,118,103616,1,0,0:0:0:0:
506,274,103778,1,2,3:2:0:0:
476,369,103940,1,0,3:2:0:0:
245,311,104102,1,10,0:0:0:0:
215,206,104264,1,0,0:0:0:0:
403,118,104426,5,2,3:2:0:0:
373,208,104589,1,0,3:2:0:0:
476,369,104751,1,10,0:0:0:0:
506,274,104913,1,0,3:2:0:0:
373,208,105075,2,0,L|325:219,1,50,10|0,0:0|0:0,0:0:0:0:
253,260,105237,2,0,L|205:249,1,50,2|0,3:2|0:0,0:0:0:0:
128,206,105399,2,0,L|80:217,1,50,10|0,0:0|0:0,0:0:0:0:
10,129,105562,6,0,B|54:219|54:219|32:317,1,200,6|0,0:0|3:2,0:0:0:0:
168,346,106048,1,10,0:0:0:0:
204,248,106210,1,0,3:2:0:0:
311,384,106372,1,10,0:0:0:0:
331,168,106535,1,0,3:2:0:0:
461,363,106697,1,10,0:0:0:0:
470,257,106859,2,0,L|461:207,1,50,0|0,3:2|0:0,0:0:0:0:
500,131,107021,5,8,3:2:0:0:
266,23,107183,1,8,3:2:0:0:
266,23,107508,1,8,3:2:0:0:
163,79,107670,1,8,3:2:0:0:
258,151,107832,1,8,3:3:0:0:
367,94,107994,1,4,3:3:0:0:
367,94,108075,1,0,0:0:0:0:
367,94,108156,6,0,P|347:192|336:291,1,200,6|0,0:0|3:2,0:0:0:0:
422,377,108643,1,10,0:0:0:0:
487,314,108805,1,0,0:0:0:0:
327,132,108967,1,2,3:2:0:0:
264,204,109129,1,0,3:2:0:0:
512,171,109291,1,10,0:0:0:0:
478,68,109454,1,0,0:0:0:0:
327,132,109616,5,2,3:2:0:0:
264,204,109778,1,0,3:2:0:0:
422,377,109940,1,10,0:0:0:0:
487,314,110102,1,0,3:2:0:0:
276,235,110264,2,0,P|252:236|227:241,1,50,10|0,0:0|0:0,0:0:0:0:
161,326,110426,2,0,P|145:306|130:285,1,50,2|0,3:2|0:0,0:0:0:0:
36,260,110589,2,0,P|38:234|43:210,1,50,10|0,0:0|0:0,0:0:0:0:
0,113,110751,6,0,P|48:194|144:190,1,200,6|0,0:0|3:2,0:0:0:0:
219,139,111237,1,10,0:0:0:0:
121,18,111399,1,8,3:3:0:0:
121,18,111481,1,8,3:3:0:0:
121,18,111562,1,8,3:3:0:0:
425,77,111724,1,8,3:3:0:0:
459,71,111805,1,8,3:3:0:0:
466,36,111886,1,4,3:3:0:0:
432,24,111967,1,4,3:3:0:0:
409,50,112048,6,0,P|378:212|353:375,1,329.9999899292,4|0,0:0|0:0,0:0:0:0:
326,356,113021,1,0,3:2:0:0:
284,343,113102,1,0,3:2:0:0:
234,346,113183,1,8,0:2:0:0:
234,346,113508,5,8,0:0:0:0:
223,312,113589,1,8,0:0:0:0:
216,277,113670,1,0,3:2:0:0:
223,242,113751,1,0,3:2:0:0:
236,219,113832,5,8,0:3:0:0:
231,195,113913,1,8,0:3:0:0:
215,176,113994,1,0,3:2:0:0:
193,166,114075,1,0,3:2:0:0:
168,163,114156,1,8,0:3:0:0:
144,167,114237,1,8,0:3:0:0:
120,172,114318,1,0,3:2:0:0:
96,170,114399,1,0,3:2:0:0:
72,163,114481,1,4,0:3:0:0:
51,152,114562,1,4,0:3:0:0:
32,137,114643,1,4,3:3:0:0:
19,116,114724,1,4,3:3:0:0:
23,71,114805,5,6,3:2:0:0:
