osu file format v14

[General]
AudioFilename: audio.ogg
AudioLeadIn: 0
PreviewTime: 81917
Countdown: 0
SampleSet: Soft
StackLeniency: 0.7
Mode: 3
LetterboxInBreaks: 0
SpecialStyle: 0
WidescreenStoryboard: 1

[Editor]
DistanceSpacing: 0.8
BeatDivisor: 4
GridSize: 32
TimelineZoom: 1.2

[Metadata]
Title:Gin no Ishi
TitleUnicode:銀の意志
Artist:Falcom Sound Team jdk
ArtistUnicode:Falcom Sound Team jdk
Creator:richardfeder
Version:Nightmare
Source:英雄伝説 空の軌跡
Tags:Kafuuchino Silver Will スーパーアレンジバージョン super arrange ver. J.D.K bgm ost Eiyuu Densetsu VI Sora no Kiseki FC SC 3RD The Legend of Heroes Trails in the Sky video game instrumental
BeatmapID:2858671
BeatmapSetID:1383848

[Difficulty]
HPDrainRate:9
CircleSize:7
OverallDifficulty:7
ApproachRate:5
SliderMultiplier:1.4
SliderTickRate:1

[Events]
//Background and Video events
0,0,"BG.jpg",0,0
//Break Periods
//Storyboard Layer 0 (Background)
//Storyboard Layer 1 (Fail)
//Storyboard Layer 2 (Pass)
//Storyboard Layer 3 (Foreground)
//Storyboard Layer 4 (Overlay)
//Storyboard Sound Samples

[TimingPoints]
1984,428.571428571429,4,2,1,35,1,0
82555,-100,4,2,1,35,0,1
137412,-100,4,2,1,35,0,0
211126,-100,4,2,1,35,0,1
265984,-100,4,2,1,35,0,0
293412,-100,4,2,1,35,0,1
320841,-100,4,2,1,35,0,0

[HitObjects]
36,192,1341,128,0,1555:0:0:0:0:
182,192,1555,128,0,1769:0:0:0:0:
329,192,1769,128,0,1984:0:0:0:0:
475,192,1984,128,0,2519:0:0:0:0:
402,192,2626,128,0,2841:0:0:0:0:
256,192,2841,128,0,3055:0:0:0:0:
109,192,3055,128,0,3269:0:0:0:0:
475,192,3269,128,0,4234:0:0:0:0:
36,192,3269,128,0,3484:0:0:0:0:
329,192,3484,128,0,3698:0:0:0:0:
182,192,3698,128,0,3912:0:0:0:0:
36,192,3912,128,0,4126:0:0:0:0:
256,192,4126,128,0,4341:0:0:0:0:
402,192,4341,128,0,4555:0:0:0:0:
329,192,4555,128,0,4769:0:0:0:0:
256,192,4769,128,0,4984:0:0:0:0:
36,192,4769,128,0,4984:0:0:0:0:
182,192,4984,128,0,5198:0:0:0:0:
475,192,4984,128,0,5198:0:0:0:0:
109,192,5198,128,0,5412:0:0:0:0:
329,192,5198,128,0,5412:0:0:0:0:
36,192,5412,128,0,7126:0:0:0:0:
402,192,5412,128,0,5626:0:0:0:0:
256,192,5626,128,0,5841:0:0:0:0:
329,192,5841,128,0,6055:0:0:0:0:
182,192,6055,128,0,6269:0:0:0:0:
256,192,6269,128,0,6484:0:0:0:0:
109,192,6484,128,0,6698:0:0:0:0:
182,192,6698,128,0,6912:0:0:0:0:
256,192,6912,128,0,7126:0:0:0:0:
475,192,7126,128,0,8198:0:0:0:0:
329,192,7126,128,0,7341:0:0:0:0:
182,192,7341,128,0,7555:0:0:0:0:
36,192,7555,128,0,7769:0:0:0:0:
182,192,7769,128,0,8412:0:0:0:0:
402,192,8198,128,0,8841:0:0:0:0:
256,192,8412,128,0,9055:0:0:0:0:
475,192,9055,128,0,10555:0:0:0:0:
36,192,9055,128,0,9269:0:0:0:0:
109,192,9269,128,0,9484:0:0:0:0:
182,192,9484,128,0,9912:0:0:0:0:
256,192,9912,128,0,10126:0:0:0:0:
329,192,10126,128,0,10448:0:0:0:0:
256,192,10555,128,0,10769:0:0:0:0:
36,192,10555,128,0,10984:0:0:0:0:
402,192,10769,128,0,10984:0:0:0:0:
182,192,10984,128,0,11626:0:0:0:0:
329,192,10984,128,0,11198:0:0:0:0:
475,192,11198,128,0,11841:0:0:0:0:
109,192,11626,128,0,12484:0:0:0:0:
402,192,11841,128,0,12484:0:0:0:0:
36,192,12484,128,0,12698:0:0:0:0:
329,192,12484,128,0,12698:0:0:0:0:
182,192,12698,128,0,12912:0:0:0:0:
475,192,12698,128,0,12912:0:0:0:0:
329,192,12912,128,0,13341:0:0:0:0:
109,192,13341,128,0,13555:0:0:0:0:
475,192,13341,128,0,13555:0:0:0:0:
402,192,13555,128,0,13984:0:0:0:0:
36,192,13555,128,0,13984:0:0:0:0:
475,192,13984,128,0,16555:0:0:0:0:
182,192,13984,128,0,16555:0:0:0:0:
256,192,14841,1,0,0:0:0:0:
256,192,15055,1,0,0:0:0:0:
402,192,16555,128,0,17412:0:0:0:0:
36,192,16555,128,0,17412:0:0:0:0:
256,192,16555,1,0,0:0:0:0:
256,192,16769,1,0,0:0:0:0:
182,192,17412,128,0,20198:0:0:0:0:
475,192,17412,128,0,20198:0:0:0:0:
256,192,18269,1,0,0:0:0:0:
256,192,18484,1,0,0:0:0:0:
256,192,19984,1,0,0:0:0:0:
36,192,20198,128,0,20412:0:0:0:0:
329,192,20198,128,0,20412:0:0:0:0:
256,192,20198,1,0,0:0:0:0:
109,192,20412,128,0,20626:0:0:0:0:
402,192,20412,128,0,20626:0:0:0:0:
182,192,20626,128,0,20841:0:0:0:0:
475,192,20626,128,0,20841:0:0:0:0:
329,192,20841,128,0,23412:0:0:0:0:
36,192,20841,128,0,23412:0:0:0:0:
256,192,21698,1,0,0:0:0:0:
256,192,21912,1,0,0:0:0:0:
475,192,23412,128,0,24269:0:0:0:0:
182,192,23412,128,0,24269:0:0:0:0:
256,192,23412,1,0,0:0:0:0:
256,192,23626,1,0,0:0:0:0:
109,192,24269,128,0,25876:0:0:0:0:
402,192,24269,128,0,25876:0:0:0:0:
256,192,25126,5,0,0:0:0:0:
256,192,25341,1,0,0:0:0:0:
36,192,25984,128,0,27591:0:0:0:0:
475,192,25984,128,0,27591:0:0:0:0:
109,192,25984,1,0,0:0:0:0:
402,192,25984,1,0,0:0:0:0:
329,192,26091,1,0,0:0:0:0:
182,192,26198,1,0,0:0:0:0:
329,192,26305,1,0,0:0:0:0:
109,192,26412,1,0,0:0:0:0:
402,192,26412,1,0,0:0:0:0:
182,192,26519,1,0,0:0:0:0:
329,192,26626,1,0,0:0:0:0:
182,192,26734,1,0,0:0:0:0:
329,192,26841,1,0,0:0:0:0:
109,192,26841,1,0,0:0:0:0:
256,192,26948,1,0,0:0:0:0:
402,192,27055,1,0,0:0:0:0:
182,192,27055,1,0,0:0:0:0:
256,192,27162,1,0,0:0:0:0:
329,192,27269,1,0,0:0:0:0:
109,192,27269,1,0,0:0:0:0:
256,192,27376,1,0,0:0:0:0:
182,192,27484,1,0,0:0:0:0:
402,192,27484,1,0,0:0:0:0:
256,192,27591,1,0,0:0:0:0:
109,192,27698,1,0,0:0:0:0:
36,192,27698,1,0,0:0:0:0:
475,192,27698,1,0,0:0:0:0:
329,192,27698,1,0,0:0:0:0:
475,192,27912,1,0,0:0:0:0:
182,192,27912,1,0,0:0:0:0:
475,192,28126,1,0,0:0:0:0:
36,192,28126,1,0,0:0:0:0:
256,192,28126,1,0,0:0:0:0:
402,192,28341,1,0,0:0:0:0:
109,192,28341,1,0,0:0:0:0:
329,192,28341,1,0,0:0:0:0:
256,192,28448,1,0,0:0:0:0:
475,192,28448,1,0,0:0:0:0:
402,192,28555,1,0,0:0:0:0:
36,192,28555,1,0,0:0:0:0:
182,192,28555,1,0,0:0:0:0:
402,192,28769,1,0,0:0:0:0:
109,192,28769,1,0,0:0:0:0:
402,192,28984,1,0,0:0:0:0:
36,192,28984,1,0,0:0:0:0:
182,192,28984,1,0,0:0:0:0:
329,192,29198,1,0,0:0:0:0:
109,192,29198,1,0,0:0:0:0:
329,192,29412,1,0,0:0:0:0:
36,192,29412,1,0,0:0:0:0:
182,192,29412,1,0,0:0:0:0:
329,192,29626,1,0,0:0:0:0:
109,192,29626,1,0,0:0:0:0:
329,192,29841,1,0,0:0:0:0:
256,192,29841,1,0,0:0:0:0:
36,192,29841,1,0,0:0:0:0:
109,192,30055,1,0,0:0:0:0:
402,192,30055,1,0,0:0:0:0:
182,192,30055,1,0,0:0:0:0:
329,192,30162,1,0,0:0:0:0:
475,192,30162,1,0,0:0:0:0:
182,192,30269,1,0,0:0:0:0:
36,192,30269,1,0,0:0:0:0:
256,192,30269,1,0,0:0:0:0:
182,192,30484,1,0,0:0:0:0:
329,192,30484,1,0,0:0:0:0:
182,192,30698,1,0,0:0:0:0:
402,192,30698,1,0,0:0:0:0:
36,192,30698,1,0,0:0:0:0:
475,192,30912,1,0,0:0:0:0:
329,192,30912,1,0,0:0:0:0:
475,192,31126,1,0,0:0:0:0:
109,192,31126,1,0,0:0:0:0:
256,192,31126,1,0,0:0:0:0:
475,192,31341,1,0,0:0:0:0:
182,192,31341,1,0,0:0:0:0:
475,192,31555,1,0,0:0:0:0:
256,192,31555,1,0,0:0:0:0:
36,192,31555,1,0,0:0:0:0:
402,192,31769,1,0,0:0:0:0:
109,192,31769,1,0,0:0:0:0:
329,192,31769,1,0,0:0:0:0:
256,192,31876,1,0,0:0:0:0:
475,192,31876,1,0,0:0:0:0:
402,192,31984,1,0,0:0:0:0:
36,192,31984,1,0,0:0:0:0:
182,192,31984,1,0,0:0:0:0:
402,192,32198,1,0,0:0:0:0:
256,192,32198,1,0,0:0:0:0:
402,192,32412,1,0,0:0:0:0:
182,192,32412,1,0,0:0:0:0:
36,192,32412,1,0,0:0:0:0:
329,192,32626,1,0,0:0:0:0:
109,192,32626,1,0,0:0:0:0:
329,192,32841,1,0,0:0:0:0:
36,192,32841,1,0,0:0:0:0:
182,192,32841,1,0,0:0:0:0:
329,192,33055,1,0,0:0:0:0:
109,192,33055,1,0,0:0:0:0:
329,192,33269,1,0,0:0:0:0:
182,192,33269,1,0,0:0:0:0:
36,192,33269,1,0,0:0:0:0:
256,192,33484,1,0,0:0:0:0:
36,192,33484,1,0,0:0:0:0:
402,192,33484,1,0,0:0:0:0:
109,192,33591,1,0,0:0:0:0:
329,192,33591,1,0,0:0:0:0:
256,192,33698,1,0,0:0:0:0:
36,192,33698,1,0,0:0:0:0:
475,192,33698,1,0,0:0:0:0:
256,192,33912,1,0,0:0:0:0:
109,192,33912,1,0,0:0:0:0:
256,192,34126,1,0,0:0:0:0:
402,192,34126,1,0,0:0:0:0:
36,192,34126,1,0,0:0:0:0:
182,192,34341,1,0,0:0:0:0:
475,192,34341,1,0,0:0:0:0:
36,192,34555,1,0,0:0:0:0:
475,192,34555,1,0,0:0:0:0:
329,192,34555,1,0,0:0:0:0:
475,192,34769,1,0,0:0:0:0:
182,192,34769,1,0,0:0:0:0:
475,192,34984,1,0,0:0:0:0:
36,192,34984,1,0,0:0:0:0:
256,192,34984,1,0,0:0:0:0:
402,192,35198,1,0,0:0:0:0:
109,192,35198,1,0,0:0:0:0:
329,192,35198,1,0,0:0:0:0:
256,192,35305,1,0,0:0:0:0:
475,192,35305,1,0,0:0:0:0:
402,192,35412,1,0,0:0:0:0:
36,192,35412,1,0,0:0:0:0:
182,192,35412,1,0,0:0:0:0:
402,192,35626,1,0,0:0:0:0:
109,192,35626,1,0,0:0:0:0:
402,192,35841,1,0,0:0:0:0:
36,192,35841,1,0,0:0:0:0:
182,192,35841,1,0,0:0:0:0:
329,192,36055,1,0,0:0:0:0:
109,192,36055,1,0,0:0:0:0:
329,192,36269,1,0,0:0:0:0:
36,192,36269,1,0,0:0:0:0:
182,192,36269,1,0,0:0:0:0:
329,192,36484,1,0,0:0:0:0:
109,192,36484,1,0,0:0:0:0:
329,192,36698,1,0,0:0:0:0:
256,192,36698,1,0,0:0:0:0:
36,192,36698,1,0,0:0:0:0:
109,192,36912,1,0,0:0:0:0:
402,192,36912,1,0,0:0:0:0:
182,192,36912,1,0,0:0:0:0:
329,192,37019,1,0,0:0:0:0:
475,192,37019,1,0,0:0:0:0:
182,192,37126,1,0,0:0:0:0:
36,192,37126,1,0,0:0:0:0:
256,192,37126,1,0,0:0:0:0:
182,192,37341,1,0,0:0:0:0:
329,192,37341,1,0,0:0:0:0:
182,192,37555,1,0,0:0:0:0:
402,192,37555,1,0,0:0:0:0:
36,192,37555,1,0,0:0:0:0:
475,192,37769,1,0,0:0:0:0:
329,192,37769,1,0,0:0:0:0:
475,192,37984,1,0,0:0:0:0:
109,192,37984,1,0,0:0:0:0:
256,192,37984,1,0,0:0:0:0:
475,192,38198,1,0,0:0:0:0:
182,192,38198,1,0,0:0:0:0:
475,192,38412,1,0,0:0:0:0:
256,192,38412,1,0,0:0:0:0:
36,192,38412,1,0,0:0:0:0:
402,192,38626,5,0,0:0:0:0:
109,192,38626,1,0,0:0:0:0:
329,192,38626,1,0,0:0:0:0:
256,192,38734,1,0,0:0:0:0:
475,192,38734,1,0,0:0:0:0:
402,192,38841,1,0,0:0:0:0:
36,192,38841,1,0,0:0:0:0:
182,192,38841,1,0,0:0:0:0:
402,192,39055,1,0,0:0:0:0:
256,192,39055,1,0,0:0:0:0:
402,192,39269,1,0,0:0:0:0:
182,192,39269,1,0,0:0:0:0:
36,192,39269,1,0,0:0:0:0:
329,192,39484,1,0,0:0:0:0:
109,192,39484,1,0,0:0:0:0:
36,192,39698,1,0,0:0:0:0:
475,192,39698,1,0,0:0:0:0:
182,192,39805,1,0,0:0:0:0:
402,192,39805,1,0,0:0:0:0:
36,192,39912,1,0,0:0:0:0:
329,192,39912,1,0,0:0:0:0:
182,192,40019,1,0,0:0:0:0:
402,192,40019,1,0,0:0:0:0:
109,192,40126,1,0,0:0:0:0:
475,192,40126,1,0,0:0:0:0:
256,192,40234,1,0,0:0:0:0:
402,192,40234,1,0,0:0:0:0:
109,192,40341,1,0,0:0:0:0:
475,192,40341,1,0,0:0:0:0:
256,192,40448,1,0,0:0:0:0:
402,192,40448,1,0,0:0:0:0:
182,192,40555,1,0,0:0:0:0:
36,192,40555,1,0,0:0:0:0:
329,192,40662,1,0,0:0:0:0:
475,192,40662,1,0,0:0:0:0:
182,192,40769,1,0,0:0:0:0:
36,192,40769,1,0,0:0:0:0:
329,192,40876,1,0,0:0:0:0:
475,192,40876,1,0,0:0:0:0:
256,192,40984,1,0,0:0:0:0:
36,192,40984,1,0,0:0:0:0:
402,192,41091,1,0,0:0:0:0:
109,192,41091,1,0,0:0:0:0:
256,192,41198,1,0,0:0:0:0:
36,192,41198,1,0,0:0:0:0:
402,192,41305,1,0,0:0:0:0:
109,192,41305,1,0,0:0:0:0:
36,192,41412,128,0,41948:0:0:0:0:
329,192,41412,1,0,0:0:0:0:
475,192,41412,1,0,0:0:0:0:
182,192,41412,1,0,0:0:0:0:
402,192,41626,1,0,0:0:0:0:
182,192,41841,1,0,0:0:0:0:
475,192,41841,1,0,0:0:0:0:
329,192,41841,1,0,0:0:0:0:
109,192,42055,128,0,42162:0:0:0:0:
402,192,42055,1,0,0:0:0:0:
475,192,42162,1,0,0:0:0:0:
256,192,42162,1,0,0:0:0:0:
182,192,42269,128,0,42805:0:0:0:0:
36,192,42269,1,0,0:0:0:0:
329,192,42269,1,0,0:0:0:0:
402,192,42484,1,0,0:0:0:0:
36,192,42698,1,0,0:0:0:0:
329,192,42698,1,0,0:0:0:0:
475,192,42698,1,0,0:0:0:0:
402,192,42912,128,0,43019:0:0:0:0:
256,192,42912,1,0,0:0:0:0:
475,192,43126,128,0,43448:0:0:0:0:
36,192,43126,1,0,0:0:0:0:
182,192,43126,1,0,0:0:0:0:
109,192,43341,1,0,0:0:0:0:
329,192,43448,128,0,43769:0:0:0:0:
36,192,43555,1,0,0:0:0:0:
402,192,43555,1,0,0:0:0:0:
256,192,43555,1,0,0:0:0:0:
182,192,43769,128,0,43984:0:0:0:0:
109,192,43769,1,0,0:0:0:0:
475,192,43876,1,0,0:0:0:0:
402,192,43876,1,0,0:0:0:0:
36,192,43984,128,0,44305:0:0:0:0:
256,192,43984,1,0,0:0:0:0:
329,192,43984,1,0,0:0:0:0:
402,192,44198,1,0,0:0:0:0:
182,192,44305,128,0,44626:0:0:0:0:
329,192,44412,1,0,0:0:0:0:
475,192,44412,1,0,0:0:0:0:
36,192,44412,1,0,0:0:0:0:
329,192,44626,128,0,44841:0:0:0:0:
402,192,44626,1,0,0:0:0:0:
109,192,44841,128,0,45162:0:0:0:0:
475,192,44841,1,0,0:0:0:0:
182,192,44841,1,0,0:0:0:0:
402,192,45055,1,0,0:0:0:0:
256,192,45162,128,0,45698:0:0:0:0:
475,192,45269,1,0,0:0:0:0:
36,192,45269,1,0,0:0:0:0:
329,192,45269,1,0,0:0:0:0:
109,192,45484,1,0,0:0:0:0:
475,192,45591,1,0,0:0:0:0:
329,192,45591,1,0,0:0:0:0:
182,192,45698,1,0,0:0:0:0:
36,192,45698,1,0,0:0:0:0:
475,192,45912,128,0,46019:0:0:0:0:
109,192,45912,1,0,0:0:0:0:
402,192,46126,128,0,46234:0:0:0:0:
36,192,46126,1,0,0:0:0:0:
182,192,46126,1,0,0:0:0:0:
256,192,46126,1,0,0:0:0:0:
329,192,46341,128,0,47198:0:0:0:0:
109,192,46341,1,0,0:0:0:0:
182,192,46555,1,0,0:0:0:0:
475,192,46555,1,0,0:0:0:0:
109,192,46769,1,0,0:0:0:0:
475,192,46984,1,0,0:0:0:0:
36,192,46984,1,0,0:0:0:0:
256,192,46984,1,0,0:0:0:0:
182,192,47198,1,0,0:0:0:0:
256,192,47305,1,0,0:0:0:0:
109,192,47305,1,0,0:0:0:0:
475,192,47412,128,0,47626:0:0:0:0:
36,192,47412,1,0,0:0:0:0:
329,192,47412,1,0,0:0:0:0:
182,192,47519,1,0,0:0:0:0:
329,192,47626,128,0,47841:0:0:0:0:
109,192,47626,1,0,0:0:0:0:
182,192,47841,128,0,48269:0:0:0:0:
475,192,47841,1,0,0:0:0:0:
36,192,47841,1,0,0:0:0:0:
402,192,47841,1,0,0:0:0:0:
329,192,48055,1,0,0:0:0:0:
256,192,48269,128,0,48912:0:0:0:0:
402,192,48269,1,0,0:0:0:0:
36,192,48269,1,0,0:0:0:0:
109,192,48484,1,0,0:0:0:0:
329,192,48698,1,0,0:0:0:0:
475,192,48698,1,0,0:0:0:0:
36,192,48698,1,0,0:0:0:0:
109,192,48912,128,0,49126:0:0:0:0:
182,192,48912,1,0,0:0:0:0:
402,192,48912,1,0,0:0:0:0:
329,192,49019,1,0,0:0:0:0:
475,192,49019,1,0,0:0:0:0:
36,192,49126,128,0,49555:0:0:0:0:
402,192,49126,1,0,0:0:0:0:
256,192,49126,1,0,0:0:0:0:
329,192,49341,1,0,0:0:0:0:
182,192,49555,1,0,0:0:0:0:
402,192,49555,1,0,0:0:0:0:
475,192,49555,1,0,0:0:0:0:
329,192,49769,1,0,0:0:0:0:
109,192,49769,128,0,49876:0:0:0:0:
182,192,49876,128,0,49984:0:0:0:0:
256,192,49984,128,0,50305:0:0:0:0:
402,192,49984,1,0,0:0:0:0:
36,192,49984,1,0,0:0:0:0:
475,192,50198,1,0,0:0:0:0:
182,192,50305,128,0,50626:0:0:0:0:
36,192,50412,1,0,0:0:0:0:
402,192,50412,1,0,0:0:0:0:
329,192,50412,1,0,0:0:0:0:
36,192,50626,128,0,50841:0:0:0:0:
475,192,50626,1,0,0:0:0:0:
402,192,50734,1,0,0:0:0:0:
256,192,50734,1,0,0:0:0:0:
475,192,50841,128,0,51055:0:0:0:0:
329,192,50841,1,0,0:0:0:0:
109,192,50841,1,0,0:0:0:0:
182,192,50948,1,0,0:0:0:0:
256,192,51055,128,0,51484:0:0:0:0:
109,192,51055,1,0,0:0:0:0:
36,192,51269,1,0,0:0:0:0:
402,192,51269,1,0,0:0:0:0:
475,192,51269,1,0,0:0:0:0:
329,192,51484,128,0,51698:0:0:0:0:
109,192,51484,1,0,0:0:0:0:
182,192,51698,128,0,52555:0:0:0:0:
475,192,51698,1,0,0:0:0:0:
36,192,51698,1,0,0:0:0:0:
402,192,51912,1,0,0:0:0:0:
109,192,52126,1,0,0:0:0:0:
475,192,52126,1,0,0:0:0:0:
329,192,52126,1,0,0:0:0:0:
36,192,52341,128,0,52555:0:0:0:0:
402,192,52341,1,0,0:0:0:0:
475,192,52448,1,0,0:0:0:0:
329,192,52448,1,0,0:0:0:0:
109,192,52555,128,0,53198:0:0:0:0:
256,192,52555,1,0,0:0:0:0:
402,192,52555,1,0,0:0:0:0:
402,192,52769,1,0,0:0:0:0:
329,192,52984,1,0,0:0:0:0:
475,192,52984,1,0,0:0:0:0:
36,192,52984,1,0,0:0:0:0:
256,192,53198,1,0,0:0:0:0:
36,192,53412,128,0,54162:0:0:0:0:
475,192,53412,128,0,54162:0:0:0:0:
329,192,53412,1,0,0:0:0:0:
182,192,53412,1,0,0:0:0:0:
256,192,53626,1,0,0:0:0:0:
402,192,53841,1,0,0:0:0:0:
109,192,53841,1,0,0:0:0:0:
182,192,53841,1,0,0:0:0:0:
329,192,54055,1,0,0:0:0:0:
182,192,54162,1,0,0:0:0:0:
109,192,54269,128,0,55019:0:0:0:0:
402,192,54269,128,0,55019:0:0:0:0:
475,192,54269,1,0,0:0:0:0:
36,192,54269,1,0,0:0:0:0:
182,192,54376,1,0,0:0:0:0:
329,192,54484,1,0,0:0:0:0:
36,192,54698,1,0,0:0:0:0:
475,192,54698,1,0,0:0:0:0:
256,192,54698,1,0,0:0:0:0:
256,192,54912,1,0,0:0:0:0:
256,192,55019,1,0,0:0:0:0:
36,192,55126,128,0,55769:0:0:0:0:
329,192,55126,128,0,55555:0:0:0:0:
182,192,55126,1,0,0:0:0:0:
475,192,55126,1,0,0:0:0:0:
256,192,55341,1,0,0:0:0:0:
182,192,55555,1,0,0:0:0:0:
475,192,55555,1,0,0:0:0:0:
402,192,55555,1,0,0:0:0:0:
256,192,55769,1,0,0:0:0:0:
182,192,55876,1,0,0:0:0:0:
329,192,55876,1,0,0:0:0:0:
109,192,55984,128,0,56626:0:0:0:0:
402,192,55984,128,0,56412:0:0:0:0:
256,192,55984,1,0,0:0:0:0:
36,192,55984,1,0,0:0:0:0:
329,192,56198,1,0,0:0:0:0:
475,192,56412,1,0,0:0:0:0:
182,192,56412,1,0,0:0:0:0:
256,192,56412,1,0,0:0:0:0:
402,192,56626,1,0,0:0:0:0:
36,192,56841,128,0,57162:0:0:0:0:
475,192,56841,128,0,57162:0:0:0:0:
182,192,56841,1,0,0:0:0:0:
329,192,56841,1,0,0:0:0:0:
256,192,57055,1,0,0:0:0:0:
109,192,57162,128,0,57484:0:0:0:0:
402,192,57162,128,0,57484:0:0:0:0:
36,192,57269,1,0,0:0:0:0:
475,192,57269,1,0,0:0:0:0:
475,192,57484,128,0,57698:0:0:0:0:
36,192,57484,128,0,57698:0:0:0:0:
256,192,57484,1,0,0:0:0:0:
182,192,57591,1,0,0:0:0:0:
329,192,57591,1,0,0:0:0:0:
402,192,57698,128,0,58019:0:0:0:0:
109,192,57698,128,0,58019:0:0:0:0:
256,192,57698,1,0,0:0:0:0:
329,192,57912,1,0,0:0:0:0:
475,192,58019,128,0,58341:0:0:0:0:
182,192,58019,128,0,58341:0:0:0:0:
402,192,58126,1,0,0:0:0:0:
109,192,58126,1,0,0:0:0:0:
256,192,58341,1,0,0:0:0:0:
329,192,58341,128,0,58555:0:0:0:0:
36,192,58341,128,0,58555:0:0:0:0:
475,192,58555,128,0,58876:0:0:0:0:
182,192,58555,128,0,58769:0:0:0:0:
109,192,58555,1,0,0:0:0:0:
402,192,58555,1,0,0:0:0:0:
256,192,58769,1,0,0:0:0:0:
329,192,58876,128,0,59412:0:0:0:0:
182,192,58984,1,0,0:0:0:0:
475,192,58984,1,0,0:0:0:0:
36,192,58984,1,0,0:0:0:0:
109,192,59198,1,0,0:0:0:0:
36,192,59305,1,0,0:0:0:0:
256,192,59305,1,0,0:0:0:0:
182,192,59412,1,0,0:0:0:0:
475,192,59412,1,0,0:0:0:0:
109,192,59626,128,0,59948:0:0:0:0:
475,192,59626,128,0,59734:0:0:0:0:
256,192,59626,1,0,0:0:0:0:
402,192,59841,128,0,59948:0:0:0:0:
182,192,59841,1,0,0:0:0:0:
329,192,59841,1,0,0:0:0:0:
36,192,60055,128,0,60912:0:0:0:0:
475,192,60055,128,0,60912:0:0:0:0:
256,192,60055,1,0,0:0:0:0:
109,192,60269,1,0,0:0:0:0:
329,192,60269,1,0,0:0:0:0:
182,192,60484,1,0,0:0:0:0:
402,192,60698,1,0,0:0:0:0:
109,192,60698,1,0,0:0:0:0:
256,192,60698,1,0,0:0:0:0:
256,192,60912,1,0,0:0:0:0:
109,192,61019,1,0,0:0:0:0:
329,192,61019,1,0,0:0:0:0:
36,192,61126,128,0,61341:0:0:0:0:
402,192,61126,128,0,61341:0:0:0:0:
182,192,61126,1,0,0:0:0:0:
329,192,61234,1,0,0:0:0:0:
109,192,61341,128,0,61555:0:0:0:0:
475,192,61341,128,0,61555:0:0:0:0:
256,192,61341,1,0,0:0:0:0:
36,192,61555,128,0,61984:0:0:0:0:
402,192,61555,128,0,61984:0:0:0:0:
329,192,61555,1,0,0:0:0:0:
182,192,61555,1,0,0:0:0:0:
256,192,61769,1,0,0:0:0:0:
182,192,61984,128,0,62626:0:0:0:0:
475,192,61984,128,0,62626:0:0:0:0:
109,192,61984,1,0,0:0:0:0:
329,192,61984,1,0,0:0:0:0:
256,192,62198,1,0,0:0:0:0:
109,192,62412,1,0,0:0:0:0:
402,192,62412,1,0,0:0:0:0:
329,192,62626,128,0,62841:0:0:0:0:
36,192,62626,128,0,62841:0:0:0:0:
256,192,62626,1,0,0:0:0:0:
182,192,62734,1,0,0:0:0:0:
475,192,62734,1,0,0:0:0:0:
109,192,62841,128,0,63484:0:0:0:0:
402,192,62841,128,0,63484:0:0:0:0:
256,192,62841,1,0,0:0:0:0:
182,192,63055,1,0,0:0:0:0:
256,192,63269,1,0,0:0:0:0:
475,192,63269,1,0,0:0:0:0:
36,192,63269,1,0,0:0:0:0:
329,192,63484,1,0,0:0:0:0:
182,192,63591,1,0,0:0:0:0:
256,192,63698,1,0,0:0:0:0:
109,192,63698,128,0,64448:0:0:0:0:
475,192,63698,128,0,64019:0:0:0:0:
182,192,63912,1,0,0:0:0:0:
329,192,64019,128,0,64341:0:0:0:0:
36,192,64126,1,0,0:0:0:0:
256,192,64126,1,0,0:0:0:0:
475,192,64126,1,0,0:0:0:0:
475,192,64341,128,0,64555:0:0:0:0:
182,192,64341,1,0,0:0:0:0:
256,192,64448,1,0,0:0:0:0:
402,192,64448,1,0,0:0:0:0:
36,192,64555,128,0,65305:0:0:0:0:
182,192,64555,128,0,64876:0:0:0:0:
329,192,64555,1,0,0:0:0:0:
329,192,64769,1,0,0:0:0:0:
475,192,64876,128,0,65198:0:0:0:0:
402,192,64984,1,0,0:0:0:0:
182,192,64984,1,0,0:0:0:0:
256,192,64984,1,0,0:0:0:0:
329,192,65198,128,0,65412:0:0:0:0:
182,192,65198,1,0,0:0:0:0:
36,192,65412,128,0,66269:0:0:0:0:
182,192,65412,128,0,66055:0:0:0:0:
475,192,65412,1,0,0:0:0:0:
402,192,65412,1,0,0:0:0:0:
329,192,65626,1,0,0:0:0:0:
256,192,65841,1,0,0:0:0:0:
475,192,65841,1,0,0:0:0:0:
329,192,65841,1,0,0:0:0:0:
402,192,66055,1,0,0:0:0:0:
256,192,66162,1,0,0:0:0:0:
475,192,66162,1,0,0:0:0:0:
109,192,66269,128,0,67126:0:0:0:0:
329,192,66269,128,0,66912:0:0:0:0:
402,192,66269,1,0,0:0:0:0:
256,192,66484,1,0,0:0:0:0:
475,192,66698,1,0,0:0:0:0:
182,192,66698,1,0,0:0:0:0:
36,192,66698,1,0,0:0:0:0:
256,192,66912,1,0,0:0:0:0:
256,192,67019,1,0,0:0:0:0:
402,192,67126,1,0,0:0:0:0:
475,192,67126,1,0,0:0:0:0:
182,192,67126,1,0,0:0:0:0:
329,192,67341,1,0,0:0:0:0:
182,192,67341,1,0,0:0:0:0:
36,192,67555,1,0,0:0:0:0:
109,192,67555,1,0,0:0:0:0:
256,192,67555,1,0,0:0:0:0:
402,192,67555,1,0,0:0:0:0:
329,192,67769,1,0,0:0:0:0:
109,192,67769,1,0,0:0:0:0:
256,192,67876,1,0,0:0:0:0:
475,192,67876,1,0,0:0:0:0:
36,192,67984,1,0,0:0:0:0:
182,192,67984,1,0,0:0:0:0:
402,192,67984,1,0,0:0:0:0:
256,192,68091,1,0,0:0:0:0:
329,192,68198,1,0,0:0:0:0:
109,192,68198,1,0,0:0:0:0:
475,192,68198,1,0,0:0:0:0:
402,192,68412,1,0,0:0:0:0:
329,192,68412,1,0,0:0:0:0:
182,192,68412,1,0,0:0:0:0:
36,192,68412,1,0,0:0:0:0:
475,192,68626,1,0,0:0:0:0:
256,192,68626,1,0,0:0:0:0:
109,192,68626,1,0,0:0:0:0:
329,192,68734,1,0,0:0:0:0:
402,192,68841,1,0,0:0:0:0:
182,192,68841,1,0,0:0:0:0:
36,192,68841,1,0,0:0:0:0:
329,192,69055,1,0,0:0:0:0:
182,192,69162,1,0,0:0:0:0:
329,192,69269,1,0,0:0:0:0:
402,192,69269,1,0,0:0:0:0:
36,192,69484,1,0,0:0:0:0:
329,192,69484,1,0,0:0:0:0:
475,192,69484,1,0,0:0:0:0:
182,192,69591,1,0,0:0:0:0:
182,192,69912,1,0,0:0:0:0:
36,192,70126,1,0,0:0:0:0:
182,192,70234,1,0,0:0:0:0:
36,192,70555,1,0,0:0:0:0:
182,192,70555,1,0,0:0:0:0:
402,192,70555,1,0,0:0:0:0:
182,192,70769,1,0,0:0:0:0:
256,192,70876,1,0,0:0:0:0:
329,192,70984,1,0,0:0:0:0:
475,192,70984,1,0,0:0:0:0:
36,192,71198,1,0,0:0:0:0:
402,192,71198,1,0,0:0:0:0:
182,192,71198,1,0,0:0:0:0:
329,192,71305,1,0,0:0:0:0:
329,192,71626,1,0,0:0:0:0:
475,192,71841,1,0,0:0:0:0:
256,192,71948,1,0,0:0:0:0:
36,192,72269,1,0,0:0:0:0:
256,192,72269,1,0,0:0:0:0:
402,192,72269,1,0,0:0:0:0:
182,192,72484,1,0,0:0:0:0:
109,192,72591,1,0,0:0:0:0:
256,192,72698,1,0,0:0:0:0:
329,192,72698,1,0,0:0:0:0:
256,192,72912,1,0,0:0:0:0:
36,192,72912,1,0,0:0:0:0:
402,192,72912,1,0,0:0:0:0:
182,192,73019,1,0,0:0:0:0:
182,192,73341,1,0,0:0:0:0:
36,192,73555,1,0,0:0:0:0:
182,192,73662,1,0,0:0:0:0:
109,192,73984,1,0,0:0:0:0:
256,192,73984,1,0,0:0:0:0:
475,192,73984,1,0,0:0:0:0:
329,192,74198,1,0,0:0:0:0:
402,192,74305,1,0,0:0:0:0:
256,192,74412,1,0,0:0:0:0:
182,192,74412,1,0,0:0:0:0:
109,192,74626,1,0,0:0:0:0:
256,192,74626,1,0,0:0:0:0:
475,192,74626,1,0,0:0:0:0:
329,192,74734,1,0,0:0:0:0:
182,192,74841,1,0,0:0:0:0:
36,192,75055,1,0,0:0:0:0:
329,192,75055,1,0,0:0:0:0:
182,192,75162,1,0,0:0:0:0:
109,192,75269,1,0,0:0:0:0:
329,192,75269,1,0,0:0:0:0:
475,192,75376,1,0,0:0:0:0:
256,192,75376,1,0,0:0:0:0:
329,192,75484,1,0,0:0:0:0:
109,192,75698,1,0,0:0:0:0:
329,192,75698,1,0,0:0:0:0:
475,192,75698,1,0,0:0:0:0:
182,192,75912,1,0,0:0:0:0:
329,192,76019,1,0,0:0:0:0:
182,192,76126,1,0,0:0:0:0:
256,192,76126,1,0,0:0:0:0:
109,192,76341,1,0,0:0:0:0:
329,192,76341,1,0,0:0:0:0:
475,192,76341,1,0,0:0:0:0:
182,192,76448,1,0,0:0:0:0:
182,192,76769,1,0,0:0:0:0:
36,192,76984,1,0,0:0:0:0:
182,192,77091,1,0,0:0:0:0:
182,192,77412,1,0,0:0:0:0:
36,192,77412,1,0,0:0:0:0:
402,192,77412,1,0,0:0:0:0:
329,192,77626,1,0,0:0:0:0:
182,192,77734,1,0,0:0:0:0:
329,192,77841,1,0,0:0:0:0:
256,192,77841,1,0,0:0:0:0:
182,192,78055,1,0,0:0:0:0:
402,192,78055,1,0,0:0:0:0:
36,192,78055,1,0,0:0:0:0:
329,192,78162,1,0,0:0:0:0:
329,192,78484,1,0,0:0:0:0:
475,192,78698,1,0,0:0:0:0:
182,192,78805,1,0,0:0:0:0:
256,192,79126,1,0,0:0:0:0:
36,192,79126,1,0,0:0:0:0:
402,192,79126,1,0,0:0:0:0:
329,192,79341,1,0,0:0:0:0:
182,192,79448,1,0,0:0:0:0:
256,192,79555,1,0,0:0:0:0:
329,192,79555,1,0,0:0:0:0:
109,192,79769,1,0,0:0:0:0:
402,192,79769,1,0,0:0:0:0:
329,192,79876,1,0,0:0:0:0:
182,192,79984,1,0,0:0:0:0:
109,192,80198,1,0,0:0:0:0:
329,192,80198,1,0,0:0:0:0:
36,192,80305,1,0,0:0:0:0:
182,192,80412,1,0,0:0:0:0:
402,192,80412,1,0,0:0:0:0:
329,192,80519,1,0,0:0:0:0:
109,192,80519,1,0,0:0:0:0:
475,192,80841,1,0,0:0:0:0:
329,192,80841,1,0,0:0:0:0:
109,192,80841,1,0,0:0:0:0:
256,192,81055,1,0,0:0:0:0:
109,192,81269,1,0,0:0:0:0:
329,192,81269,1,0,0:0:0:0:
182,192,81484,1,0,0:0:0:0:
36,192,81484,1,0,0:0:0:0:
402,192,81591,1,0,0:0:0:0:
329,192,81698,1,0,0:0:0:0:
475,192,81805,1,0,0:0:0:0:
109,192,81912,128,0,82126:0:0:0:0:
256,192,81912,1,0,0:0:0:0:
402,192,82019,1,0,0:0:0:0:
182,192,82126,128,0,82341:0:0:0:0:
329,192,82126,1,0,0:0:0:0:
475,192,82234,1,0,0:0:0:0:
36,192,82341,128,0,82555:0:0:0:0:
329,192,82341,1,0,0:0:0:0:
402,192,82448,1,0,0:0:0:0:
182,192,82555,128,0,82984:0:0:0:0:
475,192,82555,1,0,0:0:0:0:
256,192,82555,1,0,0:0:0:0:
402,192,82769,1,0,0:0:0:0:
329,192,82984,128,0,83198:0:0:0:0:
36,192,82984,1,0,0:0:0:0:
475,192,82984,1,0,0:0:0:0:
109,192,82984,1,0,0:0:0:0:
109,192,83198,128,0,83626:0:0:0:0:
402,192,83198,1,0,0:0:0:0:
256,192,83305,1,0,0:0:0:0:
475,192,83305,1,0,0:0:0:0:
402,192,83412,1,0,0:0:0:0:
329,192,83412,1,0,0:0:0:0:
36,192,83626,128,0,83841:0:0:0:0:
475,192,83626,1,0,0:0:0:0:
182,192,83841,128,0,84055:0:0:0:0:
475,192,83841,1,0,0:0:0:0:
256,192,83841,1,0,0:0:0:0:
329,192,83841,1,0,0:0:0:0:
109,192,84055,128,0,85126:0:0:0:0:
402,192,84055,1,0,0:0:0:0:
256,192,84269,1,0,0:0:0:0:
475,192,84269,1,0,0:0:0:0:
329,192,84484,1,0,0:0:0:0:
36,192,84698,1,0,0:0:0:0:
402,192,84698,1,0,0:0:0:0:
256,192,84698,1,0,0:0:0:0:
329,192,84912,1,0,0:0:0:0:
256,192,85019,1,0,0:0:0:0:
402,192,85019,1,0,0:0:0:0:
475,192,85126,1,0,0:0:0:0:
182,192,85126,1,0,0:0:0:0:
402,192,85234,1,0,0:0:0:0:
329,192,85341,1,0,0:0:0:0:
109,192,85341,128,0,85555:0:0:0:0:
402,192,85448,1,0,0:0:0:0:
475,192,85555,1,0,0:0:0:0:
329,192,85555,128,0,85769:0:0:0:0:
256,192,85555,1,0,0:0:0:0:
36,192,85555,1,0,0:0:0:0:
182,192,85769,128,0,85984:0:0:0:0:
475,192,85769,1,0,0:0:0:0:
402,192,85984,128,0,86412:0:0:0:0:
109,192,85984,1,0,0:0:0:0:
36,192,85984,1,0,0:0:0:0:
329,192,86198,1,0,0:0:0:0:
256,192,86412,128,0,86519:0:0:0:0:
36,192,86412,1,0,0:0:0:0:
475,192,86412,1,0,0:0:0:0:
182,192,86412,1,0,0:0:0:0:
109,192,86626,128,0,87055:0:0:0:0:
329,192,86626,1,0,0:0:0:0:
475,192,86734,1,0,0:0:0:0:
256,192,86734,1,0,0:0:0:0:
402,192,86841,1,0,0:0:0:0:
329,192,86841,1,0,0:0:0:0:
256,192,87055,128,0,87269:0:0:0:0:
475,192,87055,1,0,0:0:0:0:
329,192,87269,128,0,87484:0:0:0:0:
36,192,87269,1,0,0:0:0:0:
402,192,87269,1,0,0:0:0:0:
182,192,87269,1,0,0:0:0:0:
475,192,87484,128,0,88555:0:0:0:0:
109,192,87484,1,0,0:0:0:0:
182,192,87698,1,0,0:0:0:0:
36,192,87698,1,0,0:0:0:0:
256,192,87912,1,0,0:0:0:0:
109,192,88126,1,0,0:0:0:0:
329,192,88126,1,0,0:0:0:0:
402,192,88126,1,0,0:0:0:0:
182,192,88341,1,0,0:0:0:0:
329,192,88448,1,0,0:0:0:0:
36,192,88448,1,0,0:0:0:0:
256,192,88555,1,0,0:0:0:0:
109,192,88555,1,0,0:0:0:0:
329,192,88662,1,0,0:0:0:0:
182,192,88769,128,0,88984:0:0:0:0:
402,192,88769,1,0,0:0:0:0:
329,192,88876,1,0,0:0:0:0:
475,192,88984,128,0,89198:0:0:0:0:
402,192,88984,1,0,0:0:0:0:
36,192,88984,1,0,0:0:0:0:
109,192,88984,1,0,0:0:0:0:
329,192,89198,128,0,89412:0:0:0:0:
256,192,89198,1,0,0:0:0:0:
182,192,89412,128,0,90055:0:0:0:0:
36,192,89412,1,0,0:0:0:0:
475,192,89412,1,0,0:0:0:0:
329,192,89626,1,0,0:0:0:0:
256,192,89841,1,0,0:0:0:0:
475,192,89841,1,0,0:0:0:0:
402,192,89841,1,0,0:0:0:0:
36,192,90055,128,0,90162:0:0:0:0:
329,192,90055,1,0,0:0:0:0:
256,192,90162,1,0,0:0:0:0:
475,192,90162,1,0,0:0:0:0:
36,192,90269,128,0,90912:0:0:0:0:
402,192,90269,1,0,0:0:0:0:
182,192,90269,1,0,0:0:0:0:
256,192,90484,1,0,0:0:0:0:
182,192,90698,1,0,0:0:0:0:
402,192,90698,1,0,0:0:0:0:
475,192,90698,1,0,0:0:0:0:
256,192,90912,128,0,91019:0:0:0:0:
109,192,90912,1,0,0:0:0:0:
402,192,91019,128,0,91126:0:0:0:0:
475,192,91126,128,0,91662:0:0:0:0:
36,192,91126,1,0,0:0:0:0:
182,192,91126,1,0,0:0:0:0:
109,192,91341,1,0,0:0:0:0:
329,192,91448,128,0,91769:0:0:0:0:
36,192,91555,1,0,0:0:0:0:
182,192,91555,1,0,0:0:0:0:
256,192,91555,1,0,0:0:0:0:
475,192,91769,128,0,91984:0:0:0:0:
182,192,91769,1,0,0:0:0:0:
256,192,91876,1,0,0:0:0:0:
109,192,91876,1,0,0:0:0:0:
329,192,91984,128,0,92412:0:0:0:0:
182,192,91984,1,0,0:0:0:0:
36,192,91984,1,0,0:0:0:0:
402,192,92091,1,0,0:0:0:0:
109,192,92198,1,0,0:0:0:0:
256,192,92305,1,0,0:0:0:0:
182,192,92412,128,0,92841:0:0:0:0:
36,192,92412,1,0,0:0:0:0:
402,192,92412,1,0,0:0:0:0:
475,192,92412,1,0,0:0:0:0:
329,192,92626,1,0,0:0:0:0:
402,192,92841,128,0,93484:0:0:0:0:
109,192,92841,1,0,0:0:0:0:
475,192,92841,1,0,0:0:0:0:
256,192,93055,1,0,0:0:0:0:
182,192,93269,1,0,0:0:0:0:
36,192,93269,1,0,0:0:0:0:
475,192,93269,1,0,0:0:0:0:
329,192,93484,128,0,93698:0:0:0:0:
109,192,93484,1,0,0:0:0:0:
182,192,93591,1,0,0:0:0:0:
36,192,93591,1,0,0:0:0:0:
475,192,93698,128,0,94555:0:0:0:0:
256,192,93698,1,0,0:0:0:0:
109,192,93698,1,0,0:0:0:0:
109,192,93912,1,0,0:0:0:0:
329,192,94126,1,0,0:0:0:0:
36,192,94126,1,0,0:0:0:0:
182,192,94126,1,0,0:0:0:0:
256,192,94341,1,0,0:0:0:0:
256,192,94448,1,0,0:0:0:0:
36,192,94555,128,0,95626:0:0:0:0:
109,192,94555,1,0,0:0:0:0:
402,192,94555,1,0,0:0:0:0:
329,192,94769,1,0,0:0:0:0:
182,192,94984,1,0,0:0:0:0:
475,192,94984,1,0,0:0:0:0:
256,192,94984,1,0,0:0:0:0:
329,192,95198,1,0,0:0:0:0:
256,192,95305,1,0,0:0:0:0:
109,192,95305,1,0,0:0:0:0:
475,192,95412,128,0,96055:0:0:0:0:
402,192,95412,1,0,0:0:0:0:
182,192,95412,1,0,0:0:0:0:
329,192,95519,1,0,0:0:0:0:
109,192,95626,128,0,95841:0:0:0:0:
256,192,95626,1,0,0:0:0:0:
256,192,95841,128,0,96055:0:0:0:0:
329,192,95841,1,0,0:0:0:0:
36,192,95841,1,0,0:0:0:0:
402,192,96055,128,0,96269:0:0:0:0:
36,192,96055,1,0,0:0:0:0:
109,192,96162,1,0,0:0:0:0:
36,192,96269,1,0,0:0:0:0:
256,192,96269,128,0,96698:0:0:0:0:
475,192,96269,1,0,0:0:0:0:
402,192,96484,1,0,0:0:0:0:
182,192,96698,128,0,96912:0:0:0:0:
36,192,96698,1,0,0:0:0:0:
475,192,96698,1,0,0:0:0:0:
329,192,96698,1,0,0:0:0:0:
109,192,96912,128,0,97341:0:0:0:0:
402,192,96912,1,0,0:0:0:0:
329,192,97019,1,0,0:0:0:0:
475,192,97019,1,0,0:0:0:0:
402,192,97126,1,0,0:0:0:0:
256,192,97126,1,0,0:0:0:0:
182,192,97341,128,0,97555:0:0:0:0:
402,192,97341,1,0,0:0:0:0:
36,192,97555,128,0,97769:0:0:0:0:
329,192,97555,1,0,0:0:0:0:
475,192,97555,1,0,0:0:0:0:
256,192,97555,1,0,0:0:0:0:
109,192,97769,128,0,98841:0:0:0:0:
402,192,97769,1,0,0:0:0:0:
329,192,97984,1,0,0:0:0:0:
475,192,97984,1,0,0:0:0:0:
182,192,98198,1,0,0:0:0:0:
256,192,98412,1,0,0:0:0:0:
402,192,98412,1,0,0:0:0:0:
36,192,98412,1,0,0:0:0:0:
329,192,98626,1,0,0:0:0:0:
182,192,98734,1,0,0:0:0:0:
256,192,98734,1,0,0:0:0:0:
402,192,98841,1,0,0:0:0:0:
475,192,98841,1,0,0:0:0:0:
329,192,98948,1,0,0:0:0:0:
109,192,99055,128,0,99269:0:0:0:0:
256,192,99055,1,0,0:0:0:0:
329,192,99162,1,0,0:0:0:0:
256,192,99269,128,0,99484:0:0:0:0:
36,192,99269,1,0,0:0:0:0:
475,192,99269,1,0,0:0:0:0:
402,192,99269,1,0,0:0:0:0:
402,192,99484,128,0,99698:0:0:0:0:
109,192,99484,1,0,0:0:0:0:
329,192,99698,128,0,100126:0:0:0:0:
36,192,99698,1,0,0:0:0:0:
182,192,99698,1,0,0:0:0:0:
182,192,99912,1,0,0:0:0:0:
475,192,100126,128,0,100234:0:0:0:0:
256,192,100126,1,0,0:0:0:0:
109,192,100126,1,0,0:0:0:0:
36,192,100126,1,0,0:0:0:0:
36,192,100341,128,0,100769:0:0:0:0:
329,192,100341,1,0,0:0:0:0:
182,192,100448,1,0,0:0:0:0:
402,192,100448,1,0,0:0:0:0:
256,192,100555,1,0,0:0:0:0:
475,192,100555,1,0,0:0:0:0:
182,192,100769,128,0,100876:0:0:0:0:
402,192,100769,1,0,0:0:0:0:
329,192,100984,128,0,101091:0:0:0:0:
475,192,100984,1,0,0:0:0:0:
36,192,100984,1,0,0:0:0:0:
109,192,100984,1,0,0:0:0:0:
256,192,101198,128,0,102269:0:0:0:0:
182,192,101198,1,0,0:0:0:0:
36,192,101412,1,0,0:0:0:0:
402,192,101412,1,0,0:0:0:0:
182,192,101626,1,0,0:0:0:0:
109,192,101841,1,0,0:0:0:0:
475,192,101841,1,0,0:0:0:0:
329,192,101841,1,0,0:0:0:0:
182,192,102055,1,0,0:0:0:0:
109,192,102162,1,0,0:0:0:0:
329,192,102162,1,0,0:0:0:0:
36,192,102269,1,0,0:0:0:0:
475,192,102269,1,0,0:0:0:0:
402,192,102376,1,0,0:0:0:0:
182,192,102484,128,0,102698:0:0:0:0:
329,192,102484,1,0,0:0:0:0:
402,192,102591,1,0,0:0:0:0:
256,192,102698,128,0,102912:0:0:0:0:
475,192,102698,1,0,0:0:0:0:
36,192,102698,1,0,0:0:0:0:
109,192,102698,1,0,0:0:0:0:
329,192,102912,128,0,103126:0:0:0:0:
182,192,102912,1,0,0:0:0:0:
402,192,103126,128,0,103769:0:0:0:0:
36,192,103126,1,0,0:0:0:0:
256,192,103126,1,0,0:0:0:0:
182,192,103341,1,0,0:0:0:0:
475,192,103555,1,0,0:0:0:0:
109,192,103555,1,0,0:0:0:0:
256,192,103555,1,0,0:0:0:0:
182,192,103769,128,0,103876:0:0:0:0:
329,192,103769,1,0,0:0:0:0:
36,192,103876,1,0,0:0:0:0:
475,192,103876,1,0,0:0:0:0:
182,192,103984,128,0,104412:0:0:0:0:
256,192,103984,1,0,0:0:0:0:
402,192,103984,1,0,0:0:0:0:
329,192,104198,1,0,0:0:0:0:
36,192,104412,1,0,0:0:0:0:
402,192,104412,1,0,0:0:0:0:
256,192,104412,1,0,0:0:0:0:
109,192,104626,128,0,104734:0:0:0:0:
475,192,104626,1,0,0:0:0:0:
256,192,104734,128,0,104841:0:0:0:0:
329,192,104841,128,0,105376:0:0:0:0:
36,192,104841,1,0,0:0:0:0:
402,192,104841,1,0,0:0:0:0:
109,192,105055,1,0,0:0:0:0:
475,192,105162,128,0,105591:0:0:0:0:
36,192,105269,1,0,0:0:0:0:
182,192,105269,1,0,0:0:0:0:
256,192,105269,1,0,0:0:0:0:
329,192,105484,128,0,105698:0:0:0:0:
109,192,105484,1,0,0:0:0:0:
36,192,105591,1,0,0:0:0:0:
182,192,105591,1,0,0:0:0:0:
475,192,105698,128,0,106126:0:0:0:0:
109,192,105698,1,0,0:0:0:0:
256,192,105698,1,0,0:0:0:0:
182,192,105805,1,0,0:0:0:0:
256,192,105912,1,0,0:0:0:0:
329,192,106019,1,0,0:0:0:0:
182,192,106126,128,0,106448:0:0:0:0:
402,192,106126,1,0,0:0:0:0:
36,192,106126,1,0,0:0:0:0:
109,192,106126,1,0,0:0:0:0:
329,192,106341,1,0,0:0:0:0:
182,192,106555,128,0,107198:0:0:0:0:
36,192,106555,1,0,0:0:0:0:
402,192,106555,1,0,0:0:0:0:
329,192,106769,1,0,0:0:0:0:
475,192,106984,1,0,0:0:0:0:
256,192,106984,1,0,0:0:0:0:
36,192,106984,1,0,0:0:0:0:
329,192,107198,128,0,107412:0:0:0:0:
109,192,107198,1,0,0:0:0:0:
256,192,107305,1,0,0:0:0:0:
475,192,107305,1,0,0:0:0:0:
36,192,107412,128,0,108698:0:0:0:0:
109,192,107412,1,0,0:0:0:0:
402,192,107412,1,0,0:0:0:0:
256,192,107626,1,0,0:0:0:0:
182,192,107841,1,0,0:0:0:0:
402,192,107841,1,0,0:0:0:0:
475,192,107841,1,0,0:0:0:0:
256,192,108055,1,0,0:0:0:0:
329,192,108162,1,0,0:0:0:0:
256,192,108269,1,0,0:0:0:0:
475,192,108269,1,0,0:0:0:0:
256,192,108484,1,0,0:0:0:0:
329,192,108484,1,0,0:0:0:0:
475,192,108698,1,0,0:0:0:0:
329,192,108698,1,0,0:0:0:0:
109,192,108698,1,0,0:0:0:0:
182,192,108698,1,0,0:0:0:0:
36,192,108912,1,0,0:0:0:0:
329,192,108912,1,0,0:0:0:0:
182,192,109019,1,0,0:0:0:0:
475,192,109019,1,0,0:0:0:0:
36,192,109126,1,0,0:0:0:0:
329,192,109126,1,0,0:0:0:0:
109,192,109234,1,0,0:0:0:0:
475,192,109234,1,0,0:0:0:0:
182,192,109341,1,0,0:0:0:0:
329,192,109341,1,0,0:0:0:0:
256,192,109555,1,0,0:0:0:0:
36,192,109555,1,0,0:0:0:0:
402,192,109555,1,0,0:0:0:0:
475,192,109769,1,0,0:0:0:0:
182,192,109769,1,0,0:0:0:0:
36,192,109876,1,0,0:0:0:0:
329,192,109876,1,0,0:0:0:0:
182,192,109984,1,0,0:0:0:0:
475,192,109984,1,0,0:0:0:0:
402,192,109984,1,0,0:0:0:0:
109,192,110091,1,0,0:0:0:0:
329,192,110091,1,0,0:0:0:0:
256,192,110198,1,0,0:0:0:0:
36,192,110412,1,0,0:0:0:0:
182,192,110412,1,0,0:0:0:0:
402,192,110412,1,0,0:0:0:0:
475,192,110412,1,0,0:0:0:0:
256,192,110626,1,0,0:0:0:0:
329,192,110734,1,0,0:0:0:0:
109,192,110734,1,0,0:0:0:0:
182,192,110841,1,0,0:0:0:0:
36,192,110841,1,0,0:0:0:0:
329,192,110948,1,0,0:0:0:0:
109,192,110948,1,0,0:0:0:0:
256,192,111055,1,0,0:0:0:0:
475,192,111269,1,0,0:0:0:0:
402,192,111269,1,0,0:0:0:0:
182,192,111269,1,0,0:0:0:0:
36,192,111269,1,0,0:0:0:0:
109,192,111484,1,0,0:0:0:0:
329,192,111484,1,0,0:0:0:0:
475,192,111484,1,0,0:0:0:0:
36,192,111698,1,0,0:0:0:0:
182,192,111698,1,0,0:0:0:0:
402,192,111805,1,0,0:0:0:0:
256,192,111805,1,0,0:0:0:0:
475,192,111912,1,0,0:0:0:0:
402,192,112126,1,0,0:0:0:0:
256,192,112126,1,0,0:0:0:0:
109,192,112126,1,0,0:0:0:0:
36,192,112126,1,0,0:0:0:0:
182,192,112341,1,0,0:0:0:0:
256,192,112448,1,0,0:0:0:0:
402,192,112448,1,0,0:0:0:0:
36,192,112555,1,0,0:0:0:0:
109,192,112555,1,0,0:0:0:0:
256,192,112662,1,0,0:0:0:0:
402,192,112662,1,0,0:0:0:0:
182,192,112769,1,0,0:0:0:0:
256,192,112984,1,0,0:0:0:0:
402,192,112984,1,0,0:0:0:0:
109,192,112984,1,0,0:0:0:0:
36,192,112984,1,0,0:0:0:0:
329,192,113198,1,0,0:0:0:0:
475,192,113198,1,0,0:0:0:0:
182,192,113198,1,0,0:0:0:0:
36,192,113412,1,0,0:0:0:0:
256,192,113412,1,0,0:0:0:0:
329,192,113519,1,0,0:0:0:0:
475,192,113519,1,0,0:0:0:0:
182,192,113626,1,0,0:0:0:0:
109,192,113841,1,0,0:0:0:0:
329,192,113841,1,0,0:0:0:0:
475,192,113841,1,0,0:0:0:0:
256,192,113841,1,0,0:0:0:0:
182,192,114055,1,0,0:0:0:0:
329,192,114162,1,0,0:0:0:0:
475,192,114162,1,0,0:0:0:0:
256,192,114269,1,0,0:0:0:0:
109,192,114269,1,0,0:0:0:0:
475,192,114376,1,0,0:0:0:0:
329,192,114376,1,0,0:0:0:0:
182,192,114484,1,0,0:0:0:0:
329,192,114698,1,0,0:0:0:0:
475,192,114698,1,0,0:0:0:0:
36,192,114698,1,0,0:0:0:0:
256,192,114698,1,0,0:0:0:0:
109,192,114912,1,0,0:0:0:0:
182,192,114912,1,0,0:0:0:0:
402,192,114912,1,0,0:0:0:0:
36,192,115126,1,0,0:0:0:0:
329,192,115126,1,0,0:0:0:0:
182,192,115234,1,0,0:0:0:0:
402,192,115234,1,0,0:0:0:0:
256,192,115341,1,0,0:0:0:0:
182,192,115555,1,0,0:0:0:0:
402,192,115555,1,0,0:0:0:0:
36,192,115555,1,0,0:0:0:0:
475,192,115555,1,0,0:0:0:0:
256,192,115769,1,0,0:0:0:0:
182,192,115876,1,0,0:0:0:0:
402,192,115876,1,0,0:0:0:0:
256,192,115984,1,0,0:0:0:0:
36,192,115984,1,0,0:0:0:0:
182,192,116091,1,0,0:0:0:0:
402,192,116091,1,0,0:0:0:0:
109,192,116198,1,0,0:0:0:0:
182,192,116412,1,0,0:0:0:0:
36,192,116412,1,0,0:0:0:0:
402,192,116412,1,0,0:0:0:0:
475,192,116412,1,0,0:0:0:0:
329,192,116626,1,0,0:0:0:0:
475,192,116626,1,0,0:0:0:0:
109,192,116626,1,0,0:0:0:0:
256,192,116841,1,0,0:0:0:0:
402,192,116841,1,0,0:0:0:0:
182,192,116948,1,0,0:0:0:0:
36,192,116948,1,0,0:0:0:0:
329,192,117055,1,0,0:0:0:0:
182,192,117269,1,0,0:0:0:0:
36,192,117269,1,0,0:0:0:0:
256,192,117269,1,0,0:0:0:0:
402,192,117269,1,0,0:0:0:0:
402,192,117484,1,0,0:0:0:0:
182,192,117591,1,0,0:0:0:0:
36,192,117591,1,0,0:0:0:0:
402,192,117698,1,0,0:0:0:0:
256,192,117698,1,0,0:0:0:0:
182,192,117805,1,0,0:0:0:0:
36,192,117805,1,0,0:0:0:0:
329,192,117912,1,0,0:0:0:0:
182,192,118126,1,0,0:0:0:0:
36,192,118126,1,0,0:0:0:0:
256,192,118126,1,0,0:0:0:0:
402,192,118126,1,0,0:0:0:0:
109,192,118341,1,0,0:0:0:0:
329,192,118341,1,0,0:0:0:0:
475,192,118341,1,0,0:0:0:0:
256,192,118448,1,0,0:0:0:0:
182,192,118555,1,0,0:0:0:0:
36,192,118555,1,0,0:0:0:0:
329,192,118662,1,0,0:0:0:0:
475,192,118662,1,0,0:0:0:0:
256,192,118769,1,0,0:0:0:0:
329,192,118984,1,0,0:0:0:0:
475,192,118984,1,0,0:0:0:0:
182,192,118984,1,0,0:0:0:0:
109,192,118984,1,0,0:0:0:0:
256,192,119198,1,0,0:0:0:0:
329,192,119305,1,0,0:0:0:0:
475,192,119305,1,0,0:0:0:0:
182,192,119412,1,0,0:0:0:0:
109,192,119412,1,0,0:0:0:0:
329,192,119519,1,0,0:0:0:0:
475,192,119519,1,0,0:0:0:0:
256,192,119626,1,0,0:0:0:0:
329,192,119841,1,0,0:0:0:0:
475,192,119841,1,0,0:0:0:0:
182,192,119841,1,0,0:0:0:0:
109,192,119841,1,0,0:0:0:0:
256,192,120055,1,0,0:0:0:0:
402,192,120055,1,0,0:0:0:0:
36,192,120055,1,0,0:0:0:0:
36,192,120269,1,0,0:0:0:0:
182,192,120269,1,0,0:0:0:0:
329,192,120376,1,0,0:0:0:0:
402,192,120376,1,0,0:0:0:0:
256,192,120484,1,0,0:0:0:0:
329,192,120698,1,0,0:0:0:0:
402,192,120698,1,0,0:0:0:0:
36,192,120698,1,0,0:0:0:0:
182,192,120698,1,0,0:0:0:0:
109,192,120912,1,0,0:0:0:0:
329,192,121019,1,0,0:0:0:0:
402,192,121019,1,0,0:0:0:0:
256,192,121126,1,0,0:0:0:0:
36,192,121126,1,0,0:0:0:0:
329,192,121234,1,0,0:0:0:0:
402,192,121234,1,0,0:0:0:0:
182,192,121341,1,0,0:0:0:0:
329,192,121555,1,0,0:0:0:0:
402,192,121555,1,0,0:0:0:0:
36,192,121555,1,0,0:0:0:0:
182,192,121555,1,0,0:0:0:0:
109,192,121769,1,0,0:0:0:0:
256,192,121769,1,0,0:0:0:0:
475,192,121769,1,0,0:0:0:0:
182,192,121876,1,0,0:0:0:0:
36,192,121984,1,0,0:0:0:0:
329,192,121984,1,0,0:0:0:0:
256,192,122198,1,0,0:0:0:0:
475,192,122198,1,0,0:0:0:0:
109,192,122198,1,0,0:0:0:0:
182,192,122412,1,0,0:0:0:0:
36,192,122412,1,0,0:0:0:0:
256,192,122519,1,0,0:0:0:0:
475,192,122519,1,0,0:0:0:0:
109,192,122626,1,0,0:0:0:0:
402,192,122626,1,0,0:0:0:0:
475,192,122734,1,0,0:0:0:0:
256,192,122734,1,0,0:0:0:0:
182,192,122841,1,0,0:0:0:0:
36,192,122841,1,0,0:0:0:0:
329,192,122948,1,0,0:0:0:0:
402,192,122948,1,0,0:0:0:0:
475,192,123055,1,0,0:0:0:0:
256,192,123055,1,0,0:0:0:0:
109,192,123055,1,0,0:0:0:0:
182,192,123269,1,0,0:0:0:0:
36,192,123269,1,0,0:0:0:0:
329,192,123269,1,0,0:0:0:0:
475,192,123269,1,0,0:0:0:0:
109,192,123484,1,0,0:0:0:0:
402,192,123484,1,0,0:0:0:0:
256,192,123591,1,0,0:0:0:0:
36,192,123698,1,0,0:0:0:0:
182,192,123698,1,0,0:0:0:0:
256,192,123805,1,0,0:0:0:0:
475,192,123805,1,0,0:0:0:0:
182,192,123912,1,0,0:0:0:0:
256,192,124126,1,0,0:0:0:0:
475,192,124126,1,0,0:0:0:0:
109,192,124126,1,0,0:0:0:0:
36,192,124126,1,0,0:0:0:0:
182,192,124341,1,0,0:0:0:0:
256,192,124448,1,0,0:0:0:0:
475,192,124448,1,0,0:0:0:0:
36,192,124555,1,0,0:0:0:0:
109,192,124555,1,0,0:0:0:0:
256,192,124662,1,0,0:0:0:0:
475,192,124662,1,0,0:0:0:0:
329,192,124769,1,0,0:0:0:0:
256,192,124984,1,0,0:0:0:0:
475,192,124984,1,0,0:0:0:0:
109,192,124984,1,0,0:0:0:0:
36,192,124984,1,0,0:0:0:0:
182,192,125198,1,0,0:0:0:0:
402,192,125198,1,0,0:0:0:0:
329,192,125198,1,0,0:0:0:0:
36,192,125412,1,0,0:0:0:0:
475,192,125412,1,0,0:0:0:0:
182,192,125519,1,0,0:0:0:0:
329,192,125519,1,0,0:0:0:0:
256,192,125626,1,0,0:0:0:0:
182,192,125841,1,0,0:0:0:0:
329,192,125841,1,0,0:0:0:0:
36,192,125841,1,0,0:0:0:0:
475,192,125841,1,0,0:0:0:0:
256,192,126055,1,0,0:0:0:0:
182,192,126162,1,0,0:0:0:0:
329,192,126162,1,0,0:0:0:0:
402,192,126269,1,0,0:0:0:0:
36,192,126269,1,0,0:0:0:0:
182,192,126376,1,0,0:0:0:0:
329,192,126376,1,0,0:0:0:0:
256,192,126484,1,0,0:0:0:0:
182,192,126698,1,0,0:0:0:0:
329,192,126698,1,0,0:0:0:0:
36,192,126698,1,0,0:0:0:0:
475,192,126698,1,0,0:0:0:0:
402,192,126912,1,0,0:0:0:0:
256,192,126912,1,0,0:0:0:0:
109,192,126912,1,0,0:0:0:0:
329,192,127126,1,0,0:0:0:0:
36,192,127126,1,0,0:0:0:0:
182,192,127234,1,0,0:0:0:0:
475,192,127234,1,0,0:0:0:0:
256,192,127341,1,0,0:0:0:0:
182,192,127555,1,0,0:0:0:0:
475,192,127555,1,0,0:0:0:0:
402,192,127555,1,0,0:0:0:0:
109,192,127555,1,0,0:0:0:0:
36,192,127769,1,0,0:0:0:0:
182,192,127876,1,0,0:0:0:0:
475,192,127876,1,0,0:0:0:0:
329,192,127984,1,0,0:0:0:0:
109,192,127984,1,0,0:0:0:0:
475,192,128091,1,0,0:0:0:0:
182,192,128091,1,0,0:0:0:0:
36,192,128198,1,0,0:0:0:0:
182,192,128412,1,0,0:0:0:0:
475,192,128412,1,0,0:0:0:0:
402,192,128412,1,0,0:0:0:0:
109,192,128412,1,0,0:0:0:0:
329,192,128626,1,0,0:0:0:0:
36,192,128626,1,0,0:0:0:0:
256,192,128626,1,0,0:0:0:0:
329,192,128841,1,0,0:0:0:0:
36,192,128841,1,0,0:0:0:0:
109,192,128948,1,0,0:0:0:0:
402,192,128948,1,0,0:0:0:0:
182,192,129055,1,0,0:0:0:0:
109,192,129269,1,0,0:0:0:0:
36,192,129269,1,0,0:0:0:0:
402,192,129269,1,0,0:0:0:0:
256,192,129269,1,0,0:0:0:0:
329,192,129484,1,0,0:0:0:0:
402,192,129591,1,0,0:0:0:0:
109,192,129591,1,0,0:0:0:0:
36,192,129698,1,0,0:0:0:0:
329,192,129698,1,0,0:0:0:0:
402,192,129805,1,0,0:0:0:0:
109,192,129805,1,0,0:0:0:0:
182,192,129912,1,0,0:0:0:0:
109,192,130126,1,0,0:0:0:0:
402,192,130126,1,0,0:0:0:0:
36,192,130126,1,0,0:0:0:0:
256,192,130126,1,0,0:0:0:0:
182,192,130341,1,0,0:0:0:0:
329,192,130341,1,0,0:0:0:0:
109,192,130341,1,0,0:0:0:0:
182,192,130555,1,0,0:0:0:0:
475,192,130555,1,0,0:0:0:0:
402,192,130555,1,0,0:0:0:0:
109,192,130662,1,0,0:0:0:0:
329,192,130662,1,0,0:0:0:0:
256,192,130769,1,0,0:0:0:0:
36,192,130984,1,0,0:0:0:0:
182,192,130984,1,0,0:0:0:0:
402,192,130984,1,0,0:0:0:0:
475,192,130984,1,0,0:0:0:0:
256,192,131198,1,0,0:0:0:0:
329,192,131305,1,0,0:0:0:0:
109,192,131305,1,0,0:0:0:0:
182,192,131412,1,0,0:0:0:0:
36,192,131412,1,0,0:0:0:0:
329,192,131519,1,0,0:0:0:0:
109,192,131519,1,0,0:0:0:0:
256,192,131626,1,0,0:0:0:0:
475,192,131841,1,0,0:0:0:0:
402,192,131841,1,0,0:0:0:0:
182,192,131841,1,0,0:0:0:0:
36,192,131841,1,0,0:0:0:0:
109,192,132055,1,0,0:0:0:0:
329,192,132055,1,0,0:0:0:0:
475,192,132055,1,0,0:0:0:0:
36,192,132269,1,0,0:0:0:0:
182,192,132269,1,0,0:0:0:0:
402,192,132376,1,0,0:0:0:0:
256,192,132376,1,0,0:0:0:0:
475,192,132484,1,0,0:0:0:0:
402,192,132698,1,0,0:0:0:0:
256,192,132698,1,0,0:0:0:0:
109,192,132698,1,0,0:0:0:0:
36,192,132698,1,0,0:0:0:0:
182,192,132912,1,0,0:0:0:0:
256,192,133019,1,0,0:0:0:0:
402,192,133019,1,0,0:0:0:0:
36,192,133126,1,0,0:0:0:0:
109,192,133126,1,0,0:0:0:0:
256,192,133234,1,0,0:0:0:0:
402,192,133234,1,0,0:0:0:0:
182,192,133341,1,0,0:0:0:0:
256,192,133555,1,0,0:0:0:0:
402,192,133555,1,0,0:0:0:0:
109,192,133555,1,0,0:0:0:0:
36,192,133555,1,0,0:0:0:0:
329,192,133769,1,0,0:0:0:0:
475,192,133769,1,0,0:0:0:0:
182,192,133769,1,0,0:0:0:0:
256,192,133984,1,0,0:0:0:0:
402,192,133984,1,0,0:0:0:0:
36,192,134091,1,0,0:0:0:0:
182,192,134091,1,0,0:0:0:0:
329,192,134198,1,0,0:0:0:0:
256,192,134412,1,0,0:0:0:0:
182,192,134412,1,0,0:0:0:0:
402,192,134412,1,0,0:0:0:0:
36,192,134412,1,0,0:0:0:0:
402,192,134626,1,0,0:0:0:0:
182,192,134734,1,0,0:0:0:0:
36,192,134734,1,0,0:0:0:0:
256,192,134841,1,0,0:0:0:0:
402,192,134841,1,0,0:0:0:0:
36,192,134948,1,0,0:0:0:0:
182,192,134948,1,0,0:0:0:0:
329,192,135055,1,0,0:0:0:0:
182,192,135269,1,0,0:0:0:0:
256,192,135269,1,0,0:0:0:0:
36,192,135269,1,0,0:0:0:0:
402,192,135269,1,0,0:0:0:0:
329,192,135484,1,0,0:0:0:0:
109,192,135484,1,0,0:0:0:0:
256,192,135591,1,0,0:0:0:0:
475,192,135591,1,0,0:0:0:0:
36,192,135698,1,0,0:0:0:0:
182,192,135698,1,0,0:0:0:0:
402,192,135698,1,0,0:0:0:0:
109,192,135912,1,0,0:0:0:0:
329,192,135912,1,0,0:0:0:0:
475,192,136126,1,0,0:0:0:0:
329,192,136126,1,0,0:0:0:0:
182,192,136126,1,0,0:0:0:0:
36,192,136126,1,0,0:0:0:0:
36,192,136341,5,0,0:0:0:0:
402,192,136341,1,0,0:0:0:0:
109,192,136448,1,0,0:0:0:0:
475,192,136448,1,0,0:0:0:0:
329,192,136555,1,0,0:0:0:0:
36,192,136555,1,0,0:0:0:0:
182,192,136555,1,0,0:0:0:0:
402,192,136662,1,0,0:0:0:0:
109,192,136662,1,0,0:0:0:0:
475,192,136769,1,0,0:0:0:0:
182,192,136769,1,0,0:0:0:0:
475,192,136984,1,0,0:0:0:0:
402,192,136984,1,0,0:0:0:0:
36,192,136984,1,0,0:0:0:0:
182,192,136984,1,0,0:0:0:0:
329,192,137198,1,0,0:0:0:0:
36,192,137198,1,0,0:0:0:0:
475,192,137305,1,0,0:0:0:0:
182,192,137305,1,0,0:0:0:0:
329,192,137412,5,0,0:0:0:0:
109,192,137412,128,0,139126:0:0:0:0:
475,192,137519,1,0,0:0:0:0:
256,192,137734,1,0,0:0:0:0:
475,192,137841,1,0,0:0:0:0:
36,192,137841,1,0,0:0:0:0:
475,192,138162,1,0,0:0:0:0:
36,192,138269,1,0,0:0:0:0:
182,192,138376,1,0,0:0:0:0:
475,192,138484,1,0,0:0:0:0:
329,192,138591,1,0,0:0:0:0:
182,192,138698,1,0,0:0:0:0:
475,192,138805,1,0,0:0:0:0:
475,192,139019,1,0,0:0:0:0:
329,192,139126,1,0,0:0:0:0:
36,192,139126,128,0,140841:0:0:0:0:
256,192,139234,1,0,0:0:0:0:
402,192,139341,1,0,0:0:0:0:
109,192,139448,1,0,0:0:0:0:
256,192,139555,1,0,0:0:0:0:
402,192,139662,1,0,0:0:0:0:
402,192,139876,1,0,0:0:0:0:
109,192,139984,1,0,0:0:0:0:
256,192,140091,1,0,0:0:0:0:
402,192,140198,1,0,0:0:0:0:
109,192,140198,1,0,0:0:0:0:
109,192,140412,1,0,0:0:0:0:
402,192,140519,1,0,0:0:0:0:
182,192,140519,1,0,0:0:0:0:
256,192,140626,1,0,0:0:0:0:
329,192,140734,1,0,0:0:0:0:
402,192,140841,1,0,0:0:0:0:
402,192,141055,1,0,0:0:0:0:
402,192,141269,1,0,0:0:0:0:
256,192,141484,1,0,0:0:0:0:
256,192,141698,1,0,0:0:0:0:
256,192,141912,1,0,0:0:0:0:
256,192,142126,1,0,0:0:0:0:
182,192,142341,1,0,0:0:0:0:
182,192,142555,1,0,0:0:0:0:
182,192,142769,1,0,0:0:0:0:
182,192,142984,1,0,0:0:0:0:
256,192,143198,1,0,0:0:0:0:
256,192,143412,1,0,0:0:0:0:
256,192,143626,1,0,0:0:0:0:
256,192,143841,1,0,0:0:0:0:
402,192,144055,1,0,0:0:0:0:
402,192,144269,1,0,0:0:0:0:
402,192,144484,1,0,0:0:0:0:
402,192,144698,1,0,0:0:0:0:
329,192,144912,1,0,0:0:0:0:
329,192,145126,1,0,0:0:0:0:
329,192,145341,1,0,0:0:0:0:
329,192,145555,1,0,0:0:0:0:
109,192,145769,1,0,0:0:0:0:
109,192,145984,1,0,0:0:0:0:
109,192,146198,1,0,0:0:0:0:
109,192,146412,1,0,0:0:0:0:
182,192,146626,1,0,0:0:0:0:
182,192,146841,1,0,0:0:0:0:
182,192,147055,1,0,0:0:0:0:
182,192,147269,1,0,0:0:0:0:
329,192,147484,1,0,0:0:0:0:
329,192,147698,1,0,0:0:0:0:
36,192,147698,1,0,0:0:0:0:
329,192,147912,1,0,0:0:0:0:
329,192,148126,1,0,0:0:0:0:
182,192,148341,1,0,0:0:0:0:
182,192,148555,1,0,0:0:0:0:
182,192,148769,1,0,0:0:0:0:
182,192,148984,1,0,0:0:0:0:
36,192,149198,1,0,0:0:0:0:
36,192,149412,1,0,0:0:0:0:
36,192,149626,1,0,0:0:0:0:
36,192,149841,1,0,0:0:0:0:
109,192,150055,1,0,0:0:0:0:
402,192,150055,1,0,0:0:0:0:
329,192,150162,1,0,0:0:0:0:
109,192,150269,1,0,0:0:0:0:
475,192,150269,1,0,0:0:0:0:
109,192,150484,1,0,0:0:0:0:
256,192,150484,1,0,0:0:0:0:
402,192,150591,1,0,0:0:0:0:
109,192,150698,1,0,0:0:0:0:
256,192,150698,1,0,0:0:0:0:
329,192,150805,1,0,0:0:0:0:
402,192,150912,1,0,0:0:0:0:
182,192,150912,1,0,0:0:0:0:
475,192,151019,1,0,0:0:0:0:
182,192,151126,1,0,0:0:0:0:
36,192,151126,1,0,0:0:0:0:
182,192,151341,1,0,0:0:0:0:
402,192,151341,1,0,0:0:0:0:
329,192,151448,1,0,0:0:0:0:
182,192,151555,1,0,0:0:0:0:
475,192,151555,1,0,0:0:0:0:
402,192,151769,1,0,0:0:0:0:
36,192,151769,1,0,0:0:0:0:
182,192,151876,1,0,0:0:0:0:
402,192,151984,1,0,0:0:0:0:
109,192,151984,1,0,0:0:0:0:
256,192,152091,1,0,0:0:0:0:
402,192,152198,1,0,0:0:0:0:
182,192,152198,1,0,0:0:0:0:
36,192,152305,1,0,0:0:0:0:
402,192,152412,1,0,0:0:0:0:
256,192,152412,1,0,0:0:0:0:
182,192,152626,1,0,0:0:0:0:
475,192,152626,1,0,0:0:0:0:
329,192,152734,1,0,0:0:0:0:
182,192,152841,1,0,0:0:0:0:
475,192,152841,1,0,0:0:0:0:
402,192,152948,1,0,0:0:0:0:
182,192,153055,1,0,0:0:0:0:
329,192,153055,1,0,0:0:0:0:
475,192,153162,1,0,0:0:0:0:
182,192,153269,1,0,0:0:0:0:
36,192,153269,1,0,0:0:0:0:
256,192,153376,1,0,0:0:0:0:
402,192,153484,1,0,0:0:0:0:
109,192,153484,1,0,0:0:0:0:
182,192,153591,1,0,0:0:0:0:
402,192,153698,1,0,0:0:0:0:
36,192,153698,1,0,0:0:0:0:
402,192,153912,1,0,0:0:0:0:
36,192,153912,1,0,0:0:0:0:
182,192,154019,1,0,0:0:0:0:
329,192,154019,1,0,0:0:0:0:
402,192,154126,1,0,0:0:0:0:
36,192,154126,1,0,0:0:0:0:
109,192,154234,1,0,0:0:0:0:
256,192,154234,1,0,0:0:0:0:
329,192,154341,1,0,0:0:0:0:
182,192,154341,1,0,0:0:0:0:
256,192,154448,1,0,0:0:0:0:
402,192,154448,1,0,0:0:0:0:
329,192,154555,1,0,0:0:0:0:
475,192,154555,1,0,0:0:0:0:
36,192,154555,128,0,156269:0:0:0:0:
475,192,154769,1,0,0:0:0:0:
475,192,154984,1,0,0:0:0:0:
182,192,154984,1,0,0:0:0:0:
256,192,155198,1,0,0:0:0:0:
182,192,155305,1,0,0:0:0:0:
402,192,155305,1,0,0:0:0:0:
329,192,155412,1,0,0:0:0:0:
109,192,155412,1,0,0:0:0:0:
475,192,155412,1,0,0:0:0:0:
329,192,155626,1,0,0:0:0:0:
329,192,155841,1,0,0:0:0:0:
182,192,155841,1,0,0:0:0:0:
182,192,156055,1,0,0:0:0:0:
402,192,156269,128,0,157984:0:0:0:0:
475,192,156269,1,0,0:0:0:0:
109,192,156269,1,0,0:0:0:0:
329,192,156269,1,0,0:0:0:0:
256,192,156376,1,0,0:0:0:0:
182,192,156484,1,0,0:0:0:0:
36,192,156484,1,0,0:0:0:0:
109,192,156591,1,0,0:0:0:0:
475,192,156698,1,0,0:0:0:0:
182,192,156698,1,0,0:0:0:0:
36,192,156698,1,0,0:0:0:0:
256,192,156805,1,0,0:0:0:0:
109,192,156912,1,0,0:0:0:0:
329,192,156912,1,0,0:0:0:0:
256,192,157019,1,0,0:0:0:0:
36,192,157126,1,0,0:0:0:0:
475,192,157126,1,0,0:0:0:0:
182,192,157126,1,0,0:0:0:0:
329,192,157234,1,0,0:0:0:0:
256,192,157341,1,0,0:0:0:0:
36,192,157341,1,0,0:0:0:0:
109,192,157448,1,0,0:0:0:0:
329,192,157555,1,0,0:0:0:0:
475,192,157555,1,0,0:0:0:0:
182,192,157555,1,0,0:0:0:0:
109,192,157662,1,0,0:0:0:0:
36,192,157769,1,0,0:0:0:0:
256,192,157769,1,0,0:0:0:0:
329,192,157876,1,0,0:0:0:0:
182,192,157984,128,0,159698:0:0:0:0:
475,192,157984,1,0,0:0:0:0:
36,192,157984,1,0,0:0:0:0:
256,192,157984,1,0,0:0:0:0:
402,192,158091,1,0,0:0:0:0:
329,192,158198,1,0,0:0:0:0:
36,192,158198,1,0,0:0:0:0:
256,192,158305,1,0,0:0:0:0:
329,192,158412,1,0,0:0:0:0:
36,192,158412,1,0,0:0:0:0:
475,192,158412,1,0,0:0:0:0:
402,192,158519,1,0,0:0:0:0:
109,192,158626,1,0,0:0:0:0:
475,192,158626,1,0,0:0:0:0:
256,192,158734,1,0,0:0:0:0:
475,192,158841,1,0,0:0:0:0:
109,192,158841,1,0,0:0:0:0:
329,192,158841,1,0,0:0:0:0:
256,192,158948,1,0,0:0:0:0:
109,192,159055,1,0,0:0:0:0:
402,192,159055,1,0,0:0:0:0:
475,192,159162,1,0,0:0:0:0:
109,192,159269,1,0,0:0:0:0:
256,192,159269,1,0,0:0:0:0:
402,192,159269,1,0,0:0:0:0:
329,192,159376,1,0,0:0:0:0:
36,192,159484,1,0,0:0:0:0:
475,192,159484,1,0,0:0:0:0:
402,192,159591,1,0,0:0:0:0:
475,192,159698,128,0,161412:0:0:0:0:
36,192,159698,1,0,0:0:0:0:
329,192,159698,1,0,0:0:0:0:
256,192,159698,1,0,0:0:0:0:
109,192,159805,1,0,0:0:0:0:
329,192,159912,1,0,0:0:0:0:
182,192,159912,1,0,0:0:0:0:
109,192,160019,1,0,0:0:0:0:
36,192,160126,1,0,0:0:0:0:
256,192,160126,1,0,0:0:0:0:
402,192,160126,1,0,0:0:0:0:
109,192,160234,1,0,0:0:0:0:
182,192,160341,1,0,0:0:0:0:
329,192,160341,1,0,0:0:0:0:
109,192,160448,1,0,0:0:0:0:
36,192,160555,1,0,0:0:0:0:
402,192,160555,1,0,0:0:0:0:
256,192,160555,1,0,0:0:0:0:
182,192,160662,1,0,0:0:0:0:
109,192,160769,1,0,0:0:0:0:
402,192,160769,1,0,0:0:0:0:
36,192,160876,1,0,0:0:0:0:
109,192,160984,1,0,0:0:0:0:
402,192,160984,1,0,0:0:0:0:
329,192,160984,1,0,0:0:0:0:
182,192,161091,1,0,0:0:0:0:
256,192,161198,1,0,0:0:0:0:
36,192,161198,1,0,0:0:0:0:
329,192,161305,1,0,0:0:0:0:
256,192,161412,128,0,163126:0:0:0:0:
402,192,161412,1,0,0:0:0:0:
109,192,161412,1,0,0:0:0:0:
109,192,161626,1,0,0:0:0:0:
109,192,161841,1,0,0:0:0:0:
475,192,161841,1,0,0:0:0:0:
36,192,162055,1,0,0:0:0:0:
402,192,162055,1,0,0:0:0:0:
182,192,162162,1,0,0:0:0:0:
475,192,162162,1,0,0:0:0:0:
109,192,162269,1,0,0:0:0:0:
329,192,162269,1,0,0:0:0:0:
36,192,162269,1,0,0:0:0:0:
329,192,162484,1,0,0:0:0:0:
329,192,162698,1,0,0:0:0:0:
36,192,162698,1,0,0:0:0:0:
109,192,162912,1,0,0:0:0:0:
109,192,163126,1,0,0:0:0:0:
475,192,163126,1,0,0:0:0:0:
109,192,163341,1,0,0:0:0:0:
109,192,163555,1,0,0:0:0:0:
475,192,163555,1,0,0:0:0:0:
182,192,163769,1,0,0:0:0:0:
475,192,163876,1,0,0:0:0:0:
256,192,163876,1,0,0:0:0:0:
182,192,163984,1,0,0:0:0:0:
402,192,163984,1,0,0:0:0:0:
36,192,163984,1,0,0:0:0:0:
182,192,164198,1,0,0:0:0:0:
329,192,164198,1,0,0:0:0:0:
402,192,164305,1,0,0:0:0:0:
182,192,164412,1,0,0:0:0:0:
475,192,164412,1,0,0:0:0:0:
36,192,164412,1,0,0:0:0:0:
402,192,164519,1,0,0:0:0:0:
329,192,164626,1,0,0:0:0:0:
109,192,164626,1,0,0:0:0:0:
182,192,164734,1,0,0:0:0:0:
329,192,164841,1,0,0:0:0:0:
36,192,164841,1,0,0:0:0:0:
109,192,164948,1,0,0:0:0:0:
329,192,165055,1,0,0:0:0:0:
182,192,165055,1,0,0:0:0:0:
329,192,165269,1,0,0:0:0:0:
475,192,165269,1,0,0:0:0:0:
256,192,165484,1,0,0:0:0:0:
109,192,165484,1,0,0:0:0:0:
402,192,165591,1,0,0:0:0:0:
256,192,165698,1,0,0:0:0:0:
36,192,165698,1,0,0:0:0:0:
475,192,165698,1,0,0:0:0:0:
109,192,165805,1,0,0:0:0:0:
256,192,165912,1,0,0:0:0:0:
402,192,165912,1,0,0:0:0:0:
256,192,166126,1,0,0:0:0:0:
36,192,166126,1,0,0:0:0:0:
475,192,166126,1,0,0:0:0:0:
109,192,166341,1,0,0:0:0:0:
329,192,166341,1,0,0:0:0:0:
182,192,166448,1,0,0:0:0:0:
36,192,166555,5,0,0:0:0:0:
402,192,166555,1,0,0:0:0:0:
182,192,166662,1,0,0:0:0:0:
475,192,166662,1,0,0:0:0:0:
109,192,166769,1,0,0:0:0:0:
329,192,166769,1,0,0:0:0:0:
256,192,166876,1,0,0:0:0:0:
475,192,166876,1,0,0:0:0:0:
36,192,166984,1,0,0:0:0:0:
402,192,166984,1,0,0:0:0:0:
182,192,167091,1,0,0:0:0:0:
475,192,167091,1,0,0:0:0:0:
109,192,167198,1,0,0:0:0:0:
329,192,167198,1,0,0:0:0:0:
256,192,167305,1,0,0:0:0:0:
475,192,167305,1,0,0:0:0:0:
329,192,167412,1,0,0:0:0:0:
109,192,167412,1,0,0:0:0:0:
36,192,167519,1,0,0:0:0:0:
475,192,167519,1,0,0:0:0:0:
182,192,167626,1,0,0:0:0:0:
329,192,167626,1,0,0:0:0:0:
109,192,167734,1,0,0:0:0:0:
402,192,167734,1,0,0:0:0:0:
36,192,167841,1,0,0:0:0:0:
329,192,167841,1,0,0:0:0:0:
109,192,167948,1,0,0:0:0:0:
475,192,167948,1,0,0:0:0:0:
182,192,168055,1,0,0:0:0:0:
402,192,168055,1,0,0:0:0:0:
256,192,168162,1,0,0:0:0:0:
475,192,168162,1,0,0:0:0:0:
329,192,168269,1,0,0:0:0:0:
36,192,168269,1,0,0:0:0:0:
109,192,168269,1,0,0:0:0:0:
182,192,168484,1,0,0:0:0:0:
402,192,168698,128,0,169126:0:0:0:0:
109,192,168698,1,0,0:0:0:0:
475,192,168698,1,0,0:0:0:0:
256,192,168698,1,0,0:0:0:0:
182,192,168912,1,0,0:0:0:0:
109,192,169019,1,0,0:0:0:0:
256,192,169019,1,0,0:0:0:0:
182,192,169126,128,0,169555:0:0:0:0:
329,192,169126,1,0,0:0:0:0:
36,192,169126,1,0,0:0:0:0:
402,192,169341,1,0,0:0:0:0:
36,192,169555,1,0,0:0:0:0:
329,192,169555,1,0,0:0:0:0:
475,192,169555,1,0,0:0:0:0:
402,192,169769,128,0,169876:0:0:0:0:
109,192,169769,1,0,0:0:0:0:
475,192,169876,128,0,169984:0:0:0:0:
329,192,169984,128,0,170305:0:0:0:0:
36,192,169984,1,0,0:0:0:0:
256,192,169984,1,0,0:0:0:0:
182,192,170198,1,0,0:0:0:0:
402,192,170305,128,0,170626:0:0:0:0:
36,192,170412,1,0,0:0:0:0:
109,192,170412,1,0,0:0:0:0:
256,192,170412,1,0,0:0:0:0:
475,192,170626,128,0,170841:0:0:0:0:
182,192,170626,1,0,0:0:0:0:
36,192,170734,1,0,0:0:0:0:
329,192,170734,1,0,0:0:0:0:
182,192,170841,128,0,171162:0:0:0:0:
109,192,170841,1,0,0:0:0:0:
402,192,170841,1,0,0:0:0:0:
329,192,171055,1,0,0:0:0:0:
109,192,171162,128,0,171484:0:0:0:0:
256,192,171269,1,0,0:0:0:0:
475,192,171269,1,0,0:0:0:0:
402,192,171269,1,0,0:0:0:0:
36,192,171484,128,0,171698:0:0:0:0:
329,192,171484,1,0,0:0:0:0:
109,192,171698,128,0,172019:0:0:0:0:
256,192,171698,1,0,0:0:0:0:
475,192,171698,1,0,0:0:0:0:
402,192,171912,1,0,0:0:0:0:
182,192,171912,128,0,172126:0:0:0:0:
256,192,172019,128,0,172662:0:0:0:0:
36,192,172126,1,0,0:0:0:0:
329,192,172126,1,0,0:0:0:0:
475,192,172126,1,0,0:0:0:0:
109,192,172341,1,0,0:0:0:0:
182,192,172448,1,0,0:0:0:0:
402,192,172448,1,0,0:0:0:0:
36,192,172555,1,0,0:0:0:0:
329,192,172555,1,0,0:0:0:0:
329,192,172769,128,0,172876:0:0:0:0:
109,192,172769,1,0,0:0:0:0:
182,192,172984,128,0,173091:0:0:0:0:
475,192,172984,1,0,0:0:0:0:
36,192,172984,1,0,0:0:0:0:
329,192,172984,1,0,0:0:0:0:
256,192,173198,128,0,173626:0:0:0:0:
402,192,173198,1,0,0:0:0:0:
36,192,173412,1,0,0:0:0:0:
329,192,173412,1,0,0:0:0:0:
475,192,173626,1,0,0:0:0:0:
182,192,173626,128,0,173841:0:0:0:0:
329,192,173841,128,0,174055:0:0:0:0:
36,192,173841,1,0,0:0:0:0:
402,192,173841,1,0,0:0:0:0:
109,192,173841,1,0,0:0:0:0:
475,192,174055,128,0,174269:0:0:0:0:
182,192,174055,1,0,0:0:0:0:
109,192,174162,1,0,0:0:0:0:
256,192,174162,1,0,0:0:0:0:
36,192,174269,128,0,174484:0:0:0:0:
182,192,174269,1,0,0:0:0:0:
329,192,174269,1,0,0:0:0:0:
182,192,174484,128,0,174698:0:0:0:0:
402,192,174484,1,0,0:0:0:0:
329,192,174698,128,0,174912:0:0:0:0:
36,192,174698,1,0,0:0:0:0:
475,192,174698,1,0,0:0:0:0:
256,192,174698,1,0,0:0:0:0:
109,192,174912,128,0,175126:0:0:0:0:
402,192,174912,1,0,0:0:0:0:
256,192,175126,128,0,175769:0:0:0:0:
36,192,175126,128,0,175984:0:0:0:0:
329,192,175126,1,0,0:0:0:0:
475,192,175126,1,0,0:0:0:0:
402,192,175341,1,0,0:0:0:0:
329,192,175555,1,0,0:0:0:0:
475,192,175555,1,0,0:0:0:0:
109,192,175555,1,0,0:0:0:0:
475,192,175769,128,0,175984:0:0:0:0:
329,192,175769,1,0,0:0:0:0:
182,192,175876,1,0,0:0:0:0:
109,192,175984,128,0,176412:0:0:0:0:
402,192,175984,128,0,176412:0:0:0:0:
256,192,175984,1,0,0:0:0:0:
329,192,176198,1,0,0:0:0:0:
36,192,176412,1,0,0:0:0:0:
475,192,176412,1,0,0:0:0:0:
256,192,176412,1,0,0:0:0:0:
109,192,176626,128,0,176734:0:0:0:0:
402,192,176626,128,0,176734:0:0:0:0:
36,192,176734,128,0,176841:0:0:0:0:
329,192,176734,128,0,176841:0:0:0:0:
182,192,176841,128,0,177162:0:0:0:0:
475,192,176841,128,0,177162:0:0:0:0:
256,192,176841,1,0,0:0:0:0:
256,192,177055,1,0,0:0:0:0:
109,192,177162,128,0,177484:0:0:0:0:
402,192,177162,128,0,177484:0:0:0:0:
475,192,177269,1,0,0:0:0:0:
182,192,177269,1,0,0:0:0:0:
36,192,177484,128,0,178341:0:0:0:0:
329,192,177484,128,0,177698:0:0:0:0:
182,192,177484,1,0,0:0:0:0:
475,192,177591,1,0,0:0:0:0:
402,192,177698,128,0,178019:0:0:0:0:
256,192,177698,1,0,0:0:0:0:
182,192,177912,5,0,0:0:0:0:
329,192,178019,128,0,178341:0:0:0:0:
182,192,178126,1,0,0:0:0:0:
475,192,178126,1,0,0:0:0:0:
256,192,178341,128,0,178555:0:0:0:0:
109,192,178341,1,0,0:0:0:0:
36,192,178555,128,0,178876:0:0:0:0:
475,192,178555,128,0,178876:0:0:0:0:
402,192,178555,1,0,0:0:0:0:
109,192,178555,1,0,0:0:0:0:
256,192,178769,1,0,0:0:0:0:
109,192,178984,128,0,180162:0:0:0:0:
402,192,178984,128,0,179948:0:0:0:0:
36,192,178984,1,0,0:0:0:0:
475,192,178984,1,0,0:0:0:0:
329,192,178984,1,0,0:0:0:0:
182,192,179198,5,0,0:0:0:0:
36,192,179305,1,0,0:0:0:0:
329,192,179305,1,0,0:0:0:0:
182,192,179412,1,0,0:0:0:0:
475,192,179412,1,0,0:0:0:0:
256,192,179626,1,0,0:0:0:0:
36,192,179841,1,0,0:0:0:0:
182,192,179841,1,0,0:0:0:0:
475,192,180055,128,0,180162:0:0:0:0:
256,192,180055,128,0,180162:0:0:0:0:
402,192,180055,1,0,0:0:0:0:
36,192,180269,128,0,181126:0:0:0:0:
329,192,180269,128,0,180376:0:0:0:0:
475,192,180376,128,0,180484:0:0:0:0:
256,192,180484,128,0,180591:0:0:0:0:
402,192,180591,128,0,180698:0:0:0:0:
182,192,180698,128,0,180805:0:0:0:0:
329,192,180805,128,0,180912:0:0:0:0:
109,192,180912,128,0,181019:0:0:0:0:
256,192,181019,128,0,181126:0:0:0:0:
182,192,181126,128,0,181448:0:0:0:0:
475,192,181126,128,0,181984:0:0:0:0:
256,192,181234,128,0,181555:0:0:0:0:
329,192,181341,128,0,181662:0:0:0:0:
402,192,181448,128,0,181769:0:0:0:0:
109,192,181555,128,0,181662:0:0:0:0:
182,192,181662,128,0,181769:0:0:0:0:
256,192,181769,128,0,181876:0:0:0:0:
329,192,181876,128,0,181984:0:0:0:0:
402,192,181984,128,0,183269:0:0:0:0:
36,192,181984,128,0,182626:0:0:0:0:
182,192,182626,128,0,182734:0:0:0:0:
36,192,182734,128,0,182841:0:0:0:0:
182,192,182841,128,0,183055:0:0:0:0:
36,192,183055,128,0,183269:0:0:0:0:
475,192,183269,128,0,183698:0:0:0:0:
256,192,183269,128,0,183484:0:0:0:0:
109,192,183484,128,0,183698:0:0:0:0:
402,192,183698,128,0,184126:0:0:0:0:
329,192,183698,128,0,183912:0:0:0:0:
36,192,183912,128,0,184126:0:0:0:0:
182,192,184126,128,0,184555:0:0:0:0:
475,192,184126,128,0,184341:0:0:0:0:
109,192,184341,128,0,184555:0:0:0:0:
329,192,184555,128,0,184984:0:0:0:0:
256,192,184555,128,0,184769:0:0:0:0:
36,192,184555,128,0,184662:0:0:0:0:
109,192,184769,128,0,184876:0:0:0:0:
475,192,184984,128,0,185412:0:0:0:0:
402,192,184984,128,0,185198:0:0:0:0:
182,192,184984,128,0,185091:0:0:0:0:
256,192,185198,128,0,185305:0:0:0:0:
402,192,185412,128,0,185841:0:0:0:0:
36,192,185412,128,0,185841:0:0:0:0:
329,192,185412,128,0,186698:0:0:0:0:
475,192,185841,128,0,186269:0:0:0:0:
109,192,185841,128,0,186269:0:0:0:0:
475,192,186484,128,0,186591:0:0:0:0:
109,192,186484,128,0,186591:0:0:0:0:
402,192,186698,128,0,187126:0:0:0:0:
256,192,186698,128,0,186805:0:0:0:0:
36,192,186698,128,0,186805:0:0:0:0:
109,192,186912,128,0,187555:0:0:0:0:
182,192,186912,128,0,187662:0:0:0:0:
475,192,187126,128,0,188841:0:0:0:0:
36,192,187769,128,0,187876:0:0:0:0:
256,192,187769,128,0,187876:0:0:0:0:
182,192,187876,128,0,187984:0:0:0:0:
402,192,187876,128,0,187984:0:0:0:0:
109,192,187984,128,0,188198:0:0:0:0:
329,192,187984,128,0,188198:0:0:0:0:
402,192,188198,128,0,188412:0:0:0:0:
182,192,188198,128,0,188412:0:0:0:0:
36,192,188412,128,0,188626:0:0:0:0:
256,192,188412,128,0,188626:0:0:0:0:
109,192,188626,128,0,188841:0:0:0:0:
329,192,188626,128,0,188841:0:0:0:0:
182,192,188841,128,0,189484:0:0:0:0:
36,192,188841,128,0,189484:0:0:0:0:
402,192,188841,128,0,189484:0:0:0:0:
109,192,189484,128,0,189698:0:0:0:0:
329,192,189484,128,0,189698:0:0:0:0:
475,192,189484,128,0,189698:0:0:0:0:
36,192,189698,128,0,190126:0:0:0:0:
402,192,189698,128,0,190126:0:0:0:0:
256,192,189698,128,0,190126:0:0:0:0:
329,192,190341,128,0,190448:0:0:0:0:
36,192,190341,128,0,190448:0:0:0:0:
182,192,190448,128,0,190555:0:0:0:0:
475,192,190448,128,0,190555:0:0:0:0:
36,192,190555,128,0,191305:0:0:0:0:
329,192,190555,128,0,191305:0:0:0:0:
109,192,190876,128,0,191948:0:0:0:0:
402,192,190876,128,0,191626:0:0:0:0:
182,192,191198,128,0,191626:0:0:0:0:
475,192,191198,128,0,191841:0:0:0:0:
36,192,191412,128,0,191841:0:0:0:0:
329,192,191412,128,0,192055:0:0:0:0:
402,192,191734,128,0,191948:0:0:0:0:
182,192,191734,128,0,192055:0:0:0:0:
475,192,192055,128,0,192162:0:0:0:0:
36,192,192055,128,0,192162:0:0:0:0:
109,192,192269,128,0,193769:0:0:0:0:
402,192,192269,128,0,193769:0:0:0:0:
36,192,193769,1,0,0:0:0:0:
475,192,193769,1,0,0:0:0:0:
182,192,193876,1,0,0:0:0:0:
329,192,193876,1,0,0:0:0:0:
36,192,193984,128,0,195698:0:0:0:0:
475,192,193984,128,0,195698:0:0:0:0:
109,192,193984,1,0,0:0:0:0:
402,192,193984,1,0,0:0:0:0:
182,192,194198,1,0,0:0:0:0:
329,192,194198,1,0,0:0:0:0:
109,192,194412,1,0,0:0:0:0:
402,192,194412,1,0,0:0:0:0:
182,192,194626,1,0,0:0:0:0:
329,192,194626,1,0,0:0:0:0:
109,192,194841,1,0,0:0:0:0:
402,192,194841,1,0,0:0:0:0:
329,192,194948,1,0,0:0:0:0:
182,192,194948,1,0,0:0:0:0:
256,192,195055,1,0,0:0:0:0:
182,192,195269,1,0,0:0:0:0:
329,192,195269,1,0,0:0:0:0:
256,192,195484,1,0,0:0:0:0:
256,192,195591,1,0,0:0:0:0:
182,192,195698,1,0,0:0:0:0:
109,192,195698,1,0,0:0:0:0:
402,192,195698,1,0,0:0:0:0:
329,192,195698,1,0,0:0:0:0:
256,192,195912,1,0,0:0:0:0:
402,192,196019,1,0,0:0:0:0:
329,192,196126,1,0,0:0:0:0:
109,192,196126,1,0,0:0:0:0:
36,192,196341,1,0,0:0:0:0:
182,192,196341,1,0,0:0:0:0:
402,192,196341,1,0,0:0:0:0:
256,192,196448,1,0,0:0:0:0:
182,192,196769,1,0,0:0:0:0:
402,192,196984,1,0,0:0:0:0:
256,192,197091,1,0,0:0:0:0:
329,192,197412,1,0,0:0:0:0:
475,192,197412,1,0,0:0:0:0:
109,192,197412,1,0,0:0:0:0:
256,192,197626,1,0,0:0:0:0:
402,192,197734,1,0,0:0:0:0:
329,192,197841,1,0,0:0:0:0:
109,192,197841,1,0,0:0:0:0:
182,192,198055,1,0,0:0:0:0:
402,192,198055,1,0,0:0:0:0:
36,192,198055,1,0,0:0:0:0:
256,192,198162,1,0,0:0:0:0:
182,192,198484,1,0,0:0:0:0:
402,192,198698,1,0,0:0:0:0:
256,192,198805,1,0,0:0:0:0:
36,192,199126,1,0,0:0:0:0:
182,192,199126,1,0,0:0:0:0:
475,192,199126,1,0,0:0:0:0:
329,192,199341,1,0,0:0:0:0:
109,192,199448,1,0,0:0:0:0:
256,192,199555,1,0,0:0:0:0:
182,192,199555,1,0,0:0:0:0:
182,192,199769,1,0,0:0:0:0:
36,192,199769,1,0,0:0:0:0:
402,192,199769,1,0,0:0:0:0:
329,192,199876,1,0,0:0:0:0:
329,192,200198,1,0,0:0:0:0:
182,192,200412,1,0,0:0:0:0:
329,192,200519,1,0,0:0:0:0:
36,192,200841,1,0,0:0:0:0:
256,192,200841,1,0,0:0:0:0:
475,192,200841,1,0,0:0:0:0:
402,192,201055,1,0,0:0:0:0:
182,192,201162,1,0,0:0:0:0:
329,192,201269,1,0,0:0:0:0:
256,192,201269,1,0,0:0:0:0:
182,192,201484,1,0,0:0:0:0:
36,192,201484,1,0,0:0:0:0:
475,192,201484,1,0,0:0:0:0:
329,192,201591,1,0,0:0:0:0:
256,192,201698,1,0,0:0:0:0:
402,192,201912,1,0,0:0:0:0:
109,192,201912,1,0,0:0:0:0:
182,192,202019,1,0,0:0:0:0:
329,192,202126,1,0,0:0:0:0:
475,192,202126,1,0,0:0:0:0:
109,192,202234,1,0,0:0:0:0:
256,192,202341,1,0,0:0:0:0:
109,192,202555,1,0,0:0:0:0:
475,192,202555,1,0,0:0:0:0:
329,192,202555,1,0,0:0:0:0:
182,192,202769,1,0,0:0:0:0:
402,192,202876,1,0,0:0:0:0:
329,192,202984,1,0,0:0:0:0:
256,192,202984,1,0,0:0:0:0:
182,192,203198,1,0,0:0:0:0:
36,192,203198,1,0,0:0:0:0:
402,192,203198,1,0,0:0:0:0:
256,192,203305,1,0,0:0:0:0:
182,192,203626,1,0,0:0:0:0:
402,192,203841,1,0,0:0:0:0:
256,192,203948,1,0,0:0:0:0:
36,192,204269,1,0,0:0:0:0:
182,192,204269,1,0,0:0:0:0:
475,192,204269,1,0,0:0:0:0:
329,192,204484,1,0,0:0:0:0:
109,192,204591,1,0,0:0:0:0:
256,192,204698,1,0,0:0:0:0:
329,192,204698,1,0,0:0:0:0:
182,192,204912,1,0,0:0:0:0:
36,192,204912,1,0,0:0:0:0:
402,192,204912,1,0,0:0:0:0:
329,192,205019,1,0,0:0:0:0:
329,192,205341,1,0,0:0:0:0:
182,192,205555,1,0,0:0:0:0:
329,192,205662,1,0,0:0:0:0:
256,192,205984,1,0,0:0:0:0:
109,192,205984,1,0,0:0:0:0:
475,192,205984,1,0,0:0:0:0:
329,192,206198,1,0,0:0:0:0:
182,192,206305,1,0,0:0:0:0:
402,192,206412,1,0,0:0:0:0:
256,192,206412,1,0,0:0:0:0:
109,192,206626,1,0,0:0:0:0:
256,192,206626,1,0,0:0:0:0:
475,192,206734,1,0,0:0:0:0:
329,192,206841,1,0,0:0:0:0:
182,192,207055,1,0,0:0:0:0:
402,192,207162,1,0,0:0:0:0:
256,192,207269,1,0,0:0:0:0:
329,192,207269,1,0,0:0:0:0:
109,192,207376,1,0,0:0:0:0:
182,192,207484,1,0,0:0:0:0:
256,192,207698,1,0,0:0:0:0:
36,192,207698,1,0,0:0:0:0:
402,192,207698,1,0,0:0:0:0:
182,192,207912,1,0,0:0:0:0:
36,192,208126,1,0,0:0:0:0:
402,192,208126,1,0,0:0:0:0:
109,192,208341,1,0,0:0:0:0:
329,192,208341,1,0,0:0:0:0:
256,192,208448,1,0,0:0:0:0:
402,192,208555,1,0,0:0:0:0:
182,192,208769,1,0,0:0:0:0:
475,192,208769,1,0,0:0:0:0:
109,192,208876,1,0,0:0:0:0:
402,192,208876,1,0,0:0:0:0:
36,192,208984,1,0,0:0:0:0:
329,192,208984,1,0,0:0:0:0:
475,192,209091,1,0,0:0:0:0:
182,192,209091,1,0,0:0:0:0:
402,192,209198,1,0,0:0:0:0:
109,192,209198,1,0,0:0:0:0:
329,192,209305,1,0,0:0:0:0:
182,192,209305,1,0,0:0:0:0:
475,192,209412,1,0,0:0:0:0:
36,192,209412,1,0,0:0:0:0:
256,192,209412,1,0,0:0:0:0:
182,192,209626,1,0,0:0:0:0:
329,192,209841,1,0,0:0:0:0:
36,192,209841,1,0,0:0:0:0:
475,192,210055,1,0,0:0:0:0:
329,192,210162,1,0,0:0:0:0:
36,192,210269,1,0,0:0:0:0:
475,192,210269,1,0,0:0:0:0:
109,192,210376,1,0,0:0:0:0:
329,192,210376,1,0,0:0:0:0:
182,192,210484,1,0,0:0:0:0:
402,192,210484,1,0,0:0:0:0:
475,192,210591,1,0,0:0:0:0:
109,192,210591,1,0,0:0:0:0:
36,192,210698,1,0,0:0:0:0:
402,192,210698,1,0,0:0:0:0:
329,192,210805,1,0,0:0:0:0:
109,192,210805,1,0,0:0:0:0:
402,192,210912,1,0,0:0:0:0:
182,192,210912,1,0,0:0:0:0:
475,192,211019,1,0,0:0:0:0:
109,192,211019,1,0,0:0:0:0:
36,192,211126,1,0,0:0:0:0:
402,192,211126,128,0,211555:0:0:0:0:
256,192,211126,1,0,0:0:0:0:
329,192,211126,1,0,0:0:0:0:
182,192,211341,1,0,0:0:0:0:
256,192,211555,128,0,211662:0:0:0:0:
36,192,211555,1,0,0:0:0:0:
475,192,211555,1,0,0:0:0:0:
109,192,211555,1,0,0:0:0:0:
182,192,211769,128,0,212198:0:0:0:0:
329,192,211769,1,0,0:0:0:0:
475,192,211876,1,0,0:0:0:0:
109,192,211876,1,0,0:0:0:0:
402,192,211984,1,0,0:0:0:0:
36,192,211984,1,0,0:0:0:0:
36,192,212198,128,0,212412:0:0:0:0:
256,192,212198,1,0,0:0:0:0:
329,192,212412,128,0,212626:0:0:0:0:
109,192,212412,1,0,0:0:0:0:
475,192,212412,1,0,0:0:0:0:
402,192,212412,1,0,0:0:0:0:
182,192,212626,128,0,213698:0:0:0:0:
36,192,212626,1,0,0:0:0:0:
475,192,212841,128,0,213912:0:0:0:0:
109,192,212841,1,0,0:0:0:0:
402,192,212841,1,0,0:0:0:0:
256,192,213055,1,0,0:0:0:0:
36,192,213269,1,0,0:0:0:0:
402,192,213269,1,0,0:0:0:0:
329,192,213269,1,0,0:0:0:0:
256,192,213484,1,0,0:0:0:0:
109,192,213591,1,0,0:0:0:0:
329,192,213591,1,0,0:0:0:0:
36,192,213698,1,0,0:0:0:0:
256,192,213698,1,0,0:0:0:0:
329,192,213805,1,0,0:0:0:0:
182,192,213912,128,0,214126:0:0:0:0:
402,192,213912,1,0,0:0:0:0:
256,192,214126,128,0,214341:0:0:0:0:
329,192,214126,1,0,0:0:0:0:
475,192,214126,1,0,0:0:0:0:
36,192,214126,1,0,0:0:0:0:
329,192,214341,128,0,214555:0:0:0:0:
109,192,214341,1,0,0:0:0:0:
402,192,214555,128,0,214984:0:0:0:0:
36,192,214555,1,0,0:0:0:0:
182,192,214555,1,0,0:0:0:0:
109,192,214769,1,0,0:0:0:0:
256,192,214984,128,0,215091:0:0:0:0:
36,192,214984,1,0,0:0:0:0:
182,192,214984,1,0,0:0:0:0:
475,192,214984,1,0,0:0:0:0:
109,192,215198,128,0,215626:0:0:0:0:
329,192,215198,1,0,0:0:0:0:
182,192,215305,1,0,0:0:0:0:
475,192,215305,1,0,0:0:0:0:
36,192,215412,1,0,0:0:0:0:
402,192,215412,1,0,0:0:0:0:
182,192,215626,128,0,215841:0:0:0:0:
329,192,215626,1,0,0:0:0:0:
36,192,215841,128,0,216055:0:0:0:0:
256,192,215841,1,0,0:0:0:0:
475,192,215841,1,0,0:0:0:0:
402,192,215841,1,0,0:0:0:0:
329,192,216055,128,0,217126:0:0:0:0:
182,192,216055,1,0,0:0:0:0:
109,192,216269,128,0,217341:0:0:0:0:
36,192,216269,1,0,0:0:0:0:
475,192,216269,1,0,0:0:0:0:
182,192,216484,1,0,0:0:0:0:
256,192,216698,1,0,0:0:0:0:
475,192,216698,1,0,0:0:0:0:
36,192,216698,1,0,0:0:0:0:
182,192,216912,1,0,0:0:0:0:
256,192,217019,1,0,0:0:0:0:
36,192,217019,1,0,0:0:0:0:
402,192,217126,1,0,0:0:0:0:
475,192,217126,1,0,0:0:0:0:
256,192,217234,1,0,0:0:0:0:
182,192,217341,1,0,0:0:0:0:
329,192,217341,128,0,217555:0:0:0:0:
475,192,217555,128,0,217769:0:0:0:0:
36,192,217555,1,0,0:0:0:0:
109,192,217555,1,0,0:0:0:0:
256,192,217555,1,0,0:0:0:0:
182,192,217769,128,0,217984:0:0:0:0:
329,192,217769,1,0,0:0:0:0:
402,192,217984,128,0,218626:0:0:0:0:
36,192,217984,128,0,218626:0:0:0:0:
256,192,217984,1,0,0:0:0:0:
475,192,217984,1,0,0:0:0:0:
329,192,218198,1,0,0:0:0:0:
182,192,218412,1,0,0:0:0:0:
256,192,218412,1,0,0:0:0:0:
475,192,218412,1,0,0:0:0:0:
109,192,218626,128,0,218734:0:0:0:0:
475,192,218626,128,0,218734:0:0:0:0:
329,192,218626,1,0,0:0:0:0:
256,192,218734,1,0,0:0:0:0:
109,192,218841,128,0,219269:0:0:0:0:
475,192,218841,128,0,219269:0:0:0:0:
329,192,218841,1,0,0:0:0:0:
36,192,218841,1,0,0:0:0:0:
256,192,219055,1,0,0:0:0:0:
329,192,219269,1,0,0:0:0:0:
36,192,219269,1,0,0:0:0:0:
182,192,219269,1,0,0:0:0:0:
36,192,219484,128,0,219591:0:0:0:0:
329,192,219484,128,0,219591:0:0:0:0:
256,192,219484,1,0,0:0:0:0:
182,192,219591,128,0,219698:0:0:0:0:
475,192,219591,128,0,219698:0:0:0:0:
36,192,219698,128,0,220341:0:0:0:0:
402,192,219698,128,0,220019:0:0:0:0:
329,192,219698,1,0,0:0:0:0:
182,192,219912,1,0,0:0:0:0:
329,192,220019,128,0,220341:0:0:0:0:
475,192,220126,1,0,0:0:0:0:
109,192,220126,1,0,0:0:0:0:
256,192,220126,1,0,0:0:0:0:
182,192,220341,128,0,220555:0:0:0:0:
475,192,220341,1,0,0:0:0:0:
36,192,220448,1,0,0:0:0:0:
402,192,220448,1,0,0:0:0:0:
329,192,220555,128,0,220984:0:0:0:0:
475,192,220555,1,0,0:0:0:0:
109,192,220555,1,0,0:0:0:0:
256,192,220769,1,0,0:0:0:0:
182,192,220984,128,0,221412:0:0:0:0:
475,192,220984,1,0,0:0:0:0:
36,192,220984,1,0,0:0:0:0:
402,192,220984,1,0,0:0:0:0:
329,192,221198,1,0,0:0:0:0:
402,192,221412,128,0,222055:0:0:0:0:
256,192,221412,1,0,0:0:0:0:
475,192,221412,1,0,0:0:0:0:
36,192,221412,128,0,222055:0:0:0:0:
182,192,221626,1,0,0:0:0:0:
109,192,221841,1,0,0:0:0:0:
256,192,221841,1,0,0:0:0:0:
475,192,221841,1,0,0:0:0:0:
329,192,222055,128,0,222269:0:0:0:0:
182,192,222055,1,0,0:0:0:0:
109,192,222162,1,0,0:0:0:0:
256,192,222162,1,0,0:0:0:0:
475,192,222269,128,0,223769:0:0:0:0:
182,192,222269,1,0,0:0:0:0:
36,192,222269,1,0,0:0:0:0:
256,192,222484,1,0,0:0:0:0:
36,192,222698,1,0,0:0:0:0:
182,192,222698,1,0,0:0:0:0:
402,192,222698,1,0,0:0:0:0:
256,192,222912,1,0,0:0:0:0:
256,192,223019,1,0,0:0:0:0:
36,192,223126,128,0,223876:0:0:0:0:
109,192,223126,1,0,0:0:0:0:
402,192,223126,1,0,0:0:0:0:
329,192,223341,1,0,0:0:0:0:
109,192,223555,1,0,0:0:0:0:
402,192,223555,1,0,0:0:0:0:
256,192,223555,1,0,0:0:0:0:
182,192,223769,1,0,0:0:0:0:
256,192,223876,1,0,0:0:0:0:
475,192,223876,1,0,0:0:0:0:
36,192,223984,128,0,224734:0:0:0:0:
182,192,223984,1,0,0:0:0:0:
402,192,223984,1,0,0:0:0:0:
256,192,224091,1,0,0:0:0:0:
402,192,224198,128,0,224412:0:0:0:0:
329,192,224198,1,0,0:0:0:0:
182,192,224412,128,0,224626:0:0:0:0:
256,192,224412,1,0,0:0:0:0:
475,192,224412,1,0,0:0:0:0:
329,192,224626,128,0,224841:0:0:0:0:
109,192,224626,1,0,0:0:0:0:
256,192,224734,1,0,0:0:0:0:
36,192,224841,1,0,0:0:0:0:
475,192,224841,128,0,225269:0:0:0:0:
182,192,224841,1,0,0:0:0:0:
109,192,225055,1,0,0:0:0:0:
256,192,225269,128,0,225484:0:0:0:0:
36,192,225269,1,0,0:0:0:0:
182,192,225269,1,0,0:0:0:0:
402,192,225269,1,0,0:0:0:0:
36,192,225484,128,0,225912:0:0:0:0:
329,192,225484,1,0,0:0:0:0:
256,192,225591,1,0,0:0:0:0:
475,192,225591,1,0,0:0:0:0:
182,192,225698,1,0,0:0:0:0:
402,192,225698,1,0,0:0:0:0:
182,192,225912,128,0,226126:0:0:0:0:
329,192,225912,1,0,0:0:0:0:
36,192,226126,128,0,226341:0:0:0:0:
256,192,226126,1,0,0:0:0:0:
475,192,226126,1,0,0:0:0:0:
402,192,226126,1,0,0:0:0:0:
182,192,226341,128,0,227412:0:0:0:0:
329,192,226341,1,0,0:0:0:0:
402,192,226555,128,0,227626:0:0:0:0:
256,192,226555,1,0,0:0:0:0:
36,192,226555,1,0,0:0:0:0:
329,192,226769,1,0,0:0:0:0:
109,192,226984,1,0,0:0:0:0:
256,192,226984,1,0,0:0:0:0:
475,192,226984,1,0,0:0:0:0:
329,192,227198,1,0,0:0:0:0:
475,192,227305,1,0,0:0:0:0:
109,192,227305,1,0,0:0:0:0:
36,192,227412,1,0,0:0:0:0:
329,192,227412,1,0,0:0:0:0:
256,192,227519,1,0,0:0:0:0:
36,192,227626,128,0,227841:0:0:0:0:
182,192,227626,1,0,0:0:0:0:
256,192,227841,128,0,228055:0:0:0:0:
109,192,227841,1,0,0:0:0:0:
475,192,227841,1,0,0:0:0:0:
329,192,227841,1,0,0:0:0:0:
475,192,228055,128,0,228269:0:0:0:0:
182,192,228055,1,0,0:0:0:0:
402,192,228269,128,0,228698:0:0:0:0:
36,192,228269,1,0,0:0:0:0:
256,192,228269,1,0,0:0:0:0:
109,192,228484,1,0,0:0:0:0:
329,192,228698,128,0,228805:0:0:0:0:
36,192,228698,1,0,0:0:0:0:
182,192,228698,1,0,0:0:0:0:
475,192,228698,1,0,0:0:0:0:
256,192,228912,128,0,229341:0:0:0:0:
109,192,228912,1,0,0:0:0:0:
182,192,229019,1,0,0:0:0:0:
475,192,229019,1,0,0:0:0:0:
36,192,229126,1,0,0:0:0:0:
329,192,229126,1,0,0:0:0:0:
109,192,229341,128,0,229448:0:0:0:0:
475,192,229341,128,0,229448:0:0:0:0:
402,192,229341,1,0,0:0:0:0:
182,192,229555,1,0,0:0:0:0:
36,192,229555,128,0,229662:0:0:0:0:
402,192,229555,128,0,229662:0:0:0:0:
329,192,229555,1,0,0:0:0:0:
329,192,229769,128,0,230841:0:0:0:0:
182,192,229769,128,0,230841:0:0:0:0:
109,192,229769,1,0,0:0:0:0:
475,192,229984,128,0,230841:0:0:0:0:
402,192,229984,1,0,0:0:0:0:
36,192,229984,1,0,0:0:0:0:
109,192,230198,1,0,0:0:0:0:
36,192,230412,1,0,0:0:0:0:
256,192,230412,1,0,0:0:0:0:
402,192,230412,1,0,0:0:0:0:
109,192,230626,1,0,0:0:0:0:
256,192,230734,1,0,0:0:0:0:
36,192,230841,1,0,0:0:0:0:
402,192,230841,1,0,0:0:0:0:
256,192,230948,1,0,0:0:0:0:
402,192,231055,1,0,0:0:0:0:
109,192,231055,128,0,231269:0:0:0:0:
329,192,231055,128,0,231269:0:0:0:0:
36,192,231269,1,0,0:0:0:0:
256,192,231269,128,0,231484:0:0:0:0:
475,192,231269,128,0,231484:0:0:0:0:
402,192,231484,128,0,231698:0:0:0:0:
182,192,231484,128,0,231698:0:0:0:0:
109,192,231484,1,0,0:0:0:0:
329,192,231698,128,0,232341:0:0:0:0:
36,192,231698,1,0,0:0:0:0:
182,192,231912,1,0,0:0:0:0:
475,192,232126,1,0,0:0:0:0:
109,192,232126,1,0,0:0:0:0:
256,192,232126,1,0,0:0:0:0:
109,192,232341,128,0,232448:0:0:0:0:
36,192,232341,128,0,232448:0:0:0:0:
475,192,232341,1,0,0:0:0:0:
402,192,232448,1,0,0:0:0:0:
256,192,232448,1,0,0:0:0:0:
109,192,232555,128,0,232984:0:0:0:0:
36,192,232555,128,0,232984:0:0:0:0:
475,192,232555,1,0,0:0:0:0:
329,192,232555,1,0,0:0:0:0:
402,192,232769,1,0,0:0:0:0:
329,192,232984,1,0,0:0:0:0:
475,192,232984,1,0,0:0:0:0:
182,192,232984,1,0,0:0:0:0:
36,192,233198,128,0,233305:0:0:0:0:
402,192,233198,128,0,233305:0:0:0:0:
256,192,233198,1,0,0:0:0:0:
182,192,233305,128,0,233412:0:0:0:0:
475,192,233305,128,0,233412:0:0:0:0:
109,192,233412,128,0,233734:0:0:0:0:
329,192,233412,128,0,233734:0:0:0:0:
256,192,233412,1,0,0:0:0:0:
402,192,233626,1,0,0:0:0:0:
36,192,233734,128,0,234055:0:0:0:0:
256,192,233734,128,0,234055:0:0:0:0:
109,192,233841,1,0,0:0:0:0:
329,192,233841,1,0,0:0:0:0:
182,192,234055,128,0,234269:0:0:0:0:
475,192,234055,128,0,234269:0:0:0:0:
402,192,234055,1,0,0:0:0:0:
109,192,234162,1,0,0:0:0:0:
36,192,234269,128,0,234698:0:0:0:0:
402,192,234269,128,0,234698:0:0:0:0:
256,192,234269,1,0,0:0:0:0:
182,192,234484,1,0,0:0:0:0:
109,192,234698,128,0,235019:0:0:0:0:
329,192,234698,128,0,235019:0:0:0:0:
475,192,234698,1,0,0:0:0:0:
256,192,234698,1,0,0:0:0:0:
182,192,234912,1,0,0:0:0:0:
329,192,235126,128,0,235769:0:0:0:0:
109,192,235126,128,0,235769:0:0:0:0:
475,192,235126,1,0,0:0:0:0:
36,192,235126,1,0,0:0:0:0:
256,192,235341,1,0,0:0:0:0:
182,192,235555,1,0,0:0:0:0:
402,192,235555,1,0,0:0:0:0:
475,192,235769,128,0,235984:0:0:0:0:
256,192,235769,128,0,235984:0:0:0:0:
36,192,235769,1,0,0:0:0:0:
182,192,235876,1,0,0:0:0:0:
36,192,235984,128,0,237269:0:0:0:0:
402,192,235984,128,0,237269:0:0:0:0:
329,192,235984,1,0,0:0:0:0:
182,192,236198,1,0,0:0:0:0:
109,192,236412,1,0,0:0:0:0:
475,192,236412,1,0,0:0:0:0:
329,192,236412,1,0,0:0:0:0:
256,192,236626,1,0,0:0:0:0:
256,192,236734,1,0,0:0:0:0:
109,192,236841,1,0,0:0:0:0:
475,192,236841,1,0,0:0:0:0:
182,192,237055,1,0,0:0:0:0:
329,192,237055,1,0,0:0:0:0:
109,192,237269,1,0,0:0:0:0:
475,192,237269,1,0,0:0:0:0:
256,192,237269,1,0,0:0:0:0:
182,192,237484,1,0,0:0:0:0:
329,192,237484,1,0,0:0:0:0:
36,192,237591,1,0,0:0:0:0:
475,192,237591,1,0,0:0:0:0:
182,192,237698,1,0,0:0:0:0:
329,192,237698,1,0,0:0:0:0:
109,192,237805,1,0,0:0:0:0:
402,192,237805,1,0,0:0:0:0:
36,192,237912,1,0,0:0:0:0:
475,192,237912,1,0,0:0:0:0:
256,192,237912,128,0,238126:0:0:0:0:
402,192,238126,128,0,238341:0:0:0:0:
36,192,238126,1,0,0:0:0:0:
475,192,238126,1,0,0:0:0:0:
182,192,238126,1,0,0:0:0:0:
182,192,238341,128,0,238555:0:0:0:0:
109,192,238341,1,0,0:0:0:0:
329,192,238448,1,0,0:0:0:0:
36,192,238555,1,0,0:0:0:0:
475,192,238555,1,0,0:0:0:0:
402,192,238555,1,0,0:0:0:0:
256,192,238555,128,0,238984:0:0:0:0:
109,192,238662,1,0,0:0:0:0:
36,192,238769,1,0,0:0:0:0:
329,192,238984,128,0,239091:0:0:0:0:
475,192,238984,1,0,0:0:0:0:
36,192,238984,1,0,0:0:0:0:
182,192,238984,1,0,0:0:0:0:
182,192,239198,128,0,239626:0:0:0:0:
109,192,239198,1,0,0:0:0:0:
402,192,239305,1,0,0:0:0:0:
329,192,239412,1,0,0:0:0:0:
475,192,239519,1,0,0:0:0:0:
256,192,239626,128,0,239841:0:0:0:0:
402,192,239626,1,0,0:0:0:0:
329,192,239841,128,0,240055:0:0:0:0:
475,192,239841,1,0,0:0:0:0:
36,192,239841,1,0,0:0:0:0:
109,192,239841,1,0,0:0:0:0:
182,192,240055,128,0,240698:0:0:0:0:
402,192,240055,1,0,0:0:0:0:
475,192,240269,1,0,0:0:0:0:
36,192,240269,128,0,240484:0:0:0:0:
329,192,240376,1,0,0:0:0:0:
109,192,240484,128,0,240912:0:0:0:0:
402,192,240484,1,0,0:0:0:0:
36,192,240698,128,0,241984:0:0:0:0:
329,192,240698,1,0,0:0:0:0:
475,192,240698,1,0,0:0:0:0:
182,192,240912,128,0,241555:0:0:0:0:
329,192,240912,1,0,0:0:0:0:
256,192,241019,1,0,0:0:0:0:
109,192,241126,128,0,241769:0:0:0:0:
402,192,241126,1,0,0:0:0:0:
256,192,241234,1,0,0:0:0:0:
329,192,241341,1,0,0:0:0:0:
475,192,241341,128,0,241555:0:0:0:0:
402,192,241555,128,0,241769:0:0:0:0:
256,192,241555,1,0,0:0:0:0:
329,192,241769,128,0,241984:0:0:0:0:
182,192,241769,1,0,0:0:0:0:
256,192,241984,128,0,242412:0:0:0:0:
475,192,241984,128,0,242626:0:0:0:0:
109,192,241984,1,0,0:0:0:0:
402,192,242091,1,0,0:0:0:0:
109,192,242198,1,0,0:0:0:0:
36,192,242412,128,0,242519:0:0:0:0:
402,192,242412,1,0,0:0:0:0:
182,192,242412,1,0,0:0:0:0:
109,192,242626,128,0,243055:0:0:0:0:
329,192,242626,1,0,0:0:0:0:
475,192,242734,1,0,0:0:0:0:
402,192,242841,1,0,0:0:0:0:
329,192,242948,1,0,0:0:0:0:
475,192,243055,128,0,243269:0:0:0:0:
256,192,243055,1,0,0:0:0:0:
329,192,243269,128,0,243484:0:0:0:0:
36,192,243269,1,0,0:0:0:0:
182,192,243269,1,0,0:0:0:0:
475,192,243484,128,0,244341:0:0:0:0:
109,192,243484,1,0,0:0:0:0:
329,192,243698,128,0,243912:0:0:0:0:
36,192,243698,1,0,0:0:0:0:
182,192,243805,1,0,0:0:0:0:
402,192,243912,128,0,244126:0:0:0:0:
109,192,243912,1,0,0:0:0:0:
329,192,244126,128,0,244769:0:0:0:0:
36,192,244126,1,0,0:0:0:0:
182,192,244126,1,0,0:0:0:0:
402,192,244341,128,0,244984:0:0:0:0:
109,192,244341,1,0,0:0:0:0:
182,192,244448,1,0,0:0:0:0:
475,192,244555,128,0,245198:0:0:0:0:
36,192,244555,1,0,0:0:0:0:
182,192,244662,1,0,0:0:0:0:
109,192,244769,128,0,244984:0:0:0:0:
256,192,244769,1,0,0:0:0:0:
182,192,244984,128,0,245198:0:0:0:0:
329,192,244984,1,0,0:0:0:0:
36,192,244984,1,0,0:0:0:0:
256,192,245198,128,0,245412:0:0:0:0:
402,192,245198,1,0,0:0:0:0:
182,192,245412,128,0,246055:0:0:0:0:
475,192,245412,128,0,246055:0:0:0:0:
36,192,245412,1,0,0:0:0:0:
402,192,245519,1,0,0:0:0:0:
109,192,245626,1,0,0:0:0:0:
329,192,245841,1,0,0:0:0:0:
36,192,245841,1,0,0:0:0:0:
402,192,246055,128,0,246162:0:0:0:0:
109,192,246055,128,0,246162:0:0:0:0:
256,192,246055,1,0,0:0:0:0:
329,192,246162,1,0,0:0:0:0:
109,192,246269,128,0,246698:0:0:0:0:
402,192,246269,128,0,246698:0:0:0:0:
182,192,246269,1,0,0:0:0:0:
256,192,246376,1,0,0:0:0:0:
329,192,246484,1,0,0:0:0:0:
36,192,246698,1,0,0:0:0:0:
256,192,246698,1,0,0:0:0:0:
182,192,246912,128,0,247019:0:0:0:0:
475,192,246912,128,0,247019:0:0:0:0:
402,192,246912,1,0,0:0:0:0:
329,192,247019,128,0,247126:0:0:0:0:
36,192,247019,128,0,247126:0:0:0:0:
475,192,247126,128,0,247448:0:0:0:0:
182,192,247126,128,0,247769:0:0:0:0:
256,192,247126,1,0,0:0:0:0:
109,192,247234,1,0,0:0:0:0:
256,192,247341,1,0,0:0:0:0:
329,192,247448,128,0,247984:0:0:0:0:
36,192,247555,1,0,0:0:0:0:
475,192,247555,1,0,0:0:0:0:
36,192,247769,128,0,247984:0:0:0:0:
256,192,247769,1,0,0:0:0:0:
402,192,247876,1,0,0:0:0:0:
475,192,247984,128,0,248412:0:0:0:0:
182,192,247984,128,0,248412:0:0:0:0:
109,192,247984,1,0,0:0:0:0:
256,192,248091,1,0,0:0:0:0:
402,192,248198,1,0,0:0:0:0:
329,192,248412,128,0,248841:0:0:0:0:
36,192,248412,1,0,0:0:0:0:
109,192,248412,1,0,0:0:0:0:
182,192,248626,1,0,0:0:0:0:
36,192,248841,128,0,249484:0:0:0:0:
109,192,248841,128,0,249269:0:0:0:0:
475,192,248841,1,0,0:0:0:0:
256,192,248948,1,0,0:0:0:0:
402,192,249055,1,0,0:0:0:0:
329,192,249269,1,0,0:0:0:0:
475,192,249269,1,0,0:0:0:0:
182,192,249484,128,0,249698:0:0:0:0:
402,192,249484,1,0,0:0:0:0:
329,192,249591,1,0,0:0:0:0:
256,192,249698,128,0,250555:0:0:0:0:
475,192,249698,128,0,250448:0:0:0:0:
109,192,249698,1,0,0:0:0:0:
36,192,249805,1,0,0:0:0:0:
109,192,249912,128,0,250448:0:0:0:0:
402,192,249912,1,0,0:0:0:0:
182,192,250126,1,0,0:0:0:0:
402,192,250126,128,0,251305:0:0:0:0:
329,192,250341,1,0,0:0:0:0:
36,192,250341,128,0,251305:0:0:0:0:
182,192,250448,1,0,0:0:0:0:
329,192,250555,1,0,0:0:0:0:
109,192,250555,128,0,251305:0:0:0:0:
475,192,250555,128,0,251305:0:0:0:0:
256,192,250769,1,0,0:0:0:0:
182,192,250984,1,0,0:0:0:0:
329,192,250984,1,0,0:0:0:0:
256,192,251198,1,0,0:0:0:0:
256,192,251305,1,0,0:0:0:0:
36,192,251412,128,0,252055:0:0:0:0:
475,192,251412,128,0,251841:0:0:0:0:
109,192,251412,1,0,0:0:0:0:
402,192,251412,1,0,0:0:0:0:
256,192,251519,1,0,0:0:0:0:
402,192,251626,1,0,0:0:0:0:
182,192,251626,128,0,251841:0:0:0:0:
109,192,251841,1,0,0:0:0:0:
329,192,251841,128,0,252055:0:0:0:0:
182,192,252055,1,0,0:0:0:0:
475,192,252055,128,0,252269:0:0:0:0:
256,192,252162,1,0,0:0:0:0:
329,192,252269,1,0,0:0:0:0:
402,192,252269,128,0,252698:0:0:0:0:
36,192,252269,128,0,252698:0:0:0:0:
256,192,252484,1,0,0:0:0:0:
182,192,252698,128,0,252805:0:0:0:0:
475,192,252698,128,0,252805:0:0:0:0:
109,192,252698,1,0,0:0:0:0:
329,192,252698,1,0,0:0:0:0:
329,192,252912,128,0,253341:0:0:0:0:
109,192,252912,128,0,253341:0:0:0:0:
256,192,252912,1,0,0:0:0:0:
475,192,253019,1,0,0:0:0:0:
182,192,253126,1,0,0:0:0:0:
402,192,253234,1,0,0:0:0:0:
475,192,253341,128,0,253555:0:0:0:0:
256,192,253341,128,0,253555:0:0:0:0:
36,192,253341,1,0,0:0:0:0:
182,192,253555,128,0,253769:0:0:0:0:
402,192,253555,128,0,253769:0:0:0:0:
36,192,253555,1,0,0:0:0:0:
329,192,253555,1,0,0:0:0:0:
329,192,253769,128,0,254841:0:0:0:0:
109,192,253769,128,0,254841:0:0:0:0:
475,192,253769,1,0,0:0:0:0:
475,192,253984,128,0,255269:0:0:0:0:
256,192,253984,1,0,0:0:0:0:
36,192,254091,1,0,0:0:0:0:
182,192,254198,1,0,0:0:0:0:
36,192,254412,1,0,0:0:0:0:
402,192,254412,1,0,0:0:0:0:
256,192,254626,1,0,0:0:0:0:
402,192,254734,1,0,0:0:0:0:
256,192,254841,1,0,0:0:0:0:
402,192,254948,1,0,0:0:0:0:
36,192,255055,128,0,255269:0:0:0:0:
256,192,255055,128,0,255269:0:0:0:0:
182,192,255055,1,0,0:0:0:0:
109,192,255269,128,0,255484:0:0:0:0:
402,192,255269,128,0,255484:0:0:0:0:
329,192,255269,1,0,0:0:0:0:
329,192,255484,128,0,255698:0:0:0:0:
36,192,255484,128,0,255698:0:0:0:0:
256,192,255484,1,0,0:0:0:0:
475,192,255698,128,0,257198:0:0:0:0:
402,192,255698,128,0,256126:0:0:0:0:
182,192,255698,128,0,256126:0:0:0:0:
109,192,255698,1,0,0:0:0:0:
256,192,255805,1,0,0:0:0:0:
36,192,255912,1,0,0:0:0:0:
256,192,256126,128,0,256234:0:0:0:0:
36,192,256126,128,0,256234:0:0:0:0:
329,192,256126,1,0,0:0:0:0:
109,192,256341,128,0,256769:0:0:0:0:
329,192,256341,128,0,256769:0:0:0:0:
402,192,256341,1,0,0:0:0:0:
36,192,256341,1,0,0:0:0:0:
182,192,256448,1,0,0:0:0:0:
36,192,256555,1,0,0:0:0:0:
182,192,256662,1,0,0:0:0:0:
256,192,256769,128,0,256876:0:0:0:0:
36,192,256769,128,0,256876:0:0:0:0:
402,192,256769,1,0,0:0:0:0:
329,192,256984,128,0,257091:0:0:0:0:
109,192,256984,128,0,257091:0:0:0:0:
182,192,256984,1,0,0:0:0:0:
36,192,257198,128,0,258269:0:0:0:0:
256,192,257198,128,0,258269:0:0:0:0:
402,192,257198,1,0,0:0:0:0:
402,192,257412,128,0,258484:0:0:0:0:
182,192,257412,1,0,0:0:0:0:
329,192,257519,1,0,0:0:0:0:
109,192,257626,1,0,0:0:0:0:
475,192,257841,1,0,0:0:0:0:
329,192,257841,1,0,0:0:0:0:
182,192,258055,1,0,0:0:0:0:
329,192,258162,1,0,0:0:0:0:
109,192,258269,1,0,0:0:0:0:
475,192,258376,1,0,0:0:0:0:
36,192,258484,128,0,258698:0:0:0:0:
329,192,258484,128,0,258698:0:0:0:0:
182,192,258484,1,0,0:0:0:0:
182,192,258698,128,0,258912:0:0:0:0:
475,192,258698,128,0,258912:0:0:0:0:
402,192,258698,1,0,0:0:0:0:
402,192,258912,128,0,259126:0:0:0:0:
109,192,258912,128,0,259126:0:0:0:0:
256,192,258912,1,0,0:0:0:0:
36,192,259126,128,0,259769:0:0:0:0:
256,192,259126,128,0,259769:0:0:0:0:
475,192,259126,128,0,259769:0:0:0:0:
329,192,259126,1,0,0:0:0:0:
182,192,259234,1,0,0:0:0:0:
402,192,259341,1,0,0:0:0:0:
109,192,259555,1,0,0:0:0:0:
329,192,259555,1,0,0:0:0:0:
109,192,259769,128,0,259876:0:0:0:0:
329,192,259769,128,0,259876:0:0:0:0:
402,192,259769,1,0,0:0:0:0:
182,192,259876,1,0,0:0:0:0:
329,192,259984,128,0,260626:0:0:0:0:
475,192,259984,128,0,260305:0:0:0:0:
109,192,259984,128,0,260626:0:0:0:0:
256,192,259984,1,0,0:0:0:0:
36,192,260091,1,0,0:0:0:0:
182,192,260198,1,0,0:0:0:0:
475,192,260412,1,0,0:0:0:0:
36,192,260412,1,0,0:0:0:0:
182,192,260626,128,0,260734:0:0:0:0:
475,192,260626,128,0,260734:0:0:0:0:
402,192,260626,1,0,0:0:0:0:
36,192,260734,128,0,260841:0:0:0:0:
329,192,260734,128,0,260841:0:0:0:0:
475,192,260841,128,0,261162:0:0:0:0:
182,192,260841,128,0,261162:0:0:0:0:
256,192,260841,1,0,0:0:0:0:
109,192,260948,1,0,0:0:0:0:
402,192,261055,1,0,0:0:0:0:
36,192,261162,128,0,261484:0:0:0:0:
329,192,261162,128,0,261484:0:0:0:0:
182,192,261269,1,0,0:0:0:0:
475,192,261269,1,0,0:0:0:0:
182,192,261484,128,0,261698:0:0:0:0:
475,192,261484,128,0,261698:0:0:0:0:
402,192,261484,1,0,0:0:0:0:
256,192,261591,1,0,0:0:0:0:
402,192,261698,128,0,262126:0:0:0:0:
109,192,261698,128,0,262126:0:0:0:0:
329,192,261698,1,0,0:0:0:0:
256,192,261805,1,0,0:0:0:0:
329,192,261912,1,0,0:0:0:0:
36,192,262126,128,0,262448:0:0:0:0:
329,192,262126,128,0,262448:0:0:0:0:
182,192,262126,1,0,0:0:0:0:
475,192,262126,1,0,0:0:0:0:
256,192,262341,1,0,0:0:0:0:
36,192,262555,128,0,263198:0:0:0:0:
329,192,262555,128,0,263198:0:0:0:0:
182,192,262555,1,0,0:0:0:0:
256,192,262769,1,0,0:0:0:0:
109,192,262984,1,0,0:0:0:0:
475,192,262984,1,0,0:0:0:0:
182,192,263198,128,0,263412:0:0:0:0:
402,192,263198,1,0,0:0:0:0:
256,192,263305,1,0,0:0:0:0:
36,192,263412,128,0,265769:0:0:0:0:
475,192,263412,128,0,265555:0:0:0:0:
109,192,263412,1,0,0:0:0:0:
402,192,263412,1,0,0:0:0:0:
329,192,263519,1,0,0:0:0:0:
182,192,263626,1,0,0:0:0:0:
402,192,263841,1,0,0:0:0:0:
256,192,263841,1,0,0:0:0:0:
109,192,263841,1,0,0:0:0:0:
182,192,264055,1,0,0:0:0:0:
329,192,264162,1,0,0:0:0:0:
109,192,264269,1,0,0:0:0:0:
402,192,264269,1,0,0:0:0:0:
182,192,264484,1,0,0:0:0:0:
329,192,264484,1,0,0:0:0:0:
109,192,264698,1,0,0:0:0:0:
402,192,264698,1,0,0:0:0:0:
256,192,264698,1,0,0:0:0:0:
182,192,264912,5,0,0:0:0:0:
329,192,265019,1,0,0:0:0:0:
109,192,265126,1,0,0:0:0:0:
402,192,265234,1,0,0:0:0:0:
182,192,265341,1,0,0:0:0:0:
329,192,265555,1,0,0:0:0:0:
402,192,265555,1,0,0:0:0:0:
256,192,265555,1,0,0:0:0:0:
109,192,265769,1,0,0:0:0:0:
182,192,265769,1,0,0:0:0:0:
256,192,265984,128,0,266841:0:0:0:0:
36,192,266841,128,0,267269:0:0:0:0:
329,192,267055,128,0,267376:0:0:0:0:
182,192,267269,128,0,267591:0:0:0:0:
329,192,267484,128,0,267698:0:0:0:0:
475,192,267698,128,0,268555:0:0:0:0:
182,192,267698,128,0,268019:0:0:0:0:
36,192,267912,128,0,268234:0:0:0:0:
182,192,268126,128,0,268448:0:0:0:0:
36,192,268341,128,0,268555:0:0:0:0:
182,192,268555,128,0,268769:0:0:0:0:
329,192,268769,128,0,268984:0:0:0:0:
475,192,268984,128,0,269198:0:0:0:0:
329,192,269198,128,0,269412:0:0:0:0:
182,192,269412,128,0,269626:0:0:0:0:
36,192,269412,128,0,270269:0:0:0:0:
256,192,269626,128,0,269734:0:0:0:0:
329,192,269734,128,0,269841:0:0:0:0:
402,192,269841,128,0,269948:0:0:0:0:
475,192,269948,128,0,270055:0:0:0:0:
329,192,270055,128,0,270162:0:0:0:0:
182,192,270162,128,0,270269:0:0:0:0:
329,192,270269,128,0,270376:0:0:0:0:
475,192,270376,128,0,270484:0:0:0:0:
36,192,270484,128,0,270591:0:0:0:0:
329,192,270484,128,0,270591:0:0:0:0:
182,192,270591,128,0,270698:0:0:0:0:
402,192,270591,128,0,270698:0:0:0:0:
36,192,270698,128,0,270805:0:0:0:0:
475,192,270698,128,0,270805:0:0:0:0:
182,192,270805,128,0,270912:0:0:0:0:
402,192,270805,128,0,270912:0:0:0:0:
36,192,270912,128,0,271019:0:0:0:0:
329,192,270912,128,0,271019:0:0:0:0:
182,192,271019,128,0,271126:0:0:0:0:
402,192,271019,128,0,271126:0:0:0:0:
475,192,271126,128,0,271984:0:0:0:0:
36,192,271126,128,0,271234:0:0:0:0:
256,192,271126,128,0,271234:0:0:0:0:
329,192,271234,128,0,271341:0:0:0:0:
109,192,271234,128,0,271341:0:0:0:0:
402,192,271341,128,0,271448:0:0:0:0:
182,192,271341,128,0,271448:0:0:0:0:
329,192,271448,128,0,271555:0:0:0:0:
109,192,271448,128,0,271555:0:0:0:0:
36,192,271555,128,0,271662:0:0:0:0:
256,192,271555,128,0,271662:0:0:0:0:
182,192,271662,128,0,271769:0:0:0:0:
402,192,271662,128,0,271769:0:0:0:0:
36,192,271769,128,0,271876:0:0:0:0:
329,192,271769,128,0,271876:0:0:0:0:
182,192,271876,128,0,271984:0:0:0:0:
402,192,271876,128,0,271984:0:0:0:0:
109,192,271984,128,0,272091:0:0:0:0:
256,192,272091,128,0,272198:0:0:0:0:
182,192,272198,128,0,272305:0:0:0:0:
329,192,272305,128,0,272412:0:0:0:0:
109,192,272412,128,0,272519:0:0:0:0:
475,192,272412,128,0,272519:0:0:0:0:
256,192,272519,128,0,272626:0:0:0:0:
402,192,272519,128,0,272626:0:0:0:0:
36,192,272626,128,0,272734:0:0:0:0:
329,192,272626,128,0,272734:0:0:0:0:
182,192,272734,128,0,272841:0:0:0:0:
475,192,272734,128,0,272841:0:0:0:0:
256,192,272841,128,0,273698:0:0:0:0:
109,192,272841,128,0,273484:0:0:0:0:
329,192,272841,128,0,273055:0:0:0:0:
475,192,273055,128,0,273162:0:0:0:0:
329,192,273162,128,0,273269:0:0:0:0:
475,192,273269,128,0,273912:0:0:0:0:
36,192,273484,128,0,273591:0:0:0:0:
109,192,273591,128,0,273698:0:0:0:0:
182,192,273698,128,0,273912:0:0:0:0:
36,192,273912,128,0,274019:0:0:0:0:
329,192,273912,128,0,274019:0:0:0:0:
109,192,274019,128,0,274126:0:0:0:0:
475,192,274019,128,0,274126:0:0:0:0:
182,192,274126,128,0,274234:0:0:0:0:
329,192,274126,128,0,274234:0:0:0:0:
36,192,274234,128,0,274341:0:0:0:0:
475,192,274234,128,0,274341:0:0:0:0:
109,192,274341,128,0,274448:0:0:0:0:
329,192,274341,128,0,274448:0:0:0:0:
182,192,274448,128,0,274555:0:0:0:0:
475,192,274448,128,0,274555:0:0:0:0:
402,192,274555,128,0,275412:0:0:0:0:
256,192,274555,128,0,274769:0:0:0:0:
109,192,274555,128,0,275198:0:0:0:0:
329,192,274769,128,0,274876:0:0:0:0:
182,192,274876,128,0,274984:0:0:0:0:
36,192,274984,128,0,275091:0:0:0:0:
182,192,275091,128,0,275198:0:0:0:0:
329,192,275198,128,0,275305:0:0:0:0:
475,192,275305,128,0,275412:0:0:0:0:
36,192,275412,128,0,275519:0:0:0:0:
256,192,275412,128,0,275519:0:0:0:0:
182,192,275519,128,0,275626:0:0:0:0:
402,192,275519,128,0,275626:0:0:0:0:
109,192,275626,128,0,275734:0:0:0:0:
329,192,275626,128,0,275734:0:0:0:0:
475,192,275734,128,0,275841:0:0:0:0:
256,192,275734,128,0,275841:0:0:0:0:
182,192,275841,128,0,275948:0:0:0:0:
402,192,275841,128,0,275948:0:0:0:0:
109,192,275948,128,0,276055:0:0:0:0:
329,192,275948,128,0,276055:0:0:0:0:
36,192,276055,128,0,276162:0:0:0:0:
256,192,276055,128,0,276162:0:0:0:0:
182,192,276162,128,0,276269:0:0:0:0:
109,192,276162,128,0,276591:0:0:0:0:
256,192,276269,128,0,276376:0:0:0:0:
475,192,276269,128,0,277126:0:0:0:0:
329,192,276376,128,0,276805:0:0:0:0:
256,192,276484,128,0,276698:0:0:0:0:
109,192,276698,128,0,277126:0:0:0:0:
256,192,276805,128,0,277341:0:0:0:0:
329,192,276912,128,0,277662:0:0:0:0:
36,192,277126,128,0,277876:0:0:0:0:
109,192,277234,128,0,277984:0:0:0:0:
182,192,277341,128,0,278091:0:0:0:0:
256,192,277448,128,0,277769:0:0:0:0:
475,192,277555,128,0,278305:0:0:0:0:
402,192,277662,128,0,278412:0:0:0:0:
329,192,277769,128,0,278519:0:0:0:0:
256,192,277876,128,0,278198:0:0:0:0:
36,192,277984,128,0,278091:0:0:0:0:
109,192,278091,128,0,278198:0:0:0:0:
182,192,278198,128,0,278305:0:0:0:0:
256,192,278305,128,0,278412:0:0:0:0:
475,192,278412,128,0,278519:0:0:0:0:
36,192,278412,128,0,278519:0:0:0:0:
402,192,278519,128,0,278626:0:0:0:0:
182,192,278519,128,0,278626:0:0:0:0:
329,192,278626,128,0,278734:0:0:0:0:
36,192,278626,128,0,278734:0:0:0:0:
256,192,278734,128,0,278841:0:0:0:0:
109,192,278734,128,0,278841:0:0:0:0:
182,192,278841,128,0,278948:0:0:0:0:
475,192,278841,128,0,278948:0:0:0:0:
329,192,278948,128,0,279055:0:0:0:0:
36,192,278948,128,0,279055:0:0:0:0:
475,192,279055,128,0,279162:0:0:0:0:
109,192,279055,128,0,279162:0:0:0:0:
329,192,279162,128,0,279269:0:0:0:0:
182,192,279162,128,0,279269:0:0:0:0:
475,192,279269,128,0,279376:0:0:0:0:
36,192,279269,128,0,279376:0:0:0:0:
109,192,279376,128,0,279484:0:0:0:0:
329,192,279376,128,0,279484:0:0:0:0:
402,192,279484,128,0,279591:0:0:0:0:
182,192,279484,128,0,279591:0:0:0:0:
256,192,279591,128,0,279698:0:0:0:0:
475,192,279591,128,0,279698:0:0:0:0:
402,192,279698,128,0,280126:0:0:0:0:
182,192,279698,128,0,280126:0:0:0:0:
36,192,279698,128,0,280555:0:0:0:0:
402,192,280341,128,0,280448:0:0:0:0:
182,192,280448,128,0,280555:0:0:0:0:
329,192,280555,128,0,281305:0:0:0:0:
475,192,280769,128,0,281305:0:0:0:0:
36,192,280984,128,0,281519:0:0:0:0:
182,192,281198,128,0,281519:0:0:0:0:
402,192,281412,128,0,281734:0:0:0:0:
256,192,281412,128,0,282269:0:0:0:0:
109,192,281626,128,0,282162:0:0:0:0:
402,192,281841,128,0,282376:0:0:0:0:
329,192,282484,128,0,282912:0:0:0:0:
36,192,282484,128,0,282912:0:0:0:0:
109,192,282698,128,0,283126:0:0:0:0:
402,192,282698,128,0,283126:0:0:0:0:
475,192,282912,128,0,283234:0:0:0:0:
182,192,282912,128,0,283234:0:0:0:0:
329,192,283126,128,0,283555:0:0:0:0:
36,192,283126,128,0,283448:0:0:0:0:
475,192,283341,128,0,283555:0:0:0:0:
182,192,283341,128,0,284091:0:0:0:0:
402,192,283555,128,0,284519:0:0:0:0:
36,192,283555,128,0,284305:0:0:0:0:
182,192,284198,128,0,284519:0:0:0:0:
36,192,284412,128,0,284626:0:0:0:0:
329,192,284626,128,0,284948:0:0:0:0:
182,192,284626,128,0,284948:0:0:0:0:
36,192,284841,128,0,285698:0:0:0:0:
475,192,285055,128,0,285484:0:0:0:0:
256,192,285162,128,0,285591:0:0:0:0:
182,192,285912,128,0,286019:0:0:0:0:
36,192,285912,128,0,286019:0:0:0:0:
402,192,285912,128,0,286019:0:0:0:0:
256,192,286126,128,0,286234:0:0:0:0:
475,192,286126,128,0,286234:0:0:0:0:
109,192,286126,128,0,286234:0:0:0:0:
329,192,286341,128,0,286448:0:0:0:0:
182,192,286341,128,0,286448:0:0:0:0:
36,192,286341,128,0,286448:0:0:0:0:
402,192,286555,128,0,287198:0:0:0:0:
475,192,286555,128,0,286662:0:0:0:0:
256,192,286555,128,0,286662:0:0:0:0:
329,192,286662,128,0,286769:0:0:0:0:
182,192,286662,128,0,286769:0:0:0:0:
475,192,286769,128,0,286876:0:0:0:0:
109,192,286769,128,0,286876:0:0:0:0:
256,192,286876,128,0,286984:0:0:0:0:
36,192,286876,128,0,286984:0:0:0:0:
109,192,286984,128,0,287091:0:0:0:0:
329,192,286984,128,0,287091:0:0:0:0:
182,192,287091,128,0,287198:0:0:0:0:
475,192,287091,128,0,287198:0:0:0:0:
256,192,287198,128,0,287305:0:0:0:0:
36,192,287198,128,0,287305:0:0:0:0:
109,192,287305,128,0,287412:0:0:0:0:
329,192,287305,128,0,287412:0:0:0:0:
402,192,287412,128,0,288055:0:0:0:0:
182,192,287412,128,0,287948:0:0:0:0:
475,192,287412,128,0,287519:0:0:0:0:
256,192,287519,128,0,287626:0:0:0:0:
329,192,287626,128,0,287734:0:0:0:0:
109,192,287734,128,0,287841:0:0:0:0:
256,192,287841,128,0,287948:0:0:0:0:
36,192,287948,128,0,288055:0:0:0:0:
109,192,288055,128,0,288162:0:0:0:0:
329,192,288055,128,0,288162:0:0:0:0:
475,192,288055,128,0,288162:0:0:0:0:
36,192,288162,128,0,288269:0:0:0:0:
256,192,288162,128,0,288269:0:0:0:0:
402,192,288162,128,0,288269:0:0:0:0:
109,192,288269,128,0,288912:0:0:0:0:
182,192,288269,128,0,288376:0:0:0:0:
475,192,288269,128,0,288376:0:0:0:0:
256,192,288376,128,0,288484:0:0:0:0:
402,192,288376,128,0,288484:0:0:0:0:
475,192,288484,128,0,288591:0:0:0:0:
182,192,288484,128,0,288591:0:0:0:0:
36,192,288591,128,0,288698:0:0:0:0:
402,192,288591,128,0,288698:0:0:0:0:
182,192,288698,128,0,288805:0:0:0:0:
329,192,288698,128,0,288805:0:0:0:0:
36,192,288805,128,0,288912:0:0:0:0:
402,192,288805,128,0,288912:0:0:0:0:
182,192,288912,128,0,289019:0:0:0:0:
329,192,288912,128,0,289019:0:0:0:0:
475,192,288912,128,0,289019:0:0:0:0:
36,192,289019,128,0,289126:0:0:0:0:
256,192,289019,128,0,289126:0:0:0:0:
402,192,289019,128,0,289126:0:0:0:0:
329,192,289126,128,0,289234:0:0:0:0:
109,192,289126,128,0,289234:0:0:0:0:
475,192,289126,128,0,289234:0:0:0:0:
402,192,289234,128,0,289341:0:0:0:0:
182,192,289234,128,0,289341:0:0:0:0:
36,192,289234,128,0,289341:0:0:0:0:
329,192,289341,128,0,289448:0:0:0:0:
109,192,289341,128,0,289448:0:0:0:0:
475,192,289448,128,0,289555:0:0:0:0:
182,192,289448,128,0,289555:0:0:0:0:
329,192,289555,128,0,289984:0:0:0:0:
36,192,289555,128,0,289984:0:0:0:0:
475,192,289984,128,0,293412:0:0:0:0:
109,192,289984,128,0,290626:0:0:0:0:
182,192,290626,128,0,291055:0:0:0:0:
36,192,290841,128,0,292126:0:0:0:0:
402,192,290841,128,0,292448:0:0:0:0:
329,192,291055,128,0,292234:0:0:0:0:
256,192,291269,128,0,292019:0:0:0:0:
182,192,291484,128,0,291805:0:0:0:0:
109,192,291698,128,0,292341:0:0:0:0:
182,192,291912,128,0,292555:0:0:0:0:
256,192,292126,128,0,292769:0:0:0:0:
329,192,292341,128,0,292984:0:0:0:0:
402,192,292555,128,0,293198:0:0:0:0:
36,192,292555,1,0,0:0:0:0:
36,192,292662,1,0,0:0:0:0:
109,192,292769,128,0,292876:0:0:0:0:
182,192,292984,128,0,293091:0:0:0:0:
36,192,292984,1,0,0:0:0:0:
256,192,293198,128,0,293305:0:0:0:0:
109,192,293198,1,0,0:0:0:0:
109,192,293305,1,0,0:0:0:0:
329,192,293412,128,0,293841:0:0:0:0:
36,192,293412,1,0,0:0:0:0:
182,192,293412,1,0,0:0:0:0:
402,192,293519,1,0,0:0:0:0:
182,192,293626,1,0,0:0:0:0:
182,192,293841,128,0,294484:0:0:0:0:
36,192,293841,1,0,0:0:0:0:
256,192,293841,1,0,0:0:0:0:
475,192,293841,1,0,0:0:0:0:
329,192,294055,128,0,294269:0:0:0:0:
109,192,294055,1,0,0:0:0:0:
256,192,294162,1,0,0:0:0:0:
109,192,294269,1,0,0:0:0:0:
402,192,294269,1,0,0:0:0:0:
256,192,294376,1,0,0:0:0:0:
329,192,294484,128,0,295126:0:0:0:0:
402,192,294484,1,0,0:0:0:0:
182,192,294698,128,0,294912:0:0:0:0:
36,192,294698,1,0,0:0:0:0:
256,192,294698,1,0,0:0:0:0:
475,192,294698,1,0,0:0:0:0:
36,192,294912,128,0,295984:0:0:0:0:
402,192,294912,1,0,0:0:0:0:
475,192,295126,128,0,295769:0:0:0:0:
256,192,295126,1,0,0:0:0:0:
109,192,295126,1,0,0:0:0:0:
329,192,295234,1,0,0:0:0:0:
182,192,295341,1,0,0:0:0:0:
256,192,295555,128,0,295769:0:0:0:0:
109,192,295555,1,0,0:0:0:0:
402,192,295555,1,0,0:0:0:0:
329,192,295769,128,0,296198:0:0:0:0:
182,192,295769,1,0,0:0:0:0:
256,192,295876,1,0,0:0:0:0:
109,192,295984,1,0,0:0:0:0:
475,192,295984,1,0,0:0:0:0:
256,192,296091,1,0,0:0:0:0:
36,192,296198,128,0,296626:0:0:0:0:
182,192,296198,1,0,0:0:0:0:
182,192,296412,128,0,296841:0:0:0:0:
475,192,296412,1,0,0:0:0:0:
256,192,296412,1,0,0:0:0:0:
402,192,296412,1,0,0:0:0:0:
256,192,296626,128,0,296841:0:0:0:0:
329,192,296626,1,0,0:0:0:0:
329,192,296841,128,0,298126:0:0:0:0:
475,192,296841,128,0,297269:0:0:0:0:
36,192,296841,1,0,0:0:0:0:
402,192,296841,1,0,0:0:0:0:
256,192,296948,1,0,0:0:0:0:
109,192,297055,1,0,0:0:0:0:
182,192,297269,128,0,297912:0:0:0:0:
36,192,297269,1,0,0:0:0:0:
256,192,297269,1,0,0:0:0:0:
402,192,297269,1,0,0:0:0:0:
36,192,297484,128,0,297698:0:0:0:0:
475,192,297484,1,0,0:0:0:0:
402,192,297591,1,0,0:0:0:0:
475,192,297698,1,0,0:0:0:0:
256,192,297698,1,0,0:0:0:0:
402,192,297805,1,0,0:0:0:0:
36,192,297912,128,0,298341:0:0:0:0:
475,192,297912,1,0,0:0:0:0:
182,192,298126,128,0,298555:0:0:0:0:
256,192,298126,1,0,0:0:0:0:
402,192,298126,1,0,0:0:0:0:
109,192,298126,1,0,0:0:0:0:
475,192,298341,128,0,299412:0:0:0:0:
329,192,298341,1,0,0:0:0:0:
329,192,298555,128,0,299198:0:0:0:0:
109,192,298555,1,0,0:0:0:0:
256,192,298555,1,0,0:0:0:0:
36,192,298662,1,0,0:0:0:0:
182,192,298769,1,0,0:0:0:0:
182,192,298984,128,0,299412:0:0:0:0:
36,192,298984,1,0,0:0:0:0:
256,192,298984,1,0,0:0:0:0:
402,192,298984,1,0,0:0:0:0:
36,192,299198,128,0,299626:0:0:0:0:
402,192,299198,1,0,0:0:0:0:
256,192,299305,1,0,0:0:0:0:
329,192,299412,128,0,299626:0:0:0:0:
109,192,299412,1,0,0:0:0:0:
402,192,299412,1,0,0:0:0:0:
256,192,299519,1,0,0:0:0:0:
109,192,299626,1,0,0:0:0:0:
475,192,299626,128,0,299841:0:0:0:0:
182,192,299626,128,0,299841:0:0:0:0:
329,192,299841,128,0,300055:0:0:0:0:
36,192,299841,128,0,300055:0:0:0:0:
402,192,299841,1,0,0:0:0:0:
109,192,299841,1,0,0:0:0:0:
256,192,299841,1,0,0:0:0:0:
182,192,300055,128,0,300269:0:0:0:0:
475,192,300055,128,0,300269:0:0:0:0:
256,192,300055,1,0,0:0:0:0:
109,192,300269,128,0,300912:0:0:0:0:
402,192,300269,128,0,300912:0:0:0:0:
329,192,300269,1,0,0:0:0:0:
36,192,300269,1,0,0:0:0:0:
256,192,300376,1,0,0:0:0:0:
182,192,300484,1,0,0:0:0:0:
182,192,300698,1,0,0:0:0:0:
475,192,300698,1,0,0:0:0:0:
329,192,300698,1,0,0:0:0:0:
36,192,300912,128,0,301019:0:0:0:0:
329,192,300912,128,0,301019:0:0:0:0:
256,192,300912,1,0,0:0:0:0:
182,192,301019,128,0,301126:0:0:0:0:
475,192,301019,128,0,301126:0:0:0:0:
402,192,301019,1,0,0:0:0:0:
36,192,301126,128,0,301769:0:0:0:0:
329,192,301126,128,0,301662:0:0:0:0:
109,192,301126,1,0,0:0:0:0:
402,192,301234,1,0,0:0:0:0:
182,192,301341,1,0,0:0:0:0:
256,192,301555,1,0,0:0:0:0:
109,192,301555,1,0,0:0:0:0:
475,192,301555,1,0,0:0:0:0:
109,192,301769,128,0,301876:0:0:0:0:
329,192,301769,128,0,301876:0:0:0:0:
182,192,301876,128,0,301984:0:0:0:0:
402,192,301876,128,0,301984:0:0:0:0:
256,192,301984,128,0,302305:0:0:0:0:
475,192,301984,128,0,302305:0:0:0:0:
36,192,301984,1,0,0:0:0:0:
402,192,302091,1,0,0:0:0:0:
182,192,302198,1,0,0:0:0:0:
109,192,302305,128,0,302626:0:0:0:0:
329,192,302305,128,0,302626:0:0:0:0:
36,192,302412,1,0,0:0:0:0:
256,192,302412,1,0,0:0:0:0:
475,192,302412,1,0,0:0:0:0:
182,192,302626,128,0,302841:0:0:0:0:
402,192,302626,128,0,302841:0:0:0:0:
256,192,302626,1,0,0:0:0:0:
109,192,302734,1,0,0:0:0:0:
36,192,302841,128,0,303162:0:0:0:0:
329,192,302841,128,0,303269:0:0:0:0:
256,192,302841,1,0,0:0:0:0:
402,192,302948,1,0,0:0:0:0:
256,192,303055,1,0,0:0:0:0:
109,192,303269,128,0,303698:0:0:0:0:
402,192,303269,128,0,303591:0:0:0:0:
36,192,303269,1,0,0:0:0:0:
182,192,303269,1,0,0:0:0:0:
475,192,303269,1,0,0:0:0:0:
329,192,303484,1,0,0:0:0:0:
182,192,303698,128,0,304555:0:0:0:0:
475,192,303698,128,0,304341:0:0:0:0:
36,192,303698,1,0,0:0:0:0:
256,192,303698,1,0,0:0:0:0:
329,192,303805,1,0,0:0:0:0:
109,192,303912,1,0,0:0:0:0:
36,192,304126,1,0,0:0:0:0:
256,192,304126,1,0,0:0:0:0:
402,192,304126,1,0,0:0:0:0:
329,192,304341,128,0,304876:0:0:0:0:
256,192,304341,1,0,0:0:0:0:
109,192,304448,1,0,0:0:0:0:
36,192,304555,128,0,304876:0:0:0:0:
475,192,304555,128,0,305198:0:0:0:0:
256,192,304555,1,0,0:0:0:0:
402,192,304555,1,0,0:0:0:0:
109,192,304662,1,0,0:0:0:0:
182,192,304769,1,0,0:0:0:0:
329,192,304984,128,0,305412:0:0:0:0:
109,192,304984,1,0,0:0:0:0:
402,192,304984,1,0,0:0:0:0:
36,192,304984,128,0,305412:0:0:0:0:
256,192,304984,1,0,0:0:0:0:
182,192,305198,1,0,0:0:0:0:
109,192,305412,128,0,305841:0:0:0:0:
475,192,305412,128,0,306484:0:0:0:0:
256,192,305412,1,0,0:0:0:0:
402,192,305412,1,0,0:0:0:0:
329,192,305626,1,0,0:0:0:0:
182,192,305841,128,0,306269:0:0:0:0:
36,192,305841,1,0,0:0:0:0:
329,192,305841,1,0,0:0:0:0:
402,192,305948,1,0,0:0:0:0:
109,192,306055,1,0,0:0:0:0:
256,192,306055,1,0,0:0:0:0:
402,192,306162,1,0,0:0:0:0:
256,192,306269,128,0,306698:0:0:0:0:
36,192,306269,1,0,0:0:0:0:
329,192,306269,1,0,0:0:0:0:
36,192,306484,128,0,306698:0:0:0:0:
109,192,306484,1,0,0:0:0:0:
402,192,306484,1,0,0:0:0:0:
329,192,306698,128,0,307126:0:0:0:0:
182,192,306698,128,0,306912:0:0:0:0:
475,192,306698,1,0,0:0:0:0:
402,192,306805,1,0,0:0:0:0:
36,192,306912,128,0,307126:0:0:0:0:
475,192,306912,1,0,0:0:0:0:
182,192,307126,128,0,307769:0:0:0:0:
475,192,307126,128,0,307984:0:0:0:0:
256,192,307126,1,0,0:0:0:0:
109,192,307126,1,0,0:0:0:0:
402,192,307234,1,0,0:0:0:0:
329,192,307341,1,0,0:0:0:0:
36,192,307555,128,0,307984:0:0:0:0:
329,192,307555,1,0,0:0:0:0:
402,192,307555,1,0,0:0:0:0:
109,192,307555,1,0,0:0:0:0:
329,192,307769,128,0,308412:0:0:0:0:
256,192,307769,1,0,0:0:0:0:
109,192,307876,1,0,0:0:0:0:
256,192,307984,1,0,0:0:0:0:
402,192,307984,1,0,0:0:0:0:
109,192,308091,1,0,0:0:0:0:
256,192,308198,128,0,308626:0:0:0:0:
182,192,308198,1,0,0:0:0:0:
182,192,308412,128,0,309055:0:0:0:0:
475,192,308412,128,0,308626:0:0:0:0:
36,192,308412,1,0,0:0:0:0:
109,192,308412,1,0,0:0:0:0:
36,192,308626,128,0,309698:0:0:0:0:
402,192,308626,128,0,308841:0:0:0:0:
329,192,308841,128,0,309269:0:0:0:0:
256,192,308841,1,0,0:0:0:0:
109,192,308841,1,0,0:0:0:0:
475,192,308948,1,0,0:0:0:0:
402,192,309055,1,0,0:0:0:0:
182,192,309269,128,0,309912:0:0:0:0:
256,192,309269,1,0,0:0:0:0:
475,192,309269,1,0,0:0:0:0:
109,192,309269,1,0,0:0:0:0:
329,192,309484,128,0,310126:0:0:0:0:
402,192,309484,1,0,0:0:0:0:
256,192,309591,1,0,0:0:0:0:
109,192,309698,1,0,0:0:0:0:
475,192,309698,1,0,0:0:0:0:
256,192,309805,1,0,0:0:0:0:
36,192,309912,128,0,310341:0:0:0:0:
109,192,309912,1,0,0:0:0:0:
182,192,310126,128,0,310555:0:0:0:0:
475,192,310126,128,0,310341:0:0:0:0:
256,192,310126,1,0,0:0:0:0:
402,192,310126,1,0,0:0:0:0:
109,192,310126,1,0,0:0:0:0:
329,192,310341,128,0,310769:0:0:0:0:
402,192,310341,1,0,0:0:0:0:
475,192,310555,128,0,310876:0:0:0:0:
36,192,310555,128,0,310984:0:0:0:0:
256,192,310555,1,0,0:0:0:0:
109,192,310555,1,0,0:0:0:0:
402,192,310662,1,0,0:0:0:0:
182,192,310769,1,0,0:0:0:0:
475,192,310984,128,0,311091:0:0:0:0:
402,192,310984,1,0,0:0:0:0:
182,192,310984,128,0,311091:0:0:0:0:
256,192,310984,1,0,0:0:0:0:
109,192,310984,1,0,0:0:0:0:
329,192,311198,128,0,311519:0:0:0:0:
182,192,311198,1,0,0:0:0:0:
36,192,311198,128,0,311519:0:0:0:0:
256,192,311305,1,0,0:0:0:0:
109,192,311412,1,0,0:0:0:0:
475,192,311412,1,0,0:0:0:0:
256,192,311519,1,0,0:0:0:0:
329,192,311626,128,0,311734:0:0:0:0:
36,192,311626,128,0,311841:0:0:0:0:
182,192,311626,1,0,0:0:0:0:
402,192,311841,128,0,311948:0:0:0:0:
109,192,311841,128,0,312055:0:0:0:0:
256,192,311841,1,0,0:0:0:0:
182,192,312055,128,0,312698:0:0:0:0:
475,192,312055,128,0,313234:0:0:0:0:
329,192,312055,1,0,0:0:0:0:
329,192,312269,128,0,312912:0:0:0:0:
36,192,312269,1,0,0:0:0:0:
256,192,312269,1,0,0:0:0:0:
402,192,312376,1,0,0:0:0:0:
109,192,312484,1,0,0:0:0:0:
36,192,312698,128,0,313341:0:0:0:0:
256,192,312698,1,0,0:0:0:0:
402,192,312698,1,0,0:0:0:0:
109,192,312698,1,0,0:0:0:0:
182,192,312912,128,0,313234:0:0:0:0:
256,192,312912,1,0,0:0:0:0:
329,192,313019,1,0,0:0:0:0:
402,192,313126,1,0,0:0:0:0:
256,192,313126,1,0,0:0:0:0:
329,192,313234,1,0,0:0:0:0:
475,192,313341,128,0,313448:0:0:0:0:
182,192,313341,128,0,313555:0:0:0:0:
402,192,313341,1,0,0:0:0:0:
402,192,313555,128,0,313662:0:0:0:0:
109,192,313555,128,0,313769:0:0:0:0:
329,192,313555,1,0,0:0:0:0:
329,192,313769,128,0,313876:0:0:0:0:
36,192,313769,128,0,313876:0:0:0:0:
256,192,313769,1,0,0:0:0:0:
256,192,313984,128,0,314626:0:0:0:0:
475,192,313984,128,0,314626:0:0:0:0:
36,192,313984,128,0,314519:0:0:0:0:
109,192,313984,1,0,0:0:0:0:
402,192,313984,1,0,0:0:0:0:
329,192,314091,1,0,0:0:0:0:
182,192,314198,1,0,0:0:0:0:
109,192,314412,1,0,0:0:0:0:
402,192,314412,1,0,0:0:0:0:
329,192,314412,1,0,0:0:0:0:
329,192,314626,128,0,314734:0:0:0:0:
36,192,314626,128,0,314734:0:0:0:0:
109,192,314626,1,0,0:0:0:0:
256,192,314734,128,0,314841:0:0:0:0:
475,192,314734,128,0,314841:0:0:0:0:
182,192,314734,1,0,0:0:0:0:
36,192,314841,128,0,315376:0:0:0:0:
329,192,314841,128,0,315376:0:0:0:0:
109,192,314841,1,0,0:0:0:0:
182,192,314948,1,0,0:0:0:0:
256,192,315055,1,0,0:0:0:0:
182,192,315269,1,0,0:0:0:0:
475,192,315269,1,0,0:0:0:0:
402,192,315269,1,0,0:0:0:0:
182,192,315484,128,0,315591:0:0:0:0:
402,192,315484,128,0,315591:0:0:0:0:
329,192,315591,128,0,315698:0:0:0:0:
109,192,315591,128,0,315698:0:0:0:0:
256,192,315698,128,0,316019:0:0:0:0:
36,192,315698,128,0,316341:0:0:0:0:
475,192,315698,128,0,316019:0:0:0:0:
182,192,315698,1,0,0:0:0:0:
329,192,315912,1,0,0:0:0:0:
182,192,316019,128,0,316341:0:0:0:0:
402,192,316019,128,0,316341:0:0:0:0:
475,192,316126,1,0,0:0:0:0:
256,192,316126,1,0,0:0:0:0:
109,192,316341,128,0,316555:0:0:0:0:
329,192,316341,128,0,316555:0:0:0:0:
256,192,316341,1,0,0:0:0:0:
402,192,316448,1,0,0:0:0:0:
256,192,316555,128,0,316876:0:0:0:0:
475,192,316555,128,0,316876:0:0:0:0:
36,192,316555,128,0,317305:0:0:0:0:
182,192,316555,1,0,0:0:0:0:
329,192,316662,1,0,0:0:0:0:
109,192,316769,1,0,0:0:0:0:
182,192,316984,128,0,317305:0:0:0:0:
402,192,316984,128,0,317305:0:0:0:0:
256,192,316984,1,0,0:0:0:0:
475,192,316984,1,0,0:0:0:0:
329,192,317198,1,0,0:0:0:0:
182,192,317412,128,0,317948:0:0:0:0:
329,192,317412,128,0,317948:0:0:0:0:
36,192,317412,128,0,317948:0:0:0:0:
475,192,317412,1,0,0:0:0:0:
402,192,317626,1,0,0:0:0:0:
256,192,317841,1,0,0:0:0:0:
475,192,317841,1,0,0:0:0:0:
36,192,318055,128,0,319126:0:0:0:0:
329,192,318055,128,0,318162:0:0:0:0:
182,192,318055,1,0,0:0:0:0:
402,192,318162,128,0,318269:0:0:0:0:
109,192,318162,128,0,319984:0:0:0:0:
256,192,318162,1,0,0:0:0:0:
182,192,318269,128,0,320841:0:0:0:0:
475,192,318269,128,0,320841:0:0:0:0:
329,192,318269,1,0,0:0:0:0:
402,192,318376,1,0,0:0:0:0:
329,192,318484,1,0,0:0:0:0:
256,192,318698,1,0,0:0:0:0:
402,192,318698,1,0,0:0:0:0:
329,192,318912,1,0,0:0:0:0:
256,192,319126,1,0,0:0:0:0:
329,192,319341,1,0,0:0:0:0:
256,192,319555,1,0,0:0:0:0:
402,192,319555,1,0,0:0:0:0:
36,192,319555,1,0,0:0:0:0:
329,192,319769,1,0,0:0:0:0:
402,192,319876,1,0,0:0:0:0:
36,192,319984,1,0,0:0:0:0:
256,192,319984,1,0,0:0:0:0:
329,192,320091,1,0,0:0:0:0:
109,192,320198,1,0,0:0:0:0:
36,192,320412,1,0,0:0:0:0:
256,192,320412,1,0,0:0:0:0:
402,192,320412,1,0,0:0:0:0:
109,192,320626,1,0,0:0:0:0:
329,192,320841,5,0,0:0:0:0:
36,192,320841,1,0,0:0:0:0:
402,192,320948,1,0,0:0:0:0:
402,192,321269,1,0,0:0:0:0:
402,192,321591,1,0,0:0:0:0:
402,192,321912,1,0,0:0:0:0:
402,192,322234,1,0,0:0:0:0:
402,192,322448,1,0,0:0:0:0:
329,192,322769,1,0,0:0:0:0:
329,192,323091,1,0,0:0:0:0:
329,192,323305,1,0,0:0:0:0:
329,192,323626,1,0,0:0:0:0:
329,192,323948,1,0,0:0:0:0:
475,192,324269,128,0,325984:0:0:0:0:
36,192,324269,1,0,0:0:0:0:
256,192,324269,1,0,0:0:0:0:
256,192,324484,1,0,0:0:0:0:
256,192,324698,1,0,0:0:0:0:
182,192,324912,1,0,0:0:0:0:
182,192,325126,1,0,0:0:0:0:
182,192,325341,1,0,0:0:0:0:
182,192,325555,1,0,0:0:0:0:
36,192,325769,1,0,0:0:0:0:
182,192,325984,128,0,327698:0:0:0:0:
36,192,325984,1,0,0:0:0:0:
36,192,326198,1,0,0:0:0:0:
36,192,326412,1,0,0:0:0:0:
256,192,326626,1,0,0:0:0:0:
256,192,326841,1,0,0:0:0:0:
256,192,327055,1,0,0:0:0:0:
256,192,327269,1,0,0:0:0:0:
402,192,327484,1,0,0:0:0:0:
256,192,327698,128,0,329412:0:0:0:0:
402,192,327698,1,0,0:0:0:0:
402,192,327912,1,0,0:0:0:0:
402,192,328126,1,0,0:0:0:0:
329,192,328341,1,0,0:0:0:0:
329,192,328555,1,0,0:0:0:0:
329,192,328769,1,0,0:0:0:0:
329,192,328984,1,0,0:0:0:0:
182,192,329198,1,0,0:0:0:0:
36,192,329412,128,0,331126:0:0:0:0:
182,192,329412,1,0,0:0:0:0:
182,192,329626,1,0,0:0:0:0:
182,192,329841,1,0,0:0:0:0:
256,192,330055,1,0,0:0:0:0:
256,192,330269,1,0,0:0:0:0:
256,192,330484,1,0,0:0:0:0:
256,192,330698,1,0,0:0:0:0:
182,192,330912,1,0,0:0:0:0:
402,192,331126,128,0,332841:0:0:0:0:
475,192,331126,1,0,0:0:0:0:
182,192,331126,1,0,0:0:0:0:
182,192,331341,1,0,0:0:0:0:
182,192,331555,1,0,0:0:0:0:
109,192,331769,1,0,0:0:0:0:
109,192,331984,1,0,0:0:0:0:
109,192,332198,1,0,0:0:0:0:
109,192,332412,1,0,0:0:0:0:
36,192,332626,1,0,0:0:0:0:
36,192,332841,1,0,0:0:0:0:
36,192,333055,1,0,0:0:0:0:
36,192,333269,1,0,0:0:0:0:
182,192,333484,1,0,0:0:0:0:
182,192,333698,1,0,0:0:0:0:
182,192,333912,1,0,0:0:0:0:
182,192,334126,1,0,0:0:0:0:
402,192,334341,1,0,0:0:0:0:
402,192,334555,1,0,0:0:0:0:
36,192,334555,1,0,0:0:0:0:
402,192,334769,1,0,0:0:0:0:
402,192,334984,1,0,0:0:0:0:
329,192,335198,1,0,0:0:0:0:
329,192,335412,1,0,0:0:0:0:
329,192,335626,1,0,0:0:0:0:
329,192,335841,1,0,0:0:0:0:
256,192,336055,1,0,0:0:0:0:
256,192,336269,1,0,0:0:0:0:
256,192,336484,1,0,0:0:0:0:
256,192,336698,1,0,0:0:0:0:
329,192,336912,1,0,0:0:0:0:
329,192,337126,1,0,0:0:0:0:
329,192,337341,1,0,0:0:0:0:
329,192,337555,1,0,0:0:0:0:
402,192,337769,1,0,0:0:0:0:
475,192,337984,1,0,0:0:0:0:
182,192,337984,1,0,0:0:0:0:
475,192,338198,1,0,0:0:0:0:
475,192,338412,1,0,0:0:0:0:
402,192,338626,1,0,0:0:0:0:
36,192,338734,1,0,0:0:0:0:
402,192,338841,1,0,0:0:0:0:
256,192,338841,1,0,0:0:0:0:
36,192,338841,1,0,0:0:0:0:
402,192,339055,1,0,0:0:0:0:
109,192,339055,1,0,0:0:0:0:
256,192,339162,1,0,0:0:0:0:
402,192,339269,1,0,0:0:0:0:
36,192,339269,1,0,0:0:0:0:
182,192,339376,1,0,0:0:0:0:
329,192,339484,1,0,0:0:0:0:
36,192,339484,1,0,0:0:0:0:
109,192,339591,1,0,0:0:0:0:
329,192,339698,1,0,0:0:0:0:
182,192,339698,1,0,0:0:0:0:
36,192,339805,1,0,0:0:0:0:
329,192,339912,1,0,0:0:0:0:
182,192,339912,1,0,0:0:0:0:
109,192,340019,1,0,0:0:0:0:
329,192,340126,1,0,0:0:0:0:
475,192,340126,1,0,0:0:0:0:
182,192,340234,1,0,0:0:0:0:
256,192,340341,1,0,0:0:0:0:
402,192,340448,1,0,0:0:0:0:
36,192,340448,1,0,0:0:0:0:
256,192,340555,1,0,0:0:0:0:
36,192,340555,1,0,0:0:0:0:
475,192,340555,1,0,0:0:0:0:
329,192,340662,1,0,0:0:0:0:
256,192,340769,1,0,0:0:0:0:
109,192,340769,1,0,0:0:0:0:
475,192,340769,1,0,0:0:0:0:
402,192,340876,1,0,0:0:0:0:
256,192,340984,1,0,0:0:0:0:
36,192,340984,1,0,0:0:0:0:
475,192,341091,1,0,0:0:0:0:
182,192,341198,1,0,0:0:0:0:
402,192,341198,1,0,0:0:0:0:
329,192,341305,1,0,0:0:0:0:
182,192,341412,1,0,0:0:0:0:
402,192,341412,1,0,0:0:0:0:
475,192,341519,1,0,0:0:0:0:
182,192,341626,1,0,0:0:0:0:
329,192,341626,1,0,0:0:0:0:
36,192,341734,1,0,0:0:0:0:
182,192,341841,1,0,0:0:0:0:
402,192,341841,1,0,0:0:0:0:
256,192,341948,1,0,0:0:0:0:
109,192,342055,1,0,0:0:0:0:
402,192,342055,1,0,0:0:0:0:
329,192,342162,1,0,0:0:0:0:
475,192,342162,1,0,0:0:0:0:
109,192,342269,1,0,0:0:0:0:
256,192,342269,1,0,0:0:0:0:
475,192,342269,1,0,0:0:0:0:
182,192,342376,1,0,0:0:0:0:
109,192,342484,1,0,0:0:0:0:
402,192,342484,1,0,0:0:0:0:
475,192,342484,1,0,0:0:0:0:
329,192,342591,1,0,0:0:0:0:
109,192,342698,1,0,0:0:0:0:
256,192,342698,1,0,0:0:0:0:
182,192,342805,1,0,0:0:0:0:
36,192,342912,1,0,0:0:0:0:
329,192,342912,1,0,0:0:0:0:
256,192,343019,1,0,0:0:0:0:
36,192,343126,1,0,0:0:0:0:
182,192,343126,1,0,0:0:0:0:
109,192,343234,1,0,0:0:0:0:
36,192,343341,1,0,0:0:0:0:
256,192,343341,1,0,0:0:0:0:
402,192,343448,1,0,0:0:0:0:
36,192,343555,1,0,0:0:0:0:
182,192,343555,1,0,0:0:0:0:
329,192,343662,1,0,0:0:0:0:
256,192,343769,1,0,0:0:0:0:
109,192,343769,1,0,0:0:0:0:
36,192,343876,1,0,0:0:0:0:
475,192,343984,1,0,0:0:0:0:
329,192,343984,1,0,0:0:0:0:
36,192,343984,1,0,0:0:0:0:
182,192,344091,1,0,0:0:0:0:
109,192,344198,1,0,0:0:0:0:
402,192,344198,1,0,0:0:0:0:
36,192,344198,1,0,0:0:0:0:
256,192,344305,1,0,0:0:0:0:
109,192,344412,1,0,0:0:0:0:
329,192,344412,1,0,0:0:0:0:
475,192,344519,1,0,0:0:0:0:
182,192,344626,1,0,0:0:0:0:
402,192,344626,1,0,0:0:0:0:
109,192,344734,1,0,0:0:0:0:
256,192,344841,1,0,0:0:0:0:
36,192,344841,1,0,0:0:0:0:
402,192,344948,1,0,0:0:0:0:
256,192,345055,1,0,0:0:0:0:
109,192,345055,1,0,0:0:0:0:
256,192,345269,1,0,0:0:0:0:
475,192,345269,1,0,0:0:0:0:
329,192,345484,1,0,0:0:0:0:
36,192,345484,1,0,0:0:0:0:
475,192,345591,1,0,0:0:0:0:
182,192,345591,1,0,0:0:0:0:
329,192,345698,1,0,0:0:0:0:
475,192,345698,1,0,0:0:0:0:
36,192,345698,1,0,0:0:0:0:
329,192,345912,1,0,0:0:0:0:
109,192,345912,1,0,0:0:0:0:
475,192,345912,1,0,0:0:0:0:
329,192,346126,1,0,0:0:0:0:
182,192,346126,1,0,0:0:0:0:
109,192,346234,1,0,0:0:0:0:
402,192,346341,1,0,0:0:0:0:
36,192,346341,1,0,0:0:0:0:
256,192,346448,1,0,0:0:0:0:
402,192,346555,1,0,0:0:0:0:
109,192,346555,1,0,0:0:0:0:
182,192,346662,1,0,0:0:0:0:
402,192,346769,1,0,0:0:0:0:
36,192,346769,1,0,0:0:0:0:
402,192,346984,1,0,0:0:0:0:
109,192,346984,1,0,0:0:0:0:
256,192,347091,1,0,0:0:0:0:
475,192,347198,1,0,0:0:0:0:
109,192,347198,1,0,0:0:0:0:
256,192,347305,1,0,0:0:0:0:
36,192,347305,1,0,0:0:0:0:
475,192,347412,1,0,0:0:0:0:
182,192,347412,1,0,0:0:0:0:
36,192,347412,1,0,0:0:0:0:
256,192,347519,1,0,0:0:0:0:
475,192,347626,1,0,0:0:0:0:
329,192,347626,1,0,0:0:0:0:
109,192,347626,1,0,0:0:0:0:
475,192,347841,1,0,0:0:0:0:
109,192,347841,1,0,0:0:0:0:
256,192,347948,1,0,0:0:0:0:
402,192,348055,1,0,0:0:0:0:
36,192,348055,1,0,0:0:0:0:
182,192,348162,1,0,0:0:0:0:
329,192,348269,1,0,0:0:0:0:
36,192,348269,1,0,0:0:0:0:
109,192,348376,1,0,0:0:0:0:
329,192,348484,1,0,0:0:0:0:
182,192,348484,1,0,0:0:0:0:
329,192,348698,1,0,0:0:0:0:
475,192,348698,1,0,0:0:0:0:
109,192,348805,5,0,0:0:0:0:
256,192,348912,5,0,0:0:0:0:
402,192,348912,1,0,0:0:0:0:
475,192,349019,1,0,0:0:0:0:
182,192,349019,1,0,0:0:0:0:
256,192,349126,1,0,0:0:0:0:
475,192,349126,1,0,0:0:0:0:
36,192,349126,1,0,0:0:0:0:
109,192,349234,1,0,0:0:0:0:
256,192,349341,1,0,0:0:0:0:
36,192,349341,1,0,0:0:0:0:
402,192,349341,1,0,0:0:0:0:
256,192,349555,1,0,0:0:0:0:
109,192,349555,1,0,0:0:0:0:
329,192,349662,1,0,0:0:0:0:
182,192,349769,1,0,0:0:0:0:
402,192,349769,1,0,0:0:0:0:
329,192,349876,1,0,0:0:0:0:
475,192,349984,5,0,0:0:0:0:
36,192,349984,1,0,0:0:0:0:
256,192,349984,1,0,0:0:0:0:
329,192,350091,1,0,0:0:0:0:
109,192,350091,1,0,0:0:0:0:
475,192,350198,1,0,0:0:0:0:
182,192,350198,1,0,0:0:0:0:
329,192,350305,1,0,0:0:0:0:
109,192,350305,1,0,0:0:0:0:
36,192,350412,1,0,0:0:0:0:
475,192,350412,1,0,0:0:0:0:
256,192,350412,1,0,0:0:0:0:
182,192,350519,1,0,0:0:0:0:
402,192,350519,1,0,0:0:0:0:
36,192,350626,1,0,0:0:0:0:
329,192,350626,1,0,0:0:0:0:
182,192,350734,1,0,0:0:0:0:
402,192,350734,1,0,0:0:0:0:
475,192,350841,1,0,0:0:0:0:
36,192,350841,1,0,0:0:0:0:
256,192,350841,1,0,0:0:0:0:
109,192,350948,1,0,0:0:0:0:
402,192,350948,1,0,0:0:0:0:
329,192,350948,1,0,0:0:0:0:
36,192,351055,1,0,0:0:0:0:
256,192,351055,1,0,0:0:0:0:
475,192,351055,1,0,0:0:0:0:
329,192,351162,1,0,0:0:0:0:
182,192,351162,1,0,0:0:0:0:
109,192,351162,1,0,0:0:0:0:
402,192,351269,1,0,0:0:0:0:
36,192,351269,1,0,0:0:0:0:
256,192,351269,1,0,0:0:0:0:
329,192,351376,1,0,0:0:0:0:
109,192,351376,1,0,0:0:0:0:
475,192,351376,1,0,0:0:0:0:
402,192,351484,1,0,0:0:0:0:
36,192,351484,1,0,0:0:0:0:
182,192,351484,1,0,0:0:0:0:
109,192,351591,1,0,0:0:0:0:
475,192,351591,1,0,0:0:0:0:
256,192,351591,1,0,0:0:0:0:
