osu file format v14

[General]
AudioFilename: audio.mp3
AudioLeadIn: 0
PreviewTime: 38653
Countdown: 0
SampleSet: Soft
StackLeniency: 0.4
Mode: 0
LetterboxInBreaks: 0
WidescreenStoryboard: 1

[Editor]
DistanceSpacing: 1.2
BeatDivisor: 4
GridSize: 4
TimelineZoom: 1

[Metadata]
Title:GENESIS BEYOND THE BEGINNING
TitleUnicode:GENESIS BEYOND THE BEGINNING
Artist:Falcom Sound Team jdk
ArtistUnicode:Falcom Sound Team jdk
Creator:Mariko Sakuragi
Version:Normal
Source:イース・オリジン
Tags:ys origin nihon xseed games dotmu arpg japanese video game instrumental
BeatmapID:2223547
BeatmapSetID:1032441

[Difficulty]
HPDrainRate:3
CircleSize:3
OverallDifficulty:5
ApproachRate:5
SliderMultiplier:1.3
SliderTickRate:1

[Events]
//Background and Video events
0,0,"theoriginYS.jpg",0,0
//Break Periods
2,155926,164770
//Storyboard Layer 0 (Background)
//Storyboard Layer 1 (Fail)
//Storyboard Layer 2 (Pass)
//Storyboard Layer 3 (Foreground)
//Storyboard Layer 4 (Overlay)
//Storyboard Sound Samples

[TimingPoints]
570,375,4,2,1,30,1,0
570,-200,4,2,1,30,0,0
3570,365.853658536585,4,2,1,30,1,0
3570,-200,4,2,1,30,0,0
5033,359.281437125748,4,2,1,30,1,0
5033,-200,4,2,1,30,0,0
6557,355.029585798817,4,2,1,30,1,0
6557,-200,4,2,1,30,0,0
7977,343.839541547278,4,2,1,30,1,0
7977,-200,4,2,1,30,0,0
8836,365.853658536585,4,3,1,40,1,0
8836,-200,4,3,1,40,0,0
9385,365.853658536585,4,1,1,40,1,0
9385,-200,4,1,1,40,0,0
9750,-200,4,1,1,5,0,0
10116,-200,4,1,1,40,0,0
10481,-200,4,1,1,5,0,0
10482,-200,4,1,1,5,0,0
10848,-200,4,2,1,40,0,0
12128,-100,4,2,1,40,0,0
12311,-200,4,2,1,40,0,0
22555,-100,4,2,1,50,0,0
23287,-100,4,1,1,60,0,0
23378,-100,4,1,1,45,0,0
23653,-100,4,1,1,60,0,0
23744,-100,4,1,1,45,0,0
24019,-100,4,2,2,90,0,1
24384,-100,4,2,2,90,0,1
29598,-100,4,2,1,90,0,1
29689,-100,4,2,1,90,0,1
29872,-100,4,2,2,90,0,1
34354,-100,4,2,2,75,0,1
35360,-100,4,2,2,40,0,1
35543,-100,4,2,2,40,0,1
35726,-100,4,2,1,60,0,0
37189,-100,4,2,1,60,0,0
37372,-100,4,2,3,60,0,0
37554,-100,4,2,3,60,0,0
37738,-100,4,2,1,60,0,0
37921,-100,4,2,3,60,0,0
38103,-100,4,2,3,45,0,0
38104,-100,4,2,1,45,0,0
38287,-100,4,2,2,50,0,0
38653,-100,4,2,2,50,0,0
44324,-100,4,2,2,50,0,0
44506,-100,4,2,2,50,0,0
56031,-100,4,2,2,50,0,0
56214,-100,4,2,2,50,0,0
60695,-100,4,2,2,30,0,0
60787,-100,4,2,2,50,0,0
61519,-100,4,2,2,50,0,0
61702,-100,4,2,2,50,0,0
62067,-100,4,2,2,90,0,0
66458,-100,4,2,2,90,0,0
66549,-100,4,2,3,75,0,0
66641,-100,4,2,3,75,0,0
66824,-100,4,2,2,90,0,0
66915,-100,4,2,3,75,0,0
67006,-100,4,2,3,75,0,0
67189,-100,4,2,2,90,0,0
67281,-100,4,2,3,75,0,0
67372,-100,4,2,3,75,0,0
67555,-100,4,2,2,90,0,0
72311,-100,4,2,2,90,0,0
72403,-100,4,2,3,75,0,0
72677,-100,4,2,2,90,0,0
72769,-100,4,2,3,75,0,0
73043,-100,4,2,2,90,0,0
78165,-100,4,2,2,90,0,0
78256,-100,4,2,3,75,0,0
78348,-100,4,2,3,75,0,0
78531,-100,4,2,2,90,0,0
78622,-100,4,2,3,75,0,0
78714,-100,4,2,3,75,0,0
78897,-100,4,2,2,90,0,0
79080,-100,4,2,2,90,0,0
84019,-100,4,1,1,75,0,0
84110,-100,4,1,1,75,0,0
84567,-100,4,1,1,75,0,0
84659,-100,4,1,1,75,0,0
85482,-100,4,2,2,90,0,1
90970,-100,4,2,1,90,0,1
91152,-100,4,2,1,90,0,1
91336,-100,4,2,2,90,0,1
95817,-100,4,2,2,75,0,1
96824,-100,4,2,2,60,0,1
97189,-100,4,2,2,90,0,0
102860,-100,4,2,2,90,0,0
103043,-100,4,2,2,90,0,0
114567,-100,4,2,2,90,0,0
114750,-100,4,2,2,90,0,0
119232,-100,4,2,2,75,0,0
119324,-100,4,2,2,90,0,0
120238,-100,4,2,2,90,0,0
120604,-100,4,2,2,75,0,0
124994,-100,4,2,2,75,0,0
125086,-100,4,2,3,75,0,0
125177,-100,4,2,3,75,0,0
125360,-100,4,2,2,75,0,0
125452,-100,4,2,3,60,0,0
125543,-100,4,2,3,60,0,0
125726,-100,4,2,2,75,0,0
125909,-100,4,2,2,75,0,0
130848,-100,4,1,1,60,0,0
130939,-100,4,1,1,60,0,0
131397,-100,4,1,1,60,0,0
131488,-100,4,1,1,60,0,0
132311,-100,4,2,2,100,0,0
132860,-100,4,2,2,100,0,1
155726,-100,4,2,2,100,0,0
156092,-100,4,2,1,60,0,0
156641,-100,4,2,1,60,0,0
162311,-100,4,2,1,60,0,0
163287,-100,4,2,1,50,0,0
163531,-100,4,2,1,40,0,0
163775,-100,4,2,1,30,0,0
164019,-100,4,2,1,20,0,0
164263,-100,4,2,1,10,0,0
164506,-100,4,2,1,60,0,0
166336,-100,4,2,1,60,0,0
166702,-100,4,1,1,60,0,0
166793,-100,4,1,1,45,0,0
167067,-100,4,1,1,60,0,0
167159,-100,4,1,1,45,0,0
167433,-100,4,2,2,90,0,1
172921,-100,4,2,1,90,0,1
173103,-100,4,2,1,90,0,1
173287,-100,4,2,2,90,0,1
177677,-100,4,2,1,75,0,1
179141,-100,4,2,2,90,0,0
182067,-100,4,2,2,5,0,0

[Colours]
Combo1 : 128,128,192
Combo2 : 128,64,64
Combo3 : 192,192,192
Combo4 : 164,126,102

[HitObjects]
96,272,570,6,0,L|230:272,1,130,2|0,0:0|0:0,0:0:0:0:
264,272,1507,2,0,L|335:272,1,65,2|2,0:0|0:0,0:0:0:0:
368,272,2070,6,0,L|368:160,2,97.5,2|2|2,0:0|0:0|0:0,0:0:0:0:
448,272,3570,6,0,L|448:142,1,130,2|0,0:0|0:0,0:0:0:0:
448,104,4484,2,0,L|374:103,1,65,2|2,0:0|0:0,0:0:0:0:
344,104,5033,6,0,L|240:104,2,97.5,2|2|2,0:0|0:0|0:0,0:0:0:0:
344,184,6557,6,0,L|214:184,1,130,2|0,0:0|0:0,0:0:0:0:
176,184,7444,2,0,L|111:184,1,65,2|2,0:0|0:0,0:0:0:0:
72,184,7977,6,0,L|72:80,1,97.5,2|2,0:0|0:0,0:0:0:0:
72,8,8836,2,0,L|39:8,2,32.5,8|8|0,0:0|0:0|0:0,0:0:0:0:
112,8,9385,6,0,L|185:8,1,65,8|0,0:0|0:0,0:0:0:0:
176,88,10116,2,0,L|256:88,1,65,8|0,0:0|0:0,0:0:0:0:
324,48,10848,5,8,0:0:0:0:
324,136,11214,1,8,0:0:0:0:
324,224,11580,2,0,L|324:256,1,32.5,8|0,0:0|0:0,0:0:0:0:
324,296,11945,2,0,L|324:328,1,32.5,8|0,3:0|3:0,0:0:0:0:
324,368,12311,5,6,1:0:0:0:
256,192,12403,12,6,15238,0:0:0:0:
152,208,15970,6,0,L|152:123,1,65,2|0,0:0|0:0,0:0:0:0:
152,56,16702,2,0,L|256:56,2,97.5,6|2|8,0:0|0:0|0:0,0:0:0:0:
64,56,18165,5,4,1:0:0:0:
256,192,18256,12,6,21092,0:0:0:0:
256,192,21824,5,2,2:0:0:0:
256,192,22555,2,0,L|256:57,1,130,2|8,0:0|0:0,0:0:0:0:
176,192,23287,2,0,L|176:267,1,65,8|8,2:0|1:0,0:0:0:0:
96,256,23653,2,0,L|96:331,1,65,8|8,2:0|1:0,0:0:0:0:
16,320,24019,5,4,1:0:0:0:
16,320,24202,2,0,L|16:178,2,130,2|2|2,0:0|0:0|0:0,0:0:0:0:
176,320,25299,2,2,L|176:190,2,130
332,320,26397,1,2,0:0:0:0:
336,164,26763,1,2,0:0:0:0:
336,164,26945,6,0,L|465:164,1,130,4|8,0:0|0:0,0:0:0:0:
468,84,27494,2,0,B|404:84|404:84|404:18,1,130,2|2,0:0|0:0,0:0:0:0:
248,24,28226,1,2,0:0:0:0:
248,24,28409,6,0,L|248:154,1,130,4|8,0:0|0:0,0:0:0:0:
248,232,28958,2,0,B|248:298|248:298|184:298,1,130,2|2,0:0|0:0,0:0:0:0:
124,156,29689,1,2,0:0:0:0:
124,156,29872,6,0,B|60:156|60:156|60:228,1,130,4|8,0:0|0:0,0:0:0:0:
60,300,30421,2,2,B|60:366|60:366|124:366,1,130
280,366,31153,1,2,0:0:0:0:
280,208,31519,2,2,L|418:208,2,130
288,52,32616,1,2,0:0:0:0:
288,52,32799,6,0,L|158:52,1,130,4|8,0:0|0:0,0:0:0:0:
80,52,33348,2,2,B|16:52|16:52|16:140,2,130
256,192,34354,12,4,35726,1:0:0:0:
66,219,37189,6,0,L|66:350,1,130,8|0,0:0|0:0,0:0:0:0:
144,348,37738,2,0,L|144:217,1,130,8|0,0:0|3:0,0:0:0:0:
224,220,38287,2,0,L|224:292,1,65,4|0,3:0|3:0,0:0:0:0:
224,364,38653,6,0,L|368:364,1,130,6|8,0:0|0:0,0:0:0:0:
512,364,39384,1,2,0:0:0:0:
512,364,39567,2,0,L|512:292,2,65,2|8|0,0:0|0:0|0:0,0:0:0:0:
432,364,40116,6,0,L|432:228,1,130,0|8,0:0|0:0,0:0:0:0:
352,236,40665,2,0,L|352:103,1,130,2|2,0:0|0:0,0:0:0:0:
352,28,41214,1,8,0:0:0:0:
196,28,41580,6,0,B|132:28|132:28|132:116,1,130,2|8,0:0|0:0,0:0:0:0:
132,252,42311,1,2,0:0:0:0:
132,252,42494,2,0,L|51:252,2,65,2|8|2,0:0|0:0|0:0,0:0:0:0:
132,332,43043,6,0,L|262:332,1,130,6|8,0:0|0:0,0:0:0:0:
340,332,43592,2,0,B|404:332|404:332|404:244,1,130,6|2,0:0|0:0,0:0:0:0:
404,188,44141,1,8,0:0:0:0:
262,252,44506,6,0,L|118:252,1,130,6|8,0:0|0:0,0:0:0:0:
136,96,45238,1,2,0:0:0:0:
136,96,45421,2,0,L|70:96,2,65,2|8|0,0:0|0:0|0:0,0:0:0:0:
216,96,45970,6,0,L|359:96,1,130,2|8,0:0|0:0,0:0:0:0:
424,96,46519,2,0,B|490:96|490:96|490:162,1,130,2|2,0:0|0:0,0:0:0:0:
488,240,47067,1,8,0:0:0:0:
332,240,47433,6,0,B|304:231|290:212|290:212|250:227|197:196,1,130,2|8,0:0|0:0,0:0:0:0:
68,148,48165,2,0,B|97:140|111:120|111:120|151:135|203:105,1,130,2|8,0:0|0:0,0:0:0:0:
332,56,48897,2,0,B|304:47|290:28|290:28|250:42|198:12,1,130,2|8,0:0|0:0,0:0:0:0:
20,152,49811,2,0,L|20:287,1,130,12|2,0:0|0:0,0:0:0:0:
20,360,50360,6,0,L|156:360,1,130,6|8,0:0|0:0,0:0:0:0:
308,360,51092,1,2,0:0:0:0:
308,360,51275,2,0,L|308:293,2,65,2|8|2,0:0|0:0|0:0,0:0:0:0:
228,360,51824,6,0,L|228:217,1,130,2|8,0:0|0:0,0:0:0:0:
148,232,52372,2,0,L|148:102,1,130,2|2,0:0|0:0,0:0:0:0:
148,24,52921,1,8,0:0:0:0:
280,104,53287,6,0,L|411:104,1,130,2|8,0:0|0:0,0:0:0:0:
412,260,54019,1,2,0:0:0:0:
412,260,54202,2,0,L|485:260,2,65,2|8|2,0:0|0:0|0:0,0:0:0:0:
332,260,54750,6,0,B|293:260|293:260|246:242|246:242|195:242,1,130,6|8,0:0|0:0,0:0:0:0:
204,164,55299,2,0,B|244:164|244:164|290:146|290:146|342:146,1,130,6|2,0:0|0:0,0:0:0:0:
408,148,55848,1,8,0:0:0:0:
408,304,56214,6,0,L|252:304,2,130,6|8|2,0:0|0:0|0:0,0:0:0:0:
280,216,57311,2,0,L|215:216,1,65,8|0,0:0|0:0,0:0:0:0:
136,216,57677,6,0,B|72:216|72:216|72:304,2,130,2|8|2,0:0|0:0|0:0,0:0:0:0:
136,60,58775,2,0,L|208:60,1,65,8|2,0:0|0:0,0:0:0:0:
280,60,59141,6,0,L|420:60,2,130,2|8|2,0:0|0:0|0:0,0:0:0:0:
408,152,60238,2,0,L|408:224,1,65,12|0,0:0|0:0,0:0:0:0:
408,296,60604,1,12,0:0:0:0:
256,192,60695,12,4,62067,1:0:0:0:
232,320,62799,5,2,0:0:0:0:
76,320,63165,1,8,0:0:0:0:
76,164,63531,6,0,B|115:164|115:164|162:182|162:182|213:182,1,130,2|8,0:0|0:0,0:0:0:0:
180,104,64080,2,0,B|220:104|220:104|267:122|267:122|306:122,1,130
384,120,64628,2,0,L|456:120,1,65,8|2,0:0|0:0,0:0:0:0:
448,200,64994,6,0,L|317:200,2,130,6|8|2,0:0|0:0|0:0,0:0:0:0:
448,40,66092,1,12,0:0:0:0:
448,40,66458,5,2,0:0:0:0:
348,160,66824,1,12,0:0:0:0:
252,40,67189,1,2,0:0:0:0:
160,168,67555,1,8,0:0:0:0:
160,168,67738,1,0,0:0:0:0:
160,168,67921,6,0,B|112:168|112:168|44:112,1,130,6|8,0:0|0:0,0:0:0:0:
52,272,68653,1,2,0:0:0:0:
208,272,69019,1,8,0:0:0:0:
364,272,69384,6,0,L|364:137,1,130,2|8,0:0|0:0,0:0:0:0:
364,64,69933,2,0,L|234:64,1,130
156,68,70482,1,8,0:0:0:0:
156,224,70848,6,0,L|26:224,1,130,6|8,0:0|0:0,0:0:0:0:
28,380,71580,1,2,0:0:0:0:
184,380,71945,1,12,0:0:0:0:
300,276,72311,6,0,L|365:276,2,65,14|8|8,0:0|0:0|0:0,0:0:0:0:
300,196,72860,2,0,L|231:196,1,65,10|10,0:0|0:0,0:0:0:0:
80,204,73409,1,8,0:0:0:0:
80,204,73592,1,2,0:0:0:0:
80,204,73775,6,0,B|16:204|16:204|16:138,1,130,6|8,0:0|0:0,0:0:0:0:
152,64,74506,1,2,0:0:0:0:
235,196,74872,1,8,0:0:0:0:
320,64,75238,6,0,B|388:64|388:64|388:126,1,130,2|8,0:0|0:0,0:0:0:0:
388,204,75787,2,0,B|388:266|388:266|320:266,1,130
240,266,76336,1,8,0:0:0:0:
240,108,76702,6,0,L|97:108,2,130,6|8|2,0:0|0:0|0:0,0:0:0:0:
396,112,77799,1,12,0:0:0:0:
396,112,78165,5,2,0:0:0:0:
392,268,78531,1,8,0:0:0:0:
236,268,78897,1,2,0:0:0:0:
244,112,79263,1,8,0:0:0:0:
244,112,79445,1,2,0:0:0:0:
244,112,79628,6,0,B|197:112|197:112|103:70,1,130,6|8,0:0|0:0,0:0:0:0:
120,236,80360,1,2,0:0:0:0:
276,236,80726,1,8,0:0:0:0:
276,80,81092,6,0,B|344:80|344:80|344:18,2,130,2|8|2,0:0|0:0|0:0,0:0:0:0:
432,80,82189,2,0,L|432:172,1,65,8|2,0:0|0:0,0:0:0:0:
432,224,82555,5,6,0:0:0:0:
256,192,82647,12,6,83836,0:0:0:0:
416,256,85482,5,4,1:0:0:0:
416,256,85665,2,2,L|416:114,2,130
260,256,86762,2,2,L|260:126,2,130
104,256,87860,1,2,0:0:0:0:
220,360,88226,5,2,0:0:0:0:
220,360,88409,2,0,L|349:360,1,130,4|8,0:0|0:0,0:0:0:0:
349,281,88958,2,2,L|349:145,1,130
192,156,89689,1,2,0:0:0:0:
192,156,89872,6,0,L|56:156,1,130,4|8,0:0|0:0,0:0:0:0:
64,236,90421,2,2,L|64:366,1,130
224,368,91152,1,2,0:0:0:0:
224,368,91336,6,0,L|355:368,1,130,4|8,0:0|0:0,0:0:0:0:
432,367,91884,2,2,L|432:237,1,130
356,100,92616,1,2,0:0:0:0:
288,237,92982,2,2,L|288:370,2,130
212,100,94079,1,2,0:0:0:0:
212,100,94263,6,0,B|141:100|141:100|141:28,1,130,4|8,0:0|0:0,0:0:0:0:
64,40,94811,2,2,L|64:189,2,130
256,192,95817,12,6,97189,0:0:0:0:
104,270,97921,5,2,0:0:0:0:
104,270,98104,2,0,L|38:270,2,65,2|8|0,0:0|0:0|0:0,0:0:0:0:
104,192,98653,6,0,L|249:192,1,130,0|8,0:0|0:0,0:0:0:0:
236,112,99202,2,0,L|375:112,1,130,2|2,0:0|0:0,0:0:0:0:
444,112,99750,1,8,0:0:0:0:
444,272,100116,5,2,0:0:0:0:
288,272,100482,1,8,0:0:0:0:
288,112,100848,1,2,0:0:0:0:
288,112,101031,2,0,L|224:112,2,65,2|8|2,0:0|0:0|0:0,0:0:0:0:
288,192,101580,6,0,L|158:192,1,130,6|8,0:0|0:0,0:0:0:0:
80,192,102128,2,0,B|16:192|16:192|16:112,1,130,6|2,0:0|0:0,0:0:0:0:
16,48,102677,1,8,0:0:0:0:
172,48,103043,5,6,0:0:0:0:
328,48,103409,1,8,0:0:0:0:
252,184,103775,1,2,0:0:0:0:
252,184,103958,2,0,L|176:184,2,65,2|8|0,0:0|0:0|0:0,0:0:0:0:
332,184,104506,6,0,B|332:222|332:222|350:269|350:269|350:320,1,130,2|8,0:0|0:0,0:0:0:0:
428,312,105055,2,0,B|428:271|428:271|446:224|446:224|446:185,1,130,2|2,0:0|0:0,0:0:0:0:
448,108,105604,1,8,0:0:0:0:
292,108,105970,6,0,B|228:108|228:108|228:40,1,130,2|8,0:0|0:0,0:0:0:0:
224,200,106702,2,0,B|288:200|288:200|288:268,1,130,2|8,0:0|0:0,0:0:0:0:
144,200,107433,2,0,B|80:200|80:200|80:132,1,130,2|8,0:0|0:0,0:0:0:0:
80,56,107982,1,0,0:0:0:0:
80,56,108165,1,0,0:0:0:0:
80,56,108348,2,0,L|209:56,1,130,12|2,0:0|0:0,0:0:0:0:
288,56,108897,5,6,0:0:0:0:
444,56,109263,1,8,0:0:0:0:
444,212,109628,1,2,0:0:0:0:
444,212,109811,2,0,L|379:212,2,65,2|8|2,0:0|0:0|0:0,0:0:0:0:
444,292,110360,6,0,L|308:292,1,130,2|8,0:0|0:0,0:0:0:0:
236,288,110909,2,0,L|106:288,1,130,2|2,0:0|0:0,0:0:0:0:
28,284,111458,1,8,0:0:0:0:
28,128,111824,5,2,0:0:0:0:
184,128,112189,1,8,0:0:0:0:
340,128,112555,1,2,0:0:0:0:
340,128,112738,2,0,L|339:61,2,65,2|8|2,0:0|0:0|0:0,0:0:0:0:
340,208,113287,6,0,L|340:345,1,130,6|8,0:0|0:0,0:0:0:0:
260,340,113836,2,0,L|260:183,1,130,6|2,0:0|0:0,0:0:0:0:
260,132,114384,1,8,0:0:0:0:
104,132,114750,6,0,B|36:132|36:132|36:208,2,130,6|8|2,0:0|0:0|0:0,0:0:0:0:
104,288,115848,2,0,L|171:288,1,65,8|0,0:0|0:0,0:0:0:0:
248,288,116214,6,0,L|378:288,2,130,2|8|2,0:0|0:0|0:0,0:0:0:0:
248,132,117311,2,0,L|168:132,1,65,8|2,0:0|0:0,0:0:0:0:
104,132,117677,6,0,B|93:166|110:200|110:200|95:212|95:212|102:230|102:252,2,130,2|8|2,0:0|0:0|0:0,0:0:0:0:
212,244,118775,2,0,L|282:244,1,65,12|0,0:0|0:0,0:0:0:0:
356,244,119141,1,12,0:0:0:0:
256,192,119232,12,6,120604,0:0:0:0:
276,36,121336,5,2,0:0:0:0:
276,36,121702,2,0,L|348:36,1,65,8|0,0:0|0:0,0:0:0:0:
420,36,122067,6,0,B|488:36|488:36|488:104,1,130,2|8,0:0|0:0,0:0:0:0:
488,176,122616,2,0,B|488:244|488:244|420:244,1,130
348,244,123165,1,8,0:0:0:0:
192,244,123531,6,0,B|154:244|154:244|107:262|107:262|56:262,2,130,6|8|2,0:0|0:0|0:0,0:0:0:0:
192,88,124628,1,12,0:0:0:0:
192,88,124994,5,2,0:0:0:0:
348,88,125360,1,8,0:0:0:0:
348,240,125726,1,2,0:0:0:0:
504,248,126092,1,8,0:0:0:0:
504,248,126275,1,2,0:0:0:0:
504,248,126458,6,0,L|504:118,1,130,6|8,0:0|0:0,0:0:0:0:
348,120,127189,1,2,0:0:0:0:
348,276,127555,1,8,0:0:0:0:
192,276,127921,6,0,L|192:131,1,130,2|8,0:0|0:0,0:0:0:0:
104,276,128653,2,0,L|22:276,1,65,2|0,0:0|0:0,0:0:0:0:
40,196,129019,2,0,L|105:196,1,65,8|2,0:0|0:0,0:0:0:0:
184,196,129384,6,0,B|248:196|248:196|248:128,2,130,6|8|2,0:0|0:0|0:0,0:0:0:0:
192,40,130482,1,8,0:0:0:0:
192,40,130665,1,6,0:0:0:0:
192,40,130848,6,0,L|337:40,1,130,8|12,0:0|2:0,0:0:0:0:
400,40,131397,2,0,L|400:185,1,130,8|0,0:0|0:0,0:0:0:0:
400,248,131945,2,0,L|335:248,1,65,8|8,2:0|3:0,0:0:0:0:
256,248,132311,5,4,1:0:0:0:
256,92,132677,1,8,0:0:0:0:
120,168,133043,2,0,L|120:252,1,65,2|0,0:0|0:0,0:0:0:0:
120,312,133409,2,0,L|120:380,1,65,8|0,0:0|0:0,0:0:0:0:
200,380,133775,6,0,L|200:232,1,130,2|8,0:0|0:0,0:0:0:0:
200,172,134324,1,0,0:0:0:0:
200,172,134506,2,0,L|200:107,2,65,2|0|8,0:0|0:0|0:0,0:0:0:0:
44,172,135238,5,2,0:0:0:0:
44,328,135604,1,8,0:0:0:0:
200,328,135970,2,0,L|200:263,1,65,2|0,0:0|0:0,0:0:0:0:
200,184,136336,2,0,L|270:184,1,65,8|0,0:0|0:0,0:0:0:0:
344,180,136702,5,2,0:0:0:0:
500,184,137067,1,8,0:0:0:0:
500,184,137250,2,0,L|500:54,1,130
420,56,137799,2,0,L|420:130,1,65,8|2,0:0|0:0,0:0:0:0:
420,200,138165,5,6,0:0:0:0:
264,204,138531,1,8,0:0:0:0:
312,56,138897,1,2,0:0:0:0:
156,60,139263,1,8,0:0:0:0:
156,60,139628,6,0,L|91:60,1,65,2|0,0:0|0:0,0:0:0:0:
12,64,139994,1,8,0:0:0:0:
12,64,140177,2,0,L|12:139,1,65,2|2,0:0|0:0,0:0:0:0:
92,144,140543,2,0,B|102:178|85:212|85:212|100:224|100:224|93:242|93:264,1,130,2|0,0:0|0:0,0:0:0:0:
92,344,141092,5,2,0:0:0:0:
248,344,141458,1,8,0:0:0:0:
404,344,141824,2,0,L|404:260,1,65,2|0,0:0|0:0,0:0:0:0:
480,280,142189,2,0,L|480:345,1,65,8|0,0:0|0:0,0:0:0:0:
256,192,142555,12,6,144019,0:0:0:0:
348,148,144750,5,2,0:0:0:0:
348,148,144933,2,0,L|348:68,2,65,0|8|0,0:0|0:0|0:0,0:0:0:0:
268,148,145482,6,0,L|188:148,1,65,6|0,0:0|0:0,0:0:0:0:
123,148,145848,1,8,0:0:0:0:
123,148,146214,2,0,L|123:213,1,65,2|0,0:0|0:0,0:0:0:0:
43,212,146580,2,0,L|43:286,1,65,8|0,0:0|0:0,0:0:0:0:
44,356,146945,5,2,0:0:0:0:
200,356,147311,1,8,0:0:0:0:
124,220,147677,1,2,0:0:0:0:
280,220,148043,1,8,0:0:0:0:
200,356,148409,6,0,L|273:356,1,65,2|0,0:0|0:0,0:0:0:0:
344,356,148775,1,8,0:0:0:0:
500,356,149141,2,0,L|499:284,1,65,2|2,0:0|0:0,0:0:0:0:
500,212,149506,1,8,0:0:0:0:
344,212,149872,5,6,0:0:0:0:
193,212,150238,1,8,0:0:0:0:
193,62,150604,1,2,0:0:0:0:
343,62,150970,1,8,0:0:0:0:
344,212,151336,5,6,0:0:0:0:
193,212,151702,1,8,0:0:0:0:
193,62,152068,1,2,0:0:0:0:
343,62,152434,1,8,0:0:0:0:
344,212,152799,6,0,L|344:277,1,65,6|0,0:0|0:0,0:0:0:0:
344,356,153165,2,0,L|271:356,1,65,8|0,0:0|0:0,0:0:0:0:
264,278,153531,2,0,L|191:278,1,65,2|0,0:0|0:0,0:0:0:0:
188,200,153897,2,0,L|115:200,1,65,8|0,0:0|0:0,0:0:0:0:
44,200,154263,5,6,0:0:0:0:
52,44,154628,1,8,0:0:0:0:
52,44,154811,1,2,0:0:0:0:
52,44,154994,6,0,L|117:44,1,65,14|0,0:0|0:0,0:0:0:0:
120,124,155360,2,0,L|185:124,1,65,14|0,0:0|0:0,0:0:0:0:
264,124,155726,1,4,1:0:0:0:
100,88,165970,5,2,0:0:0:0:
100,244,166336,1,8,0:0:0:0:
256,244,166702,2,0,L|326:244,1,65,8|8,2:0|1:0,0:0:0:0:
324,164,167067,2,0,L|394:164,1,65,8|8,2:0|1:0,0:0:0:0:
468,160,167433,5,4,1:0:0:0:
468,160,167616,2,2,L|468:18,2,130
324,164,168714,2,2,L|324:34,2,130
168,164,169811,1,2,0:0:0:0:
172,320,170177,1,2,0:0:0:0:
172,320,170360,6,0,L|301:320,1,130,4|8,0:0|0:0,0:0:0:0:
380,320,170909,2,2,L|379:191,1,130
384,32,171640,1,2,0:0:0:0:
384,32,171823,6,0,L|255:32,1,130,4|8,0:0|0:0,0:0:0:0:
176,32,172372,2,2,B|112:32|112:32|112:98,1,130
116,256,173103,1,2,0:0:0:0:
116,256,173287,6,0,L|248:256,1,130,4|8,0:0|0:0,0:0:0:0:
248,176,173836,2,2,L|378:176,1,130
378,20,174567,1,2,0:0:0:0:
248,96,174933,2,2,L|118:96,2,130
252,256,176030,1,2,0:0:0:0:
252,256,176214,6,0,L|387:256,1,130,4|8,0:0|0:0,0:0:0:0:
460,256,176762,2,2,L|460:126,2,130
256,192,177677,12,4,179141,1:0:0:0:
256,192,180238,5,12,0:0:0:0:
256,192,180421,1,4,1:0:0:0:
256,192,180513,12,0,182067,0:0:0:0:
