osu file format v14

[General]
AudioFilename: audio.mp3
AudioLeadIn: 0
PreviewTime: 38653
Countdown: 0
SampleSet: Soft
StackLeniency: 0.4
Mode: 0
LetterboxInBreaks: 0
WidescreenStoryboard: 1

[Editor]
DistanceSpacing: 0.5
BeatDivisor: 4
GridSize: 4
TimelineZoom: 1

[Metadata]
Title:GENESIS BEYOND THE BEGINNING
TitleUnicode:GENESIS BEYOND THE BEGINNING
Artist:Falcom Sound Team jdk
ArtistUnicode:Falcom Sound Team jdk
Creator:Mariko Sakuragi
Version:Insane
Source:イース・オリジン
Tags:ys origin nihon xseed games dotmu arpg japanese video game instrumental
BeatmapID:2223546
BeatmapSetID:1032441

[Difficulty]
HPDrainRate:6
CircleSize:6
OverallDifficulty:7
ApproachRate:7
SliderMultiplier:1.8
SliderTickRate:2

[Events]
//Background and Video events
0,0,"theoriginYS.jpg",0,0
//Break Periods
//Storyboard Layer 0 (Background)
//Storyboard Layer 1 (Fail)
//Storyboard Layer 2 (Pass)
//Storyboard Layer 3 (Foreground)
//Storyboard Layer 4 (Overlay)
//Storyboard Sound Samples

[TimingPoints]
570,375,4,2,1,30,1,0
570,-200,4,2,1,30,0,0
3570,365.853658536585,4,2,1,30,1,0
3570,-200,4,2,1,30,0,0
5033,359.281437125748,4,2,1,30,1,0
5033,-200,4,2,1,30,0,0
6557,355.029585798817,4,2,1,30,1,0
6557,-200,4,2,1,30,0,0
7977,343.839541547278,4,2,1,30,1,0
7977,-200,4,2,1,30,0,0
8836,365.853658536585,4,3,1,40,1,0
8836,-200,4,3,1,40,0,0
9385,365.853658536585,4,1,1,40,1,0
9385,-200,4,1,1,40,0,0
9750,-200,4,1,1,5,0,0
10116,-200,4,1,1,40,0,0
10481,-200,4,1,1,5,0,0
10482,-200,4,1,1,5,0,0
10848,-200,4,2,1,40,0,0
17159,-200,4,2,1,5,0,0
17250,-200,4,2,1,40,0,0
17524,-200,4,2,1,5,0,0
17616,-200,4,2,1,40,0,0
18165,-100,4,2,1,40,0,0
18531,-200,4,2,1,40,0,0
22555,-100,4,2,1,50,0,0
23287,-100,4,1,1,60,0,0
23378,-100,4,1,1,45,0,0
23653,-100,4,1,1,60,0,0
23744,-100,4,1,1,45,0,0
24019,-66.6666666666667,4,2,2,90,0,1
29598,-66.6666666666667,4,2,1,90,0,1
29872,-66.6666666666667,4,2,2,90,0,1
34354,-66.6666666666667,4,2,2,60,0,1
35360,-66.6666666666667,4,2,2,45,0,1
35726,-100,4,2,1,60,0,0
36092,-200,4,2,1,60,0,0
37189,-100,4,2,1,60,0,0
37372,-100,4,2,3,60,0,0
37738,-100,4,2,1,60,0,0
37921,-100,4,2,3,60,0,0
38103,-100,4,2,3,45,0,0
38104,-100,4,2,1,45,0,0
38287,-100,4,2,2,50,0,0
38653,-133.333333333333,4,2,2,50,0,0
49811,-100,4,2,2,50,0,0
50360,-133.333333333333,4,2,2,50,0,0
60695,-200,4,2,2,30,0,0
60787,-200,4,2,2,50,0,0
61153,-133.333333333333,4,2,2,50,0,0
62067,-100,4,2,2,90,0,0
66549,-100,4,2,3,60,0,0
66824,-100,4,2,2,90,0,0
66915,-100,4,2,3,70,0,0
67189,-100,4,2,2,90,0,0
67281,-100,4,2,3,80,0,0
67554,-100,4,2,3,90,0,0
67555,-100,4,2,2,90,0,0
67647,-100,4,2,3,90,0,0
67921,-100,4,2,2,90,0,0
72403,-100,4,2,3,65,0,0
72677,-100,4,2,2,90,0,0
72769,-100,4,2,3,75,0,0
73043,-100,4,2,2,90,0,0
78256,-100,4,2,3,65,0,0
78531,-100,4,2,2,90,0,0
78622,-100,4,2,3,75,0,0
78897,-100,4,2,2,90,0,0
84019,-100,4,1,1,75,0,0
85482,-66.6666666666667,4,2,2,90,0,1
90970,-66.6666666666667,4,2,1,90,0,1
91336,-66.6666666666667,4,2,2,90,0,1
95817,-66.6666666666667,4,2,2,75,0,1
96823,-66.6666666666667,4,2,2,75,0,1
96824,-66.6666666666667,4,2,2,75,0,1
97189,-100,4,2,2,90,0,0
119232,-200,4,2,2,50,0,0
119324,-200,4,2,2,90,0,0
119689,-100,4,2,2,90,0,0
120604,-100,4,2,2,75,0,0
125086,-100,4,2,3,60,0,0
125360,-100,4,2,2,75,0,0
125452,-100,4,2,3,60,0,0
125726,-100,4,2,2,75,0,0
130848,-100,4,1,1,60,0,0
132311,-83.3333333333333,4,2,2,100,0,1
132860,-100,4,2,2,100,0,1
155726,-200,4,2,2,100,0,0
156092,-200,4,2,1,60,0,0
156274,-200,4,2,1,60,0,0
156458,-200,4,2,1,60,0,0
156640,-200,4,2,1,60,0,0
156641,-200,4,2,1,60,0,0
156824,-200,4,2,1,60,0,0
157006,-200,4,2,1,60,0,0
157189,-588.235294117647,4,2,1,60,0,0
158470,-200,4,2,1,60,0,0
158744,-200,4,2,1,60,0,0
159933,-200,4,2,1,60,0,0
160208,-200,4,2,1,60,0,0
161397,-200,4,2,1,60,0,0
161671,-200,4,2,1,60,0,0
162311,-200,4,2,1,60,0,0
163287,-200,4,2,1,50,0,0
163531,-200,4,2,1,40,0,0
163775,-200,4,2,1,30,0,0
164019,-200,4,2,1,20,0,0
164263,-200,4,2,1,10,0,0
164506,-200,4,2,1,60,0,0
166702,-100,4,1,1,60,0,0
166793,-100,4,1,1,45,0,0
167067,-100,4,1,1,60,0,0
167159,-100,4,1,1,45,0,0
167433,-66.6666666666667,4,2,2,90,0,1
172921,-66.6666666666667,4,2,1,90,0,1
173287,-66.6666666666667,4,2,2,90,0,1
177677,-66.6666666666667,4,2,1,75,0,1
179141,-66.6666666666667,4,2,2,90,0,0
182067,-66.6666666666667,4,2,2,5,0,0

[Colours]
Combo1 : 128,128,192
Combo2 : 128,64,64
Combo3 : 192,192,192
Combo4 : 164,126,102

[HitObjects]
80,320,570,6,0,P|162:347|252:318,1,180,2|0,0:0|0:0,0:0:0:0:
292,280,1507,2,0,L|346:280,1,45,2|2,0:0|0:0,0:0:0:0:
396,280,1882,1,2,0:0:0:0:
456,280,2070,6,0,L|456:187,1,90,2|0,0:0|0:0,0:0:0:0:
398,184,2632,2,0,L|398:91,1,90,2|0,0:0|0:0,0:0:0:0:
398,36,3195,1,2,0:0:0:0:
224,36,3570,6,0,B|228:59|214:83|214:83|236:92|236:92|222:119|209:156|232:206,1,180,2|0,0:0|0:0,0:0:0:0:
284,212,4484,2,0,P|287:240|281:271,1,45,2|2,0:0|0:0,0:0:0:0:
228,256,4850,1,2,0:0:0:0:
284,151,5033,6,0,L|375:151,1,90,2|0,0:0|0:0,0:0:0:0:
360,208,5571,2,0,L|451:208,1,90,2|0,0:0|0:0,0:0:0:0:
508,208,6110,1,2,0:0:0:0:
420,88,6557,6,0,L|237:88,1,180,2|0,0:0|0:0,0:0:0:0:
180,88,7444,1,2,0:0:0:0:
180,88,7622,2,0,L|119:88,1,45,2|2,0:0|0:0,0:0:0:0:
76,88,7977,6,0,P|44:125|45:166,1,90,2|0,0:0|0:0,0:0:0:0:
72,216,8492,1,2,0:0:0:0:
308,216,8836,5,8,0:0:0:0:
240,216,9019,1,8,0:0:0:0:
172,216,9201,1,0,0:0:0:0:
104,216,9385,6,0,L|9:216,1,90,8|0,0:0|0:0,0:0:0:0:
136,276,10116,2,0,L|231:276,1,90,8|0,0:0|0:0,0:0:0:0:
344,276,10848,6,0,L|344:223,1,45,8|0,0:0|0:0,0:0:0:0:
400,212,11214,2,0,L|400:159,1,45,8|0,0:0|0:0,0:0:0:0:
400,108,11580,1,8,0:0:0:0:
400,108,11671,1,8,0:0:0:0:
400,48,11854,1,8,0:0:0:0:
400,48,11945,2,0,L|400:19,2,22.5,8|8|0,3:0|3:0|3:0,0:0:0:0:
348,76,12311,6,0,P|241:102|124:72,1,225,6|0,1:0|0:0,0:0:0:0:
92,32,13409,1,2,0:0:0:0:
32,32,13592,1,2,0:0:0:0:
32,148,13775,5,2,0:0:0:0:
32,208,13958,1,2,0:0:0:0:
32,268,14141,2,0,L|32:325,1,45
92,268,14506,2,0,L|92:325,1,45
152,268,14872,2,0,L|152:325,1,45,0|2,0:0|0:0,0:0:0:0:
152,336,15147,1,2,0:0:0:0:
152,360,15238,5,6,0:0:0:0:
240,360,15513,1,2,0:0:0:0:
328,360,15787,1,2,0:0:0:0:
284,320,15970,5,2,0:0:0:0:
372,320,16244,1,2,0:0:0:0:
460,320,16519,1,2,0:0:0:0:
460,320,16702,6,0,P|500:299|504:222,1,112.5,6|0,0:0|2:0,0:0:0:0:
504,216,17250,2,0,L|435:216,1,67.5,2|0,0:0|2:0,0:0:0:0:
412,216,17616,1,8,1:0:0:0:
352,216,17799,1,8,0:0:0:0:
322,216,17891,1,8,0:0:0:0:
292,216,17982,1,2,0:0:0:0:
220,216,18165,6,0,L|131:216,1,90,6|0,1:0|0:0,0:0:0:0:
72,216,18531,1,2,0:0:0:0:
12,216,18714,1,2,0:0:0:0:
13,274,18897,1,2,0:0:0:0:
13,334,19080,1,2,0:0:0:0:
71,334,19263,1,2,0:0:0:0:
71,274,19446,1,2,0:0:0:0:
72,216,19628,1,2,0:0:0:0:
72,156,19811,1,2,0:0:0:0:
132,156,19994,1,2,0:0:0:0:
192,156,20177,1,2,0:0:0:0:
252,156,20360,6,0,L|304:156,1,45,2|0,0:0|0:0,0:0:0:0:
356,156,20726,2,0,L|407:156,1,45,2|0,0:0|0:0,0:0:0:0:
424,156,21000,1,2,0:0:0:0:
448,156,21092,5,6,0:0:0:0:
468,156,21824,1,2,2:0:0:0:
468,48,22555,2,0,L|371:48,1,90,2|0,0:0|0:0,0:0:0:0:
378,48,22921,1,8,0:0:0:0:
188,108,23287,5,8,2:0:0:0:
224,107,23378,1,8,1:0:0:0:
259,107,23469,1,8,1:0:0:0:
294,107,23561,1,8,1:0:0:0:
295,143,23653,1,8,2:0:0:0:
331,143,23744,1,8,1:0:0:0:
366,143,23835,1,8,1:0:0:0:
401,143,23927,1,8,1:0:0:0:
436,144,24019,5,4,1:0:0:0:
512,223,24202,5,0,0:0:0:0:
512,290,24384,1,8,0:0:0:0:
436,213,24567,1,0,0:0:0:0:
436,144,24750,1,2,0:0:0:0:
360,223,24933,1,0,0:0:0:0:
360,290,25116,1,8,0:0:0:0:
297,355,25299,6,0,L|297:213,1,135.000005149842,0|2,0:0|0:0,0:0:0:0:
236,355,25665,2,0,L|236:213,1,135.000005149842,0|8,0:0|0:0,0:0:0:0:
175,355,26031,2,0,L|175:213,1,135.000005149842,0|2,0:0|0:0,0:0:0:0:
115,355,26397,1,0,0:0:0:0:
115,287,26580,1,8,0:0:0:0:
115,151,26763,6,0,L|258:151,1,135.000005149842,0|4,0:0|0:0,0:0:0:0:
212,87,27128,2,0,L|355:87,1,135.000005149842,0|8,0:0|0:0,0:0:0:0:
311,152,27494,2,0,L|454:152,1,135.000005149842,0|2,0:0|0:0,0:0:0:0:
512,152,27860,1,0,0:0:0:0:
512,84,28043,1,8,0:0:0:0:
476,216,28226,6,0,L|334:216,1,135.000005149842,0|4,0:0|0:0,0:0:0:0:
340,277,28592,2,0,L|476:277,1,135.000005149842,0|8,0:0|0:0,0:0:0:0:
476,338,28958,2,0,L|333:338,1,135.000005149842,0|2,0:0|0:0,0:0:0:0:
273,338,29324,1,0,0:0:0:0:
205,338,29506,1,10,0:0:0:0:
171,338,29598,1,2,0:0:0:0:
137,338,29689,5,0,0:0:0:0:
68,338,29872,1,4,0:0:0:0:
34,279,30055,1,0,0:0:0:0:
102,279,30238,1,8,0:0:0:0:
102,211,30421,1,0,0:0:0:0:
170,211,30604,1,2,0:0:0:0:
238,279,30787,1,0,0:0:0:0:
170,279,30970,1,8,0:0:0:0:
238,211,31153,6,0,L|238:69,1,135.000005149842,0|2,0:0|0:0,0:0:0:0:
299,211,31519,2,0,L|299:69,1,135.000005149842,0|8,0:0|0:0,0:0:0:0:
360,211,31885,2,0,L|360:69,1,135.000005149842,0|2,0:0|0:0,0:0:0:0:
420,211,32251,1,0,0:0:0:0:
420,143,32434,1,8,0:0:0:0:
488,281,32616,5,0,0:0:0:0:
420,281,32799,1,4,0:0:0:0:
352,348,32982,1,0,0:0:0:0:
284,348,33165,1,8,0:0:0:0:
148,281,33348,1,0,0:0:0:0:
216,281,33531,1,2,0:0:0:0:
352,281,33714,1,0,0:0:0:0:
284,281,33897,1,8,0:0:0:0:
318,222,34080,1,0,0:0:0:0:
318,122,34263,5,2,0:0:0:0:
318,88,34354,1,8,0:0:0:0:
318,54,34445,1,8,0:0:0:0:
318,20,34537,1,8,0:0:0:0:
244,52,34720,1,8,0:0:0:0:
244,85,34811,1,8,0:0:0:0:
244,118,34903,1,0,0:0:0:0:
244,151,34994,5,8,0:0:0:0:
271,171,35086,1,8,0:0:0:0:
261,203,35177,1,8,0:0:0:0:
227,203,35269,1,8,0:0:0:0:
217,171,35360,1,12,3:0:0:0:
210,171,35452,1,8,3:0:0:0:
203,171,35543,1,8,3:0:0:0:
50,171,35726,6,0,L|140:171,1,90,4|0,1:0|0:0,0:0:0:0:
50,232,36092,6,0,L|144:232,2,90,2|2|2,2:0|2:0|2:0,0:0:0:0:
50,291,37189,1,8,0:0:0:0:
86,291,37281,1,8,0:0:0:0:
121,291,37372,1,8,0:0:0:0:
193,291,37555,1,0,0:0:0:0:
265,291,37738,1,8,0:0:0:0:
301,291,37830,1,8,0:0:0:0:
336,291,37921,2,0,L|387:291,3,45,8|0|0|0,0:0|0:0|3:0|3:0,0:0:0:0:
417,291,38287,1,4,3:0:0:0:
425,291,38378,1,8,3:0:0:0:
433,291,38470,1,0,3:0:0:0:
502,227,38653,6,0,L|366:227,2,135.000005149842,6|8|2,0:0|0:0|0:0,0:0:0:0:
502,166,39567,1,2,0:0:0:0:
502,105,39750,1,8,0:0:0:0:
502,44,39933,1,2,0:0:0:0:
441,44,40116,6,0,L|371:44,1,67.5000025749208
312,44,40482,1,8,0:0:0:0:
312,104,40665,2,0,L|242:104,1,67.5000025749208,2|0,0:0|0:0,0:0:0:0:
183,104,41031,1,2,0:0:0:0:
122,104,41214,1,8,0:0:0:0:
61,104,41397,1,2,0:0:0:0:
0,104,41580,6,0,B|0:249,2,135.000005149842,2|8|2,0:0|0:0|0:0,0:0:0:0:
61,104,42494,1,2,0:0:0:0:
61,178,42677,1,8,0:0:0:0:
61,252,42860,1,2,0:0:0:0:
61,328,43043,6,0,P|118:356|184:315,1,135.000005149842,6|8,0:0|0:0,0:0:0:0:
200,254,43592,2,0,P|257:226|323:267,1,135.000005149842,6|2,0:0|0:0,0:0:0:0:
356,319,44141,1,8,0:0:0:0:
380,330,44232,1,8,0:0:0:0:
405,319,44324,1,2,0:0:0:0:
460,269,44506,6,0,P|488:212|447:146,2,135.000005149842,6|8|2,0:0|0:0|0:0,0:0:0:0:
398,269,45421,1,2,0:0:0:0:
337,269,45604,1,8,0:0:0:0:
276,269,45787,1,0,0:0:0:0:
215,269,45970,6,0,L|138:269,1,67.5000025749208,2|0,0:0|0:0,0:0:0:0:
86,270,46336,1,8,0:0:0:0:
86,330,46519,2,0,L|16:330,1,67.5000025749208,2|0,0:0|0:0,0:0:0:0:
17,270,46884,1,2,0:0:0:0:
17,209,47067,1,8,0:0:0:0:
17,148,47250,1,2,0:0:0:0:
17,87,47433,6,0,L|17:14,1,67.5000025749208,2|0,0:0|0:0,0:0:0:0:
17,19,47799,1,8,0:0:0:0:
125,85,48165,6,0,L|194:85,1,67.5000025749208,2|2,0:0|0:0,0:0:0:0:
253,85,48531,1,8,0:0:0:0:
313,85,48714,1,2,0:0:0:0:
373,85,48897,6,0,L|441:85,1,67.5000025749208,2|0,0:0|0:0,0:0:0:0:
501,85,49263,1,8,0:0:0:0:
501,24,49445,1,0,0:0:0:0:
501,24,49628,1,0,0:0:0:0:
501,149,49811,6,0,L|501:337,1,180,12|2,0:0|0:0,0:0:0:0:
501,356,50269,1,2,0:0:0:0:
501,356,50360,6,0,L|364:356,2,135.000005149842,6|8|2,0:0|0:0|0:0,0:0:0:0:
501,294,51275,1,2,0:0:0:0:
440,294,51458,1,8,0:0:0:0:
379,294,51641,1,2,0:0:0:0:
318,294,51824,6,0,L|247:294,1,67.5000025749208,2|0,0:0|0:0,0:0:0:0:
189,294,52189,1,8,0:0:0:0:
128,294,52372,2,0,L|44:294,1,67.5000025749208,2|0,0:0|0:0,0:0:0:0:
0,294,52738,1,2,0:0:0:0:
0,355,52921,1,8,0:0:0:0:
60,355,53104,1,2,0:0:0:0:
120,355,53287,6,0,L|264:355,2,135.000005149842,2|8|2,0:0|0:0|0:0,0:0:0:0:
120,280,54202,1,2,0:0:0:0:
120,206,54384,1,8,0:0:0:0:
120,131,54567,1,2,0:0:0:0:
120,56,54750,6,0,P|191:68|260:52,1,135.000005149842,6|8,0:0|0:0,0:0:0:0:
313,13,55299,2,0,P|384:1|453:17,1,135.000005149842,6|2,0:0|0:0,0:0:0:0:
505,57,55848,1,8,0:0:0:0:
505,83,55939,1,8,0:0:0:0:
505,110,56031,1,2,0:0:0:0:
505,170,56214,6,0,L|505:249,1,67.5000025749208,6|0,0:0|0:0,0:0:0:0:
444,237,56580,2,0,L|444:158,1,67.5000025749208,8|0,0:0|0:0,0:0:0:0:
444,108,56945,1,2,0:0:0:0:
444,108,57128,1,2,0:0:0:0:
383,108,57311,2,0,L|304:108,1,67.5000025749208,8|0,0:0|0:0,0:0:0:0:
315,169,57677,6,0,L|231:169,1,67.5000025749208,2|0,0:0|0:0,0:0:0:0:
186,169,58043,1,8,0:0:0:0:
125,169,58226,1,2,0:0:0:0:
3,169,58409,1,2,0:0:0:0:
64,169,58592,1,2,0:0:0:0:
125,230,58775,1,8,0:0:0:0:
125,169,58958,1,2,0:0:0:0:
125,108,59141,6,0,L|125:26,1,67.5000025749208,2|0,0:0|0:0,0:0:0:0:
186,40,59506,2,0,L|186:122,1,67.5000025749208,8|0,0:0|0:0,0:0:0:0:
186,169,59872,1,2,0:0:0:0:
186,169,60055,1,2,0:0:0:0:
186,231,60238,1,12,0:0:0:0:
186,325,60421,1,0,0:0:0:0:
280,325,60604,5,12,0:0:0:0:
306,325,60695,2,0,L|381:325,1,67.5,8|0,3:0|0:0,0:0:0:0:
462,325,61153,5,8,0:0:0:0:
462,298,61244,1,8,0:0:0:0:
462,270,61336,2,0,L|462:230,1,33.7500012874604,8|8,0:0|0:0,0:0:0:0:
462,175,61519,2,0,L|462:126,1,33.7500012874604,2|0,3:0|0:0,0:0:0:0:
462,80,61702,1,8,3:0:0:0:
462,76,61793,1,8,3:0:0:0:
462,72,61884,1,8,3:0:0:0:
390,72,62067,6,0,L|196:72,1,180,4|8,1:0|0:0,0:0:0:0:
146,72,62616,1,0,0:0:0:0:
146,72,62799,2,0,L|48:72,1,90,2|0,0:0|0:0,0:0:0:0:
56,135,63165,1,8,0:0:0:0:
56,198,63348,1,0,0:0:0:0:
56,261,63531,6,0,B|56:371|56:371|133:371,1,180,2|8,0:0|0:0,0:0:0:0:
189,371,64080,2,0,B|189:261|189:261|112:261,1,180
56,261,64628,1,8,0:0:0:0:
56,198,64811,1,2,0:0:0:0:
56,166,64903,1,2,0:0:0:0:
56,134,64994,6,0,L|56:34,1,90,6|0,0:0|0:0,0:0:0:0:
115,134,65360,2,0,L|115:34,1,90,8|0,0:0|0:0,0:0:0:0:
174,134,65726,2,0,L|174:34,1,90,2|0,0:0|0:0,0:0:0:0:
233,134,66092,2,0,L|324:134,1,90,12|0,0:0|0:0,0:0:0:0:
375,84,66458,5,2,0:0:0:0:
375,84,66549,1,8,0:0:0:0:
375,84,66641,1,8,0:0:0:0:
375,84,66732,1,8,0:0:0:0:
395,101,66824,1,8,0:0:0:0:
395,101,66915,1,8,0:0:0:0:
395,101,67007,1,8,0:0:0:0:
395,101,67098,1,8,0:0:0:0:
416,116,67189,5,2,0:0:0:0:
416,143,67280,1,8,0:0:0:0:
416,170,67371,1,8,0:0:0:0:
416,197,67463,1,8,0:0:0:0:
416,224,67554,1,8,0:0:0:0:
416,251,67646,1,8,0:0:0:0:
416,278,67737,1,8,0:0:0:0:
416,306,67829,1,8,0:0:0:0:
416,333,67921,6,0,P|339:371|256:334,1,180,6|8,0:0|0:0,0:0:0:0:
228,279,68470,1,0,0:0:0:0:
228,279,68653,2,0,P|181:271|128:292,1,90,2|0,0:0|0:0,0:0:0:0:
124,344,69019,2,0,P|77:352|24:331,1,90,8|0,0:0|0:0,0:0:0:0:
0,287,69384,6,0,L|0:91,1,180,2|8,0:0|0:0,0:0:0:0:
0,44,69933,1,0,0:0:0:0:
0,44,70116,2,0,L|102:44,1,90,2|0,0:0|0:0,0:0:0:0:
153,44,70482,1,8,0:0:0:0:
216,44,70665,1,2,0:0:0:0:
247,44,70756,1,2,0:0:0:0:
278,44,70848,6,0,L|375:44,1,90,6|0,0:0|0:0,0:0:0:0:
278,106,71214,2,0,L|375:106,1,90,8|0,0:0|0:0,0:0:0:0:
431,106,71580,1,2,0:0:0:0:
431,231,71763,1,0,0:0:0:0:
431,169,71945,1,12,0:0:0:0:
431,294,72128,1,2,0:0:0:0:
368,231,72311,6,0,L|308:231,1,45,14|8,0:0|0:0,0:0:0:0:
259,231,72494,2,0,L|199:231,1,45,8|8,0:0|0:0,0:0:0:0:
150,231,72677,1,8,0:0:0:0:
118,231,72769,1,8,0:0:0:0:
86,231,72860,2,0,L|31:231,1,45,8|8,0:0|0:0,0:0:0:0:
41,167,73043,6,0,L|41:122,1,45,10|0,0:0|0:0,0:0:0:0:
41,58,73226,2,0,L|41:13,1,45
104,13,73409,2,0,L|104:58,1,45,8|0,0:0|0:0,0:0:0:0:
104,121,73592,1,2,0:0:0:0:
104,152,73683,1,2,0:0:0:0:
104,183,73775,6,0,P|137:258|240:258,1,180,6|8,0:0|0:0,0:0:0:0:
272,223,74324,1,0,0:0:0:0:
272,223,74506,2,0,L|369:223,1,90,2|0,0:0|0:0,0:0:0:0:
362,286,74872,1,8,0:0:0:0:
425,286,75055,1,0,0:0:0:0:
488,286,75238,6,0,L|488:94,1,180,2|8,0:0|0:0,0:0:0:0:
425,106,75787,2,0,L|425:298,1,180
425,349,76336,1,8,0:0:0:0:
361,349,76519,1,2,0:0:0:0:
329,349,76610,1,2,0:0:0:0:
297,349,76702,6,0,L|205:349,1,90,6|0,0:0|0:0,0:0:0:0:
297,289,77067,2,0,L|205:289,1,90,8|0,0:0|0:0,0:0:0:0:
297,228,77433,2,0,L|205:228,1,90,2|0,0:0|0:0,0:0:0:0:
297,167,77799,2,0,L|297:75,1,90,12|0,0:0|0:0,0:0:0:0:
233,77,78165,5,2,0:0:0:0:
233,77,78256,1,8,0:0:0:0:
233,77,78348,1,8,0:0:0:0:
233,77,78439,1,8,0:0:0:0:
212,101,78531,5,8,0:0:0:0:
212,127,78622,1,8,0:0:0:0:
212,154,78714,1,8,0:0:0:0:
212,180,78805,1,8,0:0:0:0:
212,207,78897,2,0,L|211:251,1,45,2|0,0:0|0:0,0:0:0:0:
212,315,79080,2,0,L|212:360,1,45,2|0,0:0|0:0,0:0:0:0:
275,360,79263,2,0,L|275:315,1,45,8|0,0:0|0:0,0:0:0:0:
275,252,79445,2,0,L|275:207,1,45,2|0,0:0|0:0,0:0:0:0:
275,143,79628,6,0,L|458:143,1,180,6|8,0:0|0:0,0:0:0:0:
496,95,80177,1,0,0:0:0:0:
496,95,80360,2,0,L|495:3,1,90,2|0,0:0|0:0,0:0:0:0:
464,6,80634,1,2,0:0:0:0:
464,6,80726,2,0,L|371:6,1,90,8|0,0:0|0:0,0:0:0:0:
310,6,81092,6,0,P|265:22|229:67,1,90,2|0,0:0|0:0,0:0:0:0:
235,128,81458,2,0,P|190:111|154:66,1,90,8|0,0:0|0:0,0:0:0:0:
132,25,81824,1,2,0:0:0:0:
105,25,81915,1,0,0:0:0:0:
78,25,82006,1,0,0:0:0:0:
50,25,82098,1,0,0:0:0:0:
23,25,82189,1,8,0:0:0:0:
18,25,82281,1,0,0:0:0:0:
13,25,82372,1,2,0:0:0:0:
8,25,82464,1,2,0:0:0:0:
3,25,82555,6,0,L|3:206,2,180,6|8|2,0:0|0:0|0:0,0:0:0:0:
66,25,83470,1,0,0:0:0:0:
129,25,83653,1,8,0:0:0:0:
246,25,83836,1,6,0:0:0:0:
246,88,84019,5,8,0:0:0:0:
215,88,84110,1,8,0:0:0:0:
184,88,84202,1,8,0:0:0:0:
153,88,84293,1,8,0:0:0:0:
122,88,84384,1,8,2:0:0:0:
122,151,84567,1,8,0:0:0:0:
153,151,84658,1,8,0:0:0:0:
184,151,84750,1,8,0:0:0:0:
215,151,84841,1,8,0:0:0:0:
246,151,84933,2,0,L|301:151,1,45,8|0,0:0|0:0,0:0:0:0:
354,151,85116,1,8,2:0:0:0:
359,151,85208,1,8,3:0:0:0:
364,151,85299,1,8,3:0:0:0:
431,151,85482,5,4,1:0:0:0:
498,151,85665,2,0,L|498:292,1,135.000005149842,0|8,0:0|0:0,0:0:0:0:
498,353,86031,1,0,0:0:0:0:
430,353,86214,1,2,0:0:0:0:
430,217,86397,1,0,0:0:0:0:
430,285,86580,1,8,0:0:0:0:
362,352,86763,6,0,L|362:210,1,135.000005149842,0|2,0:0|0:0,0:0:0:0:
301,352,87129,2,0,L|301:210,1,135.000005149842,0|8,0:0|0:0,0:0:0:0:
240,352,87495,2,0,L|240:210,1,135.000005149842,0|2,0:0|0:0,0:0:0:0:
176,352,87861,1,0,0:0:0:0:
176,284,88044,1,8,0:0:0:0:
112,352,88226,6,0,L|112:209,1,135.000005149842,0|4,0:0|0:0,0:0:0:0:
48,255,88592,2,0,L|48:112,1,135.000005149842,0|8,0:0|0:0,0:0:0:0:
113,156,88958,2,0,L|113:15,1,135.000005149842,0|2,0:0|0:0,0:0:0:0:
180,21,89323,1,0,0:0:0:0:
180,88,89506,1,8,0:0:0:0:
247,21,89689,6,0,L|389:21,1,135.000005149842,0|4,0:0|0:0,0:0:0:0:
383,82,90055,2,0,L|247:82,1,135.000005149842,0|8,0:0|0:0,0:0:0:0:
247,143,90421,2,0,L|390:143,1,135.000005149842,0|2,0:0|0:0,0:0:0:0:
447,143,90787,1,0,0:0:0:0:
447,210,90970,1,10,0:0:0:0:
447,243,91061,1,2,0:0:0:0:
447,276,91153,5,0,0:0:0:0:
512,276,91336,1,4,0:0:0:0:
379,276,91519,1,0,0:0:0:0:
312,276,91702,1,8,0:0:0:0:
175,276,91884,1,0,0:0:0:0:
244,276,92067,1,2,0:0:0:0:
175,276,92250,1,0,0:0:0:0:
108,276,92433,1,8,0:0:0:0:
175,208,92616,6,0,L|34:208,1,135.000005149842,0|2,0:0|0:0,0:0:0:0:
175,147,92982,2,0,L|33:147,1,135.000005149842,0|8,0:0|0:0,0:0:0:0:
175,86,93348,2,0,L|34:86,1,135.000005149842,0|2,0:0|0:0,0:0:0:0:
175,21,93714,1,0,0:0:0:0:
107,21,93897,1,8,0:0:0:0:
242,86,94080,5,0,0:0:0:0:
309,86,94263,1,4,0:0:0:0:
444,86,94445,1,0,0:0:0:0:
376,86,94628,1,8,0:0:0:0:
309,152,94811,1,0,0:0:0:0:
309,86,94994,1,2,0:0:0:0:
242,19,95177,1,0,0:0:0:0:
242,86,95360,1,8,0:0:0:0:
309,86,95543,1,0,0:0:0:0:
175,86,95726,5,2,0:0:0:0:
142,86,95818,1,8,0:0:0:0:
109,86,95909,1,8,0:0:0:0:
75,86,96000,1,8,0:0:0:0:
75,153,96183,1,8,0:0:0:0:
75,186,96274,1,8,0:0:0:0:
75,219,96366,1,0,0:0:0:0:
75,252,96457,5,8,0:0:0:0:
48,272,96549,1,8,0:0:0:0:
58,304,96640,1,8,0:0:0:0:
92,304,96732,1,8,0:0:0:0:
102,272,96823,1,12,3:0:0:0:
109,272,96915,1,8,3:0:0:0:
116,272,97006,1,8,3:0:0:0:
228,209,97189,6,0,L|132:209,1,90,6|0,0:0|0:0,0:0:0:0:
138,272,97555,2,0,L|42:272,1,90,8|0,0:0|0:0,0:0:0:0:
48,335,97921,1,2,0:0:0:0:
174,335,98104,1,2,0:0:0:0:
111,335,98287,1,8,0:0:0:0:
174,335,98470,1,0,0:0:0:0:
237,335,98653,6,0,L|328:335,1,90
390,335,99019,1,8,0:0:0:0:
390,271,99202,2,0,L|481:271,1,90,2|0,0:0|0:0,0:0:0:0:
480,207,99567,1,2,0:0:0:0:
480,79,99750,1,8,0:0:0:0:
480,143,99933,1,2,0:0:0:0:
415,143,100116,6,0,L|315:143,1,90,2|0,0:0|0:0,0:0:0:0:
325,206,100482,2,0,L|225:206,1,90,8|0,0:0|0:0,0:0:0:0:
235,206,100848,1,2,0:0:0:0:
171,206,101031,1,2,0:0:0:0:
107,206,101214,1,8,0:0:0:0:
43,206,101397,1,2,0:0:0:0:
43,142,101580,6,0,B|96:142|96:142|165:119|165:119|221:119,1,180,6|8,0:0|0:0,0:0:0:0:
174,62,102128,2,0,B|227:62|227:62|296:39|296:39|352:39,1,180,6|2,0:0|0:0,0:0:0:0:
413,39,102677,1,8,0:0:0:0:
445,39,102769,2,0,L|490:39,1,45,8|2,0:0|0:0,0:0:0:0:
475,102,103043,6,0,L|475:204,1,90,6|0,0:0|0:0,0:0:0:0:
411,192,103409,2,0,L|411:90,1,90,8|0,0:0|0:0,0:0:0:0:
411,102,103775,1,2,0:0:0:0:
347,102,103958,1,2,0:0:0:0:
283,102,104141,1,8,0:0:0:0:
347,102,104324,1,0,0:0:0:0:
283,102,104506,6,0,L|181:102,1,90,2|0,0:0|0:0,0:0:0:0:
129,102,104872,1,8,0:0:0:0:
65,101,105055,2,0,L|65:200,1,90,2|0,0:0|0:0,0:0:0:0:
65,254,105421,1,2,0:0:0:0:
65,317,105604,1,8,0:0:0:0:
65,254,105787,1,2,0:0:0:0:
130,317,105970,6,0,L|219:317,1,90,2|0,0:0|0:0,0:0:0:0:
220,317,106336,1,8,0:0:0:0:
363,317,106702,6,0,L|363:222,1,90,2|2,0:0|0:0,0:0:0:0:
363,163,107067,1,8,0:0:0:0:
363,163,107250,1,2,0:0:0:0:
363,99,107433,5,2,0:0:0:0:
308,131,107616,1,0,0:0:0:0:
363,163,107799,1,8,0:0:0:0:
363,99,107982,1,0,0:0:0:0:
363,99,108165,1,0,0:0:0:0:
306,70,108348,6,0,P|261:54|235:23,1,90,12|8,0:0|0:0,0:0:0:0:
180,55,108714,1,2,0:0:0:0:
148,55,108805,1,2,0:0:0:0:
116,55,108897,6,0,P|71:71|35:116,1,90,6|0,0:0|0:0,0:0:0:0:
110,125,109263,2,0,P|155:141|191:186,1,90,8|0,0:0|0:0,0:0:0:0:
183,170,109628,1,2,0:0:0:0:
183,233,109811,1,2,0:0:0:0:
183,296,109994,1,8,0:0:0:0:
183,233,110177,1,2,0:0:0:0:
255,233,110360,6,0,L|349:233,1,90,2|0,0:0|0:0,0:0:0:0:
408,233,110726,1,8,0:0:0:0:
408,233,110909,2,0,L|408:143,1,90,2|0,0:0|0:0,0:0:0:0:
408,79,111275,1,2,0:0:0:0:
408,15,111458,1,8,0:0:0:0:
408,79,111641,1,2,0:0:0:0:
408,15,111824,6,0,L|503:15,1,90,2|0,0:0|0:0,0:0:0:0:
498,78,112189,2,0,L|498:181,1,90,8|0,0:0|0:0,0:0:0:0:
498,168,112555,1,2,0:0:0:0:
498,233,112738,5,2,0:0:0:0:
407,233,112921,1,8,0:0:0:0:
316,233,113104,1,2,0:0:0:0:
225,233,113287,6,0,P|176:179|269:119,1,180,6|8,0:0|0:0,0:0:0:0:
326,110,113836,2,0,P|375:164|282:224,1,180,6|2,0:0|0:0,0:0:0:0:
225,233,114384,1,8,0:0:0:0:
193,232,114476,1,8,0:0:0:0:
161,232,114567,1,2,0:0:0:0:
97,232,114750,6,0,L|97:326,1,90,6|0,0:0|0:0,0:0:0:0:
161,322,115116,2,0,L|161:228,1,90,8|0,0:0|0:0,0:0:0:0:
161,232,115482,1,2,0:0:0:0:
225,233,115665,1,2,0:0:0:0:
225,296,115848,1,8,0:0:0:0:
225,359,116031,1,0,0:0:0:0:
288,359,116214,6,0,L|383:359,1,90,2|0,0:0|0:0,0:0:0:0:
441,359,116580,1,8,0:0:0:0:
504,359,116763,2,0,L|504:267,1,90,2|2,0:0|0:0,0:0:0:0:
440,269,117128,1,2,0:0:0:0:
376,269,117311,1,8,0:0:0:0:
312,269,117494,1,2,0:0:0:0:
248,269,117677,6,0,B|220:276|205:262|205:262|194:269|194:284|194:284|171:262|154:271|154:271|122:259|63:276,2,180,2|8|2,0:0|0:0|0:0,0:0:0:0:
237,206,118592,1,2,0:0:0:0:
237,115,118775,1,12,0:0:0:0:
237,24,118958,1,0,0:0:0:0:
327,24,119141,5,12,0:0:0:0:
349,24,119232,2,0,L|429:24,1,67.5,8|0,3:0|0:0,0:0:0:0:
479,24,119689,1,8,0:0:0:0:
479,56,119781,1,8,0:0:0:0:
479,88,119872,1,8,0:0:0:0:
479,120,119964,1,8,0:0:0:0:
479,151,120055,2,0,L|479:198,1,45,2|0,3:0|0:0,0:0:0:0:
479,259,120238,1,8,3:0:0:0:
479,264,120330,1,8,3:0:0:0:
479,269,120421,1,8,3:0:0:0:
479,359,120604,6,0,B|390:359|390:359|390:262,1,180,6|8,0:0|0:0,0:0:0:0:
326,268,121153,1,0,0:0:0:0:
326,268,121336,2,0,L|326:368,1,90,2|0,0:0|0:0,0:0:0:0:
262,358,121702,1,8,0:0:0:0:
199,358,121884,1,0,0:0:0:0:
135,358,122067,6,0,P|90:338|150:249,1,180,2|8,0:0|0:0,0:0:0:0:
207,246,122616,2,0,P|252:226|192:137,1,180
143,134,123165,1,8,0:0:0:0:
79,134,123348,1,2,0:0:0:0:
79,102,123439,1,2,0:0:0:0:
79,70,123531,6,0,P|108:36|150:22,1,90,6|0,0:0|0:0,0:0:0:0:
213,22,123897,2,0,L|307:22,1,90,8|0,0:0|0:0,0:0:0:0:
366,22,124263,1,2,0:0:0:0:
428,22,124445,1,0,0:0:0:0:
428,22,124628,2,0,L|427:116,1,90,12|0,0:0|0:0,0:0:0:0:
427,175,124994,5,2,0:0:0:0:
427,175,125086,1,8,0:0:0:0:
427,175,125177,1,8,0:0:0:0:
427,175,125269,1,8,0:0:0:0:
410,196,125360,5,8,0:0:0:0:
382,196,125452,1,8,0:0:0:0:
355,196,125543,1,8,0:0:0:0:
328,196,125634,1,8,0:0:0:0:
300,196,125726,2,0,L|238:196,1,45,2|0,0:0|0:0,0:0:0:0:
191,196,125909,2,0,L|133:195,1,45,2|0,0:0|0:0,0:0:0:0:
82,196,126092,2,0,L|82:138,1,45,8|0,0:0|0:0,0:0:0:0:
82,87,126275,2,0,L|82:29,1,45,2|0,0:0|0:0,0:0:0:0:
145,42,126458,6,0,P|238:59|323:41,1,180,6|8,0:0|0:0,0:0:0:0:
382,27,127006,1,0,0:0:0:0:
382,27,127189,2,0,P|425:35|458:64,1,90,2|0,0:0|0:0,0:0:0:0:
474,93,127464,1,2,0:0:0:0:
474,93,127555,2,0,P|440:122|426:164,1,90,8|0,0:0|0:0,0:0:0:0:
426,227,127921,6,0,L|426:326,1,90,2|0,0:0|0:0,0:0:0:0:
362,317,128287,2,0,L|362:218,1,90,8|0,0:0|0:0,0:0:0:0:
362,163,128653,1,2,0:0:0:0:
362,136,128744,1,0,0:0:0:0:
362,108,128836,1,0,0:0:0:0:
362,81,128927,1,0,0:0:0:0:
362,53,129019,1,8,0:0:0:0:
362,48,129110,1,0,0:0:0:0:
362,43,129202,1,2,0:0:0:0:
362,38,129293,1,2,0:0:0:0:
362,33,129384,6,0,P|269:16|184:34,2,180,6|8|2,0:0|0:0|0:0,0:0:0:0:
362,96,130299,1,0,0:0:0:0:
362,159,130482,1,8,0:0:0:0:
362,222,130665,1,6,0:0:0:0:
362,285,130848,5,8,0:0:0:0:
330,285,130939,1,8,0:0:0:0:
298,285,131031,1,8,0:0:0:0:
267,285,131122,1,8,0:0:0:0:
235,285,131214,1,12,2:0:0:0:
235,350,131397,1,8,0:0:0:0:
204,350,131488,1,8,0:0:0:0:
172,350,131580,1,8,0:0:0:0:
140,350,131671,1,8,0:0:0:0:
108,350,131763,2,0,L|62:350,1,45
0,350,131945,1,8,2:0:0:0:
0,354,132037,1,8,3:0:0:0:
0,358,132128,1,8,3:0:0:0:
108,350,132311,6,0,B|123:276|123:276|105:208|105:208|122:130,1,215.999993408203,4|8,0:1|0:0,0:0:0:0:
144,71,132860,5,0,0:0:0:0:
144,71,133043,2,0,L|238:71,1,90,2|0,0:0|0:0,0:0:0:0:
306,71,133409,1,8,0:0:0:0:
378,71,133592,1,0,0:0:0:0:
450,71,133775,6,0,L|450:168,1,90,2|0,0:0|0:0,0:0:0:0:
450,233,134141,1,8,0:0:0:0:
450,305,134324,1,0,0:0:0:0:
450,340,134415,1,0,0:0:0:0:
450,375,134506,2,0,B|400:385|400:385|363:374|363:374|320:385|320:385|272:375,1,180,2|8,0:0|0:0,0:0:0:0:
274,303,135055,1,0,0:0:0:0:
274,230,135238,6,0,L|274:139,1,90,2|0,0:0|0:0,0:0:0:0:
274,67,135604,1,8,0:0:0:0:
274,67,135787,1,0,0:0:0:0:
201,67,135970,1,2,0:0:0:0:
201,139,136153,1,0,0:0:0:0:
129,139,136336,1,8,0:0:0:0:
129,67,136519,1,0,0:0:0:0:
201,67,136702,5,2,0:0:0:0:
201,139,136884,1,0,0:0:0:0:
201,211,137067,1,8,0:0:0:0:
201,247,137159,1,0,0:0:0:0:
201,282,137250,6,0,B|224:278|248:292|248:292|257:270|257:270|284:284|321:297|371:274,1,180
418,235,137799,1,8,0:0:0:0:
418,198,137891,1,2,0:0:0:0:
418,162,137982,1,2,0:0:0:0:
418,89,138165,6,0,P|398:20|280:14,1,180,6|8,0:0|0:0,0:0:0:0:
253,53,138714,2,0,L|72:53,1,180
0,53,139263,1,8,0:0:0:0:
0,124,139445,1,2,0:0:0:0:
0,160,139537,1,2,0:0:0:0:
0,195,139628,6,0,L|0:288,1,90,2|0,0:0|0:0,0:0:0:0:
0,357,139994,1,8,0:0:0:0:
0,357,140177,2,0,L|96:357,1,90,2|0,0:0|0:0,0:0:0:0:
90,284,140543,1,2,0:0:0:0:
90,284,140726,2,0,P|119:250|160:236,1,90,8|0,0:0|0:0,0:0:0:0:
233,235,141092,6,0,L|323:235,1,90,2|0,0:0|0:0,0:0:0:0:
395,235,141458,1,8,0:0:0:0:
395,162,141641,1,0,0:0:0:0:
467,162,141824,1,2,0:0:0:0:
467,91,142006,1,0,0:0:0:0:
467,234,142189,1,8,0:0:0:0:
467,270,142281,1,0,0:0:0:0:
467,305,142372,1,0,0:0:0:0:
467,377,142555,5,2,0:0:0:0:
394,377,142738,1,0,0:0:0:0:
248,377,142921,1,8,0:0:0:0:
321,377,143104,1,8,0:0:0:0:
321,304,143287,1,2,0:0:0:0:
321,231,143470,1,2,0:0:0:0:
321,158,143653,2,0,L|321:107,1,45,8|0,0:0|0:0,0:0:0:0:
321,45,143836,2,0,L|321:1,1,45,8|0,0:0|0:0,0:0:0:0:
249,0,144019,6,0,L|248:190,2,180,6|8|2,0:0|0:0|0:0,0:0:0:0:
176,0,144933,1,0,0:0:0:0:
176,0,145116,2,0,L|176:100,1,90,8|0,0:0|0:0,0:0:0:0:
176,162,145482,5,6,0:0:0:0:
176,198,145574,1,2,0:0:0:0:
176,233,145665,1,2,0:0:0:0:
249,242,145848,1,10,0:0:0:0:
249,278,145940,1,2,0:0:0:0:
249,313,146031,1,2,0:0:0:0:
324,235,146214,5,2,0:0:0:0:
324,200,146305,1,2,0:0:0:0:
324,164,146397,1,2,0:0:0:0:
397,243,146580,1,10,0:0:0:0:
397,279,146672,1,2,0:0:0:0:
397,314,146763,1,2,0:0:0:0:
468,314,146945,6,0,L|468:122,1,180,2|8,0:0|0:0,0:0:0:0:
468,61,147494,2,0,P|439:27|398:13,1,90,2|0,0:0|0:0,0:0:0:0:
399,85,147860,1,2,0:0:0:0:
399,85,148043,2,0,P|370:119|329:133,1,90,8|0,0:0|0:0,0:0:0:0:
255,133,148409,5,2,0:0:0:0:
219,133,148500,1,0,0:0:0:0:
182,133,148592,1,0,0:0:0:0:
109,133,148775,1,8,0:0:0:0:
109,205,148958,1,2,0:0:0:0:
109,205,149141,2,0,L|16:205,1,90,2|2,0:0|0:0,0:0:0:0:
19,277,149506,1,8,0:0:0:0:
55,277,149598,1,2,0:0:0:0:
90,277,149689,1,2,0:0:0:0:
162,277,149872,5,6,0:0:0:0:
198,277,149964,1,0,0:0:0:0:
233,277,150055,2,0,L|289:277,1,45
162,339,150239,1,8,0:0:0:0:
198,339,150331,1,0,0:0:0:0:
233,339,150422,2,0,L|289:339,1,45
349,339,150604,1,2,0:0:0:0:
349,303,150695,1,2,0:0:0:0:
349,266,150787,1,2,0:0:0:0:
349,230,150878,1,2,0:0:0:0:
349,193,150970,2,0,L|349:131,3,45,10|0|2|0,0:0|0:0|0:0|0:0,0:0:0:0:
349,74,151336,5,6,0:0:0:0:
313,75,151428,1,0,0:0:0:0:
278,75,151519,2,0,L|222:75,1,45
349,17,151702,1,8,0:0:0:0:
313,17,151794,1,0,0:0:0:0:
278,17,151885,2,0,L|233:17,1,45
161,17,152067,1,2,0:0:0:0:
161,53,152158,1,2,0:0:0:0:
161,90,152250,1,2,0:0:0:0:
161,126,152341,1,2,0:0:0:0:
161,163,152433,2,0,L|161:225,3,45,10|0|2|0,0:0|0:0|0:0|0:0,0:0:0:0:
161,280,152799,5,6,0:0:0:0:
161,280,152891,1,0,0:0:0:0:
161,280,152982,2,0,L|113:280,1,45,2|0,0:0|0:0,0:0:0:0:
87,213,153165,1,10,0:0:0:0:
87,213,153257,1,0,0:0:0:0:
87,213,153348,2,0,L|39:213,1,45,2|0,0:0|0:0,0:0:0:0:
87,150,153531,1,2,0:0:0:0:
87,150,153623,1,0,0:0:0:0:
87,150,153714,2,0,L|39:150,1,45,2|0,0:0|0:0,0:0:0:0:
87,88,153897,1,10,0:0:0:0:
87,88,153989,1,0,0:0:0:0:
87,88,154080,2,0,L|39:88,1,45,2|0,0:0|0:0,0:0:0:0:
75,18,154263,6,0,P|118:26|151:54,1,90,6|0,0:0|0:0,0:0:0:0:
161,127,154628,1,8,0:0:0:0:
161,127,154720,1,2,0:0:0:0:
161,127,154811,1,2,0:0:0:0:
220,87,154994,5,14,0:0:0:0:
265,87,155086,1,2,0:0:0:0:
309,87,155177,1,2,0:0:0:0:
354,87,155269,1,2,0:0:0:0:
398,87,155360,2,0,L|452:87,3,45,14|0|2|0,0:0|0:0|0:0|0:0,0:0:0:0:
476,87,155726,5,4,1:0:0:0:
505,192,156092,2,0,L|505:147,1,45,2|0,0:0|0:0,0:0:0:0:
442,192,156458,2,0,L|442:136,1,45,2|0,0:0|0:0,0:0:0:0:
379,192,156824,2,0,L|379:136,1,45,2|0,0:0|0:0,0:0:0:0:
317,192,157189,6,0,L|317:143,2,45.9000002801514,2|2|2,0:0|0:0|0:0,0:0:0:0:
256,192,158470,1,2,0:0:0:0:
256,192,158561,1,0,0:0:0:0:
256,192,158653,5,6,0:0:0:0:
256,192,158744,12,2,159933,0:0:0:0:
256,192,160116,5,6,0:0:0:0:
256,192,160208,12,2,161397,0:0:0:0:
256,192,161580,5,4,1:0:0:0:
256,192,161671,12,0,164140,0:0:0:0:
256,192,164506,5,4,0:0:0:0:
256,192,165970,5,2,0:0:0:0:
256,192,166336,2,0,L|256:144,1,45,8|0,0:0|0:0,0:0:0:0:
256,74,166702,5,8,2:0:0:0:
220,73,166793,1,8,1:0:0:0:
185,73,166884,1,8,1:0:0:0:
150,73,166976,1,8,1:0:0:0:
149,109,167068,1,8,2:0:0:0:
113,109,167159,1,8,1:0:0:0:
78,109,167250,1,8,1:0:0:0:
43,109,167342,1,8,1:0:0:0:
8,110,167434,5,4,1:0:0:0:
8,177,167616,2,0,L|153:177,1,135.000005149842,0|8,0:0|0:0,0:0:0:0:
8,241,167982,2,0,L|153:241,1,135.000005149842,0|2,0:0|0:0,0:0:0:0:
143,306,168348,2,0,L|8:306,1,135.000005149842,0|8,0:0|0:0,0:0:0:0:
8,373,168714,5,0,0:0:0:0:
75,373,168897,1,2,0:0:0:0:
209,373,169080,1,0,0:0:0:0:
276,373,169263,1,8,0:0:0:0:
410,373,169445,1,0,0:0:0:0:
477,373,169628,1,2,0:0:0:0:
410,306,169811,1,0,0:0:0:0:
343,306,169994,1,8,0:0:0:0:
275,306,170177,1,0,0:0:0:0:
275,306,170360,6,0,L|275:157,1,135.000005149842,4|0,0:0|0:0,0:0:0:0:
275,103,170726,1,8,0:0:0:0:
275,103,170909,2,0,L|138:103,1,135.000005149842,0|2,0:0|0:0,0:0:0:0:
140,39,171275,2,0,L|275:39,1,135.000005149842,0|8,0:0|0:0,0:0:0:0:
342,39,171641,1,0,0:0:0:0:
342,39,171824,6,0,L|342:178,1,135.000005149842,4|0,0:0|0:0,0:0:0:0:
342,241,172189,1,8,0:0:0:0:
409,241,172372,1,0,0:0:0:0:
476,241,172555,1,2,0:0:0:0:
409,241,172738,1,0,0:0:0:0:
409,308,172921,1,10,0:0:0:0:
375,308,173013,1,2,0:0:0:0:
341,308,173104,1,0,0:0:0:0:
341,308,173287,6,0,L|204:308,1,135.000005149842,4|0,0:0|0:0,0:0:0:0:
138,308,173653,1,8,0:0:0:0:
138,308,173836,2,0,L|138:159,1,135.000005149842,0|2,0:0|0:0,0:0:0:0:
71,171,174202,2,0,L|71:306,1,135.000005149842,0|8,0:0|0:0,0:0:0:0:
71,373,174567,5,0,0:0:0:0:
3,373,174750,1,2,0:0:0:0:
207,373,174933,1,0,0:0:0:0:
139,373,175116,1,8,0:0:0:0:
343,373,175299,1,0,0:0:0:0:
275,373,175482,1,2,0:0:0:0:
411,373,175665,1,0,0:0:0:0:
479,373,175848,1,8,0:0:0:0:
479,305,176031,1,0,0:0:0:0:
479,305,176214,6,0,L|479:162,1,135.000005149842,4|0,0:0|0:0,0:0:0:0:
479,102,176580,1,8,0:0:0:0:
479,102,176763,2,0,L|343:102,1,135.000005149842,0|2,0:0|0:0,0:0:0:0:
208,102,177128,1,0,0:0:0:0:
276,102,177311,1,8,0:0:0:0:
140,102,177494,1,0,0:0:0:0:
208,102,177677,5,10,2:0:0:0:
208,135,177769,1,8,0:0:0:0:
208,168,177860,2,0,L|208:251,1,67.5000025749208,8|8,0:0|0:0,0:0:0:0:
276,102,178043,1,8,2:0:0:0:
276,135,178135,1,8,0:0:0:0:
276,168,178226,2,0,L|276:249,1,67.5000025749208,8|8,0:0|0:0,0:0:0:0:
276,303,178409,5,8,2:0:0:0:
308,311,178500,1,8,0:0:0:0:
340,302,178591,1,8,0:0:0:0:
364,279,178683,1,8,0:0:0:0:
374,247,178774,1,8,2:0:0:0:
375,240,178866,1,8,3:0:0:0:
375,233,178958,1,8,3:0:0:0:
375,226,179049,1,4,3:0:0:0:
375,219,179141,6,0,L|375:76,1,135.000005149842,4|0,1:0|0:0,0:0:0:0:
313,219,179506,1,2,0:0:0:0:
313,219,179689,2,0,L|313:84,2,135.000005149842,4|8|8,0:0|3:0|3:0,0:0:0:0:
245,219,180238,1,12,0:0:0:0:
177,219,180421,1,4,1:0:0:0:
256,192,180513,12,0,182067,0:0:0:0:
