osu file format v14

[General]
AudioFilename: audio.mp3
AudioLeadIn: 0
PreviewTime: 38653
Countdown: 0
SampleSet: Soft
StackLeniency: 0.5
Mode: 0
LetterboxInBreaks: 0
WidescreenStoryboard: 1

[Editor]
DistanceSpacing: 0.8
BeatDivisor: 4
GridSize: 4
TimelineZoom: 1

[Metadata]
Title:GENESIS BEYOND THE BEGINNING
TitleUnicode:GENESIS BEYOND THE BEGINNING
Artist:Falcom Sound Team jdk
ArtistUnicode:Falcom Sound Team jdk
Creator:Mariko Sakuragi
Version:Extra
Source:イース・オリジン
Tags:ys origin nihon xseed games dotmu arpg japanese video game instrumental
BeatmapID:2223544
BeatmapSetID:1032441

[Difficulty]
HPDrainRate:5
CircleSize:5
OverallDifficulty:8
ApproachRate:8
SliderMultiplier:1.8
SliderTickRate:2

[Events]
//Background and Video events
0,0,"theoriginYS.jpg",0,0
//Break Periods
2,155926,157720
//Storyboard Layer 0 (Background)
//Storyboard Layer 1 (Fail)
//Storyboard Layer 2 (Pass)
//Storyboard Layer 3 (Foreground)
//Storyboard Layer 4 (Overlay)
//Storyboard Sound Samples

[TimingPoints]
570,375,4,2,1,30,1,0
570,-200,4,2,1,30,0,0
2538,-200,4,2,1,5,0,0
2632,-200,4,2,1,30,0,0
3100,-200,4,2,1,5,0,0
3195,-200,4,2,1,30,0,0
3570,365.853658536585,4,2,1,30,1,0
3570,-200,4,2,1,30,0,0
5033,359.281437125748,4,2,1,30,1,0
5033,-200,4,2,1,30,0,0
5482,-200,4,2,1,5,0,0
5571,-200,4,2,1,30,0,0
6021,-200,4,2,1,5,0,0
6110,-200,4,2,1,30,0,0
6557,355.029585798817,4,2,1,30,1,0
6557,-200,4,2,1,30,0,0
7977,343.839541547278,4,2,1,30,1,0
7977,-200,4,2,1,30,0,0
8406,-200,4,2,1,5,0,0
8492,-200,4,2,1,30,0,0
8836,365.853658536585,4,3,1,40,1,0
8836,-200,4,3,1,40,0,0
9385,365.853658536585,4,1,1,40,1,0
9385,-200,4,1,1,40,0,0
9750,-100,4,1,1,5,0,0
9933,-200,4,1,1,5,0,0
10116,-200,4,1,1,40,0,0
10482,-200,4,1,1,5,0,0
10665,-200,4,1,1,5,0,0
10848,-200,4,2,1,40,0,0
17159,-200,4,2,1,5,0,0
17250,-200,4,2,1,40,0,0
17524,-200,4,2,1,5,0,0
17616,-200,4,2,1,40,0,0
22555,-100,4,2,1,50,0,0
23287,-100,4,1,1,60,0,0
23378,-100,4,1,1,45,0,0
23653,-100,4,1,1,60,0,0
23744,-100,4,1,1,45,0,0
24019,-62.5,4,2,2,90,0,1
29598,-62.5,4,2,1,90,0,1
29871,-62.5,4,2,1,90,0,1
29872,-62.5,4,2,2,90,0,1
34354,-62.5,4,2,2,75,0,1
35360,-62.5,4,2,2,40,0,1
35726,-62.5,4,2,1,60,0,0
37372,-62.5,4,2,3,60,0,0
37738,-62.5,4,2,1,60,0,0
37921,-62.5,4,2,3,60,0,0
38104,-62.5,4,2,1,40,0,0
38287,-62.5,4,2,2,50,0,0
38653,-133.333333333333,4,2,2,50,0,0
49811,-100,4,2,2,50,0,0
50268,-100,4,2,2,5,0,0
50360,-133.333333333333,4,2,2,50,0,0
56580,-100,4,2,2,50,0,0
56945,-133.333333333333,4,2,2,50,0,0
57311,-100,4,2,2,50,0,0
57677,-133.333333333333,4,2,2,50,0,0
59506,-100,4,2,2,50,0,0
59872,-133.333333333333,4,2,2,50,0,0
60695,-133.333333333333,4,2,2,30,0,0
60787,-133.333333333333,4,2,2,50,0,0
62067,-100,4,2,2,90,0,0
66549,-100,4,2,3,55,0,0
66824,-100,4,2,2,90,0,0
66915,-100,4,2,3,65,0,0
67189,-100,4,2,2,90,0,0
67281,-100,4,2,3,75,0,0
67555,-100,4,2,2,90,0,0
67647,-100,4,2,3,90,0,0
67921,-100,4,2,2,90,0,0
72311,-66.6666666666667,4,2,2,90,0,0
72403,-66.6666666666667,4,2,3,75,0,0
72677,-66.6666666666667,4,2,2,90,0,0
72769,-66.6666666666667,4,2,3,75,0,0
73043,-66.6666666666667,4,2,2,90,0,0
73775,-100,4,2,2,90,0,0
78256,-100,4,2,3,60,0,0
78531,-100,4,2,2,90,0,0
78622,-100,4,2,3,75,0,0
78897,-100,4,2,2,90,0,0
81366,-100,4,2,2,5,0,0
81458,-100,4,2,2,90,0,0
81732,-100,4,2,2,5,0,0
81824,-100,4,2,2,90,0,0
84019,-100,4,1,1,75,0,0
85482,-62.5,4,2,2,90,0,1
90970,-62.5,4,2,1,90,0,1
91335,-62.5,4,2,1,90,0,1
91336,-62.5,4,2,2,90,0,1
95817,-62.5,4,2,2,60,0,1
96824,-62.5,4,2,2,45,0,1
97189,-100,4,2,2,90,0,0
101580,-83.3333333333333,4,2,2,90,0,0
103043,-66.6666666666667,4,2,2,90,0,0
103317,-66.6666666666667,4,2,2,5,0,0
103409,-100,4,2,2,90,0,0
113287,-83.3333333333333,4,2,2,90,0,0
114384,-100,4,2,2,90,0,0
119232,-133.333333333333,4,2,2,50,0,0
119324,-100,4,2,2,90,0,0
120604,-100,4,2,2,75,0,0
125086,-100,4,2,3,60,0,0
125360,-100,4,2,2,75,0,0
125452,-100,4,2,3,60,0,0
125726,-100,4,2,2,75,0,0
128195,-100,4,2,2,5,0,0
128287,-100,4,2,2,75,0,0
128561,-100,4,2,2,5,0,0
128653,-100,4,2,2,75,0,0
130848,-100,4,1,1,60,0,0
132311,-83.3333333333333,4,2,2,100,0,1
132860,-100,4,2,2,100,0,1
138165,-83.3333333333333,4,2,2,100,0,1
138714,-100,4,2,2,100,0,1
140543,-83.3333333333333,4,2,2,100,0,1
141092,-100,4,2,2,100,0,1
155726,-133.333333333333,4,2,2,100,0,0
156092,-133.333333333333,4,2,1,60,0,0
156641,-133.333333333333,4,2,1,60,0,0
158470,-133.333333333333,4,2,1,60,0,0
162311,-133.333333333333,4,2,1,60,0,0
163287,-133.333333333333,4,2,1,52,0,0
163531,-133.333333333333,4,2,1,44,0,0
163775,-133.333333333333,4,2,1,36,0,0
164019,-133.333333333333,4,2,1,28,0,0
164263,-133.333333333333,4,2,1,20,0,0
164506,-133.333333333333,4,2,1,60,0,0
166702,-100,4,1,1,60,0,0
166793,-100,4,1,1,45,0,0
167067,-100,4,1,1,60,0,0
167159,-100,4,1,1,45,0,0
167433,-66.6666666666667,4,2,2,90,0,1
167616,-66.6666666666667,4,2,2,90,0,1
167982,-55.5555555555556,4,2,2,90,0,1
168348,-200,4,2,2,90,0,1
168714,-100,4,2,2,90,0,1
169080,-66.6666666666667,4,2,2,90,0,1
169445,-55.5555555555556,4,2,2,90,0,1
169811,-133.333333333333,4,2,2,90,0,1
170360,-50,4,2,2,90,0,1
170909,-41.6666666666667,4,2,2,90,0,1
171275,-55.5555555555556,4,2,2,90,0,1
171824,-50,4,2,2,90,0,1
172372,-55.5555555555556,4,2,2,90,0,1
172921,-55.5555555555556,4,2,1,90,0,1
173287,-50,4,2,2,90,0,1
173836,-55.5555555555556,4,2,2,90,0,1
174202,-200,4,2,2,90,0,1
174567,-100,4,2,2,90,0,1
174933,-66.6666666666667,4,2,2,90,0,1
175298,-55.5555555555556,4,2,2,90,0,1
175664,-133.333333333333,4,2,2,90,0,1
176213,-50,4,2,2,90,0,1
176762,-41.6666666666667,4,2,2,90,0,1
177128,-55.5555555555556,4,2,2,90,0,1
177494,-100,4,2,2,90,0,1
177677,-100,4,2,1,75,0,1
179141,-66.6666666666667,4,2,2,90,0,0
180238,-100,4,2,2,90,0,0
182067,-100,4,2,2,5,0,0

[Colours]
Combo1 : 128,128,192
Combo2 : 128,64,64
Combo3 : 192,192,192
Combo4 : 164,126,102

[HitObjects]
75,42,570,6,0,B|97:87|97:87|42:136|82:210,1,180,2|0,0:0|0:0,0:0:0:0:
127,258,1507,1,2,0:0:0:0:
194,283,1695,1,2,0:0:0:0:
262,261,1882,1,2,0:0:0:0:
295,197,2070,6,0,B|355:163|413:204,1,112.5,2|0,0:0|2:0,0:0:0:0:
425,210,2632,2,0,B|459:150|418:92,1,112.5,2|0,0:0|2:0,0:0:0:0:
405,83,3195,1,2,0:0:0:0:
291,171,3570,6,0,B|212:120|186:214|81:144,1,180,2|0,0:0|0:0,0:0:0:0:
87,95,4484,1,2,0:0:0:0:
124,33,4667,1,2,0:0:0:0:
52,30,4850,1,2,0:0:0:0:
161,99,5033,6,0,L|161:220,1,112.5,2|0,0:0|2:0,0:0:0:0:
161,238,5571,2,0,B|219:274|279:235,1,112.5,2|0,0:0|2:0,0:0:0:0:
289,225,6110,1,2,0:0:0:0:
249,99,6557,6,0,B|324:50|350:144|418:93,1,180,2|0,0:0|0:0,0:0:0:0:
418,92,7444,1,2,0:0:0:0:
450,29,7622,1,2,0:0:0:0:
378,35,7799,1,2,0:0:0:0:
490,95,7977,6,0,L|490:207,1,112.5,2|0,0:0|2:0,0:0:0:0:
489,235,8492,1,2,0:0:0:0:
282,111,8836,5,8,0:0:0:0:
182,60,9018,1,8,0:0:0:0:
135,115,9201,1,0,0:0:0:0:
90,171,9385,6,0,B|90:214|90:214|105:261|167:261,1,135,8|0,0:0|0:0,0:0:0:0:
251,262,10116,2,0,B|307:262|322:215|322:215|322:172,1,135,8|0,0:0|0:0,0:0:0:0:
322,81,10848,5,8,0:0:0:0:
322,71,11214,1,8,0:0:0:0:
476,71,11580,5,8,0:0:0:0:
476,71,11671,1,0,0:0:0:0:
476,170,11854,1,8,0:0:0:0:
476,170,11945,1,8,3:0:0:0:
476,197,12037,1,8,3:0:0:0:
476,223,12128,1,8,3:0:0:0:
476,321,12311,6,0,P|368:293|248:327,1,225,6|0,1:0|0:0,0:0:0:0:
207,376,13409,1,2,0:0:0:0:
226,249,13592,1,2,0:0:0:0:
178,303,13775,5,2,0:0:0:0:
105,303,13958,2,0,P|11:242|54:151,1,225,2|0,0:0|0:0,0:0:0:0:
90,227,15055,1,2,0:0:0:0:
90,227,15147,1,2,0:0:0:0:
90,227,15238,6,0,L|152:227,1,45,6|0,0:0|0:0,0:0:0:0:
153,206,15513,2,0,L|215:206,1,45,2|0,0:0|0:0,0:0:0:0:
213,228,15787,1,2,0:0:0:0:
280,264,15970,6,0,L|280:202,1,45,2|0,0:0|0:0,0:0:0:0:
300,204,16245,2,0,L|300:142,1,45,2|0,0:0|0:0,0:0:0:0:
279,147,16519,1,2,0:0:0:0:
284,70,16702,2,0,P|234:79|157:62,1,112.5,6|0,0:0|2:0,0:0:0:0:
164,43,17250,2,0,P|130:36|85:43,1,67.5,2|0,0:0|2:0,0:0:0:0:
75,55,17616,1,8,1:0:0:0:
22,107,17799,1,8,0:0:0:0:
22,134,17891,1,8,0:0:0:0:
22,160,17982,1,2,0:0:0:0:
22,250,18165,5,6,1:0:0:0:
37,292,18256,1,2,0:0:0:0:
77,313,18348,1,2,0:0:0:0:
121,306,18439,1,2,0:0:0:0:
153,274,18531,1,2,0:0:0:0:
196,265,18622,1,2,0:0:0:0:
238,281,18714,1,2,0:0:0:0:
266,315,18805,1,2,0:0:0:0:
275,359,18897,6,0,L|328:359,1,45
358,292,19263,2,0,L|411:292,1,45
475,316,19628,6,0,L|475:263,1,45
418,219,19994,2,0,L|418:166,1,45
345,219,20360,6,0,L|279:219,1,45,2|0,0:0|0:0,0:0:0:0:
276,144,20726,2,0,L|210:144,1,45,2|0,0:0|0:0,0:0:0:0:
178,100,21000,1,2,0:0:0:0:
157,117,21092,6,0,L|157:209,1,90,6|0,0:0|0:0,0:0:0:0:
157,207,21824,1,2,2:0:0:0:
413,349,22555,6,0,L|413:257,1,90,2|0,0:0|0:0,0:0:0:0:
413,259,22921,1,8,0:0:0:0:
413,115,23287,1,8,2:0:0:0:
383,134,23378,1,8,1:0:0:0:
346,135,23470,1,8,1:0:0:0:
313,120,23561,1,8,1:0:0:0:
253,51,23653,5,8,2:0:0:0:
223,32,23744,1,8,1:0:0:0:
186,31,23836,1,8,1:0:0:0:
153,46,23927,1,8,1:0:0:0:
94,115,24019,5,4,1:0:0:0:
29,300,24202,2,0,L|29:140,1,144,0|8,0:0|0:0,0:0:0:0:
188,194,24567,2,0,L|188:44,1,144,0|2,0:0|0:0,0:0:0:0:
113,204,24933,2,0,L|113:362,1,144,0|8,0:0|0:0,0:0:0:0:
253,229,25299,6,0,L|253:382,1,144,0|2,0:0|0:0,0:0:0:0:
328,219,25665,2,0,L|328:66,1,144,0|8,0:0|0:0,0:0:0:0:
477,149,26031,2,0,L|477:4,1,144,0|2,0:0|0:0,0:0:0:0:
406,160,26397,2,0,L|406:312,1,144,0|8,0:0|0:0,0:0:0:0:
253,229,26763,6,0,L|253:381,1,144,0|4,0:0|0:0,0:0:0:0:
95,320,27128,2,0,L|95:175,1,144,0|8,0:0|0:0,0:0:0:0:
253,147,27494,2,0,L|253:3,1,144,0|2,0:0|0:0,0:0:0:0:
406,65,27860,2,0,L|406:220,1,144,0|8,0:0|0:0,0:0:0:0:
326,355,28226,6,0,L|326:203,1,144,0|4,0:0|0:0,0:0:0:0:
245,65,28592,2,0,L|245:224,1,144,0|8,0:0|0:0,0:0:0:0:
165,355,28958,2,0,L|165:212,1,144,0|2,0:0|0:0,0:0:0:0:
84,65,29324,1,0,0:0:0:0:
21,213,29506,1,10,0:0:0:0:
21,213,29598,1,2,0:0:0:0:
84,163,29689,6,0,L|84:9,1,144,0|4,0:0|0:0,0:0:0:0:
194,154,30055,2,0,L|194:309,1,144,0|8,0:0|0:0,0:0:0:0:
303,163,30421,2,0,L|303:9,1,144,0|2,0:0|0:0,0:0:0:0:
194,154,30787,2,0,L|194:306,1,144,0|8,0:0|0:0,0:0:0:0:
347,231,31153,6,0,L|347:384,1,144,0|2,0:0|0:0,0:0:0:0:
510,290,31519,2,0,L|510:134,1,144,0|8,0:0|0:0,0:0:0:0:
347,147,31884,2,0,L|347:1,1,144,0|2,0:0|0:0,0:0:0:0:
195,111,32250,2,0,L|195:264,1,144,0|8,0:0|0:0,0:0:0:0:
44,179,32616,6,0,L|44:341,1,144,0|4,0:0|0:0,0:0:0:0:
209,171,32982,2,0,L|209:15,1,144,0|8,0:0|0:0,0:0:0:0:
128,323,33348,2,0,L|128:179,1,144,0|2,0:0|0:0,0:0:0:0:
283,179,33714,2,0,L|283:325,1,144,0|8,0:0|0:0,0:0:0:0:
427,105,34080,2,0,L|274:105,1,144,0|2,0:0|0:0,0:0:0:0:
264,86,34354,5,8,0:0:0:0:
233,74,34445,1,8,0:0:0:0:
260,54,34537,1,8,0:0:0:0:
194,202,34720,5,8,0:0:0:0:
209,172,34811,1,8,0:0:0:0:
96,246,34994,5,8,0:0:0:0:
70,273,35086,1,8,0:0:0:0:
96,299,35177,1,8,0:0:0:0:
123,273,35269,1,8,0:0:0:0:
97,232,35360,5,12,3:0:0:0:
66,289,35452,1,8,3:0:0:0:
130,289,35543,1,8,3:0:0:0:
179,76,35726,6,0,L|323:76,1,144,4|0,1:0|0:0,0:0:0:0:
439,76,36092,1,2,2:0:0:0:
449,76,36458,1,2,2:0:0:0:
459,76,36824,1,2,2:0:0:0:
467,76,37189,5,8,0:0:0:0:
467,109,37281,1,8,0:0:0:0:
467,142,37372,1,8,0:0:0:0:
466,250,37555,5,0,0:0:0:0:
466,250,37738,1,8,0:0:0:0:
466,284,37830,1,8,0:0:0:0:
466,318,37921,1,8,0:0:0:0:
363,283,38104,1,0,3:0:0:0:
363,283,38287,1,4,3:0:0:0:
327,283,38378,1,8,3:0:0:0:
290,283,38470,1,0,3:0:0:0:
290,283,38561,1,0,0:0:0:0:
290,283,38653,6,0,L|154:283,2,135.000005149842,6|8|2,0:0|0:0|0:0,0:0:0:0:
311,216,39567,1,2,0:0:0:0:
243,216,39750,1,8,0:0:0:0:
175,216,39933,1,2,0:0:0:0:
107,216,40116,6,0,P|65:165|111:119,1,135.000005149842,0|8,0:0|0:0,0:0:0:0:
170,116,40665,2,0,P|241:127|319:113,1,135.000005149842,2|2,0:0|0:0,0:0:0:0:
344,64,41214,2,0,P|382:60|416:64,1,67.5000025749208,8|2,0:0|0:0,0:0:0:0:
380,131,41580,6,0,L|380:277,2,135.000005149842,2|8|2,0:0|0:0|0:0,0:0:0:0:
456,159,42494,1,2,0:0:0:0:
456,226,42677,1,8,0:0:0:0:
456,293,42860,1,2,0:0:0:0:
303,237,43043,6,0,L|303:90,1,135.000005149842,6|8,0:0|0:0,0:0:0:0:
225,34,43592,2,0,L|225:181,1,135.000005149842,6|2,0:0|0:0,0:0:0:0:
224,240,44141,1,8,0:0:0:0:
224,262,44232,1,8,0:0:0:0:
224,288,44324,1,2,0:0:0:0:
224,355,44506,6,0,L|78:355,2,135.000005149842,6|8|2,0:0|0:0|0:0,0:0:0:0:
287,321,45421,1,2,0:0:0:0:
353,321,45604,1,8,0:0:0:0:
420,321,45787,1,0,0:0:0:0:
490,321,45970,6,0,B|505:274|505:274|494:232|494:232|508:184,1,135.000005149842,2|8,0:0|0:0,0:0:0:0:
432,206,46519,2,0,B|447:159|447:159|436:117|436:117|450:69,1,135.000005149842,2|2,0:0|0:0,0:0:0:0:
398,30,47067,2,0,P|360:34|326:30,1,67.5000025749208,8|2,0:0|0:0,0:0:0:0:
263,21,47433,6,0,P|221:72|267:118,1,135.000005149842,2|8,0:0|0:0,0:0:0:0:
259,367,48165,2,0,P|301:316|255:270,1,135.000005149842,2|8,0:0|0:0,0:0:0:0:
207,320,48714,1,2,0:0:0:0:
207,320,48897,2,0,L|69:320,1,135.000005149842,2|8,0:0|0:0,0:0:0:0:
0,320,49445,1,0,0:0:0:0:
0,320,49628,1,0,0:0:0:0:
0,112,49811,6,0,P|35:31|161:49,1,225,12|0,0:0|2:0,0:0:0:0:
167,66,50360,6,0,P|238:77|316:63,2,135.000005149842,6|8|2,0:0|0:0|0:0,0:0:0:0:
87,90,51275,1,2,0:0:0:0:
87,157,51458,1,8,0:0:0:0:
87,224,51641,1,2,0:0:0:0:
42,285,51824,6,0,B|116:330|108:253|197:309,1,135.000005149842,2|8,0:0|0:0,0:0:0:0:
141,355,52372,2,0,B|215:400|207:323|296:379,1,135.000005149842,2|2,0:0|0:0,0:0:0:0:
338,372,52921,2,0,P|342:334|338:300,1,67.5000025749208,8|2,0:0|0:0,0:0:0:0:
271,290,53287,6,0,P|260:219|274:141,2,135.000005149842,2|8|2,0:0|0:0|0:0,0:0:0:0:
213,338,54202,1,2,0:0:0:0:
160,296,54384,1,8,0:0:0:0:
106,336,54567,1,2,0:0:0:0:
20,232,54750,6,0,B|20:146|20:146|57:115,1,135.000005149842,6|8,0:0|0:0,0:0:0:0:
89,175,55299,2,0,B|89:262|89:262|52:293,1,135.000005149842,6|2,0:0|0:0,0:0:0:0:
160,228,55848,1,8,0:0:0:0:
160,202,55939,1,8,0:0:0:0:
160,175,56031,1,2,0:0:0:0:
160,39,56214,6,0,L|160:107,1,67.5000025749208,6|0,0:0|0:0,0:0:0:0:
246,190,56580,6,0,L|246:100,1,90,8|0,0:0|0:0,0:0:0:0:
246,257,56945,1,2,0:0:0:0:
246,324,57128,1,2,0:0:0:0:
356,383,57311,5,8,0:0:0:0:
454,304,57494,1,0,0:0:0:0:
356,226,57677,6,0,L|356:158,1,67.5000025749208,2|0,0:0|0:0,0:0:0:0:
487,103,58043,1,8,0:0:0:0:
444,158,58226,1,2,0:0:0:0:
400,106,58409,1,2,0:0:0:0:
356,158,58592,1,2,0:0:0:0:
152,158,58775,5,8,0:0:0:0:
310,102,58958,1,2,0:0:0:0:
356,158,59141,6,0,L|356:229,1,67.5000025749208,2|0,0:0|0:0,0:0:0:0:
356,383,59506,6,0,L|356:293,1,90,8|0,0:0|0:0,0:0:0:0:
288,383,59872,1,2,0:0:0:0:
288,383,60055,1,2,0:0:0:0:
164,322,60238,1,12,0:0:0:0:
40,383,60421,1,0,0:0:0:0:
40,231,60604,5,12,0:0:0:0:
41,197,60695,1,8,3:0:0:0:
42,163,60787,1,0,0:0:0:0:
44,60,60970,1,0,0:0:0:0:
144,60,61153,1,8,0:0:0:0:
177,60,61244,1,8,0:0:0:0:
210,60,61336,1,8,0:0:0:0:
243,60,61427,1,8,0:0:0:0:
276,60,61519,6,0,L|311:60,1,33.7500012874604,2|0,3:0|0:0,0:0:0:0:
411,60,61702,1,8,3:0:0:0:
444,60,61793,1,8,3:0:0:0:
477,60,61884,1,8,3:0:0:0:
477,150,62067,6,0,L|477:247,1,90,4|0,1:0|0:0,0:0:0:0:
477,330,62433,2,0,L|477:240,1,90,8|0,0:0|0:0,0:0:0:0:
352,352,62799,1,2,0:0:0:0:
272,352,62982,1,0,0:0:0:0:
192,352,63165,1,8,0:0:0:0:
112,352,63348,1,0,0:0:0:0:
32,352,63531,6,0,P|28:293|142:242,1,180,2|8,0:0|0:0,0:0:0:0:
220,236,64080,2,0,P|243:209|261:146,1,90,0|2,0:0|0:0,0:0:0:0:
161,157,64445,2,0,P|138:130|120:67,1,90,0|8,0:0|0:0,0:0:0:0:
203,16,64811,1,2,0:0:0:0:
235,31,64903,1,2,0:0:0:0:
267,16,64994,6,0,P|301:22|365:6,1,90,6|0,0:0|0:0,0:0:0:0:
454,11,65360,2,0,L|454:110,1,90,8|0,0:0|0:0,0:0:0:0:
509,183,65726,2,0,L|509:282,1,90,2|0,0:0|0:0,0:0:0:0:
409,365,66092,2,0,L|409:266,1,90,12|0,0:0|0:0,0:0:0:0:
390,179,66458,5,2,0:0:0:0:
375,187,66549,1,8,0:0:0:0:
362,196,66641,1,8,0:0:0:0:
349,206,66732,1,8,0:0:0:0:
295,145,66824,5,8,0:0:0:0:
276,158,66915,1,8,0:0:0:0:
257,171,67007,1,8,0:0:0:0:
239,184,67098,1,8,0:0:0:0:
158,184,67189,5,2,0:0:0:0:
145,207,67281,1,8,0:0:0:0:
143,233,67372,1,8,0:0:0:0:
157,256,67464,1,8,0:0:0:0:
216,311,67555,5,8,0:0:0:0:
229,334,67647,1,8,0:0:0:0:
231,360,67738,1,8,0:0:0:0:
217,383,67830,1,8,0:0:0:0:
136,384,67921,6,0,L|41:384,1,90,6|0,0:0|0:0,0:0:0:0:
46,294,68287,2,0,L|46:384,1,90,8|0,0:0|0:0,0:0:0:0:
122,250,68653,1,2,0:0:0:0:
122,168,68836,1,0,0:0:0:0:
122,86,69019,1,8,0:0:0:0:
122,4,69202,1,0,0:0:0:0:
200,46,69384,6,0,P|292:65|377:47,1,180,2|8,0:0|0:0,0:0:0:0:
465,6,69933,2,0,P|471:40|454:104,1,90,0|2,0:0|0:0,0:0:0:0:
378,151,70299,2,0,P|371:185|388:249,1,90,0|8,0:0|0:0,0:0:0:0:
441,318,70665,1,2,0:0:0:0:
457,349,70756,1,2,0:0:0:0:
438,380,70848,6,0,L|329:380,1,90,6|0,0:0|0:0,0:0:0:0:
284,304,71214,2,0,L|175:304,1,90,8|0,0:0|0:0,0:0:0:0:
130,380,71580,1,2,0:0:0:0:
6,250,71763,5,0,0:0:0:0:
6,160,71945,1,12,0:0:0:0:
6,69,72128,1,2,0:0:0:0:
82,208,72311,6,0,L|82:276,1,67.5000025749208,14|8,0:0|0:0,0:0:0:0:
134,124,72494,2,0,L|134:56,1,67.5000025749208,8|8,0:0|0:0,0:0:0:0:
184,209,72677,2,0,L|184:277,1,67.5000025749208,8|8,0:0|0:0,0:0:0:0:
234,124,72860,1,8,0:0:0:0:
234,90,72951,1,8,0:0:0:0:
234,56,73043,6,0,L|292:22,1,67.5000025749208,10|0,0:0|0:0,0:0:0:0:
315,100,73226,2,0,L|383:99,1,67.5000025749208
357,177,73409,2,0,L|415:210,1,67.5000025749208,8|0,0:0|0:0,0:0:0:0:
360,271,73592,1,2,0:0:0:0:
393,329,73683,1,2,0:0:0:0:
335,272,73775,6,0,L|227:272,1,90,6|0,0:0|0:0,0:0:0:0:
155,272,74141,2,0,L|245:272,1,90,8|0,0:0|0:0,0:0:0:0:
66,356,74506,1,2,0:0:0:0:
147,356,74689,1,0,0:0:0:0:
187,356,74781,1,0,0:0:0:0:
227,356,74872,1,8,0:0:0:0:
308,356,75055,1,0,0:0:0:0:
389,356,75238,6,0,B|483:356|483:356|483:255,1,180,2|8,0:0|0:0,0:0:0:0:
416,196,75787,2,0,L|416:308,1,90,0|2,0:0|0:0,0:0:0:0:
483,202,76153,2,0,L|483:90,1,90,0|8,0:0|0:0,0:0:0:0:
415,16,76519,1,2,0:0:0:0:
385,36,76610,1,2,0:0:0:0:
355,15,76702,6,0,P|321:21|257:4,1,90,6|0,0:0|0:0,0:0:0:0:
260,99,77067,2,0,P|226:105|162:88,1,90,8|0,0:0|0:0,0:0:0:0:
150,5,77433,2,0,P|116:11|52:-6,1,90,2|0,0:0|0:0,0:0:0:0:
8,72,77799,2,0,P|2:106|19:170,1,90,12|0,0:0|0:0,0:0:0:0:
75,228,78165,5,2,0:0:0:0:
95,229,78256,1,8,0:0:0:0:
96,208,78348,1,8,0:0:0:0:
75,208,78439,1,8,0:0:0:0:
173,228,78531,5,8,0:0:0:0:
193,229,78622,1,8,0:0:0:0:
194,208,78714,1,8,0:0:0:0:
173,208,78805,1,8,0:0:0:0:
134,284,78897,5,2,0:0:0:0:
135,306,78988,1,0,0:0:0:0:
135,328,79080,2,0,L|135:377,1,45,2|0,0:0|0:0,0:0:0:0:
208,320,79263,2,0,L|232:362,1,45,8|0,0:0|0:0,0:0:0:0:
269,278,79445,2,0,L|311:302,1,45,2|0,0:0|0:0,0:0:0:0:
310,209,79628,6,0,L|411:209,1,90,6|0,0:0|0:0,0:0:0:0:
490,209,79994,2,0,L|400:209,1,90,8|0,0:0|0:0,0:0:0:0:
491,118,80360,1,2,0:0:0:0:
409,118,80543,1,0,0:0:0:0:
373,118,80634,1,2,0:0:0:0:
373,118,80726,2,0,L|276:118,1,90,8|0,0:0|0:0,0:0:0:0:
202,28,81092,6,0,P|141:56|139:144,1,135,2|0,0:0|2:0,0:0:0:0:
130,144,81458,2,0,P|102:205|14:206,1,135,8|0,0:0|2:0,0:0:0:0:
15,206,81824,1,2,0:0:0:0:
21,179,81915,1,0,0:0:0:0:
47,175,82006,1,0,0:0:0:0:
59,199,82098,1,0,0:0:0:0:
40,218,82189,1,8,0:0:0:0:
40,222,82281,1,0,0:0:0:0:
40,226,82372,1,2,0:0:0:0:
40,230,82464,1,2,0:0:0:0:
39,256,82555,6,0,L|39:358,1,90,6|0,0:0|0:0,0:0:0:0:
129,346,82921,1,8,0:0:0:0:
219,346,83104,1,0,0:0:0:0:
309,346,83287,2,0,L|411:346,1,90,2|0,0:0|0:0,0:0:0:0:
489,346,83653,1,8,0:0:0:0:
512,167,83836,1,6,0:0:0:0:
446,228,84019,5,8,0:0:0:0:
413,244,84110,1,8,0:0:0:0:
380,227,84202,1,8,0:0:0:0:
314,166,84384,1,8,2:0:0:0:
305,76,84567,1,8,0:0:0:0:
292,41,84659,1,8,0:0:0:0:
264,18,84750,1,8,0:0:0:0:
228,9,84842,1,8,0:0:0:0:
209,39,84933,1,8,0:0:0:0:
173,45,85025,1,0,0:0:0:0:
144,22,85116,1,8,2:0:0:0:
139,22,85208,1,8,3:0:0:0:
134,22,85299,1,8,3:0:0:0:
21,122,85482,5,4,1:0:0:0:
196,192,85665,2,0,L|46:192,1,144,0|8,0:0|0:0,0:0:0:0:
201,274,86031,2,0,L|344:274,1,144,0|2,0:0|0:0,0:0:0:0:
196,355,86397,2,0,L|49:355,1,144,0|8,0:0|0:0,0:0:0:0:
201,130,86763,6,0,L|201:281,1,144,0|2,0:0|0:0,0:0:0:0:
346,203,87128,2,0,L|346:56,1,144,0|8,0:0|0:0,0:0:0:0:
489,146,87494,2,0,L|489:2,1,144,0|2,0:0|0:0,0:0:0:0:
421,156,87860,2,0,L|421:303,1,144,0|8,0:0|0:0,0:0:0:0:
271,220,88226,6,0,L|271:365,1,144,0|4,0:0|0:0,0:0:0:0:
113,315,88592,2,0,L|113:167,1,144,0|8,0:0|0:0,0:0:0:0:
271,145,88958,2,0,L|271:1,1,144,0|2,0:0|0:0,0:0:0:0:
420,78,89324,2,0,L|420:226,1,144,0|8,0:0|0:0,0:0:0:0:
349,371,89689,6,0,L|349:225,1,144,0|4,0:0|0:0,0:0:0:0:
273,78,90055,2,0,L|273:226,1,144,0|8,0:0|0:0,0:0:0:0:
199,371,90421,2,0,L|199:223,1,144,0|2,0:0|0:0,0:0:0:0:
126,77,90787,1,0,0:0:0:0:
33,210,90970,1,10,0:0:0:0:
106,177,91061,1,2,0:0:0:0:
70,250,91153,6,0,L|70:104,1,144,0|4,0:0|0:0,0:0:0:0:
199,1,91519,2,0,L|199:157,1,144,0|8,0:0|0:0,0:0:0:0:
328,250,91884,2,0,L|328:104,1,144,0|2,0:0|0:0,0:0:0:0:
459,211,92250,2,0,L|459:356,1,144,0|8,0:0|0:0,0:0:0:0:
357,211,92616,6,0,L|357:355,1,144,0|2,0:0|0:0,0:0:0:0:
224,251,92982,2,0,L|224:108,1,144,0|8,0:0|0:0,0:0:0:0:
73,178,93348,2,0,L|73:32,1,144,0|2,0:0|0:0,0:0:0:0:
146,188,93714,2,0,L|146:331,1,144,0|8,0:0|0:0,0:0:0:0:
301,233,94080,6,0,L|301:379,1,144,0|4,0:0|0:0,0:0:0:0:
464,270,94445,2,0,L|464:123,1,144,0|8,0:0|0:0,0:0:0:0:
301,157,94811,2,0,L|301:11,1,144,0|2,0:0|0:0,0:0:0:0:
135,129,95177,2,0,L|135:273,1,144,0|8,0:0|0:0,0:0:0:0:
278,348,95543,2,0,L|424:348,1,144,0|2,0:0|0:0,0:0:0:0:
449,348,95817,5,8,0:0:0:0:
489,346,95909,1,8,0:0:0:0:
504,308,96000,1,8,0:0:0:0:
385,197,96183,5,8,0:0:0:0:
406,223,96275,1,8,0:0:0:0:
405,87,96458,5,8,0:0:0:0:
365,77,96549,1,8,0:0:0:0:
342,111,96641,1,8,0:0:0:0:
301,115,96732,1,8,0:0:0:0:
251,68,96824,5,12,3:0:0:0:
301,115,96915,1,8,3:0:0:0:
277,178,97006,1,8,3:0:0:0:
131,131,97189,6,0,L|41:131,1,90,6|0,0:0|0:0,0:0:0:0:
131,131,97555,2,0,L|220:131,2,90,8|0|2,0:0|0:0|0:0,0:0:0:0:
129,203,98104,1,2,0:0:0:0:
129,275,98287,1,8,0:0:0:0:
129,347,98470,1,0,0:0:0:0:
193,314,98653,6,0,P|284:296|387:323,1,180,0|8,0:0|0:0,0:0:0:0:
436,337,99202,2,0,P|458:310|475:246,1,90,2|0,0:0|0:0,0:0:0:0:
477,186,99567,1,2,0:0:0:0:
477,114,99750,1,8,0:0:0:0:
477,42,99933,1,2,0:0:0:0:
454,42,100025,1,0,0:0:0:0:
431,42,100116,6,0,L|341:42,1,90,2|0,0:0|0:0,0:0:0:0:
285,113,100482,2,0,L|195:113,1,90,8|0,0:0|0:0,0:0:0:0:
137,42,100848,1,2,0:0:0:0:
22,114,101031,5,2,0:0:0:0:
22,186,101214,1,8,0:0:0:0:
22,276,101397,1,2,0:0:0:0:
22,384,101580,6,0,L|243:384,1,215.999993408203,6|8,0:0|0:0,0:0:0:0:
118,312,102128,2,0,L|336:313,1,215.999993408203,6|2,0:0|0:0,0:0:0:0:
417,382,102677,1,8,0:0:0:0:
439,382,102769,1,8,0:0:0:0:
500,202,103043,6,0,P|471:120|366:120,1,202.500007724762,6|0,0:0|2:0,0:0:0:0:
357,143,103409,6,0,P|322:148|258:131,2,90,8|0|2,0:0|0:0|0:0,0:0:0:0:
320,62,103958,1,2,0:0:0:0:
248,62,104141,1,8,0:0:0:0:
176,62,104324,1,0,0:0:0:0:
89,136,104506,6,0,L|268:136,1,180,2|8,0:0|0:0,0:0:0:0:
324,207,105055,2,0,L|145:207,1,180,2|2,0:0|0:0,0:0:0:0:
72,207,105604,1,8,0:0:0:0:
72,279,105787,1,2,0:0:0:0:
72,351,105970,6,0,B|167:351|167:351|209:372|209:372|255:341,1,180,2|8,0:0|0:0,0:0:0:0:
409,351,106702,2,0,B|314:351|314:351|272:372|272:372|226:341,1,180,2|8,0:0|0:0,0:0:0:0:
279,290,107250,1,2,0:0:0:0:
279,290,107433,6,0,L|278:190,1,90,2|0,0:0|0:0,0:0:0:0:
278,127,107799,1,8,0:0:0:0:
278,54,107982,1,0,0:0:0:0:
278,54,108165,1,0,0:0:0:0:
95,127,108348,5,12,0:0:0:0:
278,127,108531,1,8,0:0:0:0:
461,127,108714,1,2,0:0:0:0:
461,162,108805,1,2,0:0:0:0:
461,197,108897,6,0,L|352:197,1,90,6|0,0:0|0:0,0:0:0:0:
281,197,109263,2,0,L|371:197,2,90,8|0|2,0:0|0:0|0:0,0:0:0:0:
281,269,109811,1,2,0:0:0:0:
281,341,109994,1,8,0:0:0:0:
208,341,110177,1,2,0:0:0:0:
135,341,110360,6,0,B|13:341|13:341|13:278,1,180,2|8,0:0|0:0,0:0:0:0:
83,268,110909,2,0,L|185:268,1,90,2|0,0:0|0:0,0:0:0:0:
245,268,111275,1,2,0:0:0:0:
245,341,111458,1,8,0:0:0:0:
317,341,111641,1,2,0:0:0:0:
389,341,111824,6,0,L|493:341,1,90,2|0,0:0|0:0,0:0:0:0:
479,268,112189,2,0,L|479:169,1,90,8|0,0:0|0:0,0:0:0:0:
479,42,112555,1,2,0:0:0:0:
479,110,112738,5,2,0:0:0:0:
407,103,112921,1,8,0:0:0:0:
318,93,113104,1,2,0:0:0:0:
209,76,113287,6,0,B|128:67|128:67|81:96|81:96|-2:88,1,215.999993408203,6|8,0:0|0:0,0:0:0:0:
148,140,113836,2,0,B|228:148|228:148|275:119|275:119|358:127,1,215.999993408203,6|2,0:0|0:0,0:0:0:0:
444,135,114384,5,8,0:0:0:0:
479,140,114476,1,8,0:0:0:0:
455,167,114567,1,2,0:0:0:0:
355,198,114750,6,0,B|294:191|294:191|247:219|247:219|173:212,2,180,6|8|2,0:0|0:0|0:0,0:0:0:0:
314,267,115665,1,2,0:0:0:0:
355,126,115848,2,0,L|262:116,1,90,8|0,0:0|0:0,0:0:0:0:
184,108,116214,6,0,P|151:121|104:167,1,90,2|0,0:0|0:0,0:0:0:0:
113,229,116580,1,8,0:0:0:0:
113,301,116763,1,2,0:0:0:0:
253,209,116945,5,2,0:0:0:0:
45,185,117128,5,2,0:0:0:0:
52,113,117311,1,8,0:0:0:0:
110,156,117494,1,2,0:0:0:0:
222,271,117677,6,0,B|252:284|252:284|280:273|280:273|307:284|307:284|333:273|333:273|361:284|361:284|393:269,2,180,2|8|2,0:0|0:0|0:0,0:0:0:0:
149,271,118592,1,2,0:0:0:0:
69,140,118775,1,12,0:0:0:0:
151,10,118958,1,0,0:0:0:0:
304,10,119141,5,12,0:0:0:0:
315,34,119232,2,0,P|375:41|440:33,1,101.250003862381,8|2,3:0|0:0,0:0:0:0:
502,107,119689,1,8,0:0:0:0:
502,152,119781,1,8,0:0:0:0:
502,196,119872,1,8,0:0:0:0:
502,218,119964,1,8,0:0:0:0:
502,240,120055,6,0,L|448:240,1,45,2|0,3:0|0:0,0:0:0:0:
366,240,120238,1,8,3:0:0:0:
320,240,120330,1,8,3:0:0:0:
275,240,120421,2,0,L|218:240,1,45,8|0,3:0|0:0,0:0:0:0:
138,240,120604,6,0,P|77:180|148:117,1,180,6|8,0:0|0:0,0:0:0:0:
209,150,121153,2,0,P|243:156|307:139,1,90,0|2,0:0|0:0,0:0:0:0:
342,76,121519,1,2,0:0:0:0:
382,76,121610,1,2,0:0:0:0:
423,76,121702,1,8,0:0:0:0:
423,156,121884,1,2,0:0:0:0:
423,237,122067,6,0,B|422:352|422:352|343:352,1,180,2|8,0:0|0:0,0:0:0:0:
275,352,122616,2,0,B|176:352,1,90,0|2,0:0|0:0,0:0:0:0:
143,281,122982,2,0,B|242:281,1,90,0|8,0:0|0:0,0:0:0:0:
351,281,123348,1,2,0:0:0:0:
386,281,123439,1,2,0:0:0:0:
422,281,123531,6,0,P|454:269|501:222,1,90,6|0,0:0|0:0,0:0:0:0:
373,130,123897,2,0,P|384:162|431:209,1,90,8|0,0:0|0:0,0:0:0:0:
500,63,124263,2,0,P|488:95|441:142,1,90,2|0,0:0|0:0,0:0:0:0:
331,65,124628,2,0,P|365:58|428:75,1,90,12|0,0:0|0:0,0:0:0:0:
301,128,124994,5,2,0:0:0:0:
284,121,125086,1,8,0:0:0:0:
271,108,125177,1,8,0:0:0:0:
264,91,125269,1,8,0:0:0:0:
201,142,125360,5,8,0:0:0:0:
184,121,125452,1,8,0:0:0:0:
177,95,125543,1,8,0:0:0:0:
181,69,125635,1,8,0:0:0:0:
104,95,125726,5,2,0:0:0:0:
71,110,125817,1,0,0:0:0:0:
39,91,125909,2,0,L|39:41,1,45,2|0,0:0|0:0,0:0:0:0:
1,195,126092,2,0,L|1:145,1,45,8|0,0:0|0:0,0:0:0:0:
33,300,126275,2,0,L|33:250,1,45,2|0,0:0|0:0,0:0:0:0:
73,361,126458,6,0,L|259:361,1,180,6|8,0:0|0:0,0:0:0:0:
343,361,127006,1,0,0:0:0:0:
343,361,127189,2,0,L|447:361,1,90,2|0,0:0|0:0,0:0:0:0:
468,278,127464,1,2,0:0:0:0:
468,278,127555,2,0,L|468:183,1,90,8|0,0:0|0:0,0:0:0:0:
468,61,127921,6,0,P|410:72|334:59,1,135,2|0,0:0|2:0,0:0:0:0:
290,9,128287,2,0,P|232:-2|156:11,1,135,8|0,0:0|2:0,0:0:0:0:
109,58,128653,1,2,0:0:0:0:
91,84,128744,1,2,0:0:0:0:
121,93,128836,1,2,0:0:0:0:
103,119,128927,1,2,0:0:0:0:
134,123,129019,1,10,0:0:0:0:
116,149,129110,1,2,0:0:0:0:
146,158,129202,1,2,0:0:0:0:
128,184,129293,1,2,0:0:0:0:
159,187,129384,6,0,L|209:290,1,90,6|0,0:0|0:0,0:0:0:0:
160,350,129750,2,0,L|110:247,1,90,8|0,0:0|0:0,0:0:0:0:
88,204,130116,1,2,0:0:0:0:
26,159,130299,1,0,0:0:0:0:
95,128,130482,1,10,0:0:0:0:
80,336,130665,1,6,0:0:0:0:
171,215,130848,5,8,0:0:0:0:
200,235,130939,1,8,0:0:0:0:
230,215,131031,1,8,0:0:0:0:
258,235,131122,1,8,0:0:0:0:
288,215,131214,1,12,2:0:0:0:
398,308,131397,1,8,0:0:0:0:
369,328,131488,1,8,0:0:0:0:
339,308,131580,1,8,0:0:0:0:
311,328,131671,1,8,0:0:0:0:
281,308,131763,2,0,L|229:308,1,45,8|0,0:0|0:0,0:0:0:0:
146,308,131945,1,8,2:0:0:0:
109,308,132037,1,8,3:0:0:0:
73,308,132128,1,8,3:0:0:0:
6,144,132311,6,0,B|56:170|56:170|110:139|156:171|156:171|203:141,1,215.999993408203,4|8,1:0|0:0,0:0:0:0:
252,67,132860,5,0,0:0:0:0:
252,67,133043,2,0,L|344:67,1,90,2|0,0:0|0:0,0:0:0:0:
423,67,133409,1,8,0:0:0:0:
504,67,133592,1,0,0:0:0:0:
504,156,133775,6,0,L|504:255,1,90,2|0,0:0|0:0,0:0:0:0:
504,341,134141,2,0,P|470:348|407:331,1,90,8|0,0:0|0:0,0:0:0:0:
364,273,134415,1,0,0:0:0:0:
364,273,134506,2,0,L|306:273,1,45,2|0,0:0|0:0,0:0:0:0:
237,273,134689,2,0,L|179:273,1,45
110,273,134872,1,8,0:0:0:0:
28,273,135055,1,0,0:0:0:0:
168,159,135238,6,0,L|224:159,1,45,2|0,0:0|0:0,0:0:0:0:
327,154,135421,1,0,0:0:0:0:
168,159,135604,1,8,0:0:0:0:
277,44,135787,1,0,0:0:0:0:
168,159,135970,1,2,0:0:0:0:
163,0,136153,1,0,0:0:0:0:
168,159,136336,1,8,0:0:0:0:
163,318,136519,1,0,0:0:0:0:
168,159,136702,1,2,0:0:0:0:
9,154,136885,1,0,0:0:0:0:
168,159,137067,1,8,0:0:0:0:
327,154,137250,1,0,0:0:0:0:
327,154,137342,1,0,0:0:0:0:
327,154,137433,6,0,L|386:154,1,45,2|0,0:0|0:0,0:0:0:0:
327,228,137616,2,0,L|386:228,1,45
327,301,137799,1,8,0:0:0:0:
367,301,137891,1,2,0:0:0:0:
407,301,137982,1,2,0:0:0:0:
494,154,138165,6,0,P|484:100|341:84,1,215.999993408203,6|8,0:0|0:0,0:0:0:0:
296,152,138714,5,0,0:0:0:0:
296,152,138897,2,0,L|203:152,1,90,2|0,0:0|0:0,0:0:0:0:
124,152,139263,1,8,0:0:0:0:
43,152,139445,1,2,0:0:0:0:
24,152,139537,1,2,0:0:0:0:
6,152,139628,6,0,P|-2:118|15:54,1,90,2|0,0:0|0:0,0:0:0:0:
97,18,139994,1,8,0:0:0:0:
111,29,140086,1,0,0:0:0:0:
126,37,140177,2,0,P|160:44|223:27,1,90,2|0,0:0|0:0,0:0:0:0:
327,0,140543,6,0,P|429:13|457:125,1,215.999993408203,2|0,0:0|0:0,0:0:0:0:
429,275,141092,5,2,0:0:0:0:
269,355,141275,1,0,0:0:0:0:
189,196,141458,1,8,0:0:0:0:
347,115,141641,1,0,0:0:0:0:
407,175,141824,5,2,0:0:0:0:
361,321,142006,1,0,0:0:0:0:
216,272,142189,1,8,0:0:0:0:
195,265,142281,1,0,0:0:0:0:
174,258,142372,1,0,0:0:0:0:
264,129,142555,5,2,0:0:0:0:
177,63,142738,1,0,0:0:0:0:
89,126,142921,1,8,0:0:0:0:
57,126,143013,1,0,0:0:0:0:
25,126,143104,2,0,L|25:82,1,45,8|0,0:0|0:0,0:0:0:0:
24,246,143287,5,2,0:0:0:0:
68,246,143378,1,0,0:0:0:0:
113,246,143470,1,2,0:0:0:0:
157,246,143561,1,0,0:0:0:0:
202,246,143653,2,0,L|256:246,1,45,8|0,0:0|0:0,0:0:0:0:
337,246,143836,2,0,L|396:246,1,45,8|0,0:0|0:0,0:0:0:0:
411,113,144019,6,0,L|314:113,1,90,6|0,0:0|0:0,0:0:0:0:
231,113,144384,2,0,L|321:113,1,90,8|0,0:0|0:0,0:0:0:0:
174,57,144750,1,2,0:0:0:0:
93,57,144933,1,0,0:0:0:0:
13,57,145116,1,8,0:0:0:0:
13,204,145299,1,0,0:0:0:0:
13,191,145391,1,0,0:0:0:0:
13,178,145482,5,6,0:0:0:0:
58,178,145574,1,0,0:0:0:0:
102,178,145665,1,0,0:0:0:0:
146,177,145756,1,0,0:0:0:0:
150,254,145848,2,2,L|206:254,1,45,10|0,0:0|0:0,0:0:0:0:
239,254,146031,1,0,0:0:0:0:
283,253,146122,1,0,0:0:0:0:
360,253,146214,5,2,0:0:0:0:
388,218,146305,1,0,0:0:0:0:
359,183,146397,1,0,0:0:0:0:
277,54,146580,5,10,0:0:0:0:
249,89,146671,1,0,0:0:0:0:
278,124,146763,1,0,0:0:0:0:
428,149,146945,6,0,P|474:239|421:289,1,180,2|8,0:0|0:0,0:0:0:0:
206,286,147494,2,0,P|159:195|213:146,1,180,2|2,0:0|0:0,0:0:0:0:
302,149,148043,2,0,P|291:116|244:69,1,90,8|0,0:0|0:0,0:0:0:0:
164,67,148409,5,2,0:0:0:0:
123,67,148500,1,0,0:0:0:0:
82,67,148592,1,0,0:0:0:0:
0,67,148775,1,8,0:0:0:0:
0,148,148958,2,0,L|107:148,2,90,2|2|2,0:0|0:0|0:0,0:0:0:0:
0,229,149506,1,8,0:0:0:0:
40,229,149597,1,2,0:0:0:0:
80,229,149689,1,2,0:0:0:0:
317,229,149872,6,0,L|262:229,1,45,6|0,0:0|0:0,0:0:0:0:
221,280,150055,2,0,L|221:335,1,45
273,375,150238,2,0,L|318:375,1,45,8|0,0:0|0:0,0:0:0:0:
369,324,150421,2,0,L|369:279,1,45
491,280,150604,5,2,0:0:0:0:
492,226,150695,1,2,0:0:0:0:
492,171,150787,1,2,0:0:0:0:
493,117,150878,1,2,0:0:0:0:
493,62,150970,5,8,0:0:0:0:
488,63,151061,1,0,0:0:0:0:
483,64,151153,1,0,0:0:0:0:
478,65,151244,1,0,0:0:0:0:
456,71,151336,6,0,L|400:71,1,45,6|0,0:0|0:0,0:0:0:0:
320,71,151519,2,0,L|264:71,1,45
184,71,151702,2,0,L|128:71,1,45,8|0,0:0|0:0,0:0:0:0:
26,117,151884,1,0,0:0:0:0:
26,121,151976,1,0,0:0:0:0:
26,125,152067,5,2,0:0:0:0:
26,179,152159,1,2,0:0:0:0:
60,219,152250,1,2,0:0:0:0:
112,231,152342,1,2,0:0:0:0:
162,213,152433,5,8,0:0:0:0:
166,213,152525,1,0,0:0:0:0:
170,213,152616,1,0,0:0:0:0:
174,213,152708,1,0,0:0:0:0:
191,198,152799,6,0,L|255:198,1,45,6|0,0:0|0:0,0:0:0:0:
326,198,152982,2,0,L|390:198,1,45
431,130,153165,5,10,0:0:0:0:
454,130,153256,1,0,0:0:0:0:
408,67,153348,5,2,0:0:0:0:
427,55,153439,1,0,0:0:0:0:
355,25,153531,5,2,0:0:0:0:
365,5,153622,1,0,0:0:0:0:
289,17,153714,5,2,0:0:0:0:
289,1,153805,1,0,0:0:0:0:
223,40,153897,5,10,0:0:0:0:
211,21,153988,1,0,0:0:0:0:
180,93,154080,5,2,0:0:0:0:
161,83,154171,1,0,0:0:0:0:
156,159,154263,6,0,L|45:159,1,90,6|0,0:0|0:0,0:0:0:0:
21,238,154628,2,0,L|70:238,3,45,10|0|2|0,0:0|0:0|0:0|0:0,0:0:0:0:
137,238,154994,1,14,0:0:0:0:
207,238,155085,1,2,0:0:0:0:
277,238,155176,1,2,0:0:0:0:
347,238,155268,1,2,0:0:0:0:
417,238,155359,5,12,0:0:0:0:
421,238,155452,1,0,0:0:0:0:
425,238,155543,1,2,0:0:0:0:
429,238,155634,1,0,0:0:0:0:
501,238,155726,5,4,1:0:0:0:
256,192,158470,5,2,0:0:0:0:
256,192,158561,1,0,0:0:0:0:
256,192,158653,1,6,0:0:0:0:
256,192,160116,5,6,0:0:0:0:
256,192,161031,1,2,3:0:0:0:
256,192,161214,1,8,0:0:0:0:
256,192,161305,1,8,0:0:0:0:
256,192,161397,1,2,0:0:0:0:
256,192,161580,5,4,1:0:0:0:
105,37,162311,2,0,L|52:67,1,45.0000017166138,8|0,0:0|0:0,0:0:0:0:
63,95,162555,6,0,L|32:147,1,45.0000017166138,8|0,0:0|0:0,0:0:0:0:
56,166,162799,6,0,L|56:226,1,45.0000017166138,8|0,0:0|0:0,0:0:0:0:
85,232,163043,6,0,L|115:284,1,45.0000017166138,8|0,0:0|0:0,0:0:0:0:
143,271,163287,5,8,3:0:0:0:
413,271,163531,5,8,3:0:0:0:
192,319,163775,5,8,3:0:0:0:
364,319,164019,5,8,3:0:0:0:
278,352,164263,5,8,3:0:0:0:
278,32,164506,5,4,0:0:0:0:
278,32,165238,5,2,0:0:0:0:
19,166,165970,5,2,0:0:0:0:
80,30,166336,2,0,L|155:22,1,67.5000025749208,8|0,0:0|0:0,0:0:0:0:
183,169,166702,5,8,2:0:0:0:
213,188,166793,1,8,1:0:0:0:
250,189,166885,1,8,1:0:0:0:
283,174,166976,1,8,1:0:0:0:
343,105,167068,5,8,2:0:0:0:
373,86,167159,1,8,1:0:0:0:
410,85,167251,1,8,1:0:0:0:
443,100,167342,1,8,1:0:0:0:
502,169,167434,5,4,1:0:0:0:
394,339,167616,6,0,L|394:198,1,135.000005149842,0|8,0:0|0:0,0:0:0:0:
180,189,167982,6,0,L|180:14,1,161.999995056153,0|2,0:0|0:0,0:0:0:0:
289,341,168348,6,0,L|289:288,1,45,0|8,0:0|0:0,0:0:0:0:
61,242,168714,6,0,L|61:144,1,90,0|2,0:0|0:0,0:0:0:0:
288,188,169080,6,0,L|288:45,1,135.000005149842,0|8,0:0|0:0,0:0:0:0:
180,351,169445,6,0,L|180:186,1,161.999995056153,0|2,0:0|0:0,0:0:0:0:
405,204,169811,6,0,L|405:129,1,67.5000025749208,0|8,0:0|0:0,0:0:0:0:
311,289,170177,5,0,0:0:0:0:
311,289,170360,2,0,L|494:289,1,180,4|0,0:0|0:0,0:0:0:0:
288,306,170726,5,8,0:0:0:0:
288,306,170909,2,0,L|289:68,1,215.999993408203,0|2,0:0|0:0,0:0:0:0:
54,366,171275,6,0,L|54:193,1,161.999995056153,0|8,0:0|0:0,0:0:0:0:
311,289,171641,5,0,0:0:0:0:
311,289,171824,2,0,L|119:289,1,180,4|0,0:0|0:0,0:0:0:0:
291,193,172189,5,8,0:0:0:0:
291,193,172372,2,0,L|291:26,1,161.999995056153,0|2,0:0|0:0,0:0:0:0:
189,146,172738,1,0,0:0:0:0:
417,73,172921,1,10,0:0:0:0:
443,150,173013,1,2,0:0:0:0:
371,112,173104,2,0,L|459:112,1,80.9999975280763
498,215,173287,6,0,L|319:215,1,180,4|0,0:0|0:0,0:0:0:0:
136,218,173653,5,8,0:0:0:0:
136,218,173836,2,0,L|136:42,1,161.999995056153,0|2,0:0|0:0,0:0:0:0:
290,352,174202,6,0,L|290:294,1,45,0|8,0:0|0:0,0:0:0:0:
2,271,174567,6,0,L|2:181,1,90,0|2,0:0|0:0,0:0:0:0:
290,161,174933,6,0,L|290:18,1,135.000005149842,0|8,0:0|0:0,0:0:0:0:
480,355,175299,6,0,L|480:178,1,161.999995056153,0|2,0:0|0:0,0:0:0:0:
173,316,175665,6,0,L|173:237,1,67.5000025749208,0|8,0:0|0:0,0:0:0:0:
177,15,176031,5,0,0:0:0:0:
177,15,176214,2,0,L|368:15,1,180,4|0,0:0|0:0,0:0:0:0:
439,230,176580,5,8,0:0:0:0:
439,230,176763,2,0,L|439:5,1,215.999993408203,0|2,0:0|0:0,0:0:0:0:
290,347,177128,6,0,L|290:186,1,161.999995056153,0|8,0:0|0:0,0:0:0:0:
290,15,177494,1,0,0:0:0:0:
170,144,177677,5,10,2:0:0:0:
171,107,177769,1,8,0:0:0:0:
172,71,177860,1,8,0:0:0:0:
173,34,177952,1,8,0:0:0:0:
92,34,178043,5,8,2:0:0:0:
91,71,178135,1,8,0:0:0:0:
90,107,178226,1,8,0:0:0:0:
89,144,178318,1,8,0:0:0:0:
88,224,178409,5,8,2:0:0:0:
113,249,178500,1,8,0:0:0:0:
88,275,178592,1,8,0:0:0:0:
63,249,178683,1,8,0:0:0:0:
89,211,178775,5,8,3:0:0:0:
117,260,178866,1,8,3:0:0:0:
58,260,178958,1,8,3:0:0:0:
221,222,179141,6,0,L|365:222,1,135.000005149842,4|0,1:0|0:0,0:0:0:0:
356,222,179506,1,2,0:0:0:0:
221,151,179689,6,0,L|306:151,1,67.5000025749208,4|0,0:0|0:0,0:0:0:0:
357,151,179872,1,8,3:0:0:0:
357,151,180054,1,8,3:0:0:0:
223,81,180238,5,12,0:0:0:0:
288,292,180421,1,4,1:0:0:0:
256,192,180513,12,0,182067,0:0:0:0:
