osu file format v14

[General]
AudioFilename: audio.mp3
AudioLeadIn: 0
PreviewTime: 208326
Countdown: 0
SampleSet: Soft
StackLeniency: 0.7
Mode: 0
LetterboxInBreaks: 0
WidescreenStoryboard: 1

[Editor]
Bookmarks: 260,15260,45260,67760,82760,105260,137135,148385,178385,200885,230885,251510,270728
DistanceSpacing: 1.1
BeatDivisor: 4
GridSize: 32
TimelineZoom: 3.999999

[Metadata]
Title:GLESSING WAY!!
TitleUnicode:GLESSING WAY!!
Artist:Falcom Sound Team jdk
ArtistUnicode:Falcom Sound Team jdk
Creator:Deca
Version:NIGHTMARE
Source:イースIX -Monstrum NOX-
Tags:aragon yukihiro jindo 神藤 由東大 akiko nagano 長野 昭子 masaru teramae 寺前 甲 tokunan demetori atsushi enomoto 榎本 敦 avaivartika shige yamamoto シゲ山本 koki tochio 栃尾 恒樹 presstone j.d.k. band ys 9 nihon super ultimate instrumental metal video game arpg action ratspack records corsace open 2022 grand finals hidden one co22 gf hd1
BeatmapID:4149604
BeatmapSetID:1850921

[Difficulty]
HPDrainRate:5
CircleSize:4
OverallDifficulty:8
ApproachRate:9.2
SliderMultiplier:1.4
SliderTickRate:1

[Events]
//Background and Video events
0,0,"castcrop.jpg",0,0
//Break Periods
2,137334,147785
//Storyboard Layer 0 (Background)
//Storyboard Layer 1 (Fail)
//Storyboard Layer 2 (Pass)
//Storyboard Layer 3 (Foreground)
//Storyboard Layer 4 (Overlay)
//Storyboard Sound Samples

[TimingPoints]
260,234.375,4,2,1,65,1,0
13385,-100,4,2,1,80,0,0
15260,-100,4,2,1,65,0,0
45260,-100,4,2,1,70,0,0
67760,-100,4,2,1,65,0,0
82760,-100,4,2,1,70,0,0
105260,-90.9090909090909,4,2,1,80,0,0
137135,-90.9090909090909,4,2,1,60,0,0
144635,-90.9090909090909,4,2,1,75,0,0
148385,-100,4,2,1,65,0,0
163385,-100,4,2,1,70,0,0
178385,-100,4,2,1,70,0,0
200885,-90.9090909090909,4,2,1,80,0,0
254205,-100,4,2,1,80,0,0

[Colours]
Combo1 : 208,115,53
Combo2 : 223,13,13
Combo3 : 252,91,63
Combo4 : 168,26,26

[HitObjects]
273,201,260,5,2,1:0:0:0:
362,290,2135,1,2,1:0:0:0:
362,290,2486,1,2,1:0:0:0:
499,205,3541,1,0,1:3:0:0:
475,80,4010,5,2,1:0:0:0:
475,80,4244,2,0,P|431:87|401:89,1,70,0|8,3:0|0:0,0:0:0:0:
287,29,4595,1,8,0:3:0:0:
287,29,4830,1,8,0:3:0:0:
195,95,5064,1,8,0:3:0:0:
195,95,5181,2,0,P|200:61|204:21,1,70,8|0,3:0|0:0,0:0:0:0:
128,44,5416,2,0,P|93:41|45:55,1,70,8|8,0:0|0:3,0:0:0:0:
9,106,5650,1,8,3:0:0:0:
141,185,5885,6,0,B|219:166|200:204|291:178,1,140,2|0,1:0|3:0,0:0:0:0:
300,254,6236,2,0,P|363:241|447:229,1,140,8|0,0:0|3:0,0:0:0:0:
474,161,6588,1,8,0:0:0:0:
474,161,6705,1,8,0:0:0:0:
420,105,6822,6,0,P|373:112|329:117,1,70,2|0,1:0|3:0,0:0:0:0:
294,62,7056,2,0,P|240:70|196:68,1,70,8|0,0:0|3:0,0:0:0:0:
139,97,7291,2,0,P|142:54|131:20,2,70,8|8|8,0:0|0:0|0:3,0:0:0:0:
41,244,7760,6,2,P|97:231|202:220,1,140,0|0,1:0|0:0,1:0:0:0:
252,209,9400,1,0,3:0:0:0:
252,209,9517,1,0,3:0:0:0:
252,209,9635,2,0,P|203:215|167:226,1,70,2|0,1:0|0:0,0:0:0:0:
66,352,9986,2,0,P|54:307|55:268,1,70,2|0,1:0|0:0,0:0:0:0:
80,77,10455,2,0,P|93:129|89:164,2,70,8|8|8,0:0|0:0|0:0,0:0:0:0:
123,17,10806,1,8,0:0:0:0:
123,17,10924,2,0,P|177:31|277:10,1,140,8|8,0:0|0:0,0:0:0:0:
297,86,11275,2,0,P|331:80|372:88,1,70,8|0,0:3|0:0,0:0:0:0:
454,67,11510,6,0,L|440:222,1,140,2|0,1:0|3:0,0:0:0:0:
373,243,11861,2,0,P|377:290|371:329,1,70,8|0,0:0|0:0,0:0:0:0:
328,384,12095,1,8,0:3:0:0:
461,325,12330,1,8,0:3:0:0:
279,283,12564,1,0,3:0:0:0:
279,283,12681,2,0,P|242:287|202:289,1,70,8|0,3:0|0:0,0:0:0:0:
132,295,12916,2,0,P|121:254|124:205,1,70,8|8,0:3|0:3,0:0:0:0:
55,185,13150,2,0,P|59:138|74:106,1,70,0|0,3:0|3:0,0:0:0:0:
81,41,13385,6,0,P|133:56|232:46,1,140,4|0,1:2|3:0,0:0:0:0:
247,121,13736,2,0,P|285:108|333:101,1,70,2|0,1:2|3:0,3:0:0:0:
374,54,13970,2,0,P|397:103|376:209,1,140,2|0,1:2|3:0,3:0:0:0:
462,257,14322,6,0,L|374:271,1,70,2|8,1:2|0:0,0:0:0:0:
375,342,14556,2,0,P|325:349|283:364,1,70,8|8,0:0|0:0,0:0:0:0:
230,340,14791,1,8,0:0:0:0:
184,358,14908,1,8,0:0:0:0:
141,330,15025,1,8,0:0:0:0:
94,350,15142,1,8,0:0:0:0:
25,317,15260,6,0,P|0:267|30:162,1,140,4|8,1:2|0:0,0:0:0:0:
70,77,15611,2,0,P|106:129|83:228,1,140,2|0,1:2|3:0,0:0:0:0:
173,240,15963,2,0,P|214:231|262:229,1,70,10|0,0:2|0:0,0:0:0:0:
351,193,16197,6,0,P|305:149|205:144,1,140,2|8,1:2|0:0,0:0:0:0:
350,52,16549,2,0,P|386:94|481:108,1,140,2|0,1:2|3:0,0:0:0:0:
446,200,16900,2,0,P|433:244|428:276,1,70,10|0,0:0|0:0,0:0:0:0:
440,344,17135,2,0,P|382:348|351:358,1,70,2|2,1:2|0:2,0:0:0:0:
300,375,17369,1,10,0:2:0:0:
239,328,17486,2,0,P|217:278|263:212,1,140,2|0,1:2|3:0,0:0:0:0:
232,140,17838,2,0,P|185:136|152:129,1,70,8|0,0:0|0:0,0:0:0:0:
132,202,18072,6,0,L|-13:234,1,140,0|8,1:0|0:0,0:0:0:0:
0,143,18424,2,0,P|-11:91|52:19,1,140,0|0,1:0|3:0,0:0:0:0:
115,1,18775,2,0,L|128:81,1,70,8|0,0:0|3:0,0:0:0:0:
208,107,19010,6,0,B|281:90|274:133|366:97,1,140,2|8,1:2|0:0,0:0:0:0:
375,173,19361,2,0,P|429:161|454:161,1,70,2|0,1:2|0:0,0:0:0:0:
505,214,19595,1,0,3:0:0:0:
443,274,19713,2,0,P|435:314|448:359,1,70,10|0,0:2|0:0,0:0:0:0:
353,323,19947,6,0,P|283:332|212:357,1,140,2|8,1:2|0:0,0:0:0:0:
138,384,20299,2,0,P|118:318|162:252,1,140,2|0,1:2|3:0,0:0:0:0:
208,204,20650,2,0,P|220:185|206:122,1,70,10|0,0:0|0:0,0:0:0:0:
164,83,20885,6,0,P|118:91|77:96,1,70,2|2,1:2|0:2,0:0:0:0:
26,128,21119,1,10,0:2:0:0:
101,176,21236,2,0,B|182:156|170:200|264:171,1,140,2|0,0:0|3:0,0:0:0:0:
304,124,21588,2,0,P|291:75|291:34,1,70,8|0,0:0|0:0,0:0:0:0:
389,109,21822,6,0,P|403:176|382:257,1,140,2|8,1:2|0:0,0:0:0:0:
457,291,22174,2,0,P|372:378|340:383,1,140,2|0,1:2|3:0,0:0:0:0:
279,384,22525,2,0,P|275:354|286:305,1,70,10|0,0:2|0:0,0:0:0:0:
239,243,22760,6,0,P|148:227|76:211,1,140,4|8,1:2|0:0,0:0:0:0:
25,147,23111,2,0,P|98:139|169:131,1,140,2|0,1:2|3:0,0:0:0:0:
237,88,23463,2,0,P|234:46|219:6,1,70,10|0,0:0|0:0,0:0:0:0:
338,11,23697,6,0,P|396:22|438:96,1,140,2|8,1:2|0:0,0:0:0:0:
484,171,24049,2,0,P|423:164|356:229,1,140,2|0,1:2|3:0,0:0:0:0:
419,274,24400,2,0,P|422:320|415:357,1,70,10|0,0:2|0:0,0:0:0:0:
335,374,24635,2,0,L|255:361,1,70,2|2,1:2|0:2,0:0:0:0:
190,384,24869,1,10,0:2:0:0:
159,313,24986,2,0,B|143:249|205:261|156:157,1,140,2|0,1:2|3:0,0:0:0:0:
103,130,25338,2,0,P|46:138|8:139,1,70,8|0,0:0|0:0,0:0:0:0:
29,58,25572,2,0,P|89:50|173:35,1,140,0|8,1:0|0:0,0:0:0:0:
231,86,25924,1,0,1:0:0:0:
294,42,26041,2,0,P|346:29|395:26,1,70,0|2,0:0|0:0,0:0:0:0:
407,88,26275,2,0,P|414:142|419:182,1,70,10|2,0:2|0:2,0:0:0:0:
496,198,26510,6,0,P|459:234|372:241,1,140,2|8,1:2|0:0,0:0:0:0:
309,326,26861,2,0,P|258:303|177:353,1,140,0|0,1:2|3:0,0:0:0:0:
126,279,27213,2,0,P|88:288|37:296,1,70,10|0,0:0|0:0,0:0:0:0:
5,236,27447,6,0,B|-8:170|60:144|11:75,1,140,2|8,1:2|0:0,0:0:0:0:
99,20,27799,2,0,P|109:91|127:170,1,140,2|0,1:2|3:0,0:0:0:0:
200,194,28150,2,0,P|242:184|282:178,1,70,10|0,0:2|0:0,0:0:0:0:
309,114,28385,6,0,P|373:99|463:85,1,140,2|8,1:2|0:0,0:0:0:0:
494,146,28736,1,0,3:0:0:0:
446,206,28853,2,0,P|456:250|475:289,1,70,2|2,1:2|0:2,0:0:0:0:
495,344,29088,2,0,P|450:356|423:375,1,70,10|2,0:2|3:2,0:0:0:0:
354,359,29322,2,0,P|306:308|322:226,1,140,12|0,0:2|3:0,0:0:0:0:
262,181,29674,2,0,P|210:211|131:189,1,140,10|0,0:2|0:0,0:0:0:0:
152,117,30025,2,0,P|158:71|156:37,1,70,8|0,0:0|0:0,0:0:0:0:
86,21,30260,6,0,P|48:45|41:149,1,140,4|8,1:2|0:0,0:0:0:0:
25,209,30611,2,0,P|51:259|17:334,1,140,2|0,1:2|3:0,0:0:0:0:
88,368,30963,2,0,P|142:355|179:355,1,70,10|0,0:2|0:0,0:0:0:0:
204,294,31197,6,0,L|348:328,1,140,2|8,1:2|0:0,0:0:0:0:
373,256,31549,2,0,L|514:235,1,140,2|0,1:2|3:0,0:0:0:0:
496,159,31900,2,0,P|494:125|494:76,1,70,10|0,0:2|0:0,0:0:0:0:
432,41,32135,6,0,P|390:49|340:59,1,70,2|2,1:2|0:2,0:0:0:0:
333,125,32369,1,10,0:2:0:0:
262,93,32486,2,0,P|209:117|100:106,1,140,2|0,0:2|3:0,0:0:0:0:
81,177,32838,2,0,P|23:175|-12:175,1,70,8|0,0:0|0:0,0:0:0:0:
32,248,33072,6,0,B|115:256|77:295|174:302,1,140,2|8,1:2|0:0,0:0:0:0:
181,374,33424,2,0,B|264:366|226:327|323:320,1,140,2|2,1:2|1:2,0:0:0:0:
356,262,33775,2,0,P|343:217|349:175,1,70,10|2,0:2|3:2,0:0:0:0:
406,148,34010,6,0,P|422:74|383:7,1,140,2|8,1:2|0:0,0:0:0:0:
320,38,34361,2,0,P|280:63|185:39,1,140,2|0,1:2|3:0,0:0:0:0:
146,108,34713,2,0,P|96:121|68:131,1,70,10|0,0:2|0:0,0:0:0:0:
49,198,34947,6,0,P|103:220|192:203,1,140,2|8,1:2|0:0,0:0:0:0:
199,298,35299,2,0,P|257:277|350:300,1,140,2|0,1:2|3:0,0:0:0:0:
421,305,35650,2,0,P|475:293|502:292,1,70,10|0,0:2|0:0,0:0:0:0:
497,209,35885,6,0,P|486:182|481:133,1,70,2|2,1:2|0:2,0:0:0:0:
451,65,36119,1,10,0:2:0:0:
392,14,36236,2,0,P|318:28|252:26,1,140,2|0,0:2|3:0,0:0:0:0:
220,96,36588,2,0,P|160:85|128:83,1,70,8|0,0:0|0:0,0:0:0:0:
66,141,36822,6,0,P|115:159|218:193,1,140,2|8,1:2|0:0,0:0:0:0:
128,255,37174,2,0,P|56:283|-29:325,1,140,2|0,1:2|1:0,0:0:0:0:
62,371,37525,1,10,0:2:0:0:
284,315,37760,6,0,B|252:247|321:255|277:167,1,140,4|8,1:2|0:0,0:0:0:0:
319,103,38111,2,0,P|389:113|440:185,1,140,2|0,1:2|3:0,0:0:0:0:
448,246,38463,2,0,L|352:267,1,70,10|0,0:2|0:0,0:0:0:0:
340,375,38697,6,0,P|274:355|174:340,1,140,2|8,1:2|0:0,0:0:0:0:
132,384,39049,2,0,P|112:343|144:249,1,140,2|0,1:2|3:0,0:0:0:0:
76,192,39400,2,0,P|70:158|93:113,1,70,10|0,0:2|0:0,0:0:0:0:
97,46,39635,6,0,P|141:56|190:62,1,70,2|2,1:2|0:2,0:0:0:0:
228,114,39869,1,10,0:2:0:0:
307,99,39986,2,0,P|377:115|472:136,1,140,2|0,1:2|3:0,0:0:0:0:
474,203,40338,2,0,P|464:257|458:293,1,70,8|0,0:0|0:0,0:0:0:0:
442,346,40572,2,0,P|389:355|293:314,1,140,0|8,1:0|0:0,0:0:0:0:
62,234,41041,6,0,P|108:217|142:224,1,70,2|2,0:0|3:2,0:0:0:0:
183,153,41275,2,0,P|162:129|112:108,1,70,10|2,0:2|0:2,0:0:0:0:
102,29,41510,2,0,P|174:37|251:0,1,140,4|8,1:2|0:0,0:0:0:0:
258,105,41861,2,0,P|293:125|396:120,1,140,2|0,1:2|3:0,0:0:0:0:
397,208,42213,2,0,P|356:219|315:254,1,70,10|0,0:2|0:0,0:0:0:0:
294,302,42447,6,0,P|342:322|440:288,1,140,2|8,1:2|0:0,0:0:0:0:
482,183,42799,2,0,P|494:133|436:50,1,140,2|0,1:2|3:0,0:0:0:0:
383,10,43150,2,0,P|335:25|301:29,1,70,10|0,0:2|0:0,0:0:0:0:
295,113,43385,6,0,B|245:130|220:84|138:117,1,140,2|10,1:2|0:0,0:0:0:0:
96,16,43736,2,0,P|71:75|90:158,1,140,4|0,1:2|3:0,0:0:0:0:
18,205,44088,2,0,P|34:246|32:285,1,70,10|10,0:2|0:2,0:0:0:0:
7,366,44322,6,0,P|77:341|152:336,1,140,2|8,1:2|0:0,0:0:0:0:
205,241,44674,2,0,P|221:292|220:323,1,70,2|8,1:2|0:0,0:0:0:0:
276,368,44908,1,8,0:0:0:0:
339,324,45025,2,0,P|354:292|351:244,1,70,10|8,0:3|0:3,0:0:0:0:
375,182,45260,6,0,P|476:198|528:212,1,140,2|8,1:2|0:0,0:0:0:0:
452,107,45611,2,0,P|406:100|356:92,1,70,2|0,1:2|0:0,0:0:0:0:
313,0,45845,2,0,P|298:62|304:152,1,140,4|8,1:2|0:3,0:0:0:0:
224,184,46197,6,0,P|123:168|71:154,1,140,2|8,1:2|0:0,0:0:0:0:
147,259,46548,2,0,P|193:266|243:274,1,70,2|0,1:2|0:0,0:0:0:0:
283,374,46782,2,0,P|298:312|292:222,1,140,4|0,1:2|3:0,0:0:0:0:
378,164,47135,6,0,P|462:170|488:227,1,140,2|8,1:2|0:0,0:0:0:0:
512,292,47486,1,0,1:0:0:0:
466,366,47603,2,0,P|382:360|356:303,1,140,2|0,0:0|1:0,0:0:0:0:
283,320,47955,2,0,P|234:331|199:343,1,70,8|0,0:3|1:0,0:0:0:0:
138,328,48189,1,8,0:0:0:0:
70,290,48306,2,0,P|57:253|95:162,1,140,10|8,0:3|0:3,0:0:0:0:
64,91,48658,2,0,P|136:51|208:94,1,140,10|8,0:3|0:3,0:0:0:0:
275,0,49010,6,0,B|250:86|312:63|279:158,1,140,4|8,1:2|0:0,0:0:0:0:
205,153,49361,2,0,P|193:226|199:298,1,140,2|0,1:2|3:0,0:0:0:0:
282,323,49713,2,0,P|338:333|368:344,1,70,10|0,0:2|0:0,0:0:0:0:
402,280,49947,6,0,P|460:271|487:192,1,140,2|8,1:2|0:0,0:0:0:0:
424,149,50299,2,0,P|428:101|349:37,1,140,2|0,1:2|3:0,0:0:0:0:
291,86,50650,2,0,P|249:94|216:108,1,70,10|0,3:2|3:0,3:0:0:0:
190,178,50885,6,0,P|126:201|53:187,1,140,2|8,1:2|0:0,0:0:0:0:
0,270,51236,2,0,P|52:284|102:374,1,140,2|0,1:2|3:0,0:0:0:0:
190,376,51588,2,0,P|182:335|178:301,1,70,10|0,0:2|0:0,0:0:0:0:
268,303,51822,6,0,P|348:288|434:282,1,140,2|8,1:2|0:0,0:0:0:0:
496,335,52174,2,0,P|507:300|448:210,1,140,0|0,1:0|1:0,0:0:0:0:
362,193,52525,2,0,P|349:158|361:124,1,70,8|8,0:0|0:0,0:0:0:0:
340,31,52760,6,0,P|405:52|490:65,1,140,2|8,1:2|0:0,0:0:0:0:
512,143,53111,1,2,1:2:0:0:
259,120,53345,6,0,P|196:102|93:91,1,140,4|8,1:2|0:3,0:0:0:0:
62,29,53697,2,0,P|42:63|48:114,1,70,2|0,1:2|0:0,0:0:0:0:
9,166,53931,1,8,0:0:0:0:
68,228,54049,2,0,P|82:264|75:300,1,70,2|0,1:2|0:0,0:0:0:0:
53,382,54283,2,0,P|165:360|209:357,1,140,4|8,3:2|3:0,0:0:0:0:
261,297,54635,6,0,B|276:220|212:245|239:155,1,140,2|8,1:2|0:0,0:0:0:0:
255,82,54986,1,2,1:2:0:0:
325,22,55103,2,0,P|335:92|321:177,1,140,10|8,0:3|0:3,0:0:0:0:
362,235,55455,1,8,0:3:0:0:
433,199,55572,2,0,P|480:208|510:214,1,70,0|8,1:0|0:0,0:0:0:0:
494,292,55806,2,0,P|421:305|342:341,1,140,2|0,1:2|0:0,0:0:0:0:
285,309,56158,2,0,P|208:330|122:314,1,140,10|8,0:3|3:0,0:0:0:0:
70,357,56510,6,0,P|49:313|69:218,1,140,4|8,1:2|0:0,0:0:0:0:
125,109,56861,2,0,P|160:165|126:257,1,140,2|0,1:2|3:0,0:0:0:0:
241,231,57213,2,0,P|291:218|322:212,1,70,10|0,0:2|0:0,0:0:0:0:
406,142,57447,6,0,P|337:139|241:116,1,140,2|8,1:2|0:0,0:0:0:0:
178,0,57799,2,0,P|232:3|329:40,1,140,2|0,1:2|3:0,0:0:0:0:
390,5,58150,2,0,P|435:27|454:57,1,70,10|0,0:2|0:0,0:0:0:0:
499,130,58385,6,0,P|503:205|441:249,1,140,2|8,1:2|0:0,0:0:0:0:
466,332,58736,2,0,P|411:329|365:241,1,140,2|0,1:2|3:0,0:0:0:0:
291,217,59088,2,0,P|245:227|218:239,1,70,10|0,0:2|0:0,0:0:0:0:
196,351,59322,6,0,P|138:370|41:358,1,140,2|8,1:2|0:0,0:0:0:0:
108,285,59674,2,0,B|95:211|173:218|108:128,1,140,2|0,1:2|3:0,0:0:0:0:
38,158,60025,2,0,P|25:125|25:90,1,70,8|0,0:0|3:0,0:0:0:0:
89,29,60260,6,0,P|158:34|224:98,1,140,4|8,1:2|0:0,0:0:0:0:
291,85,60611,2,0,P|338:112|435:100,1,140,2|0,1:2|3:0,0:0:0:0:
504,163,60963,2,0,P|458:179|416:207,1,70,10|0,0:2|0:0,0:0:0:0:
465,276,61197,6,0,B|385:264|411:320|313:285,1,140,2|8,1:2|0:0,0:0:0:0:
318,375,61549,2,0,P|252:357|148:353,1,140,2|0,1:2|3:0,0:0:0:0:
98,377,61900,2,0,P|89:340|100:303,1,70,10|0,0:2|0:0,0:0:0:0:
36,234,62135,6,0,P|91:220|75:135,1,140,2|10,1:2|0:3,0:0:0:0:
19,106,62486,2,0,P|6:69|36:27,1,70,2|0,1:2|0:0,0:0:0:0:
87,12,62720,1,0,1:0:0:0:
159,48,62838,2,0,P|214:57|256:61,1,70,8|8,0:0|0:3,0:0:0:0:
259,142,63072,6,0,P|338:125|424:116,1,140,2|8,1:2|0:3,0:0:0:0:
502,226,63424,2,0,P|434:209|355:211,1,140,2|2,1:2|3:2,0:0:0:0:
314,267,63775,1,10,0:2:0:0:
238,251,63892,1,2,3:2:0:0:
204,320,64010,6,0,P|145:354|80:314,1,140,4|8,1:2|0:0,0:0:0:0:
9,377,64361,2,0,P|4:313|34:224,1,140,2|0,1:2|3:0,0:0:0:0:
0,163,64713,2,0,P|20:131|20:72,1,70,10|0,0:2|0:0,0:0:0:0:
96,58,64947,2,0,P|162:78|243:95,1,140,2|8,1:2|0:0,0:0:0:0:
234,175,65299,2,0,P|313:158|401:141,1,140,2|0,1:2|3:0,0:0:0:0:
423,79,65650,2,0,P|412:37|414:4,1,70,10|0,0:2|0:0,0:0:0:0:
506,52,65885,6,0,P|522:114|500:196,1,140,2|2,1:2|3:2,0:0:0:0:
505,275,66236,2,0,P|462:258|423:258,1,70,12|0,0:2|0:0,0:0:0:0:
379,305,66470,1,8,0:0:0:0:
313,347,66588,2,0,P|266:361|233:361,1,70,8|8,0:0|0:0,0:0:0:0:
175,329,66822,5,2,1:2:0:0:
175,329,66939,2,0,P|166:278|183:237,1,70,10|0,0:2|0:0,0:0:0:0:
112,209,67174,2,0,P|122:157|113:67,1,140,10|8,0:0|0:0,0:0:0:0:
164,12,67525,2,0,P|219:5|247:7,1,70,8|8,0:0|0:0,0:0:0:0:
305,33,67760,6,0,P|325:99|267:159,1,140,4|8,1:2|0:0,0:0:0:0:
390,148,68111,2,0,P|448:149|508:224,1,140,2|0,1:2|3:0,0:0:0:0:
496,283,68463,2,0,P|445:296|415:307,1,70,10|0,0:2|0:0,0:0:0:0:
383,364,68697,6,0,P|320:352|236:335,1,140,2|8,1:2|0:0,0:0:0:0:
167,376,69049,2,0,P|162:332|208:229,1,140,2|0,1:2|3:0,0:0:0:0:
139,181,69400,2,0,P|88:188|64:190,1,70,10|0,0:0|0:0,0:0:0:0:
9,114,69635,6,0,P|56:104|102:99,1,70,2|2,1:2|0:2,0:0:0:0:
118,26,69869,1,10,0:2:0:0:
194,68,69986,2,0,P|249:74|353:88,1,140,2|0,1:2|3:0,0:0:0:0:
404,35,70338,1,8,0:0:0:0:
498,228,70572,6,0,P|454:181|374:188,1,140,0|8,1:0|0:0,0:0:0:0:
296,181,70924,2,0,P|308:239|317:268,1,70,0|0,1:0|0:0,0:0:0:0:
358,310,71158,1,0,3:0:0:0:
302,363,71275,2,0,P|271:340|242:285,1,70,8|0,0:0|3:0,0:0:0:0:
196,263,71510,6,0,P|125:282|49:284,1,140,2|8,1:2|0:0,0:0:0:0:
12,216,71861,2,0,P|-4:180|8:134,1,70,2|0,1:2|0:0,0:0:0:0:
0,68,72095,1,0,3:0:0:0:
71,7,72213,2,0,P|87:60|73:94,1,70,10|0,0:2|0:0,0:0:0:0:
157,126,72447,2,0,B|235:111|214:160|321:125,1,140,2|8,1:2|0:0,0:0:0:0:
329,209,72799,2,0,B|406:222|395:177|479:203,1,140,2|0,1:2|3:0,0:0:0:0:
512,293,73150,2,0,P|455:279|417:279,1,70,10|0,0:0|0:0,0:0:0:0:
372,335,73385,2,0,P|322:349|277:351,1,70,2|2,1:2|0:2,0:0:0:0:
232,300,73619,1,10,0:2:0:0:
157,346,73736,2,0,P|146:294|186:207,1,140,2|0,0:0|3:0,0:0:0:0:
145,135,74088,2,0,P|166:98|165:64,1,70,8|0,0:0|0:0,0:0:0:0:
234,24,74322,6,0,P|315:40|391:51,1,140,2|8,1:2|0:0,0:0:0:0:
411,124,74674,2,0,P|466:134|502:145,1,70,2|0,1:2|0:0,0:0:0:0:
504,215,74908,1,0,3:0:0:0:
424,210,75025,2,0,P|369:220|339:232,1,70,10|0,0:2|0:0,0:0:0:0:
285,315,75260,6,0,P|263:252|276:182,1,140,4|8,1:2|0:0,0:0:0:0:
205,82,75611,2,0,P|203:138|145:223,1,140,2|0,1:2|3:0,0:0:0:0:
119,274,75963,2,0,P|74:281|42:291,1,70,10|0,0:0|0:0,0:0:0:0:
20,370,76197,6,0,P|82:379|168:340,1,140,2|8,1:2|0:0,0:0:0:0:
218,284,76549,2,0,P|278:273|379:299,1,140,2|0,1:2|3:0,0:0:0:0:
443,261,76900,2,0,P|436:309|439:343,1,70,10|0,0:2|0:0,0:0:0:0:
369,201,77135,6,0,P|383:141|380:107,1,70,2|2,1:2|0:2,0:0:0:0:
337,70,77369,1,10,0:2:0:0:
373,0,77486,2,0,P|423:3|514:52,1,140,2|0,1:2|3:0,0:0:0:0:
481,116,77838,2,0,P|471:160|473:188,1,70,8|0,0:0|0:0,0:0:0:0:
502,263,78072,2,0,P|504:309|486:357,1,70,0|0,1:0|0:0,0:0:0:0:
436,377,78306,1,8,0:0:0:0:
287,321,78541,6,0,P|242:313|195:314,1,70,2|2,0:2|3:2,0:0:0:0:
172,250,78775,2,0,P|121:270|104:290,1,70,10|2,0:2|0:2,0:0:0:0:
53,344,79010,2,0,P|29:298|43:204,1,140,2|10,1:2|0:2,0:0:0:0:
16,138,79361,1,2,1:2:0:0:
85,104,79478,2,0,P|103:67|93:25,1,70,2|2,0:2|3:2,0:0:0:0:
172,11,79713,2,0,P|212:20|245:24,1,70,10|2,0:2|0:2,0:0:0:0:
272,93,79947,2,0,P|336:80|427:60,1,140,2|10,1:2|0:2,0:0:0:0:
455,126,80299,1,2,3:2:0:0:
423,196,80416,2,0,P|362:178|332:175,1,70,2|2,1:2|3:2,0:0:0:0:
310,239,80650,2,0,P|274:208|260:169,1,70,10|2,0:2|0:2,0:0:0:0:
196,244,80885,6,0,P|185:309|187:395,1,140,2|8,1:2|0:0,0:0:0:0:
100,306,81236,2,0,P|111:224|104:142,1,140,2|0,1:2|3:0,0:0:0:0:
88,91,81588,2,0,P|33:103|6:107,1,70,12|2,0:0|0:0,0:0:0:0:
88,9,81822,6,0,L|247:40,1,140,0|10,1:0|0:2,0:0:0:0:
242,111,82174,2,0,P|366:86|411:83,1,140,0|10,1:0|0:3,0:0:0:0:
438,36,82525,1,8,0:3:0:0:
504,203,82760,6,0,P|434:233|369:191,1,140,4|8,1:2|0:0,0:0:0:0:
339,286,83111,2,0,P|292:262|213:287,1,140,2|0,1:2|3:0,0:0:0:0:
151,233,83463,2,0,L|80:249,1,70,10|0,0:2|0:0,0:0:0:0:
0,287,83697,6,0,B|-23:222|36:218|-1:145,1,140,2|8,1:2|0:0,0:0:0:0:
97,128,84049,2,0,P|78:102|92:-8,1,140,2|0,1:2|3:0,0:0:0:0:
171,12,84400,2,0,P|218:22|251:24,1,70,10|0,0:2|0:0,0:0:0:0:
325,6,84635,6,0,P|325:59|303:93,1,70,2|2,1:2|0:2,0:0:0:0:
247,121,84869,1,10,0:2:0:0:
309,166,84986,2,0,P|302:218|319:319,1,140,2|0,0:2|3:0,0:0:0:0:
391,311,85338,2,0,P|447:301|476:297,1,70,8|0,0:0|0:0,0:0:0:0:
505,224,85572,6,0,P|493:135|492:72,1,140,2|8,1:2|0:0,0:0:0:0:
437,28,85924,2,0,P|382:58|397:138,1,140,2|2,1:2|1:2,0:0:0:0:
323,171,86275,2,0,L|243:190,1,70,10|2,0:2|3:2,0:0:0:0:
219,275,86510,6,0,P|151:253|77:235,1,140,2|8,1:2|0:0,0:0:0:0:
0,260,86861,2,0,P|-8:222|80:147,1,140,2|0,1:2|3:0,0:0:0:0:
128,87,87213,2,0,P|136:136|120:171,1,70,10|0,0:2|0:0,0:0:0:0:
228,147,87447,6,0,L|385:120,1,140,2|8,1:2|0:0,0:0:0:0:
400,200,87799,2,0,L|560:239,1,140,2|8,1:2|0:0,0:0:0:0:
489,304,88150,2,0,P|447:308|417:319,1,70,10|0,0:2|0:0,0:0:0:0:
296,370,88385,6,0,P|282:326|292:292,1,70,2|2,1:2|0:2,0:0:0:0:
319,222,88619,1,10,0:2:0:0:
246,196,88736,2,0,P|153:212|89:220,1,140,2|0,0:2|3:0,0:0:0:0:
111,295,89088,2,0,P|53:302|22:311,1,70,8|0,0:0|0:0,0:0:0:0:
21,230,89322,6,0,P|8:191|56:102,1,140,2|8,1:2|0:0,0:0:0:0:
46,28,89674,2,0,P|96:16|194:52,1,140,2|0,1:2|1:0,0:0:0:0:
213,108,90025,2,0,P|268:97|285:94,1,70,10|0,0:2|0:0,0:0:0:0:
393,11,90260,6,0,B|425:79|336:85|384:160,1,140,4|8,1:2|0:0,0:0:0:0:
451,135,90611,2,0,P|472:192|473:286,1,140,2|0,1:2|3:0,0:0:0:0:
409,334,90963,2,0,P|396:300|396:257,1,70,10|0,0:2|0:0,0:0:0:0:
321,243,91197,6,0,P|241:258|176:269,1,140,2|8,1:2|0:0,0:0:0:0:
118,201,91549,2,0,P|186:191|270:175,1,140,2|0,1:2|3:0,0:0:0:0:
333,132,91900,2,0,P|323:97|319:63,1,70,10|0,0:2|0:0,0:0:0:0:
372,7,92135,1,2,1:2:0:0:
429,58,92252,2,0,P|443:101|428:149,1,70,2|10,0:2|0:2,0:0:0:0:
498,205,92486,6,0,B|423:238|431:187|343:225,1,140,2|0,1:2|3:0,0:0:0:0:
296,291,92838,2,0,L|380:309,1,70,8|0,0:0|0:0,0:0:0:0:
309,378,93072,5,2,1:2:0:0:
277,387,93150,1,2,0:2:0:0:
245,386,93228,1,2,0:2:0:0:
214,375,93306,1,10,0:2:0:0:
188,355,93384,1,2,0:2:0:0:
170,329,93462,1,2,0:2:0:0:
160,298,93540,1,2,1:2:0:0:
160,265,93618,1,2,0:2:0:0:
171,234,93697,1,2,0:2:0:0:
190,208,93775,1,10,0:2:0:0:
216,189,93853,1,2,0:2:0:0:
246,182,93931,1,2,0:2:0:0:
277,184,94010,6,0,P|350:194|457:209,1,140,4|8,1:2|0:0,0:0:0:0:
492,179,94361,2,0,P|501:132|420:60,1,140,2|0,1:2|3:0,0:0:0:0:
386,3,94713,2,0,P|349:47|359:86,1,70,10|0,0:2|0:0,0:0:0:0:
261,83,94947,6,0,B|181:96|214:133|118:142,1,140,2|8,1:2|0:0,0:0:0:0:
80,80,95299,2,0,P|46:140|72:232,1,140,2|0,1:2|3:0,0:0:0:0:
2,276,95650,2,0,P|21:327|6:362,1,70,10|0,0:2|0:0,0:0:0:0:
102,365,95885,6,0,P|199:344|253:337,1,140,4|10,1:2|0:0,0:0:0:0:
315,371,96236,1,2,1:2:0:0:
369,316,96353,2,0,P|356:271|358:227,1,70,0|0,0:0|3:0,0:0:0:0:
409,193,96588,1,10,0:2:0:0:
468,144,96705,2,0,P|485:97|435:8,1,140,10|8,0:2|0:0,0:0:0:0:
375,32,97056,1,8,0:0:0:0:
319,86,97174,2,0,P|272:99|219:97,1,70,2|8,1:2|0:0,0:0:0:0:
212,166,97408,1,8,0:0:0:0:
140,137,97525,2,0,P|83:145|52:160,1,70,10|8,0:3|0:3,0:0:0:0:
37,219,97760,6,0,P|54:315|52:387,1,140,4|8,1:2|0:0,0:0:0:0:
154,374,98111,2,0,P|139:295|142:223,1,140,2|0,1:2|3:0,0:0:0:0:
216,251,98463,2,0,P|269:250|303:254,1,70,10|0,0:2|0:0,0:0:0:0:
343,302,98697,6,0,P|381:278|371:165,1,140,2|8,1:2|0:0,0:0:0:0:
453,143,99049,2,0,P|448:73|373:44,1,140,2|0,1:2|3:0,0:0:0:0:
325,2,99400,2,0,P|275:17|236:25,1,70,10|0,0:2|0:0,0:0:0:0:
218,115,99635,6,0,P|149:106|63:86,1,140,0|8,1:0|0:3,0:0:0:0:
28,147,99986,1,0,1:0:0:0:
68,212,100103,2,0,P|111:195|150:191,1,70,8|0,3:0|1:0,0:0:0:0:
207,216,100338,2,0,P|221:255|216:294,1,70,8|8,0:0|0:3,0:0:0:0:
312,360,100572,2,0,P|301:308|341:228,1,140,0|0,1:0|0:0,0:0:0:0:
413,242,100924,1,8,0:3:0:0:
387,169,101041,2,0,P|363:138|368:92,1,70,0|0,1:0|0:0,0:0:0:0:
297,39,101275,2,0,P|279:74|231:92,1,70,8|0,0:0|1:0,0:0:0:0:
186,159,101510,6,0,P|114:173|23:177,1,140,4|8,1:2|0:0,0:0:0:0:
11,286,101861,2,0,P|66:264|166:244,1,140,2|0,1:2|3:0,0:0:0:0:
222,242,102213,2,0,P|239:281|236:321,1,70,10|0,0:2|0:0,0:0:0:0:
299,355,102447,6,0,P|351:341|352:260,1,140,2|8,1:2|0:0,0:0:0:0:
368,188,102799,2,0,P|448:192|469:130,1,140,2|0,1:2|3:0,0:0:0:0:
502,76,103150,1,10,0:2:0:0:
357,10,103385,5,2,1:0:0:0:
357,10,103502,2,0,P|306:21|278:26,1,70,2|0,1:0|0:0,0:0:0:0:
234,78,103736,1,2,1:0:0:0:
128,32,103970,1,2,1:0:0:0:
56,137,104205,1,2,1:0:0:0:
142,242,104439,1,2,1:0:0:0:
260,167,104674,6,0,P|210:160|168:157,1,70,14|8,1:0|0:0,0:0:0:0:
127,113,104908,1,8,0:0:0:0:
193,74,105025,2,0,P|242:85|279:87,1,70,8|8,0:0|0:0,0:0:0:0:
334,0,105260,6,2,P|375:62|333:140,1,154.000004699707,4|8,1:2|0:0,0:1:0:0:
343,286,105611,2,0,P|348:248|383:205,1,77.0000023498536,2|0,1:0|0:0,0:0:0:0:
432,153,105845,1,0,3:0:0:0:
512,197,105963,2,0,P|466:182|423:170,1,77.0000023498536,10|0,0:1|0:0,0:0:0:0:
248,252,106197,2,2,P|198:242|82:194,1,154.000004699707,0|8,1:0|0:0,0:1:0:0:
28,279,106549,2,2,P|24:201|52:111,1,154.000004699707,0|0,1:0|3:0,0:1:0:0:
130,25,106900,2,0,P|131:77|119:111,1,77.0000023498536,10|0,0:1|0:0,0:0:0:0:
239,162,107135,6,0,P|290:149|318:142,1,77.0000023498536,2|0,1:0|0:0,0:0:0:0:
420,246,107369,2,0,P|369:230|332:225,1,77.0000023498536,10|0,0:1|0:0,0:0:0:0:
280,321,107603,2,0,P|265:259|268:225,1,77.0000023498536,2|0,1:0|3:0,0:0:0:0:
153,166,107838,1,10,0:1:0:0:
193,89,107955,2,0,P|202:157|173:259,1,154.000004699707,2|0,3:1|0:0,0:0:0:0:
158,322,108306,1,8,0:0:0:0:
70,361,108424,2,0,P|60:308|105:185,1,154.000004699707,2|0,1:0|3:0,0:0:0:0:
63,135,108775,2,0,P|12:124|-17:111,1,77.0000023498536,8|8,0:0|0:0,0:0:0:0:
161,0,109010,6,2,P|234:1|312:48,1,154.000004699707,0|8,1:0|0:0,0:1:0:0:
277,125,109361,1,2,1:0:0:0:
354,133,109478,2,0,P|401:148|448:133,1,77.0000023498536,0|0,0:0|3:0,0:0:0:0:
503,185,109713,2,2,P|521:136|503:100,1,77.0000023498536,8|0,0:0|0:1,0:1:0:0:
373,222,109947,6,0,P|299:239|195:286,1,154.000004699707,2|10,1:0|0:1,0:0:0:0:
183,338,110299,1,0,0:0:0:0:
314,314,110416,2,0,P|366:317|416:327,1,77.0000023498536,2|0,1:0|0:0,0:0:0:0:
453,381,110650,2,0,P|477:336|466:294,1,77.0000023498536,10|0,0:1|0:0,0:0:0:0:
418,138,110885,6,0,P|388:72|426:0,1,154.000004699707,6|2,1:1|1:1,0:0:0:0:
314,11,111236,2,0,P|257:18|225:37,1,77.0000023498536,10|0,0:1|0:0,0:0:0:0:
193,107,111470,1,2,1:1:0:0:
106,26,111588,1,10,0:1:0:0:
72,124,111705,2,0,P|100:199|105:287,1,154.000004699707,10|0,0:1|0:0,0:0:0:0:
173,328,112056,1,8,0:0:0:0:
32,375,112174,2,2,P|15:321|20:209,1,154.000004699707,2|0,1:2|0:0,0:1:0:0:
152,204,112525,2,0,P|197:211|241:215,1,77.0000023498536,8|8,0:0|0:0,0:0:0:0:
316,97,112760,6,2,P|412:104|443:176,1,154.000004699707,4|8,1:2|0:0,0:1:0:0:
368,189,113111,2,0,P|359:240|368:271,1,77.0000023498536,2|0,1:0|0:0,0:0:0:0:
340,336,113345,1,0,3:0:0:0:
432,378,113463,2,0,P|440:329|423:271,1,77.0000023498536,10|0,0:1|0:0,0:0:0:0:
503,215,113697,6,2,P|488:125|493:29,1,154.000004699707,0|8,1:0|0:0,0:1:0:0:
427,3,114049,2,2,P|378:9|351:15,1,77.0000023498536,0|0,1:0|0:0,0:1:0:0:
313,113,114283,1,0,3:0:0:0:
225,90,114400,2,8,P|214:55|236:-6,1,77.0000023498536,10|0,0:1|0:0,0:0:0:0:
138,135,114635,6,8,L|45:152,1,77.0000023498536,2|0,1:0|0:0,0:0:0:0:
16,295,114869,2,0,P|50:267|96:255,1,77.0000023498536,10|0,0:1|0:0,0:0:0:0:
154,223,115103,2,0,P|169:269|162:313,1,77.0000023498536,2|0,1:0|3:0,0:0:0:0:
117,376,115338,1,10,0:1:0:0:
268,384,115455,2,0,P|247:318|271:233,1,154.000004699707,0|0,3:0|0:0,0:0:0:0:
343,181,115806,1,8,0:0:0:0:
416,262,115924,2,0,P|369:277|332:273,1,77.0000023498536,2|0,1:0|0:0,0:0:0:0:
248,158,116158,6,0,P|211:146|146:149,1,77.0000023498536,0|10,3:0|0:1,0:0:0:0:
118,240,116392,1,2,3:1:0:0:
24,235,116510,2,2,P|-8:172|16:63,1,154.000004699707,0|8,1:0|0:0,0:1:0:0:
64,4,116861,2,0,P|154:11|196:90,1,154.000004699707,2|0,1:1|3:0,3:0:0:0:
271,47,117213,1,10,0:1:0:0:
354,9,117330,1,2,3:1:0:0:
424,68,117447,6,0,P|417:118|417:161,1,77.0000023498536,0|0,1:0|0:0,0:0:0:0:
338,229,117681,2,0,P|339:159|328:117,1,77.0000023498536,10|0,0:1|0:0,0:0:0:0:
247,149,117916,2,0,P|201:154|169:167,1,77.0000023498536,2|0,1:0|0:0,0:0:0:0:
117,257,118150,2,0,P|165:255|196:234,1,77.0000023498536,10|0,0:1|0:0,0:0:0:0:
263,368,118385,5,6,1:1:0:0:
352,306,118502,2,0,P|400:319|437:329,1,77.0000023498536,2|2,3:1|1:1,0:0:0:0:
496,281,118736,2,0,P|517:227|469:131,1,154.000004699707,10|10,0:1|0:2,0:0:0:0:
387,121,119088,1,10,0:2:0:0:
375,10,119205,1,10,0:2:0:0:
282,60,119322,2,0,P|213:86|119:95,1,154.000004699707,4|0,1:2|0:0,0:0:0:0:
81,255,119674,2,0,P|121:201|232:187,1,154.000004699707,10|0,0:2|0:0,0:0:0:0:
275,149,120025,2,0,P|287:199|279:237,2,51.3333348999024,8|8|8,0:3|0:3|0:3,0:0:0:0:
358,151,120260,6,2,B|434:132|429:192|521:142,1,154.000004699707,0|8,1:0|0:0,0:1:0:0:
459,243,120611,2,0,P|403:255|376:266,1,77.0000023498536,2|0,1:0|3:0,3:0:0:0:
260,285,120845,1,12,0:0:0:0:
306,359,120963,2,0,P|295:303|292:261,1,77.0000023498536,2|8,1:0|0:0,0:0:0:0:
195,167,121197,2,2,P|201:232|126:301,1,154.000004699707,0|8,1:0|0:0,0:1:0:0:
65,374,121549,2,0,P|58:332|69:281,1,77.0000023498536,2|0,1:0|0:0,3:0:0:0:
19,174,121783,1,12,0:0:0:0:
102,108,121900,2,0,P|109:167|88:209,1,77.0000023498536,2|8,1:0|0:0,0:0:0:0:
191,180,122135,6,0,P|231:187|277:197,1,77.0000023498536,2|0,1:0|3:0,0:0:0:0:
342,251,122369,2,0,P|330:295|342:331,1,77.0000023498536,10|0,0:1|0:0,0:0:0:0:
454,248,122603,2,0,P|480:210|430:92,1,154.000004699707,2|10,1:0|0:1,0:0:0:0:
360,24,122955,2,2,P|328:79|377:171,1,154.000004699707,0|0,1:0|0:0,0:1:0:0:
285,239,123306,1,8,0:0:0:0:
186,189,123424,2,0,P|228:167|271:168,1,77.0000023498536,2|0,1:0|0:0,0:0:0:0:
368,265,123658,1,0,3:0:0:0:
307,320,123775,2,0,P|256:315|226:310,1,77.0000023498536,8|0,0:0|0:0,0:0:0:0:
94,241,124010,6,2,P|109:147|115:74,1,154.000004699707,0|8,1:0|0:0,0:1:0:0:
244,74,124361,2,0,P|226:21|220:-17,1,77.0000023498536,2|0,1:0|0:0,0:0:0:0:
336,106,124595,1,0,1:0:0:0:
256,165,124713,2,0,P|213:175|160:145,1,77.0000023498536,10|0,0:1|3:0,0:0:0:0:
297,298,124947,2,0,P|294:258|397:214,1,154.000004699707,2|10,1:0|0:1,0:0:0:0:
452,162,125299,1,0,0:0:0:0:
487,288,125416,2,0,P|455:298|406:278,1,77.0000023498536,2|0,1:0|0:0,0:0:0:0:
371,119,125650,2,0,P|363:78|366:21,1,77.0000023498536,10|0,0:1|3:0,0:0:0:0:
169,146,125885,6,0,P|116:166|83:160,1,77.0000023498536,6|2,1:1|3:1,0:0:0:0:
44,234,126119,1,10,0:1:0:0:
7,126,126236,2,0,P|41:82|154:68,1,154.000004699707,2|2,1:1|1:1,0:0:0:0:
196,0,126588,1,10,0:1:0:0:
283,26,126705,2,0,B|308:108|246:99|287:197,1,154.000004699707,2|2,3:1|0:1,0:0:0:0:
230,248,127056,1,10,0:1:0:0:
313,329,127174,2,0,P|318:272|309:230,1,77.0000023498536,2|2,1:1|0:0,0:0:0:0:
365,121,127408,1,10,0:1:0:0:
461,148,127525,1,10,0:1:0:0:
401,240,127642,1,10,0:1:0:0:
471,298,127760,6,2,P|515:263|515:146,1,154.000004699707,2|8,1:2|0:0,0:1:0:0:
505,54,128111,2,0,P|456:62|425:62,1,77.0000023498536,2|0,1:0|0:0,0:0:0:0:
319,243,128345,1,4,1:2:0:0:
223,217,128463,2,0,P|267:208|308:209,1,77.0000023498536,10|10,0:0|0:0,0:0:0:0:
367,152,128697,6,2,P|355:68|342:-35,1,154.000004699707,2|0,1:2|3:0,0:1:0:0:
237,21,129049,2,0,P|246:74|243:117,1,77.0000023498536,2|0,1:0|0:0,0:0:0:0:
152,196,129283,1,4,1:2:0:0:
98,107,129400,2,0,P|89:45|93:16,1,77.0000023498536,10|10,0:0|0:0,0:0:0:0:
0,256,129635,6,0,P|41:230|80:221,1,77.0000023498536,2|0,1:0|0:0,0:0:0:0:
188,272,129869,2,0,P|142:301|96:297,1,77.0000023498536,10|2,0:1|1:2,0:0:0:0:
242,181,130103,2,0,P|299:167|354:260,1,154.000004699707,2|10,3:1|0:1,0:0:0:0:
460,351,130455,2,2,B|479:268|422:284|473:176,1,154.000004699707,2|0,0:2|0:0,0:1:0:0:
489,124,130806,1,8,0:0:0:0:
426,28,130924,2,0,P|403:86|407:113,1,77.0000023498536,2|0,1:0|0:0,0:0:0:0:
361,235,131158,1,2,3:1:0:0:
280,175,131275,2,0,P|327:177|370:198,1,77.0000023498536,10|2,0:1|3:1,0:0:0:0:
248,315,131510,2,2,P|182:341|86:321,1,154.000004699707,2|8,1:2|0:0,0:1:0:0:
43,237,131861,2,0,P|6:321|13:395,1,154.000004699707,2|2,1:0|3:1,0:0:0:0:
149,257,132213,2,0,B|162:218|162:218|147:178,1,77.0000023498536,10|2,0:1|3:1,0:0:0:0:
89,129,132447,6,0,P|36:140|11:147,1,77.0000023498536,2|0,1:2|0:0,0:0:0:0:
46,46,132681,2,0,P|89:35|132:26,1,77.0000023498536,10|0,0:1|0:0,0:0:0:0:
208,18,132916,2,0,B|218:51|218:51|194:109,1,77.0000023498536,2|0,1:1|0:0,0:0:0:0:
266,152,133150,2,0,P|322:163|349:176,1,77.0000023498536,10|0,0:1|0:0,0:0:0:0:
402,223,133385,5,6,1:0:0:0:
351,297,133502,1,2,3:1:0:0:
409,365,133619,1,10,0:1:0:0:
493,333,133736,1,2,3:1:0:0:
493,237,133853,2,0,P|486:137|485:62,1,154.000004699707,0|8,1:0|0:0,0:0:0:0:
421,26,134205,1,0,3:0:0:0:
378,98,134322,2,0,B|346:113|346:113|291:106,1,77.0000023498536,2|0,1:2|0:0,0:0:0:0:
212,231,134556,1,8,0:0:0:0:
136,201,134674,2,0,P|111:191|133:79,1,154.000004699707,2|0,1:2|3:0,0:0:0:0:
200,5,135025,2,0,P|211:56|202:98,1,77.0000023498536,10|0,0:2|3:0,0:0:0:0:
337,121,135260,6,0,P|329:193|350:286,1,154.000004699707,6|0,1:2|1:0,0:0:0:0:
422,332,135611,1,0,1:0:0:0:
352,377,135728,1,0,1:0:0:0:
276,344,135845,1,8,0:0:0:0:
198,374,135963,2,0,P|184:349|189:281,1,77.0000023498536,8|8,1:3|1:3,0:0:0:0:
191,211,136197,1,0,1:0:0:0:
114,162,136314,2,0,P|64:163|23:168,2,77.0000023498536,2|2|2,1:1|1:1|1:1,0:0:0:0:
186,83,136666,5,10,0:1:0:0:
265,149,136783,1,10,0:1:0:0:
322,59,136900,1,10,0:1:0:0:
394,115,137017,2,0,P|390:163|392:215,1,77.0000023498536,10|4,0:1|1:2,0:0:0:0:
323,130,148385,6,1,P|372:151|473:135,1,140,4|8,1:2|0:0,0:0:0:0:
507,204,148736,2,1,P|459:245|465:336,1,140,2|0,1:2|3:0,0:0:0:0:
378,333,149088,2,1,P|323:336|296:350,1,70,10|0,0:2|0:0,0:0:0:0:
225,372,149322,6,1,B|248:277|196:300|240:203,1,140,2|8,1:2|0:0,0:0:0:0:
188,163,149674,2,1,P|134:175|30:175,1,140,2|0,1:2|3:0,3:0:0:0:
47,95,150025,2,1,P|40:60|53:11,1,70,10|0,0:0|0:0,0:0:0:0:
122,20,150260,6,0,P|180:10|217:10,1,70,2|2,1:2|0:2,0:0:0:0:
247,66,150494,1,10,0:2:0:0:
317,12,150611,2,0,P|352:77|321:165,1,140,2|0,1:2|3:0,0:0:0:0:
416,167,150963,2,0,P|400:219|411:262,1,70,8|0,0:0|0:0,0:0:0:0:
470,266,151197,6,0,P|482:315|412:356,1,140,0|8,1:0|0:0,0:0:0:0:
343,324,151549,1,0,1:0:0:0:
274,365,151666,2,0,P|218:365|191:372,1,70,2|2,3:2|3:2,0:0:0:0:
130,380,151900,2,0,P|125:334|140:301,1,70,10|2,0:2|3:2,0:0:0:0:
184,246,152135,6,0,P|210:198|185:98,1,140,2|8,1:2|0:0,0:0:0:0:
143,27,152486,2,0,P|102:73|120:165,1,140,2|0,1:2|3:0,0:0:0:0:
16,230,152838,2,0,P|67:225|106:227,1,70,10|0,0:0|3:0,3:0:0:0:
106,312,153072,2,0,B|162:326|166:292|265:317,1,140,2|8,1:2|0:0,0:0:0:0:
303,375,153424,2,0,P|327:334|297:238,1,140,2|0,1:2|3:0,0:0:0:0:
398,143,153775,2,0,P|378:203|390:237,1,70,10|0,0:2|0:0,0:0:0:0:
432,261,154010,6,0,L|523:268,1,70,2|2,1:2|0:2,0:0:0:0:
504,188,154244,1,10,0:2:0:0:
488,103,154361,2,0,P|419:104|337:80,1,140,2|2,1:2|1:2,0:0:0:0:
310,14,154713,1,10,0:2:0:0:
262,79,154830,2,0,B|238:157|287:149|250:231,1,140,2|2,0:0|0:0,0:0:0:0:
242,294,155181,1,10,0:0:0:0:
176,359,155299,2,0,P|165:301|183:201,1,140,2|2,1:2|3:2,0:0:0:0:
123,159,155650,2,0,P|69:166|35:166,1,70,10|0,0:0|0:0,0:0:0:0:
19,88,155885,6,0,B|93:88|62:51|179:54,1,140,4|8,1:2|0:0,0:0:0:0:
233,0,156236,2,0,L|234:158,1,140,2|0,1:2|3:0,0:0:0:0:
307,159,156588,2,0,L|294:245,1,70,10|0,0:0|0:0,0:0:0:0:
351,304,156822,6,0,P|427:322|484:264,1,140,2|8,1:2|0:0,0:0:0:0:
498,205,157174,2,0,P|487:130|480:52,1,140,2|0,1:2|3:0,0:0:0:0:
390,12,157525,2,0,P|401:67|403:104,1,70,10|2,0:2|0:2,0:0:0:0:
331,136,157760,6,0,L|176:161,1,140,2|10,1:2|0:2,0:0:0:0:
186,249,158111,2,0,L|41:226,1,140,2|2,1:2|1:2,0:0:0:0:
49,310,158463,1,10,0:2:0:0:
104,371,158580,1,2,0:0:0:0:
177,340,158697,2,8,P|241:324|321:310,1,140,2|8,1:2|0:0,0:0:0:0:
389,355,159049,1,0,3:0:0:0:
382,267,159166,2,0,P|368:208|367:180,1,70,2|2,1:2|3:2,0:0:0:0:
435,125,159400,2,0,P|446:165|447:208,1,70,10|10,0:2|0:2,0:0:0:0:
502,72,159635,6,0,P|486:23|386:29,1,140,2|8,1:2|0:0,0:0:0:0:
314,3,159986,2,0,P|308:60|215:78,1,140,2|0,1:2|3:0,0:0:0:0:
201,167,160338,2,0,P|138:153|109:158,1,70,12|0,0:2|0:0,0:0:0:0:
7,220,160572,2,0,P|92:232|166:245,1,140,2|8,1:2|0:0,0:0:0:0:
111,317,160924,2,0,P|189:327|263:334,1,140,0|0,1:0|3:0,0:0:0:0:
318,288,161275,2,0,P|312:248|319:201,1,70,8|0,0:0|0:0,0:3:0:0:
396,208,161510,6,0,P|406:155|355:71,1,140,2|8,1:2|0:0,0:0:0:0:
335,8,161861,2,0,L|182:27,1,140,2|8,1:2|0:0,0:0:0:0:
171,104,162213,2,0,P|109:95|85:92,1,70,10|8,0:0|0:0,0:0:0:0:
44,166,162447,6,0,P|35:210|33:245,1,70,0|8,1:2|0:0,0:0:0:0:
92,319,162681,2,0,P|103:275|109:229,1,70,8|0,0:0|1:0,0:0:0:0:
171,209,162916,1,8,0:0:0:0:
231,276,163033,1,8,0:0:0:0:
289,200,163150,2,0,P|332:205|361:206,1,70,8|8,0:0|0:0,0:0:0:0:
458,285,163385,5,6,1:0:0:0:
458,285,163736,1,2,1:0:0:0:
458,285,164088,1,2,1:0:0:0:
431,209,164322,1,0,1:2:0:0:
431,209,164439,2,0,P|441:167|430:130,1,70,10|8,0:0|0:0,0:0:0:0:
380,87,164674,1,8,0:0:0:0:
307,113,164791,2,0,L|228:125,1,70,2|0,1:2|0:0,0:0:0:0:
207,194,165025,2,0,L|125:206,1,70,10|0,0:2|0:0,0:0:0:0:
65,110,165260,6,0,P|46:171|71:268,1,140,6|2,1:2|1:2,0:0:0:0:
25,321,165611,1,10,0:0:0:0:
104,377,165728,2,0,P|114:338|102:307,1,70,0|8,0:0|0:3,0:0:0:0:
174,278,165963,2,0,L|268:291,1,70,8|0,0:3|1:0,0:0:0:0:
260,371,166197,6,0,B|325:360|316:325|420:330,1,140,6|0,1:2|1:0,0:0:0:0:
456,384,166549,2,0,P|473:335|441:250,1,140,10|0,0:2|1:0,0:0:0:0:
391,192,166900,2,0,P|380:164|394:117,1,70,8|0,0:3|0:0,0:0:0:0:
466,26,167135,5,6,1:0:0:0:
466,26,167486,1,2,1:0:0:0:
466,26,167838,1,2,1:0:0:0:
292,78,168072,1,0,1:0:0:0:
292,78,168189,2,0,P|228:66|208:67,1,70,10|8,0:0|0:0,0:0:0:0:
150,22,168424,1,0,1:0:0:0:
100,84,168541,2,0,P|48:97|17:98,1,70,2|0,1:2|1:0,0:0:0:0:
0,174,168775,2,0,P|32:202|56:231,1,70,10|0,0:2|1:0,0:0:0:0:
102,292,169010,6,0,P|38:311|5:319,1,70,4|2,1:2|3:2,0:0:0:0:
69,384,169244,1,2,1:2:0:0:
146,361,169361,2,0,P|209:342|297:343,1,140,10|0,0:0|1:0,0:0:0:0:
346,283,169713,2,0,L|333:206,1,70,8|0,0:0|3:0,3:0:0:0:
257,232,169947,6,0,L|238:87,1,140,12|0,0:0|1:0,0:0:0:0:
261,15,170299,2,0,P|334:26|376:108,1,140,12|0,0:0|1:0,0:0:0:0:
455,63,170650,2,0,P|485:89|522:103,1,70,8|8,0:0|0:0,0:0:0:0:
508,296,171119,6,0,P|451:324|371:283,1,140,4|8,1:2|0:0,0:0:0:0:
311,343,171470,1,0,1:0:0:0:
248,300,171588,2,0,P|214:285|166:285,1,70,8|0,0:0|0:0,0:0:0:0:
117,352,171822,6,0,P|100:278|111:193,1,140,2|8,1:2|0:0,0:0:0:0:
31,190,172174,2,0,P|43:138|109:58,1,140,2|0,1:2|3:0,0:0:0:0:
127,0,172525,2,0,L|204:18,1,70,10|0,0:0|3:0,3:0:0:0:
272,8,172760,2,0,P|262:64|261:99,1,70,2|2,1:2|0:2,0:0:0:0:
208,132,172994,1,10,0:2:0:0:
269,178,173111,2,0,P|353:159|396:91,1,140,0|0,1:0|3:0,0:0:0:0:
439,63,173463,2,0,P|479:61|519:88,1,70,8|0,0:0|0:0,0:0:0:0:
487,158,173697,6,0,P|476:241|472:326,1,140,0|8,1:0|0:0,0:0:0:0:
387,355,174049,2,0,P|393:306|397:209,1,140,0|0,0:0|3:0,0:0:0:0:
317,240,174400,2,0,L|242:238,1,70,8|0,0:0|0:0,0:0:0:0:
218,323,174635,6,0,P|147:324|75:312,1,140,4|8,1:2|0:0,0:0:0:0:
9,372,174986,2,0,P|5:305|26:205,1,140,0|0,1:0|3:0,0:0:0:0:
92,186,175338,2,0,P|97:138|79:95,1,70,8|0,0:0|0:0,0:0:0:0:
51,39,175572,6,0,P|146:20|217:31,1,140,0|8,1:0|0:0,0:0:0:0:
227,103,175924,2,0,P|299:112|374:89,1,140,0|0,1:0|3:0,0:0:0:0:
404,24,176275,2,0,P|450:24|488:39,1,70,8|0,0:0|0:0,0:0:0:0:
491,112,176510,6,0,B|506:188|434:174|447:252,1,140,4|8,1:2|0:0,0:0:0:0:
385,333,176861,2,0,P|364:276|372:180,1,140,2|0,1:2|3:0,0:0:0:0:
288,183,177213,2,8,P|231:189|204:194,1,70
140,165,177447,6,0,P|137:120|145:83,1,70,0|8,1:0|0:0,0:0:0:0:
231,4,177681,2,0,P|230:60|216:91,1,70,8|0,0:0|1:0,0:0:0:0:
312,71,177916,2,0,P|359:80|399:81,1,70,8|8,0:0|0:0,0:0:0:0:
449,36,178150,1,8,0:3:0:0:
375,202,178385,6,0,P|476:186|528:172,1,140,2|8,1:2|0:0,0:0:0:0:
452,277,178736,2,0,P|406:284|356:292,1,70,2|0,1:2|0:0,0:0:0:0:
322,384,178970,1,4,1:2:0:0:
322,384,179088,2,0,P|306:345|311:297,1,70,8|8,0:0|0:3,0:0:0:0:
241,265,179322,6,0,P|140:281|88:295,1,140,2|8,1:2|0:0,0:0:0:0:
36,223,179673,2,0,P|82:216|132:208,1,70,2|0,1:2|0:0,0:0:0:0:
176,70,179908,1,4,1:2:0:0:
176,70,180025,2,0,P|169:118|179:154,1,70,8|0,0:0|3:0,0:0:0:0:
255,178,180260,6,0,P|339:172|365:115,1,140,2|8,1:2|0:0,0:0:0:0:
345,54,180611,1,0,1:0:0:0:
424,29,180728,2,8,P|473:62|463:157,1,140,10|0,0:0|3:0,0:0:0:0:
496,210,181080,2,0,P|448:220|415:232,1,70,8|0,3:3|1:0,0:0:0:0:
413,305,181314,1,8,0:0:0:0:
351,263,181431,2,0,P|273:260|178:249,1,140,10|8,0:3|0:3,0:0:0:0:
176,317,181783,2,0,P|93:319|54:270,1,140,10|8,0:3|0:3,0:0:0:0:
0,204,182135,6,0,B|91:193|56:167|159:158,1,140,4|8,1:2|0:0,0:0:0:0:
211,160,182486,2,0,P|199:87|205:15,1,140,2|0,1:2|3:0,0:0:0:0:
283,40,182838,2,0,P|339:30|369:19,1,70,10|0,0:2|0:0,0:0:0:0:
404,88,183072,6,0,P|462:97|489:176,1,140,2|8,1:2|0:0,0:0:0:0:
417,216,183424,2,0,P|421:264|342:328,1,140,2|0,1:2|3:0,0:0:0:0:
291,298,183775,2,0,P|249:290|216:276,1,70,10|0,3:2|3:0,3:0:0:0:
190,206,184010,6,0,P|126:183|53:197,1,140,2|8,1:2|0:0,0:0:0:0:
0,114,184361,2,0,P|52:100|102:10,1,140,2|0,1:2|3:0,0:0:0:0:
190,8,184713,2,0,P|182:49|178:83,1,70,10|0,0:2|0:0,0:0:0:0:
268,81,184947,6,0,P|348:96|434:102,1,140,2|8,1:2|0:0,0:0:0:0:
496,49,185299,2,0,P|507:84|448:174,1,140,0|0,1:0|1:0,0:0:0:0:
362,191,185650,2,1,P|349:226|361:260,1,70,8|8,0:0|0:0,0:0:0:0:
340,353,185885,6,0,P|405:332|490:319,1,140,2|8,1:2|0:0,0:0:0:0:
447,245,186236,1,2,1:2:0:0:
245,278,186470,1,4,1:2:0:0:
245,278,186588,2,0,P|194:295|167:298,1,70,8|8,0:0|0:3,0:0:0:0:
131,384,186822,2,0,P|111:350|117:299,1,70,2|0,1:2|0:0,0:0:0:0:
130,238,187056,1,8,0:0:0:0:
71,176,187174,2,0,P|85:140|78:104,1,70,2|0,1:2|0:0,0:0:0:0:
0,22,187408,1,4,3:2:0:0:
0,22,187525,2,0,P|45:31|82:37,1,70,8|8,0:0|3:0,0:0:0:0:
151,14,187760,6,0,P|202:78|185:146,1,140,2|8,1:2|0:0,0:0:0:0:
213,203,188111,1,2,1:2:0:0:
285,233,188228,2,0,P|295:163|281:78,1,140,10|8,0:3|0:3,0:0:0:0:
270,26,188580,1,8,0:3:0:0:
353,29,188697,2,0,P|400:20|430:14,1,70,0|8,1:0|0:0,0:0:0:0:
490,56,188931,2,0,P|474:123|477:218,1,140,2|0,1:2|0:0,0:0:0:0:
423,262,189283,2,0,P|350:274|283:232,1,140,10|8,0:3|3:0,0:0:0:0:
70,27,189635,6,0,P|49:71|69:166,1,140,4|8,1:2|0:0,0:0:0:0:
125,275,189986,2,0,P|160:219|126:127,1,140,2|0,1:2|3:0,0:0:0:0:
241,153,190338,2,0,P|291:166|322:172,1,70,10|0,0:2|0:0,0:0:0:0:
406,242,190572,6,0,P|337:245|241:268,1,140,2|8,1:2|0:0,0:0:0:0:
178,384,190924,2,0,P|232:381|329:344,1,140,2|0,1:2|3:0,0:0:0:0:
390,379,191275,2,0,P|435:357|454:327,1,70,10|0,0:2|0:0,0:0:0:0:
499,254,191510,6,0,P|503:179|441:135,1,140,2|8,1:2|0:0,0:0:0:0:
466,52,191861,2,0,P|411:55|365:143,1,140,0|0,1:2|3:0,0:0:0:0:
279,134,192213,2,0,P|233:124|206:112,1,70,10|8,0:2|0:0,0:0:0:0:
196,33,192447,6,0,P|138:14|41:26,1,140,2|8,1:2|0:0,0:0:0:0:
108,99,192799,2,0,B|95:173|148:154|113:260,1,140,2|8,1:2|3:0,0:0:0:0:
38,226,193150,2,0,P|25:259|25:294,1,70,8|0,0:0|3:0,0:0:0:0:
89,355,193385,6,0,P|158:350|224:286,1,140,4|8,1:2|0:0,0:0:0:0:
255,217,193736,2,0,P|310:200|407:239,1,140,2|0,1:2|3:0,0:0:0:0:
413,304,194088,1,10,0:2:0:0:
512,219,194322,6,0,L|492:63,1,140,2|8,1:2|0:0,0:0:0:0:
420,0,194674,2,0,L|399:153,1,140,2|0,1:2|3:0,0:0:0:0:
322,154,195025,2,0,P|311:108|317:72,1,70,10|0,0:2|0:0,0:0:0:0:
232,103,195260,5,2,1:2:0:0:
232,103,195377,2,0,L|152:115,1,70,2|10,0:2|0:3,0:0:0:0:
171,197,195611,2,0,P|102:208|31:182,1,140,2|0,1:2|1:0,0:0:0:0:
25,269,195963,2,0,P|13:308|20:347,1,70,8|8,0:0|0:3,0:0:0:0:
96,371,196197,1,2,1:2:0:0:
162,337,196314,2,0,P|220:325|249:318,1,70,10|8,0:2|0:3,0:0:0:0:
328,365,196549,2,0,P|314:312|314:215,1,140,2|2,1:2|3:2,0:0:0:0:
230,221,196900,2,0,P|240:179|223:134,1,70,10|2,0:2|3:2,0:0:0:0:
277,75,197135,6,0,P|346:55|436:73,1,140,4|8,1:2|0:0,0:0:0:0:
506,120,197486,2,0,P|438:141|359:128,1,140,2|0,1:2|3:0,0:0:0:0:
403,222,197838,2,0,P|417:266|422:301,1,70,10|0,0:2|0:0,0:0:0:0:
456,377,198072,6,0,P|368:360|300:357,1,140,2|8,1:2|0:0,0:0:0:0:
316,268,198424,2,0,P|234:281|157:304,1,140,2|0,1:2|3:0,0:0:0:0:
114,241,198775,2,0,P|100:292|101:326,1,70,10|0,0:2|0:0,0:0:0:0:
52,375,199010,1,2,1:2:0:0:
7,304,199127,2,0,P|23:251|20:216,1,70,2|2,0:2|3:2,0:0:0:0:
7,153,199361,2,0,P|68:160|149:103,1,140,10|8,0:2|0:0,0:0:0:0:
179,48,199713,2,0,P|220:61|261:62,1,70,8|8,0:0|0:0,0:0:0:0:
317,19,199947,5,2,1:2:0:0:
311,114,200064,2,0,P|303:153|312:198,1,70,10|0,0:2|0:0,0:0:0:0:
388,158,200299,2,0,P|459:167|537:175,1,140,12|8,0:0|0:0,0:0:0:0:
502,256,200650,2,0,P|455:248|409:248,1,70,8|8,0:0|0:0,0:0:0:0:
275,367,200885,6,2,P|299:316|237:236,1,154.000004699707,4|8,1:2|0:0,0:1:0:0:
89,220,201236,2,0,P|132:232|169:229,1,77.0000023498536,2|0,1:0|0:0,0:0:0:0:
219,140,201470,1,0,3:0:0:0:
198,57,201588,2,0,P|185:116|193:158,1,77.0000023498536,10|0,0:1|0:0,0:0:0:0:
331,147,201822,2,2,P|408:154|502:172,1,154.000004699707,0|8,1:0|0:0,0:1:0:0:
509,282,202174,2,0,P|409:251|337:246,1,154.000004699707,2|0,1:0|3:0,0:0:0:0:
282,359,202525,2,0,P|276:309|286:269,1,77.0000023498536,10|0,0:1|0:0,0:0:0:0:
256,93,202760,2,2,P|262:147|251:189,1,77.0000023498536,2|0,1:0|0:0,0:0:0:0:
180,226,202994,2,0,L|85:232,1,77.0000023498536,10|0,0:1|0:0,0:0:0:0:
24,153,203228,2,0,P|97:146|184:147,1,154.000004699707,2|10,1:0|0:1,0:0:0:0:
348,66,203580,6,0,P|271:68|190:8,1,154.000004699707,2|0,3:1|0:0,0:0:0:0:
258,168,203931,1,8,0:0:0:0:
339,153,204049,2,0,P|406:149|440:150,1,77.0000023498536,2|0,1:0|0:0,0:0:0:0:
496,187,204283,1,0,3:0:0:0:
426,237,204400,2,0,P|368:234|336:234,1,77.0000023498536,8|8,0:0|0:0,0:0:0:0:
279,339,204635,6,3,P|206:332|88:331,1,154.000004699707,0|8,1:0|0:0,0:1:0:0:
50,369,204986,2,0,P|39:303|76:214,1,154.000004699707,2|0,1:0|1:0,0:0:0:0:
148,196,205338,2,0,P|158:145|142:111,1,77.0000023498536,10|0,0:1|3:0,0:0:0:0:
12,85,205572,6,0,P|53:73|96:68,1,77.0000023498536,2|0,1:0|0:0,0:0:0:0:
140,5,205806,2,0,P|183:11|223:25,1,77.0000023498536,10|0,0:1|3:0,3:0:0:0:
320,6,206041,1,2,1:0:0:0:
291,123,206158,1,0,0:0:0:0:
396,102,206275,2,0,P|448:113|485:114,1,77.0000023498536,10|0,0:1|3:0,3:0:0:0:
388,194,206510,6,0,P|389:265|332:338,1,154.000004699707,6|10,1:1|0:1,0:0:0:0:
199,297,206861,2,0,P|243:272|291:281,1,77.0000023498536,2|0,1:1|0:0,0:0:0:0:
252,366,207095,1,2,1:1:0:0:
138,361,207213,2,0,P|126:338|127:264,1,77.0000023498536,8|2,0:1|3:2,0:0:0:0:
62,142,207447,6,0,P|78:56|133:-11,1,154.000004699707,6|8,1:0|0:0,0:0:0:0:
178,65,207799,2,0,P|235:92|337:90,1,154.000004699707,2|8,1:0|0:0,0:0:0:0:
328,177,208150,1,8,0:0:0:0:
252,251,208267,1,8,0:0:0:0:
379,240,208385,6,2,B|463:229|439:281|551:246,1,154.000004699707,4|8,1:2|0:0,0:1:0:0:
458,166,208736,2,0,P|445:82|439:8,1,154.000004699707,2|0,1:0|3:0,0:0:0:0:
342,9,209088,2,0,P|352:55|351:94,1,77.0000023498536,10|0,0:1|0:0,0:0:0:0:
306,161,209322,6,2,P|225:180|143:170,1,154.000004699707,0|8,1:0|0:0,0:1:0:0:
60,272,209674,2,0,P|128:254|219:274,1,154.000004699707,2|0,1:0|3:0,0:0:0:0:
284,293,210025,2,0,P|291:357|282:389,1,77.0000023498536,10|0,0:1|0:0,0:0:0:0:
366,250,210260,6,0,P|405:245|458:246,1,77.0000023498536,2|0,1:0|0:0,0:0:0:0:
320,164,210494,2,0,P|285:161|218:164,1,77.0000023498536,10|0,0:1|0:0,0:0:0:0:
398,141,210728,2,0,P|411:102|353:-13,1,154.000004699707,2|10,1:0|0:1,0:0:0:0:
255,77,211080,2,0,P|183:84|91:106,1,154.000004699707,2|0,3:1|0:0,0:0:0:0:
43,176,211431,1,8,0:0:0:0:
80,270,211549,2,0,P|85:223|82:184,1,77.0000023498536,2|0,1:0|0:0,0:0:0:0:
32,5,211783,2,0,P|22:50|28:96,1,77.0000023498536,2|10,1:2|0:1,0:0:0:0:
164,203,212017,1,0,3:2:0:0:
234,135,212135,6,2,P|326:143|407:158,1,154.000004699707,4|8,1:2|0:0,0:1:0:0:
452,52,212486,2,0,P|480:126|457:212,1,154.000004699707,2|2,1:0|1:2,0:0:0:0:
403,323,212838,2,0,P|392:278|396:234,1,77.0000023498536,10|2,0:1|3:2,0:0:0:0:
321,277,213072,6,0,P|260:279|217:288,1,77.0000023498536,2|0,1:0|0:0,0:0:0:0:
192,347,213306,2,0,P|134:352|92:370,1,77.0000023498536,10|0,0:1|3:0,3:0:0:0:
51,303,213541,1,2,1:0:0:0:
142,214,213658,1,0,3:0:0:0:
46,167,213775,2,0,P|32:119|44:72,1,77.0000023498536,10|0,0:1|3:0,3:0:0:0:
214,2,214010,5,6,1:1:0:0:
214,2,214127,2,0,P|163:11|123:14,1,77.0000023498536,2|10,3:1|0:1,0:0:0:0:
120,131,214361,2,0,B|206:125|169:89|273:87,1,154.000004699707,10|10,0:1|0:2,0:0:0:0:
333,1,214713,2,0,P|344:54|342:89,1,77.0000023498536,10|2,0:2|1:2,0:0:0:0:
440,215,214947,2,2,P|419:146|456:55,1,154.000004699707,12|0,0:2|1:0,0:1:0:0:
334,161,215299,2,0,P|297:198|194:222,1,154.000004699707,10|8,0:0|0:3,0:0:0:0:
170,334,215650,1,8,1:3:0:0:
102,252,215767,1,8,3:3:0:0:
18,296,215885,6,0,P|8:241|16:186,1,77.0000023498536,6|0,1:0|0:0,0:0:0:0:
61,145,216119,1,8,0:0:0:0:
28,51,216236,2,2,P|51:100|161:102,1,154.000004699707,2|2,1:1|3:2,0:1:0:0:
219,18,216588,2,0,P|229:61|228:114,1,77.0000023498536,10|2,0:0|0:1,0:0:0:0:
252,198,216822,6,0,P|295:191|340:178,1,77.0000023498536,2|2,1:2|3:1,0:0:0:0:
399,269,217056,2,0,P|450:255|484:250,1,77.0000023498536,10|2,0:1|3:1,0:0:0:0:
511,176,217291,5,2,1:1:0:0:
405,132,217408,1,2,0:1:0:0:
492,75,217525,2,0,P|498:52|475:-9,1,77.0000023498536,10|2,0:1|0:1,0:0:0:0:
353,20,217760,2,2,L|192:5,1,154.000004699707,0|8,1:0|0:0,0:1:0:0:
59,114,218111,2,0,P|155:97|234:87,1,154.000004699707,2|0,1:0|1:0,0:0:0:0:
278,174,218463,2,0,P|287:231|276:274,1,77.0000023498536,10|0,0:1|3:0,0:0:0:0:
222,369,218697,6,0,P|186:304|207:204,1,154.000004699707,2|8,1:0|0:0,3:0:0:0:
73,151,219049,2,0,P|100:208|70:319,1,154.000004699707,0|2,1:0|1:0,0:0:0:0:
55,366,219400,1,10,0:0:0:0:
0,270,219517,1,10,0:1:0:0:
226,118,219869,6,2,P|317:135|394:138,1,154.000004699707,12|0,0:2|0:0,0:1:0:0:
457,208,220220,1,0,1:0:0:0:
330,222,220338,2,0,P|272:229|239:238,1,77.0000023498536,10|2,0:1|3:1,0:0:0:0:
166,371,220572,2,0,P|149:319|169:218,1,154.000004699707,2|10,1:0|0:1,0:0:0:0:
103,171,220924,2,0,P|29:181|2:189,1,77.0000023498536,2|0,1:0|0:0,0:0:0:0:
54,85,221158,2,0,P|12:91|-25:96,1,77.0000023498536,2|8,3:1|0:0,0:0:0:0:
0,13,221392,1,0,0:0:0:0:
133,33,221510,6,0,P|217:23|303:21,1,154.000004699707,6|10,1:0|1:0,0:0:0:0:
408,88,221861,2,0,P|336:109|239:111,1,154.000004699707,6|0,1:0|1:0,0:0:0:0:
174,183,222213,1,8,0:0:0:0:
316,234,222330,1,8,0:0:0:0:
199,280,222447,6,0,P|103:297|25:320,1,154.000004699707,6|10,1:1|0:1,0:0:0:0:
195,368,222799,2,0,P|281:348|366:345,1,154.000004699707,6|0,1:1|1:0,0:0:0:0:
424,312,223150,2,0,P|421:262|397:223,1,77.0000023498536,8|0,0:0|3:0,0:0:0:0:
446,166,223385,1,0,1:0:0:0:
240,129,223619,6,0,L|231:197,2,51.3333348999024,6|2|2,1:2|0:2|0:2,0:0:0:0:
160,137,223853,2,0,P|112:147|59:152,1,77.0000023498536,2|0,1:0|0:0,0:0:0:0:
0,156,224088,6,0,L|9:224,2,51.3333348999024,10|2|2,0:2|0:2|0:2,0:0:0:0:
0,294,224322,2,0,P|48:284|101:279,1,77.0000023498536,2|0,1:0|0:0,0:0:0:0:
157,384,224556,6,0,L|166:316,2,51.3333348999024,10|2|2,0:2|0:2|0:2,0:0:0:0:
180,253,224790,2,0,P|228:263|281:268,1,77.0000023498536,2|0,1:0|0:0,0:0:0:0:
343,317,225025,6,0,P|335:266|332:246,2,51.3333348999024,10|2|2,0:2|0:2|0:2,0:0:0:0:
417,271,225260,2,0,P|486:259|517:261,1,77.0000023498536,2|0,1:0|0:0,0:0:0:0:
467,97,225494,6,0,P|481:145|479:189,2,51.3333348999024,10|2|2,0:2|0:2|0:2,0:0:0:0:
408,188,225728,2,0,P|336:192|271:117,1,154.000004699707,2|8,1:0|0:0,0:0:0:0:
248,37,226080,1,0,0:0:0:0:
150,38,226197,2,0,P|92:34|19:109,1,154.000004699707,2|10,1:0|0:1,3:0:0:0:
150,135,226549,2,0,P|148:186|161:232,1,77.0000023498536,2|0,1:0|0:0,0:0:0:0:
62,265,226783,1,2,1:0:0:0:
129,379,226900,2,0,P|138:329|122:294,1,77.0000023498536,10|0,0:1|0:0,0:0:0:0:
240,238,227135,6,2,B|319:232|307:267|397:252,2,154.000004699707,0|8|0,1:0|0:0|0:0,0:1:0:0:
303,151,227720,2,0,P|308:93|317:62,1,77.0000023498536,0|10,1:0|0:1,0:0:0:0:
399,116,227955,1,0,3:0:0:0:
390,235,228072,2,0,P|378:304|375:338,1,77.0000023498536,0|0,1:0|0:0,0:0:0:0:
455,187,228306,2,8,P|493:198|530:205,1,77.0000023498536,10|0,0:1|3:0,0:0:0:0:
491,83,228541,2,0,P|505:26|416:14,1,154.000004699707,2|10,1:0|0:1,0:0:0:0:
320,61,228892,1,0,0:0:0:0:
247,114,229010,6,0,P|194:136|154:48,1,154.000004699707,6|10,1:1|0:1,0:0:0:0:
64,139,229361,1,6,1:1:0:0:
51,240,229478,1,0,0:0:0:0:
174,223,229595,2,0,P|219:229|254:237,1,77.0000023498536,0|8,1:0|0:0,0:0:0:0:
148,303,229830,1,0,3:0:0:0:
286,337,229947,6,0,P|289:266|303:155,2,154.000004699707,8|8|8,0:0|0:3|0:3,0:0:0:0:
376,384,230533,1,0,3:0:0:0:
415,289,230650,1,0,1:0:0:0:
512,347,230767,1,0,0:0:0:0:
500,255,230885,6,0,B|494:170|422:199|439:90,1,154.000004699707,2|8,1:0|0:0,0:0:0:0:
345,15,231236,2,0,P|353:68|346:109,1,77.0000023498536,2|0,1:0|3:0,0:0:0:0:
287,152,231470,1,6,1:2:0:0:
199,130,231588,2,0,P|243:119|281:118,1,77.0000023498536,10|0,0:1|3:0,0:0:0:0:
356,240,231822,2,0,B|272:264|283:218|191:242,1,154.000004699707,2|8,1:0|0:0,0:0:0:0:
125,222,232174,2,0,P|119:271|125:308,1,77.0000023498536,2|0,1:0|3:0,0:0:0:0:
10,296,232408,1,14,0:2:0:0:
40,384,232525,2,0,P|44:341|33:306,1,77.0000023498536,10|0,0:1|3:0,0:0:0:0:
10,208,232760,6,0,P|0:176|20:130,1,77.0000023498536,2|0,1:0|3:0,0:0:0:0:
40,51,232994,2,0,P|93:61|133:69,1,77.0000023498536,10|0,0:1|3:0,0:0:0:0:
131,154,233228,2,0,L|225:124,1,77.0000023498536,2|0,1:0|3:0,0:0:0:0:
246,36,233463,1,10,0:1:0:0:
321,98,233580,2,0,P|377:120|472:80,1,154.000004699707,2|0,3:1|3:0,0:0:0:0:
512,175,233931,1,10,0:1:0:0:
452,233,234049,2,0,P|452:281|466:322,1,77.0000023498536,6|0,1:0|3:0,0:0:0:0:
403,371,234283,1,8,0:0:0:0:
321,320,234400,2,0,P|271:308|220:316,1,77.0000023498536,0|0,1:0|3:0,0:0:0:0:
226,220,234635,6,2,P|168:257|76:237,1,154.000004699707,4|8,1:2|0:0,0:1:0:0:
2,295,234986,2,0,P|-3:248|7:189,1,77.0000023498536,2|0,1:0|3:0,0:0:0:0:
33,138,235220,1,2,1:2:0:0:
111,92,235338,2,0,P|117:55|91:1,1,77.0000023498536,10|2,0:1|3:2,0:0:0:0:
201,15,235572,6,0,L|291:34,1,77.0000023498536,2|0,1:0|0:0,0:0:0:0:
347,99,235806,2,0,L|250:123,1,77.0000023498536,10|0,0:1|0:0,0:0:0:0:
238,199,236041,2,0,P|234:259|246:307,1,77.0000023498536,2|0,1:0|3:0,0:0:0:0:
139,355,236275,2,0,P|141:313|132:263,1,77.0000023498536,10|0,0:1|3:0,0:0:0:0:
114,188,236510,5,6,1:1:0:0:
31,235,236627,1,2,3:1:0:0:
0,122,236744,1,10,0:1:0:0:
93,89,236861,2,0,P|159:100|252:122,1,154.000004699707,6|2,1:1|1:1,0:0:0:0:
335,107,237213,1,10,0:1:0:0:
369,221,237330,2,0,P|299:240|194:272,1,154.000004699707,2|2,3:1|3:1,0:0:0:0:
154,320,237681,1,10,0:1:0:0:
274,339,237799,2,0,P|330:348|385:361,1,77.0000023498536,6|0,1:0|3:0,0:0:0:0:
431,330,238033,1,10,0:1:0:0:
481,251,238150,2,0,P|471:205|475:166,1,77.0000023498536,2|10,1:0|0:1,0:0:0:0:
483,49,238385,6,0,P|444:101|339:86,1,154.000004699707,2|8,1:1|0:0,0:0:0:0:
319,176,238736,2,0,B|281:167|281:167|218:184,1,77.0000023498536,2|0,1:0|3:0,0:0:0:0:
138,141,238970,1,4,1:2:0:0:
169,49,239088,2,0,P|182:100|168:149,1,77.0000023498536,10|0,0:1|3:0,0:0:0:0:
151,240,239322,2,0,P|70:250|-24:274,1,154.000004699707,2|8,1:0|0:0,0:0:0:0:
134,337,239674,2,0,P|219:321|320:320,1,154.000004699707,2|4,1:0|1:2,0:0:0:0:
364,367,240025,2,0,P|372:332|361:288,1,77.0000023498536,10|0,0:1|3:0,0:0:0:0:
436,144,240260,6,0,P|373:141|350:156,1,77.0000023498536,2|0,1:0|3:0,3:0:0:0:
288,118,240494,2,0,P|250:140|199:132,1,77.0000023498536,10|0,0:1|3:0,3:0:0:0:
202,276,240728,2,0,P|232:236|343:235,1,154.000004699707,2|10,3:0|3:2,0:0:0:0:
482,224,241080,2,0,B|512:144|437:154|470:64,1,154.000004699707,0|0,3:0|0:0,0:0:0:0:
362,73,241431,1,8,0:0:0:0:
397,2,241549,2,0,P|398:57|375:96,1,77.0000023498536,2|0,1:0|3:0,0:0:0:0:
312,134,241783,2,0,P|253:122|205:117,1,77.0000023498536,0|10,1:0|0:1,0:0:0:0:
178,56,242017,1,0,0:0:0:0:
136,177,242135,6,0,P|46:162|27:92,1,154.000004699707,6|8,1:0|0:0,0:0:0:0:
76,270,242487,2,2,P|64:311|87:365,1,77.0000023498536,0|0,1:0|0:0,0:1:0:0:
170,288,242720,1,0,1:0:0:0:
255,339,242838,2,0,P|319:328|361:327,1,77.0000023498536,8|0,0:0|3:0,0:0:0:0:
371,232,243072,6,0,P|362:182|365:144,1,77.0000023498536,2|0,1:0|3:0,0:0:0:0:
463,300,243306,2,0,P|454:358|457:401,1,77.0000023498536,10|0,0:1|3:0,0:0:0:0:
459,203,243541,2,0,P|512:217|542:225,1,77.0000023498536,2|0,1:1|3:0,0:0:0:0:
451,94,243775,2,0,P|402:78|360:73,1,77.0000023498536,10|0,0:1|3:0,0:0:0:0:
294,31,244010,5,6,1:1:0:0:
221,78,244127,1,2,3:1:0:0:
151,23,244244,1,10,0:1:0:0:
107,114,244361,6,0,B|113:199|174:160|166:289,1,154.000004699707,2|0,3:1|3:0,0:0:0:0:
98,375,244713,2,0,P|87:325|92:284,1,77.0000023498536,8|0,0:0|3:0,0:0:0:0:
221,337,244947,2,0,P|292:327|407:311,1,154.000004699707,0|8,1:0|0:0,0:0:0:0:
474,216,245299,2,0,P|397:228|305:236,1,154.000004699707,0|0,3:0|3:0,0:0:0:0:
240,244,245650,2,0,P|233:196|252:150,1,77.0000023498536,8|0,0:0|3:0,0:0:0:0:
266,85,245885,6,0,P|233:94|114:40,1,154.000004699707,6|8,1:0|0:0,0:0:0:0:
38,95,246236,1,0,3:0:0:0:
58,198,246353,2,0,P|107:184|155:174,1,77.0000023498536,0|0,1:0|3:0,0:0:0:0:
128,263,246588,2,0,P|91:292|59:320,1,77.0000023498536,8|0,0:0|3:0,0:0:0:0:
166,347,246822,6,2,L|352:376,1,154.000004699707,0|8,1:0|0:0,0:1:0:0:
379,296,247174,1,2,1:2:0:0:
317,224,247291,2,0,P|310:173|329:131,1,77.0000023498536,2|2,3:2|1:2,0:0:0:0:
402,72,247525,2,0,P|410:129|393:153,1,77.0000023498536,10|2,0:2|3:2,0:0:0:0:
243,112,247760,6,0,P|188:102|142:96,1,77.0000023498536,6|0,1:0|3:0,0:0:0:0:
104,156,247994,2,0,P|82:213|167:259,1,154.000004699707,8|0,0:0|1:0,0:0:0:0:
129,347,248345,1,0,3:0:0:0:
223,296,248463,2,0,P|231:260|216:215,1,77.0000023498536,8|0,0:0|3:0,0:0:0:0:
295,71,248697,6,0,P|286:141|331:240,1,154.000004699707,0|8,1:0|0:0,0:0:0:0:
307,303,249049,1,0,3:0:0:0:
400,251,249166,2,0,P|405:217|363:172,1,77.0000023498536,2|2,3:2|3:2,0:0:0:0:
427,110,249400,2,0,P|468:106|532:103,1,77.0000023498536,10|0,0:0|3:0,0:0:0:0:
483,265,249635,6,0,P|475:319|472:363,1,77.0000023498536,6|2,1:2|0:2,0:0:0:0:
383,181,249869,6,0,P|395:129|397:88,1,77.0000023498536,10|2,0:2|1:2,0:0:0:0:
269,308,250103,6,0,P|277:362|280:406,1,77.0000023498536,10|2,0:2|1:2,0:0:0:0:
166,142,250337,6,0,P|154:90|152:49,1,77.0000023498536,10|2,0:2|1:2,0:0:0:0:
0,240,250572,5,10,0:2:0:0:
71,312,250689,1,2,1:1:0:0:
115,217,250806,5,10,0:1:0:0:
196,287,250924,1,2,1:1:0:0:
255,208,251041,6,0,P|308:219|351:222,1,77.0000023498536,10|2,0:1|1:1,0:0:0:0:
365,298,251275,2,0,P|419:279|454:273,1,77.0000023498536,2|2,1:1|1:1,0:0:0:0:
492,209,251510,5,6,1:1:0:0:
492,209,253385,5,2,1:0:0:0:
492,209,253736,1,2,1:0:0:0:
495,213,254205,2,0,P|447:223|423:232,1,70,8|8,0:3|0:3,0:0:0:0:
318,316,254556,1,8,0:3:0:0:
228,189,254791,1,8,0:3:0:0:
228,189,254908,1,8,0:3:0:0:
228,189,255025,2,0,P|229:143|242:105,1,70,0|0,1:0|0:0,0:0:0:0:
266,49,255260,5,2,1:0:0:0:
266,49,255494,2,0,P|311:61|362:69,1,70,0|8,3:0|0:0,0:0:0:0:
461,138,255845,1,8,0:3:0:0:
461,138,256080,1,8,0:3:0:0:
369,204,256314,1,0,1:0:0:0:
369,204,256431,2,0,P|374:170|378:130,1,70,0|0,1:0|0:0,0:0:0:0:
302,153,256666,2,0,P|267:150|219:164,1,70,8|8,0:0|0:0,0:0:0:0:
158,193,256900,1,8,0:3:0:0:
41,267,257135,6,0,P|112:302|196:274,1,140,14|0,0:1|1:0,0:0:0:0:
223,345,257486,2,0,P|274:331|312:326,1,70,8|0,0:0|0:0,0:0:0:0:
361,359,257720,1,0,3:0:0:0:
361,359,257838,2,0,P|367:329|357:271,1,70,8|8,0:0|0:0,0:0:0:0:
433,257,258072,6,0,P|427:226|433:177,1,70,6|0,1:0|1:0,0:0:0:0:
464,114,258306,1,8,0:0:0:0:
464,114,258424,1,10,0:2:0:0:
464,114,258541,2,0,L|376:104,1,70,0|8,0:0|0:3,0:0:0:0:
354,175,258775,2,0,L|279:165,1,70,8|0,0:3|3:0,0:0:0:0:
224,116,259010,6,0,P|178:161|194:241,1,140,2|0,1:0|3:0,0:0:0:0:
211,304,259361,1,8,0:0:0:0:
211,304,259595,2,0,L|134:317,1,70,8|8,0:3|0:3,0:0:0:0:
75,275,259830,1,8,0:3:0:0:
75,275,260064,2,0,P|65:247|79:203,1,70,0|0,0:0|1:0,0:0:0:0:
110,140,260299,2,0,P|122:108|96:68,1,70,8|0,0:0|1:0,0:0:0:0:
54,22,260533,1,0,1:0:0:0:
54,22,260650,2,0,L|-36:44,1,70,0|0,1:0|1:0,0:0:0:0:
6,119,260885,5,2,1:0:0:0:
6,119,261236,1,2,1:0:0:0:
225,178,261588,2,0,P|271:164|318:155,1,70,0|8,1:0|0:0,0:0:0:0:
359,196,261822,2,0,P|371:165|359:111,1,70,8|8,0:0|0:0,0:0:0:0:
314,73,262056,1,8,0:0:0:0:
314,73,262174,2,0,P|257:68|220:62,1,70,8|0,0:0|0:0,0:0:0:0:
183,19,262408,1,8,0:0:0:0:
183,19,262525,2,0,P|154:66|129:81,1,70,8|0,0:0|0:0,0:0:0:0:
58,66,262760,6,0,L|72:221,1,140,2|0,1:0|3:0,0:0:0:0:
139,242,263111,2,0,P|135:289|141:328,1,70,8|0,0:0|0:0,0:0:0:0:
184,383,263345,1,8,0:3:0:0:
51,324,263580,1,8,0:3:0:0:
233,282,263814,1,0,1:0:0:0:
233,282,263931,2,0,P|270:286|310:288,1,70,8|0,0:3|0:0,0:0:0:0:
380,294,264166,2,0,P|391:253|388:204,1,70,0|8,1:0|0:0,0:0:0:0:
457,184,264400,2,0,P|453:137|438:105,1,70,8|8,0:3|0:3,0:0:0:0:
431,40,264635,6,0,P|379:55|280:45,1,140,4|8,1:2|0:0,0:0:0:0:
265,120,264986,2,0,P|227:107|179:100,1,70,0|0,1:2|0:0,0:0:0:0:
138,53,265220,2,0,P|115:102|136:208,1,140,0|0,3:2|0:0,0:0:0:0:
50,256,265572,6,0,L|138:270,1,70,0|8,1:0|0:0,0:0:0:0:
137,341,265806,2,0,P|187:348|229:363,1,70,8|8,0:0|0:0,0:0:0:0:
282,339,266041,1,8,0:0:0:0:
328,357,266158,1,8,0:0:0:0:
371,329,266275,1,8,0:0:0:0:
418,349,266392,1,8,0:0:0:0:
487,316,266510,6,0,P|512:266|482:161,1,140,6|0,1:0|1:0,0:0:0:0:
384,64,266861,2,0,P|362:95|371:220,1,140,10|0,0:1|1:0,0:0:0:0:
224,354,267213,6,0,P|252:292|219:199,1,140,14|0,0:1|1:0,0:0:0:0:
72,88,267564,2,0,P|47:148|88:234,1,140,10|0,0:1|3:0,0:0:0:0:
46,319,267916,2,0,P|91:308|120:301,1,70,2|8,1:0|0:0,0:0:0:0:
155,212,268150,1,8,0:0:0:0:
242,243,268267,1,0,1:0:0:0:
309,161,268385,6,2,P|351:198|536:112,1,280,4|0,1:2|0:0,0:1:0:0:
439,94,269322,6,0,P|432:54|432:9,1,70,0|8,1:0|0:0,0:0:0:0:
351,96,269556,2,0,P|361:136|358:172,1,70,8|0,0:0|3:0,0:0:0:0:
277,142,269791,2,0,P|194:151|125:173,1,140,8|8,0:3|0:3,0:0:0:0:
0,301,270260,5,2,1:1:0:0:
73,366,270377,1,10,0:1:0:0:
137,266,270494,1,10,0:1:0:0:
230,356,270611,1,14,1:1:0:0:
