osu file format v14

[General]
AudioFilename: audio.mp3
AudioLeadIn: 0
PreviewTime: 208326
Countdown: 0
SampleSet: Soft
StackLeniency: 0.7
Mode: 0
LetterboxInBreaks: 0
WidescreenStoryboard: 1

[Editor]
Bookmarks: 45260,67760,178385
DistanceSpacing: 1.1
BeatDivisor: 4
GridSize: 32
TimelineZoom: 3.999999

[Metadata]
Title:GLESSING WAY!!
TitleUnicode:GLESSING WAY!!
Artist:Falcom Sound Team jdk
ArtistUnicode:Falcom Sound Team jdk
Creator:Deca
Version:CONQUEROR
Source:イースIX -Monstrum NOX-
Tags:aragon yukihiro jindo 神藤 由東大 akiko nagano 長野 昭子 masaru teramae 寺前 甲 tokunan demetori atsushi enomoto 榎本 敦 avaivartika shige yamamoto シゲ山本 koki tochio 栃尾 恒樹 presstone j.d.k. band ys 9 nihon super ultimate instrumental metal video game arpg action ratspack records corsace open 2022 grand finals hidden one co22 gf hd1
BeatmapID:3802314
BeatmapSetID:1850921

[Difficulty]
HPDrainRate:6
CircleSize:4
OverallDifficulty:9.2
ApproachRate:9.8
SliderMultiplier:1.7
SliderTickRate:1

[Events]
//Background and Video events
0,0,"castcrop.jpg",0,0
//Break Periods
//Storyboard Layer 0 (Background)
//Storyboard Layer 1 (Fail)
//Storyboard Layer 2 (Pass)
//Storyboard Layer 3 (Foreground)
//Storyboard Layer 4 (Overlay)
//Storyboard Sound Samples

[TimingPoints]
260,234.375,4,2,1,65,1,0
260,-133.333333333333,4,2,1,65,0,0
13385,-100,4,2,1,80,0,0
15260,-100,4,2,1,65,0,0
45260,-100,4,2,1,70,0,0
67760,-100,4,2,1,65,0,0
82760,-100,4,2,1,70,0,0
105260,-90.9090909090909,4,2,1,80,0,1
137135,-133.333333333333,4,2,1,60,0,0
144635,-133.333333333333,4,2,1,75,0,0
144986,-100,4,2,1,75,0,0
147330,-200,4,2,1,75,0,0
148385,-100,4,2,1,65,0,0
163385,-100,4,2,1,70,0,0
163736,-133.333333333333,4,2,1,70,0,0
164088,-200,4,2,1,70,0,0
164791,-100,4,2,1,70,0,0
167135,-100,4,2,1,70,0,0
167486,-133.333333333333,4,2,1,70,0,0
167838,-200,4,2,1,70,0,0
169361,-100,4,2,1,70,0,0
200885,-90.9090909090909,4,2,1,80,0,1
251510,-133.333333333333,4,2,1,80,0,0
264635,-100,4,2,1,80,0,0
268385,-200,4,2,1,80,0,0

[Colours]
Combo1 : 208,115,53
Combo2 : 223,13,13
Combo3 : 252,91,63
Combo4 : 219,21,21

[HitObjects]
230,140,260,6,0,L|231:90,1,31.8750012159348,2|0,1:0|0:0,0:0:0:0:
245,155,2135,2,0,L|246:105,1,31.8750012159348,2|0,1:0|0:0,0:0:0:0:
297,216,2486,2,0,L|347:217,1,31.8750012159348,2|0,1:0|0:0,0:0:0:0:
222,227,3541,1,0,1:3:0:0:
214,239,4010,2,0,P|174:236|130:239,1,63.7500024318696,2|0,1:0|0:0,0:0:0:0:
74,267,4244,1,0,3:0:0:0:
74,267,4361,2,0,L|73:221,1,31.8750012159348,8|0,0:0|0:0,0:0:0:0:
113,41,4595,5,8,0:3:0:0:
162,98,4830,1,8,0:3:0:0:
113,157,5064,1,8,0:3:0:0:
113,157,5181,1,8,3:0:0:0:
52,206,5416,1,8,0:0:0:0:
16,275,5533,1,8,0:3:0:0:
69,333,5650,1,8,3:0:0:0:
87,348,5885,6,0,P|127:345|171:348,1,63.7500024318696,2|0,1:0|0:0,0:0:0:0:
229,375,6119,1,0,3:0:0:0:
229,375,6236,2,0,L|228:329,1,31.8750012159348,8|0,0:0|0:0,0:0:0:0:
341,254,6470,5,0,3:0:0:0:
218,156,6588,1,8,0:0:0:0:
218,156,6705,1,8,0:0:0:0:
141,207,6822,5,2,1:0:0:0:
291,160,6939,1,0,3:0:0:0:
194,75,7056,1,8,0:0:0:0:
257,228,7174,1,0,3:0:0:0:
93,344,7291,5,8,0:0:0:0:
192,283,7408,1,8,0:0:0:0:
243,384,7525,5,8,0:3:0:0:
78,262,7642,1,8,0:3:0:0:
305,296,7760,6,2,P|378:301|442:298,1,127.500004863739,0|0,1:0|0:0,1:0:0:0:
490,238,9400,5,0,3:0:0:0:
493,346,9517,1,0,3:0:0:0:
473,224,9635,2,0,P|472:197|472:174,1,31.8750012159348,2|0,1:0|0:0,0:0:0:0:
421,285,9986,2,0,P|394:286|371:286,1,31.8750012159348,2|0,1:0|0:0,0:0:0:0:
379,205,10455,5,8,0:0:0:0:
379,205,10513,1,8,0:0:0:0:
379,205,10572,1,8,0:0:0:0:
302,178,10689,1,8,0:0:0:0:
245,238,10806,1,8,0:0:0:0:
169,214,10924,1,8,0:0:0:0:
108,271,11158,5,8,0:0:0:0:
32,246,11276,1,8,0:3:0:0:
15,228,11510,6,0,P|6:171|15:83,1,127.500004863739,2|0,1:0|3:0,0:0:0:0:
47,38,11861,1,8,0:0:0:0:
145,151,12095,2,0,L|66:165,1,63.7500024318696,8|0,0:3|0:0,0:0:0:0:
237,24,12330,2,0,L|309:38,1,63.7500024318696,8|0,0:3|0:0,0:0:0:0:
239,215,12564,1,0,3:0:0:0:
156,60,12681,1,8,3:0:0:0:
156,60,12916,5,8,0:3:0:0:
328,171,13033,1,8,0:3:0:0:
143,267,13150,1,0,3:0:0:0:
202,145,13267,1,0,3:0:0:0:
418,206,13385,6,0,P|360:248|256:238,1,170,4|0,1:2|3:0,0:0:0:0:
62,323,13736,2,0,P|55:281|58:239,1,85,2|0,1:2|3:0,3:0:0:0:
267,0,13970,2,0,P|274:41|271:84,1,85,2|0,1:2|3:0,3:0:0:0:
82,162,14205,1,0,3:0:0:0:
248,161,14322,5,2,1:2:0:0:
126,243,14439,1,8,0:0:0:0:
34,15,14556,5,8,0:0:0:0:
172,115,14674,1,8,0:0:0:0:
0,267,14791,5,8,0:0:0:0:
106,72,14908,1,8,0:0:0:0:
200,277,15025,5,8,0:0:0:0:
0,149,15142,1,8,0:0:0:0:
270,34,15260,6,0,P|333:83|328:183,1,170,4|8,1:2|0:0,0:0:0:0:
401,384,15611,2,0,P|399:326|422:277,1,85,2|0,1:2|0:0,0:0:0:0:
512,297,15845,1,0,3:0:0:0:
478,223,15963,2,0,L|374:216,1,85,10|0,0:2|0:0,0:0:0:0:
24,188,16197,2,0,P|92:159|196:176,1,170,2|8,1:2|0:0,0:0:0:0:
256,350,16549,2,0,P|190:375|87:343,1,170,2|0,1:2|3:0,0:0:0:0:
271,186,16900,2,0,P|263:249|273:293,1,85,10|0,0:0|0:0,0:0:0:0:
493,253,17135,5,2,1:2:0:0:
391,153,17252,1,2,0:2:0:0:
367,289,17369,1,10,0:2:0:0:
469,102,17486,2,0,B|381:88|392:142|287:98,1,170,2|0,1:2|3:0,0:0:0:0:
289,0,17838,2,0,P|212:50|188:53,1,85,8|0,0:0|0:0,0:0:0:0:
176,154,18072,2,0,P|193:85|150:-7,1,170,0|8,1:0|0:0,0:0:0:0:
9,57,18424,2,0,P|-15:138|22:227,1,170,0|0,1:0|3:0,0:0:0:0:
217,228,18775,1,8,0:0:0:0:
97,149,18892,1,0,3:0:0:0:
113,384,19010,6,0,P|107:324|119:274,1,85,2|0,1:2|0:0,0:0:0:0:
129,227,19244,1,8,0:0:0:0:
326,224,19361,2,0,P|275:311|190:311,1,170,2|0,1:2|3:0,0:0:0:0:
134,130,19713,2,0,P|182:138|225:138,1,85,10|0,0:2|0:0,0:0:0:0:
506,93,19947,2,0,P|453:10|368:10,1,170,2|8,1:2|0:0,0:0:0:0:
201,51,20299,2,0,P|233:112|357:111,1,170,2|0,1:2|3:0,0:0:0:0:
401,172,20650,2,0,B|410:127|410:127|399:71,1,85,10|0,0:0|0:0,0:0:0:0:
280,224,20885,5,2,1:2:0:0:
406,338,21002,1,2,0:2:0:0:
510,214,21119,1,10,0:2:0:0:
328,300,21236,2,0,P|321:345|331:393,1,85,2|0,0:0|1:0,0:0:0:0:
415,261,21470,1,0,3:0:0:0:
308,141,21588,2,0,P|259:145|203:159,1,85,8|0,0:0|0:0,0:0:0:0:
0,307,21822,6,0,B|92:334|82:281|186:309,1,170,2|8,1:2|0:0,0:0:0:0:
83,133,22174,2,0,P|97:208|97:243,1,85,2|0,1:2|0:0,0:0:0:0:
134,380,22408,1,0,3:0:0:0:
284,243,22525,2,0,P|237:237|178:232,1,85,10|0,0:2|0:0,0:0:0:0:
0,74,22760,6,0,P|55:101|166:76,1,170,4|8,1:2|0:0,0:0:0:0:
469,129,23111,2,0,P|414:156|303:131,1,170,2|0,1:2|3:0,0:0:0:0:
119,266,23463,2,0,B|112:226|112:226|124:181,1,85,10|0,0:0|0:0,0:0:0:0:
241,0,23697,2,0,B|265:94|207:81|240:185,1,170,2|8,1:2|0:0,0:0:0:0:
292,380,24049,2,0,P|298:316|285:276,1,85,2|0,1:2|0:0,0:0:0:0:
470,211,24283,1,0,3:0:0:0:
403,104,24400,2,0,P|388:163|397:211,1,85,10|0,0:2|0:0,0:0:0:0:
402,373,24635,5,2,1:2:0:0:
494,312,24752,1,2,0:2:0:0:
305,191,24869,1,10,0:2:0:0:
383,283,24986,2,0,P|465:297|552:221,1,170,2|0,1:2|3:0,0:0:0:0:
323,106,25338,2,0,P|265:115|229:115,1,85,8|0,0:0|0:0,0:0:0:0:
182,185,25572,6,0,P|206:108|164:19,1,170,0|8,1:0|0:0,0:0:0:0:
13,57,25924,2,0,P|-18:109|20:233,1,170,0|2,1:0|0:0,0:0:0:0:
186,266,26275,1,10,0:2:0:0:
73,146,26392,1,2,0:2:0:0:
278,195,26510,2,0,P|289:254|265:298,1,85,2|0,1:2|0:0,0:0:0:0:
134,346,26744,1,8,0:0:0:0:
31,314,26861,2,0,P|64:283|128:279,1,85,0|0,1:2|0:0,0:0:0:0:
357,307,27095,1,0,3:0:0:0:
297,359,27213,2,0,P|249:355|209:334,1,85,10|0,0:0|0:0,0:0:0:0:
0,116,27447,6,0,P|36:159|160:164,1,170,2|8,1:2|0:0,0:0:0:0:
108,13,27799,2,0,P|98:72|108:117,1,85,2|0,1:2|0:0,0:0:0:0:
231,250,28033,1,0,3:0:0:0:
306,209,28150,2,0,P|308:156|291:114,1,85,10|0,0:2|0:0,0:0:0:0:
369,46,28385,6,0,P|285:96|189:74,1,170,2|8,1:2|0:0,0:0:0:0:
136,117,28736,1,0,3:0:0:0:
134,340,28853,1,2,1:2:0:0:
87,223,28970,1,2,0:2:0:0:
207,172,29088,1,10,0:2:0:0:
257,289,29205,1,2,3:2:0:0:
10,278,29322,6,0,B|-5:240|-5:240|5:161,1,85,12|0,0:2|0:0,0:0:0:0:
214,59,29556,1,0,1:0:0:0:
149,2,29674,2,0,B|132:46|132:46|148:104,1,85,10|2,0:2|3:2,0:0:0:0:
169,254,29908,1,0,0:0:0:0:
313,145,30025,2,0,L|202:163,1,85,8|0,0:0|0:0,0:0:0:0:
131,344,30260,6,0,P|184:348|270:258,1,170,4|8,1:2|0:0,0:0:0:0:
384,44,30611,2,0,P|396:98|389:139,1,85,2|0,1:2|0:0,0:0:0:0:
418,292,30845,1,0,3:0:0:0:
341,384,30963,2,0,P|335:337|346:284,1,85,10|0,0:2|0:0,0:0:0:0:
512,196,31197,2,0,B|423:176|437:235|323:188,1,170,2|8,1:2|0:0,0:0:0:0:
257,186,31549,2,0,P|251:140|250:70,1,85,2|0,1:2|0:0,0:0:0:0:
44,308,31783,1,0,3:0:0:0:
99,241,31900,2,0,L|199:230,1,85,10|0,0:2|0:0,0:0:0:0:
412,255,32135,5,2,1:2:0:0:
256,332,32252,1,2,0:2:0:0:
395,371,32369,5,10,0:2:0:0:
329,286,32486,1,2,0:2:0:0:
492,200,32603,5,0,1:0:0:0:
463,317,32720,1,0,3:0:0:0:
428,143,32838,2,0,P|487:151|525:146,1,85,8|0,0:0|0:0,0:0:0:0:
423,49,33072,2,0,P|394:111|276:117,1,170,2|8,1:2|0:0,0:0:0:0:
102,223,33424,2,0,P|99:178|111:121,1,85,2|0,1:2|0:0,0:0:0:0:
195,365,33658,1,2,1:2:0:0:
96,312,33775,1,10,0:2:0:0:
193,170,33892,1,2,3:2:0:0:
24,272,34010,6,0,B|115:297|98:247|201:269,1,170,2|8,1:2|0:0,0:0:0:0:
334,340,34361,2,0,P|387:335|441:337,1,85,2|0,1:2|0:0,0:0:0:0:
488,278,34595,1,0,3:0:0:0:
349,254,34713,2,0,P|345:213|344:156,1,85,10|0,0:2|0:0,0:0:0:0:
400,6,34947,2,0,P|443:95|415:178,1,170,2|8,1:2|0:0,0:0:0:0:
265,216,35299,2,0,P|243:135|278:59,1,170,2|0,1:2|3:0,0:0:0:0:
156,179,35650,2,0,P|111:187|47:181,1,85,10|0,0:2|0:0,0:0:0:0:
148,270,35885,5,2,1:2:0:0:
0,207,36002,1,2,0:2:0:0:
111,79,36119,1,10,0:2:0:0:
75,341,36236,2,0,P|65:288|73:242,1,85,2|0,0:2|1:0,0:0:0:0:
17,113,36470,1,0,3:0:0:0:
191,16,36588,2,0,P|209:82|203:126,1,85,8|0,0:0|0:0,0:0:0:0:
329,268,36822,6,0,P|237:274|140:288,1,170,2|8,1:2|0:0,0:0:0:0:
315,175,37174,1,2,1:2:0:0:
413,297,37291,1,0,3:0:0:0:
309,365,37408,1,0,1:0:0:0:
227,200,37525,2,0,P|222:156|237:89,1,85,10|0,0:2|0:0,0:0:0:0:
149,65,37760,6,0,B|244:89|220:35|343:71,1,170,4|8,1:2|0:0,0:0:0:0:
84,128,38111,2,0,P|24:137|-29:151,1,85,2|0,1:2|0:0,0:0:0:0:
66,40,38345,1,0,3:0:0:0:
95,297,38463,2,0,P|90:251|94:204,1,85,10|0,0:2|0:0,0:0:0:0:
398,90,38697,2,0,P|372:169|276:197,1,170,2|8,1:2|0:0,0:0:0:0:
193,133,39049,2,0,P|192:85|202:42,1,85,2|0,1:2|0:0,0:0:0:0:
210,212,39283,1,0,3:0:0:0:
265,271,39400,2,0,P|295:279|352:278,1,85,10|0,0:2|0:0,0:0:0:0:
456,316,39635,5,2,1:2:0:0:
390,184,39752,1,2,0:2:0:0:
292,356,39869,5,10,0:2:0:0:
165,280,39986,1,2,1:2:0:0:
94,379,40103,6,0,P|148:367|192:350,1,85,0|0,0:0|3:0,0:0:0:0:
193,126,40338,2,0,P|149:158|129:195,1,85,8|0,0:0|0:0,0:0:0:0:
449,270,40572,2,0,P|478:183|430:86,1,170,0|8,1:0|0:0,0:0:0:0:
224,206,40924,2,0,P|237:261|274:303,1,85,0|2,1:0|0:0,0:0:0:0:
327,337,41158,1,2,3:2:0:0:
396,190,41275,1,10,0:2:0:0:
260,98,41392,1,2,0:2:0:0:
147,181,41510,6,0,B|233:163|225:206|314:184,1,170,4|8,1:2|0:0,0:0:0:0:
317,10,41861,2,0,P|364:44|400:50,1,85,2|0,1:2|0:0,0:0:0:0:
377,295,42095,1,0,3:0:0:0:
305,351,42213,2,0,P|293:299|304:234,1,85,10|0,0:2|0:0,0:0:0:0:
108,41,42447,6,0,P|70:146|93:234,1,170,2|8,1:2|0:0,0:0:0:0:
371,203,42799,2,0,P|323:166|195:181,1,170,2|0,1:2|3:0,0:0:0:0:
68,380,43150,1,10,0:2:0:0:
172,249,43267,1,0,0:0:0:0:
0,220,43385,2,0,P|3:278|30:317,1,85,2|0,1:2|0:0,0:0:0:0:
318,312,43619,1,10,0:0:0:0:
255,266,43736,2,0,B|162:295|178:235|54:275,1,170,4|0,1:2|3:0,0:0:0:0:
215,368,44088,5,10,0:2:0:0:
146,170,44205,1,10,0:2:0:0:
366,102,44322,5,2,1:2:0:0:
257,163,44439,1,8,0:0:0:0:
230,69,44556,5,8,0:0:0:0:
372,211,44674,1,2,1:2:0:0:
149,314,44791,5,8,0:0:0:0:
281,247,44908,1,8,0:0:0:0:
355,354,45025,5,10,0:3:0:0:
167,225,45142,1,8,0:3:0:0:
456,190,45260,6,0,P|489:255|465:348,1,170,2|8,1:2|0:0,0:0:0:0:
271,109,45611,2,0,P|262:60|271:16,1,85,2|0,1:2|0:0,0:0:0:0:
383,100,45845,5,4,1:2:0:0:
249,269,45963,1,8,0:0:0:0:
371,124,46080,1,8,0:3:0:0:
85,187,46197,6,0,B|173:215|163:166|269:188,1,170,2|8,1:2|0:0,0:0:0:0:
332,349,46549,2,0,P|341:300|330:256,1,85,2|0,1:2|0:0,0:0:0:0:
283,34,46783,5,4,1:2:0:0:
407,215,46900,1,8,0:0:0:0:
270,56,47017,1,0,3:0:0:0:
495,113,47135,6,0,P|423:159|328:123,1,170,2|8,1:2|0:0,0:0:0:0:
250,277,47486,1,0,1:0:0:0:
178,118,47603,2,0,P|171:74|188:17,1,85,2|8,0:0|0:0,0:0:0:0:
75,244,47838,2,0,P|128:234|170:234,1,85,0|8,1:0|0:3,0:0:0:0:
316,337,48072,5,0,1:0:0:0:
287,194,48189,1,8,0:0:0:0:
340,79,48306,5,10,0:3:0:0:
379,224,48424,1,0,1:0:0:0:
243,288,48541,5,8,0:3:0:0:
413,337,48658,1,10,0:3:0:0:
492,157,48775,2,0,P|438:143|388:144,1,85,2|8,1:2|0:3,0:0:0:0:
204,0,49010,6,0,P|134:46|134:135,1,170,4|8,1:2|0:0,0:0:0:0:
162,341,49361,2,0,P|223:318|227:199,1,170,2|0,1:2|3:0,0:0:0:0:
320,142,49713,2,0,P|272:145|206:136,1,85,10|0,0:2|0:0,0:0:0:0:
0,250,49947,2,0,B|96:278|77:238|172:251,1,170,2|8,1:2|0:0,0:0:0:0:
355,40,50299,2,0,P|410:82|407:191,1,170,2|0,1:2|3:0,0:0:0:0:
289,384,50650,2,0,P|280:333|286:284,1,85,10|0,3:2|3:0,3:0:0:0:
501,209,50885,2,0,P|427:262|335:244,1,170,2|8,1:2|0:0,0:0:0:0:
64,163,51236,2,0,P|102:188|225:172,1,170,2|0,1:2|3:0,0:0:0:0:
246,0,51588,2,0,P|239:63|249:109,1,85,10|0,0:2|0:0,0:0:0:0:
182,382,51822,6,0,P|174:328|180:280,1,85,2|0,1:2|0:0,0:0:0:0:
313,137,52056,1,8,0:0:0:0:
447,214,52174,2,0,P|392:207|341:205,1,85,0|0,1:0|0:0,0:0:0:0:
257,325,52408,1,0,1:0:0:0:
176,147,52525,1,8,0:0:0:0:
336,284,52642,1,8,0:0:0:0:
54,238,52760,6,0,P|125:227|165:227,1,85,2|0,1:2|0:0,0:0:0:0:
245,86,52994,1,8,0:0:0:0:
124,0,53111,2,0,P|110:67|124:118,1,85,2|0,1:2|0:0,0:0:0:0:
172,366,53345,1,4,1:2:0:0:
245,183,53463,1,8,0:0:0:0:
169,342,53580,1,8,0:3:0:0:
334,230,53697,6,0,P|324:126|322:49,1,170,2|8,1:2|0:0,0:0:0:0:
512,278,54049,2,0,P|459:262|422:267,1,85,2|0,1:2|0:0,0:0:0:0:
235,262,54283,1,4,3:2:0:0:
439,357,54400,1,8,0:0:0:0:
241,283,54517,1,8,3:0:0:0:
428,86,54635,2,0,P|418:142|418:190,1,85,2|0,1:2|0:0,0:0:0:0:
342,349,54869,5,8,0:0:0:0:
247,183,54986,1,2,1:2:0:0:
150,274,55103,5,10,0:3:0:0:
322,138,55220,2,0,P|333:202|330:243,1,85,8|8,0:0|0:3,0:0:0:0:
169,375,55455,1,8,0:3:0:0:
50,208,55572,2,0,P|105:197|167:200,1,85,0|8,1:0|0:0,0:0:0:0:
424,266,55806,2,0,B|340:293|348:247|257:268,1,170,2|0,1:2|0:0,0:0:0:0:
149,296,56158,1,10,0:3:0:0:
68,119,56275,1,8,3:0:0:0:
249,176,56392,1,8,3:0:0:0:
45,374,56510,6,0,P|24:321|84:199,1,170,4|8,1:2|0:0,0:0:0:0:
302,9,56861,2,0,P|350:81|339:184,1,170,2|0,1:2|3:0,0:0:0:0:
176,116,57213,2,0,P|232:89|272:93,1,85,10|0,0:2|0:0,0:0:0:0:
485,225,57447,6,0,P|444:252|321:247,1,170,2|8,1:2|0:0,0:0:0:0:
201,364,57799,2,0,P|185:301|242:182,1,170,2|0,1:2|3:0,0:0:0:0:
353,69,58150,2,0,P|359:110|354:164,1,85,10|0,0:2|0:0,0:0:0:0:
434,30,58385,2,0,P|343:46|249:7,1,170,2|8,1:2|0:0,0:0:0:0:
0,105,58736,2,0,P|91:121|185:82,1,170,2|0,1:2|3:0,0:0:0:0:
118,199,59088,2,0,P|112:240|117:294,1,85,10|0,0:2|0:0,0:0:0:0:
465,187,59322,6,0,P|414:154|274:167,1,170,2|8,1:2|0:0,0:0:0:0:
41,342,59674,2,0,P|109:366|220:325,1,170,2|0,1:2|3:0,0:0:0:0:
202,187,60025,1,8,0:0:0:0:
297,361,60142,1,0,3:0:0:0:
243,118,60260,2,0,P|238:186|241:226,1,85,4|0,1:2|0:0,0:0:0:0:
262,279,60494,1,8,0:0:0:0:
7,213,60611,2,0,P|32:161|139:131,1,170,2|0,1:2|3:0,0:0:0:0:
443,205,60963,2,0,P|383:211|342:209,1,85,10|0,0:2|0:0,0:0:0:0:
149,296,61197,6,0,P|146:253|153:212,1,85,2|0,1:2|0:0,0:0:0:0:
337,134,61431,1,8,0:0:0:0:
248,0,61549,2,0,B|219:90|281:76|240:177,1,170,2|0,1:2|3:0,0:0:0:0:
86,145,61900,2,0,P|146:129|194:134,1,85,10|0,0:2|0:0,0:0:0:0:
396,339,62135,5,2,1:2:0:0:
240,244,62252,1,2,0:2:0:0:
441,152,62369,5,10,0:3:0:0:
341,272,62486,1,2,1:2:0:0:
355,250,62720,5,0,1:0:0:0:
289,162,62838,1,8,0:0:0:0:
457,279,62955,1,8,0:3:0:0:
255,350,63072,5,2,1:2:0:0:
351,103,63189,2,0,P|354:46|349:2,1,85,10|8,0:2|0:3,0:0:0:0:
108,59,63424,2,0,B|206:79|170:29|283:48,1,170,2|2,1:2|3:2,0:0:0:0:
89,244,63775,1,10,0:2:0:0:
134,363,63892,1,2,3:2:0:0:
145,193,64010,2,0,P|84:197|27:200,1,85,4|0,1:2|0:0,0:0:0:0:
34,318,64244,1,8,0:0:0:0:
273,223,64361,2,0,P|360:225|400:305,1,170,2|0,1:2|3:0,0:0:0:0:
216,366,64713,2,0,P|207:320|214:267,1,85,10|0,0:2|0:0,0:0:0:0:
377,17,64947,6,0,P|389:78|380:121,1,85,2|0,1:2|0:0,0:0:0:0:
449,150,65181,1,8,0:0:0:0:
121,228,65299,2,0,P|117:172|237:108,1,170,2|0,1:2|3:0,0:0:0:0:
326,176,65650,2,0,P|262:181|224:171,1,85,10|0,0:2|0:0,0:0:0:0:
39,238,65885,5,2,1:2:0:0:
211,379,66002,1,2,0:2:0:0:
275,255,66119,5,2,3:2:0:0:
76,325,66236,2,0,P|138:315|182:314,1,85,12|0,0:2|0:0,0:0:0:0:
369,350,66470,5,8,0:0:0:0:
502,186,66588,1,8,0:0:0:0:
382,260,66705,1,8,0:0:0:0:
471,350,66822,5,2,1:2:0:0:
413,81,66939,2,0,P|420:131|419:174,1,85,10|0,0:2|0:0,0:0:0:0:
248,384,67174,2,0,P|247:341|253:299,1,85,10|0,0:0|0:0,0:0:0:0:
153,66,67408,5,8,0:0:0:0:
308,153,67525,1,8,0:0:0:0:
171,251,67642,1,8,0:0:0:0:
340,32,67760,6,0,P|260:45|234:150,1,170,4|8,1:2|0:0,0:0:0:0:
102,330,68111,2,0,P|86:272|100:218,1,85,2|0,1:2|0:0,0:0:0:0:
71,85,68345,1,0,3:0:0:0:
0,178,68463,2,0,L|106:168,1,85,10|0,0:2|0:0,0:0:0:0:
328,279,68697,2,0,P|251:302|162:248,1,170,2|8,1:2|0:0,0:0:0:0:
289,111,69049,2,0,P|355:95|455:155,1,170,2|0,1:2|3:0,0:0:0:0:
414,329,69400,2,0,P|408:287|415:220,1,85,10|0,0:0|0:0,0:0:0:0:
186,55,69635,5,2,1:2:0:0:
247,196,69752,1,2,0:2:0:0:
109,141,69869,1,10,0:2:0:0:
179,304,69986,2,0,P|166:250|174:199,1,85,2|0,1:2|0:0,0:0:0:0:
271,27,70220,1,0,3:0:0:0:
336,94,70338,2,0,P|283:103|230:95,1,85,8|0,0:0|0:0,0:0:0:0:
367,176,70572,2,0,P|364:106|467:59,1,170,0|8,1:0|0:0,0:0:0:0:
494,299,70924,2,0,P|501:353|485:401,1,85,0|0,1:0|0:0,0:0:0:0:
277,190,71158,1,0,3:0:0:0:
432,248,71275,2,0,P|380:256|325:274,1,85,8|0,0:0|3:0,0:0:0:0:
36,320,71510,6,0,P|92:337|208:270,1,170,2|8,1:2|0:0,0:0:0:0:
181,59,71861,2,0,P|140:140|156:220,1,170,2|0,1:2|3:0,0:0:0:0:
282,382,72213,2,0,P|272:333|277:279,1,85,10|0,0:2|0:0,0:0:0:0:
358,60,72447,2,0,P|395:117|382:225,1,170,2|8,1:2|0:0,0:0:0:0:
222,230,72799,2,0,P|271:210|318:204,1,85,2|0,1:2|0:0,0:0:0:0:
501,274,73033,1,0,3:0:0:0:
447,332,73150,2,0,P|406:331|361:297,1,85,10|0,0:0|0:0,0:0:0:0:
110,222,73385,5,2,1:2:0:0:
212,147,73502,1,2,0:2:0:0:
187,345,73619,1,10,0:2:0:0:
75,299,73736,2,0,P|65:199|54:114,1,170,2|0,0:0|3:0,0:0:0:0:
268,19,74088,2,0,B|285:61|285:61|275:127,1,85,8|0,0:0|0:0,0:0:0:0:
316,195,74322,2,0,B|225:216|237:173|131:199,1,170,2|8,1:2|0:0,0:0:0:0:
377,266,74674,1,2,1:2:0:0:
465,360,74791,2,0,P|474:311|461:260,1,85,0|0,0:0|3:0,0:0:0:0:
371,4,75025,2,0,P|359:49|376:105,1,85,10|0,0:2|0:0,0:0:0:0:
482,99,75260,6,0,P|420:92|353:201,1,170,4|8,1:2|0:0,0:0:0:0:
114,273,75611,2,0,P|158:277|220:264,1,85,2|0,1:2|0:0,0:0:0:0:
334,341,75845,1,0,3:0:0:0:
279,278,75963,2,0,P|275:229|279:175,1,85,10|0,0:0|0:0,0:0:0:0:
189,0,76197,2,0,B|219:90|150:77|194:194,1,170,2|8,1:2|0:0,0:0:0:0:
412,173,76549,2,0,P|374:131|252:122,1,170,2|0,1:2|3:0,0:0:0:0:
68,250,76900,2,0,P|129:246|176:240,1,85,10|0,0:2|0:0,0:0:0:0:
434,291,77135,5,2,1:2:0:0:
265,367,77252,1,2,0:2:0:0:
297,210,77369,1,10,0:2:0:0:
477,370,77486,2,0,P|420:368|337:283,1,170,2|0,1:2|3:0,0:0:0:0:
192,154,77838,2,0,P|191:111|207:63,1,85,8|0,0:0|0:0,0:0:0:0:
385,105,78072,2,0,P|320:111|291:109,1,85,0|0,1:0|0:0,0:0:0:0:
108,247,78306,2,0,P|159:243|206:245,1,85,8|0,0:0|3:0,0:0:0:0:
265,355,78541,5,2,0:2:0:0:
400,259,78658,1,2,3:2:0:0:
289,189,78775,5,10,0:2:0:0:
385,354,78892,1,2,0:2:0:0:
488,77,79009,5,2,1:2:0:0:
376,175,79126,1,2,0:2:0:0:
499,213,79244,5,10,0:2:0:0:
385,73,79361,1,2,1:2:0:0:
229,297,79478,5,2,0:2:0:0:
358,257,79595,1,2,3:2:0:0:
230,160,79713,5,10,0:2:0:0:
296,321,79830,1,2,0:2:0:0:
305,107,79947,5,2,1:2:0:0:
275,222,80064,1,2,0:2:0:0:
223,74,80181,5,10,0:2:0:0:
361,183,80299,1,2,3:2:0:0:
55,227,80416,5,2,1:2:0:0:
183,174,80533,1,2,3:2:0:0:
161,335,80650,5,10,0:2:0:0:
92,120,80767,1,2,0:2:0:0:
233,300,80885,6,0,B|142:285|166:337|51:303,1,170,2|8,1:2|0:0,0:0:0:0:
257,140,81236,2,0,P|256:62|259:24,1,85,2|0,1:2|0:0,0:0:0:0:
267,365,81470,1,0,3:0:0:0:
170,193,81588,1,12,0:0:0:0:
380,233,81705,2,0,P|326:224|272:218,1,85,2|0,0:0|1:0,0:0:0:0:
28,211,81939,5,8,0:0:0:0:
140,115,82056,1,10,0:2:0:0:
196,285,82174,1,0,1:0:0:0:
58,43,82291,5,8,0:0:0:0:
257,149,82408,1,10,0:3:0:0:
99,384,82525,5,8,0:3:0:0:
117,204,82642,1,8,0:3:0:0:
14,293,82760,6,0,P|84:303|195:239,1,170,4|8,1:2|0:0,0:0:0:0:
324,46,83111,2,0,P|281:47|227:36,1,85,2|0,1:2|0:0,0:0:0:0:
248,317,83345,1,0,3:0:0:0:
312,274,83463,2,0,P|308:231|305:178,1,85,10|0,0:2|0:0,0:0:0:0:
512,155,83697,2,0,P|442:165|331:101,1,170,2|8,1:2|0:0,0:0:0:0:
446,0,84049,2,0,P|437:48|439:91,1,85,2|0,1:2|0:0,0:0:0:0:
178,224,84283,1,0,3:0:0:0:
181,149,84400,2,0,P|234:124|268:121,1,85,10|0,0:2|0:0,0:0:0:0:
416,260,84635,5,2,1:2:0:0:
263,340,84752,1,2,0:2:0:0:
309,230,84869,5,10,0:2:0:0:
372,361,84986,1,2,0:2:0:0:
483,318,85103,5,0,1:0:0:0:
385,281,85220,1,0,3:0:0:0:
473,157,85338,2,0,P|489:214|480:258,1,85,8|0,0:0|0:0,0:0:0:0:
219,221,85572,2,0,B|128:244|149:194|36:219,1,170,2|8,1:2|0:0,0:0:0:0:
117,378,85924,2,0,P|109:338|115:286,1,85,2|0,1:2|0:0,0:0:0:0:
311,222,86158,1,2,1:2:0:0:
184,132,86275,1,10,0:2:0:0:
267,319,86392,1,2,3:2:0:0:
391,194,86510,6,0,P|388:146|387:84,1,85,2|0,1:2|0:0,0:0:0:0:
413,32,86744,1,8,0:0:0:0:
512,245,86861,2,0,P|474:296|361:298,1,170,2|0,1:2|3:0,0:0:0:0:
183,228,87213,2,0,P|236:214|269:216,1,85,10|0,0:2|0:0,0:0:0:0:
494,5,87447,2,0,P|509:70|503:110,1,85,2|0,1:2|0:0,0:0:0:0:
475,152,87681,1,8,0:0:0:0:
247,128,87799,2,0,P|285:77|398:75,1,170,2|8,1:2|0:0,0:0:0:0:
487,240,88150,2,0,P|442:233|385:235,1,85,10|0,0:2|0:0,0:0:0:0:
229,361,88385,5,2,1:2:0:0:
287,224,88502,1,2,0:2:0:0:
126,191,88619,5,10,0:2:0:0:
315,306,88736,1,2,0:2:0:0:
164,293,88853,5,0,1:0:0:0:
158,384,88970,1,0,3:0:0:0:
91,267,89088,2,0,P|143:266|197:250,1,85,8|0,0:0|0:0,0:0:0:0:
252,23,89322,6,0,P|213:81|240:202,1,170,2|8,1:2|0:0,0:0:0:0:
397,352,89674,1,2,1:2:0:0:
338,193,89791,1,0,3:0:0:0:
456,153,89908,5,0,1:0:0:0:
323,291,90025,1,10,0:2:0:0:
315,103,90142,5,0,0:0:0:0:
486,224,90260,2,0,B|397:243|407:202|311:217,1,170,4|8,1:2|0:0,0:0:0:0:
218,342,90611,2,0,P|154:347|107:355,1,85,2|0,1:2|0:0,0:0:0:0:
54,338,90845,1,0,3:0:0:0:
243,264,90963,2,0,P|240:204|238:157,1,85,10|0,0:2|0:0,0:0:0:0:
0,122,91197,2,0,P|55:176|148:184,1,170,2|8,1:2|0:0,0:0:0:0:
428,116,91549,2,0,P|364:80|243:107,1,170,2|0,1:2|3:0,0:0:0:0:
61,275,91900,2,0,P|110:266|154:268,1,85,10|0,0:2|0:0,0:0:0:0:
323,384,92135,5,2,1:2:0:0:
440,329,92252,1,2,0:2:0:0:
382,202,92369,1,10,0:2:0:0:
263,266,92486,1,2,1:2:0:0:
350,298,92603,5,0,0:0:0:0:
484,195,92720,1,0,3:0:0:0:
318,75,92838,2,0,P|302:126|308:163,1,85,8|0,0:0|0:0,0:0:0:0:
198,374,93072,5,2,1:2:0:0:
248,377,93150,1,2,0:2:0:0:
293,353,93228,1,2,0:2:0:0:
314,307,93306,1,10,0:2:0:0:
301,256,93385,1,2,0:2:0:0:
258,228,93463,1,2,0:2:0:0:
207,223,93540,1,2,1:2:0:0:
163,252,93619,1,2,0:2:0:0:
130,291,93697,1,2,0:2:0:0:
80,304,93775,1,10,0:2:0:0:
32,287,93853,1,2,0:2:0:0:
7,242,93931,1,2,0:2:0:0:
0,191,94009,6,0,P|41:187|93:187,1,85,4|0,1:2|0:0,0:0:0:0:
201,88,94244,1,8,0:0:0:0:
137,23,94361,2,0,P|128:91|142:135,1,85,2|0,1:2|0:0,0:0:0:0:
251,266,94595,1,0,3:0:0:0:
307,212,94713,2,0,P|299:146|297:105,1,85,10|0,0:2|0:0,0:0:0:0:
512,77,94947,2,0,P|473:158|366:161,1,170,2|8,1:2|0:0,0:0:0:0:
147,201,95299,2,0,P|202:187|251:195,1,85,2|0,1:2|0:0,0:0:0:0:
368,274,95533,1,0,3:0:0:0:
386,12,95650,2,0,P|401:77|391:123,1,85,10|0,0:2|0:0,0:0:0:0:
99,291,95885,2,0,P|62:235|91:121,1,170,4|10,1:2|0:0,0:0:0:0:
251,44,96236,1,2,1:2:0:0:
235,303,96353,5,0,0:0:0:0:
165,117,96470,1,0,3:0:0:0:
412,161,96588,5,10,0:2:0:0:
247,216,96705,1,10,0:2:0:0:
386,359,96822,5,2,1:2:0:0:
360,247,96939,1,8,0:0:0:0:
489,147,97056,5,8,0:0:0:0:
453,289,97174,1,2,1:2:0:0:
316,115,97291,5,8,0:0:0:0:
496,224,97408,1,8,0:0:0:0:
250,329,97525,5,10,0:3:0:0:
396,166,97642,1,8,0:3:0:0:
144,239,97760,6,0,P|89:252|41:252,1,85,4|0,1:2|0:0,0:0:0:0:
0,313,97994,1,8,0:0:0:0:
121,132,98111,2,0,P|156:195|264:203,1,170,2|0,1:2|3:0,0:0:0:0:
248,47,98463,2,0,P|231:108|238:153,1,85,10|0,0:2|0:0,0:0:0:0:
424,365,98697,6,0,P|435:304|419:268,1,85,2|0,1:2|0:0,0:0:0:0:
420,204,98931,1,8,0:0:0:0:
170,313,99049,2,0,B|263:329|258:295|347:313,1,170,2|0,1:2|3:0,0:0:0:0:
355,136,99400,2,0,P|336:199|343:235,1,85,10|0,0:2|0:0,0:0:0:0:
53,290,99635,5,0,1:0:0:0:
199,212,99752,1,8,0:0:0:0:
51,128,99869,5,8,0:3:0:0:
115,198,99986,1,0,1:0:0:0:
249,60,100103,5,8,3:0:0:0:
159,102,100220,1,0,1:0:0:0:
201,302,100338,5,8,0:0:0:0:
272,149,100455,1,8,0:3:0:0:
388,195,100572,5,0,1:0:0:0:
319,243,100689,2,0,P|251:235|216:231,1,85,8|0,0:3|0:0,0:0:0:0:
378,82,100924,1,8,0:3:0:0:
458,123,101041,2,0,P|487:184|447:295,1,170,0|8,1:0|0:0,0:0:0:0:
273,336,101392,1,0,1:0:0:0:
232,128,101510,6,0,P|237:84|239:22,1,85,4|0,1:2|0:0,0:0:0:0:
165,17,101744,1,8,0:0:0:0:
25,168,101861,2,0,P|81:205|185:181,1,170,2|0,1:2|3:0,0:0:0:0:
370,193,102213,2,0,P|308:183|270:186,1,85,10|0,0:2|0:0,0:0:0:0:
257,339,102447,5,2,1:2:0:0:
167,384,102564,2,0,P|165:328|178:288,1,85,0|8,0:0|0:0,0:0:0:0:
323,17,102799,2,0,P|334:70|328:114,1,85,2|0,1:2|0:0,0:0:0:0:
106,115,103033,1,0,3:0:0:0:
169,67,103150,2,0,P|228:60|273:61,1,85,10|0,0:2|0:0,0:0:0:0:
0,208,103385,5,2,1:0:0:0:
79,246,103502,1,2,1:0:0:0:
133,183,103736,1,2,1:0:0:0:
211,220,103970,1,2,1:0:0:0:
273,165,104205,1,2,1:0:0:0:
355,203,104439,1,2,1:0:0:0:
428,155,104674,5,14,1:0:0:0:
310,287,104791,1,8,0:0:0:0:
511,229,104908,5,8,0:0:0:0:
328,100,105025,1,8,0:0:0:0:
505,2,105142,1,8,0:0:0:0:
352,182,105260,6,2,P|274:192|180:93,1,187.000005706787,4|8,1:2|0:0,0:1:0:0:
228,269,105611,2,0,P|236:315|230:371,1,93.5000028533936,2|0,1:0|0:0,0:0:0:0:
153,384,105845,1,0,3:0:0:0:
36,241,105963,2,0,L|148:234,1,93.5000028533936,10|0,0:1|0:0,0:0:0:0:
102,0,106197,2,2,P|58:38|70:170,1,187.000005706787,0|8,1:0|0:0,0:1:0:0:
312,384,106549,2,2,P|339:322|288:207,1,187.000005706787,0|0,1:0|3:0,0:1:0:0:
142,144,106900,2,0,P|186:152|237:149,1,93.5000028533936,10|0,0:1|0:0,0:0:0:0:
348,22,107135,6,0,B|362:67|362:67|343:132,1,93.5000028533936,2|0,1:0|0:0,0:0:0:0:
132,325,107369,2,0,B|118:280|118:280|137:215,1,93.5000028533936,10|0,0:1|0:0,0:0:0:0:
421,172,107603,1,2,1:0:0:0:
357,327,107720,1,0,3:0:0:0:
207,280,107837,1,10,0:1:0:0:
270,122,107954,1,2,3:1:0:0:
512,213,108072,6,3,P|449:251|326:215,1,187.000005706787,0|8,1:0|0:0,0:1:0:0:
187,57,108424,2,0,P|178:113|182:159,1,93.5000028533936,2|0,1:0|0:0,0:0:0:0:
144,380,108658,1,0,3:0:0:0:
90,159,108775,1,8,0:0:0:0:
285,283,108892,1,8,0:0:0:0:
13,259,109010,6,2,B|104:290|102:237|211:262,1,187.000005706787,0|8,1:0|0:0,0:1:0:0:
252,105,109361,2,0,P|297:135|345:150,1,93.5000028533936,2|0,1:0|0:0,0:0:0:0:
398,304,109595,1,0,3:0:0:0:
317,379,109713,2,2,P|311:323|320:265,1,93.5000028533936,8|0,0:0|0:1,0:1:0:0:
511,106,109947,2,0,P|481:184|372:212,1,187.000005706787,2|10,1:0|0:1,0:0:0:0:
249,131,110299,1,0,0:0:0:0:
407,40,110416,2,0,B|424:87|424:87|409:157,1,93.5000028533936,2|0,1:0|0:0,0:0:0:0:
156,237,110650,2,0,L|253:232,1,93.5000028533936,10|0,0:1|0:0,0:0:0:0:
510,337,110885,5,6,1:1:0:0:
247,44,111002,1,2,3:1:0:0:
506,159,111119,5,2,1:1:0:0:
170,148,111236,1,10,0:1:0:0:
141,158,111470,5,2,1:1:0:0:
283,315,111588,1,10,0:1:0:0:
482,178,111705,1,10,0:1:0:0:
82,241,111822,6,0,P|77:310|88:356,1,93.5000028533936,4|0,1:2|0:0,0:0:0:0:
146,384,112056,1,8,0:0:0:0:
391,170,112174,2,2,P|417:94|352:-20,1,187.000005706787,2|0,1:2|0:0,0:1:0:0:
277,192,112525,1,8,0:0:0:0:
469,263,112642,1,8,0:0:0:0:
245,101,112760,6,2,B|209:201|285:201|236:308,1,187.000005706787,4|8,1:2|0:0,0:1:0:0:
80,243,113111,2,0,L|185:234,1,93.5000028533936,2|0,1:0|0:0,0:0:0:0:
267,361,113345,1,0,3:0:0:0:
413,157,113463,2,0,L|308:148,1,93.5000028533936,10|0,0:1|0:0,0:0:0:0:
0,95,113697,2,2,P|63:151|193:125,1,187.000005706787,0|8,1:0|0:0,0:1:0:0:
512,185,114049,2,2,P|449:241|319:215,1,187.000005706787,0|0,1:0|3:0,0:1:0:0:
163,321,114400,2,8,P|157:254|169:216,1,93.5000028533936,10|0,0:1|0:0,0:0:0:0:
339,3,114635,6,8,P|344:69|332:107,1,93.5000028533936,2|0,1:0|0:0,0:0:0:0:
120,133,114869,2,0,L|230:123,1,93.5000028533936,10|0,0:1|0:0,0:0:0:0:
364,364,115103,1,2,1:0:0:0:
257,196,115220,1,0,3:0:0:0:
491,212,115338,1,10,0:1:0:0:
270,319,115455,1,0,3:0:0:0:
414,106,115572,2,2,P|436:217|409:294,1,187.000005706787,0|8,1:0|0:0,0:1:0:0:
123,319,115924,2,0,P|163:272|214:253,1,93.5000028533936,2|0,1:0|0:0,0:0:0:0:
405,384,116158,1,0,3:0:0:0:
331,160,116275,1,10,0:1:0:0:
512,309,116392,1,2,3:1:0:0:
246,338,116510,6,2,P|222:248|245:158,1,187.000005706787,0|8,1:0|0:0,0:1:0:0:
108,12,116861,2,0,P|117:83|142:124,1,93.5000028533936,2|0,1:1|0:0,3:0:0:0:
113,323,117095,1,0,3:0:0:0:
209,85,117213,1,10,0:1:0:0:
0,171,117330,1,2,3:1:0:0:
184,230,117447,2,0,P|104:223|64:223,1,93.5000028533936,0|0,1:0|0:0,0:0:0:0:
274,33,117681,2,0,P|353:39|393:39,1,93.5000028533936,10|0,0:1|0:0,0:0:0:0:
260,376,117916,2,0,B|243:334|243:334|256:275,1,93.5000028533936,2|0,1:0|0:0,0:0:0:0:
474,60,118150,2,0,B|491:102|491:102|478:161,1,93.5000028533936,10|0,0:1|0:0,0:0:0:0:
376,226,118385,5,6,1:1:0:0:
230,109,118502,1,2,3:1:0:0:
512,228,118619,5,2,1:1:0:0:
343,348,118736,1,10,0:1:0:0:
360,114,118853,5,0,1:0:0:0:
182,232,118970,1,10,0:2:0:0:
437,366,119088,5,10,0:2:0:0:
288,186,119205,1,10,0:2:0:0:
397,0,119322,6,0,P|448:86|420:183,1,187.000005706787,4|0,1:2|0:0,0:0:0:0:
120,364,119674,2,0,P|82:274|133:174,1,187.000005706787,10|0,0:2|0:0,0:0:0:0:
512,253,120025,5,8,0:3:0:0:
512,253,120103,1,8,0:3:0:0:
512,253,120181,1,8,0:3:0:0:
512,253,120260,2,2,B|412:286|426:226|311:256,1,187.000005706787,0|8,1:0|0:0,0:1:0:0:
282,60,120611,2,0,P|268:123|279:170,1,93.5000028533936,2|0,1:0|3:0,3:0:0:0:
167,375,120845,1,12,0:0:0:0:
17,170,120963,1,2,1:0:0:0:
243,244,121080,1,8,0:0:0:0:
2,271,121197,6,2,P|65:263|105:258,1,93.5000028533936,0|0,1:0|0:0,0:1:0:0:
192,81,121431,1,8,0:0:0:0:
137,4,121549,2,0,P|110:47|138:195,1,187.000005706787,2|12,1:0|0:0,3:0:0:0:
294,319,121900,1,2,1:0:0:0:
417,169,122017,1,8,0:0:0:0:
218,200,122135,6,0,P|293:207|337:213,1,93.5000028533936,2|0,1:0|3:0,0:0:0:0:
479,16,122369,2,0,P|424:27|386:33,1,93.5000028533936,10|0,0:1|0:0,0:0:0:0:
397,258,122603,2,0,B|408:219|408:219|370:151,1,93.5000028533936,2|0,1:0|3:0,0:0:0:0:
259,16,122838,1,10,0:1:0:0:
117,57,122955,2,2,P|162:107|302:81,1,187.000005706787,0|0,1:0|0:0,0:1:0:0:
382,172,123306,1,8,0:0:0:0:
165,195,123424,2,0,P|86:204|47:210,1,93.5000028533936,2|0,1:0|0:0,0:0:0:0:
276,361,123658,1,0,3:0:0:0:
276,361,123775,2,0,B|286:314|286:314|263:265,1,93.5000028533936,8|0,0:0|0:0,0:0:0:0:
511,213,124010,6,2,B|425:242|423:184|311:218,1,187.000005706787,0|8,1:0|0:0,0:1:0:0:
99,335,124361,2,0,P|164:322|213:326,1,93.5000028533936,2|0,1:0|0:0,0:0:0:0:
304,384,124595,1,0,1:0:0:0:
234,193,124713,1,10,0:1:0:0:
418,316,124830,1,0,3:0:0:0:
145,233,124947,2,0,P|139:177|165:120,1,93.5000028533936,2|0,1:0|0:0,0:0:0:0:
401,22,125181,2,0,P|421:80|409:137,1,93.5000028533936,10|0,0:1|0:0,0:0:0:0:
58,102,125416,2,0,P|98:66|244:75,1,187.000005706787,2|10,1:0|0:1,0:0:0:0:
375,263,125767,1,0,3:0:0:0:
82,199,125885,5,6,1:1:0:0:
332,129,126002,1,2,3:1:0:0:
213,338,126119,5,10,0:1:0:0:
313,17,126236,1,2,1:1:0:0:
312,44,126470,5,2,1:1:0:0:
229,206,126588,1,10,0:1:0:0:
49,117,126705,1,2,3:1:0:0:
355,133,126822,6,0,L|465:142,1,93.5000028533936,4|2,1:2|0:1,0:0:0:0:
512,187,127056,1,10,0:1:0:0:
221,295,127174,6,0,L|111:304,1,93.5000028533936,2|2,1:1|0:0,0:0:0:0:
67,349,127408,1,10,0:1:0:0:
294,381,127525,5,10,0:1:0:0:
156,182,127642,1,10,0:1:0:0:
329,30,127760,6,2,P|306:137|227:165,1,187.000005706787,2|8,1:2|0:0,0:1:0:0:
390,381,128111,2,0,P|360:340|357:276,1,93.5000028533936,2|0,1:0|0:0,0:0:0:0:
425,143,128345,1,6,1:1:0:0:
236,266,128463,1,10,0:0:0:0:
150,65,128580,1,10,0:0:0:0:
351,198,128697,6,2,P|432:234|523:195,1,187.000005706787,2|8,1:2|0:0,0:1:0:0:
254,353,129049,2,0,P|206:357|159:372,1,93.5000028533936,2|0,1:0|0:0,0:0:0:0:
435,358,129283,1,6,1:1:0:0:
349,108,129400,1,10,0:0:0:0:
133,246,129517,1,10,0:0:0:0:
438,115,129635,6,0,B|451:69|451:69|436:2,1,93.5000028533936,2|0,1:0|0:0,0:0:0:0:
266,202,129869,1,10,0:1:0:0:
494,278,129986,1,2,1:2:0:0:
194,298,130103,5,2,3:1:0:0:
375,202,130220,1,2,1:2:0:0:
255,75,130338,1,10,0:1:0:0:
381,287,130455,1,2,0:2:0:0:
138,384,130572,6,2,P|101:332|130:192,1,187.000005706787,2|8,1:2|0:0,0:1:0:0:
317,32,130924,2,0,P|306:89|315:135,1,93.5000028533936,2|0,1:0|0:0,0:0:0:0:
306,314,131158,1,2,3:1:0:0:
389,144,131275,1,10,0:1:0:0:
207,203,131392,1,2,3:1:0:0:
496,251,131510,6,2,P|457:261|320:198,1,187.000005706787,2|8,1:2|0:0,0:1:0:0:
137,99,131861,2,0,P|128:144|134:208,1,93.5000028533936,2|0,1:0|0:0,0:0:0:0:
234,373,132095,1,2,3:1:0:0:
256,181,132213,1,10,0:1:0:0:
92,280,132330,1,2,3:1:0:0:
295,294,132447,2,0,P|250:288|190:288,1,93.5000028533936,2|0,1:2|0:0,0:0:0:0:
234,94,132681,2,0,P|294:99|343:100,1,93.5000028533936,10|0,0:1|0:0,0:0:0:0:
461,222,132916,2,0,P|414:223|367:227,1,93.5000028533936,2|0,1:1|0:0,0:0:0:0:
158,39,133150,2,0,B|145:89|145:89|160:147,1,93.5000028533936,10|0,0:1|0:0,0:0:0:0:
258,371,133385,5,6,1:0:0:0:
424,137,133502,1,2,3:1:0:0:
239,29,133619,5,10,0:1:0:0:
386,310,133736,1,2,3:1:0:0:
98,222,133853,6,0,P|139:218|200:217,1,93.5000028533936,0|0,1:0|3:0,0:0:0:0:
346,9,134088,2,0,P|319:70|329:124,1,93.5000028533936,8|0,0:0|3:0,0:0:0:0:
512,295,134322,2,0,P|465:238|335:247,1,187.000005706787,2|8,1:2|0:0,0:0:0:0:
231,375,134674,2,0,P|238:320|233:266,1,93.5000028533936,2|0,1:2|3:0,0:0:0:0:
142,133,134908,1,0,3:0:0:0:
218,13,135025,2,0,P|207:75|220:122,1,93.5000028533936,10|0,0:2|3:0,0:0:0:0:
412,322,135260,5,6,1:2:0:0:
251,181,135377,1,8,0:0:0:0:
490,90,135494,5,0,1:0:0:0:
355,216,135611,1,0,1:0:0:0:
336,7,135728,5,0,1:0:0:0:
453,222,135845,1,8,0:0:0:0:
254,268,135963,5,8,1:3:0:0:
388,137,136080,1,8,1:3:0:0:
512,302,136197,5,0,1:0:0:0:
349,346,136314,5,2,1:1:0:0:
282,382,136431,1,2,1:1:0:0:
209,357,136549,1,2,1:1:0:0:
175,291,136666,1,10,0:1:0:0:
141,221,136783,1,10,0:1:0:0:
68,193,136900,1,10,0:1:0:0:
0,230,137017,1,10,0:1:0:0:
81,92,137135,6,0,P|131:99|220:98,1,127.500004863739,4|8,1:2|0:0,0:0:0:0:
270,225,137603,1,0,1:0:0:0:
260,304,137720,1,0,3:0:0:0:
278,205,137838,2,0,P|280:166|277:127,1,63.7500024318696,8|0,0:0|0:0,0:0:0:0:
361,17,138072,2,0,P|355:97|358:144,1,127.500004863739,0|8,1:0|0:0,0:0:0:0:
393,214,138424,2,0,L|479:220,1,63.7500024318696,0|0,1:0|0:0,0:0:0:0:
512,272,138658,1,0,1:0:0:0:
420,329,138775,1,8,0:0:0:0:
223,297,139010,6,0,P|167:304|90:300,1,127.500004863739,2|8,1:1|0:0,0:0:0:0:
85,204,139361,2,0,P|81:167|84:136,1,63.7500024318696,2|0,0:1|1:0,0:0:0:0:
31,264,139595,1,2,3:2:0:0:
31,264,139713,2,2,L|-7:268,2,31.8750012159348,10|2|2,0:2|0:2|0:2,0:2:0:0:
94,321,139947,1,2,1:2:0:0:
167,294,140064,1,2,0:2:0:0:
224,348,140181,1,10,0:2:0:0:
300,322,140299,1,2,1:2:0:0:
317,308,140533,2,0,P|320:266|313:231,1,63.7500024318696,0|8,1:0|0:0,0:0:0:0:
385,79,140885,6,0,P|374:149|386:217,1,127.500004863739,4|8,1:2|0:0,0:0:0:0:
449,259,141236,1,0,0:0:0:0:
449,259,141353,2,2,L|528:252,1,63.7500024318696,2|2,1:2|3:2,0:2:0:0:
399,384,141588,2,2,P|404:351|397:318,1,63.7500024318696,10|2,0:2|0:2,0:2:0:0:
263,249,141822,6,0,P|203:253|129:247,1,127.500004863739,2|8,1:2|0:0,0:0:0:0:
45,258,142174,1,2,3:2:0:0:
176,327,142291,1,0,1:0:0:0:
116,175,142408,1,0,3:0:0:0:
116,175,142525,1,8,0:0:0:0:
92,143,142760,5,2,1:2:0:0:
149,92,142877,1,8,0:3:0:0:
220,117,142994,1,8,0:3:0:0:
231,192,143111,1,2,1:2:0:0:
183,251,143228,1,8,0:3:0:0:
181,327,143345,1,8,0:3:0:0:
239,376,143463,1,2,1:2:0:0:
307,342,143580,1,0,0:3:0:0:
310,256,143697,5,8,0:3:0:0:
188,161,143814,1,0,1:0:0:0:
325,160,143931,5,0,1:0:0:0:
159,253,144049,1,8,0:0:0:0:
87,80,144166,5,0,1:0:0:0:
249,220,144283,1,8,0:0:0:0:
23,384,144400,5,8,0:0:0:0:
67,210,144517,1,8,0:0:0:0:
257,329,144635,6,0,L|206:337,1,31.8750012159348,6|0,1:0|0:0,0:0:0:0:
303,84,144869,1,0,1:0:0:0:
303,84,144986,2,0,P|301:39|304:-6,1,85,2|0,1:0|0:0,3:0:0:0:
428,179,145220,1,8,0:0:0:0:
428,179,145338,2,0,P|496:189|533:187,1,85,6|0,1:0|0:0,0:0:0:0:
238,252,145572,5,0,1:0:0:0:
238,252,145689,2,0,L|181:262,1,42.5,2|0,1:0|0:0,0:0:0:0:
118,300,145806,2,0,P|116:257|123:216,1,85,2|8,0:0|0:0,0:0:0:0:
249,42,146041,5,6,1:0:0:0:
348,179,146158,1,0,3:3:0:0:
512,95,146275,1,8,0:0:0:0:
321,282,146392,1,8,0:0:0:0:
151,145,146510,6,0,P|199:137|261:140,1,85,2|8,1:0|0:3,0:0:0:0:
426,312,146744,1,8,0:3:0:0:
500,257,146861,2,0,P|506:208|497:167,1,85,2|8,1:0|3:0,0:0:0:0:
341,15,147095,1,8,3:0:0:0:
341,15,147213,2,0,L|335:66,1,42.5,2|0,1:0|0:0,0:0:0:0:
256,264,147330,2,2,P|297:194|424:189,1,212.5,8|0,0:0|1:0,0:1:0:0:
473,111,148385,6,1,P|523:173|507:265,1,170,4|8,1:2|0:0,0:0:0:0:
268,219,148736,2,1,P|255:137|306:71,1,170,2|0,1:2|3:0,0:0:0:0:
389,284,149088,2,1,P|387:360|391:389,1,85,10|0,0:2|0:0,0:0:0:0:
144,302,149322,2,1,P|203:323|304:295,1,170,2|8,1:2|0:0,0:0:0:0:
153,138,149674,2,1,P|72:123|-13:153,1,170,2|0,1:2|3:0,3:0:0:0:
231,237,150025,2,1,P|234:187|226:134,1,85,10|0,0:0|0:0,0:0:0:0:
415,64,150260,5,2,1:2:0:0:
347,215,150377,1,2,0:2:0:0:
317,34,150494,1,10,0:2:0:0:
464,153,150611,2,0,P|404:143|357:140,1,85,2|0,1:2|0:0,0:0:0:0:
319,336,150845,1,0,3:0:0:0:
198,283,150963,2,0,P|249:267|303:266,1,85,8|0,0:0|0:0,0:0:0:0:
491,245,151197,2,0,L|511:40,1,170,0|8,1:0|0:0,0:0:0:0:
258,89,151549,5,0,1:0:0:0:
353,209,151666,1,2,3:2:0:0:
376,43,151783,5,2,3:2:0:0:
239,188,151901,1,10,0:2:0:0:
404,131,152018,1,2,3:2:0:0:
212,14,152135,6,0,P|141:1|31:22,1,170,2|8,1:2|0:0,0:0:0:0:
0,237,152486,2,0,P|68:256|181:234,1,170,2|0,1:2|3:0,0:0:0:0:
133,86,152838,2,0,P|125:132|137:187,1,85,10|0,0:0|3:0,3:0:0:0:
478,260,153072,6,0,P|424:214|327:207,1,170,2|8,1:2|0:0,0:0:0:0:
111,328,153424,2,0,P|167:273|269:267,1,170,2|0,1:2|3:0,0:0:0:0:
275,75,153775,2,0,P|263:144|277:192,1,85,10|0,0:2|0:0,0:0:0:0:
263,359,154010,5,2,1:2:0:0:
359,119,154127,1,2,0:2:0:0:
184,211,154244,1,10,0:2:0:0:
355,315,154361,2,0,P|338:263|342:215,1,85,2|0,1:2|0:0,0:0:0:0:
479,210,154595,5,2,1:2:0:0:
294,81,154713,1,10,0:2:0:0:
472,0,154830,2,0,P|482:53|461:100,1,85,2|0,0:0|1:0,0:0:0:0:
256,191,155064,5,2,0:0:0:0:
245,19,155181,1,10,0:0:0:0:
401,112,155299,2,0,P|371:144|319:158,1,85,2|0,1:2|0:0,0:0:0:0:
148,114,155533,5,2,3:2:0:0:
343,247,155650,2,0,P|282:239|247:209,1,85,10|0,0:0|0:0,0:0:0:0:
24,108,155885,6,0,P|88:40|173:26,1,170,4|8,1:2|0:0,0:0:0:0:
142,355,156236,2,0,P|114:246|151:180,1,170,2|0,1:2|3:0,0:0:0:0:
263,117,156588,2,0,P|198:122|166:122,1,85,10|0,0:0|0:0,0:0:0:0:
338,57,156822,6,0,P|294:148|318:221,1,170,2|8,1:2|0:0,0:0:0:0:
502,277,157174,2,0,P|521:235|479:105,1,170,2|0,1:2|3:0,0:0:0:0:
289,315,157525,1,10,0:2:0:0:
409,223,157642,1,2,0:2:0:0:
228,160,157760,2,0,P|223:216|244:257,1,85,2|0,1:2|0:0,0:0:0:0:
50,309,157994,1,10,0:2:0:0:
122,369,158111,2,0,P|132:324|109:273,1,85,2|0,1:2|0:0,0:0:0:0:
163,83,158345,5,2,1:2:0:0:
92,0,158463,2,0,P|74:43|88:106,1,85,10|2,0:2|0:0,0:0:0:0:
0,202,158697,2,8,P|61:210|167:143,1,170,2|8,1:2|0:0,0:0:0:0:
251,74,159049,1,0,3:0:0:0:
325,0,159166,5,2,1:2:0:0:
300,167,159283,1,2,3:2:0:0:
162,58,159400,1,10,0:2:0:0:
368,118,159517,1,10,0:2:0:0:
239,326,159635,6,0,B|223:286|223:286|230:228,1,85,2|0,1:2|0:0,0:0:0:0:
272,88,159869,1,8,0:0:0:0:
475,290,159986,2,0,B|377:309|399:266|295:279,1,170,2|0,1:2|3:0,0:0:0:0:
51,153,160338,2,0,L|150:143,1,85,12|0,0:2|0:0,0:0:0:0:
345,21,160572,6,0,P|363:90|294:187,1,170,2|8,1:2|0:0,0:0:0:0:
131,303,160924,2,0,P|116:264|130:210,1,85,0|0,1:0|0:0,0:0:0:0:
199,201,161158,1,0,3:0:0:0:
234,17,161275,2,0,P|261:52|273:100,1,85,8|0,0:0|0:0,0:3:0:0:
35,176,161510,6,0,P|74:133|199:114,1,170,2|8,1:2|0:0,0:0:0:0:
455,283,161861,2,0,P|414:228|289:209,1,170,2|8,1:2|0:0,0:0:0:0:
163,277,162213,5,10,0:0:0:0:
206,383,162330,1,8,0:0:0:0:
218,178,162447,5,0,1:2:0:0:
58,288,162564,1,8,0:0:0:0:
92,105,162681,5,8,0:0:0:0:
257,296,162799,1,0,1:0:0:0:
12,204,162916,5,8,0:0:0:0:
204,34,163033,1,8,0:0:0:0:
144,201,163150,5,8,0:0:0:0:
42,17,163267,1,8,0:0:0:0:
241,168,163385,6,0,L|228:227,1,42.5,6|0,1:0|0:0,0:0:0:0:
318,204,163736,2,0,L|318:250,1,31.8750012159348,2|0,1:0|0:0,0:0:0:0:
402,209,164088,2,0,L|414:245,1,21.25,2|0,1:0|0:0,0:0:0:0:
486,319,164322,5,0,1:2:0:0:
411,348,164439,1,10,0:0:0:0:
340,318,164556,1,8,0:0:0:0:
266,347,164673,1,8,0:0:0:0:
194,316,164791,2,0,P|184:275|192:230,1,85,2|0,1:2|0:0,0:0:0:0:
408,43,165025,2,0,P|430:98|422:140,1,85,10|0,0:2|0:0,0:0:0:0:
235,86,165260,5,6,1:2:0:0:
386,225,165377,1,2,3:2:0:0:
117,225,165494,5,2,1:2:0:0:
347,103,165611,2,0,P|285:153|173:144,1,170,10|8,0:0|0:3,0:0:0:0:
58,76,165963,1,8,0:3:0:0:
29,182,166080,1,0,1:0:0:0:
4,9,166197,2,0,P|49:21|113:32,1,85,6|0,1:2|0:0,0:0:0:0:
143,247,166431,5,0,1:0:0:0:
40,287,166549,2,0,P|40:262|88:203,1,85,10|0,0:2|0:0,0:0:0:0:
274,249,166783,5,0,1:0:0:0:
273,371,166900,2,0,P|237:351|219:295,1,85,8|0,0:3|0:0,0:0:0:0:
351,113,167135,6,0,L|399:104,1,42.5,6|0,1:0|0:0,0:0:0:0:
392,185,167486,2,0,L|440:188,1,31.8750012159348,2|0,1:0|0:0,0:0:0:0:
401,264,167838,2,0,L|426:276,1,21.25,2|0,1:0|0:0,3:0:0:0:
254,350,168072,5,0,1:0:0:0:
308,288,168189,1,10,0:0:0:0:
290,213,168306,1,8,0:0:0:0:
217,181,168424,1,0,1:0:0:0:
139,165,168541,1,2,1:2:0:0:
95,96,168658,1,0,1:0:0:0:
127,25,168775,1,10,0:2:0:0:
195,0,168892,1,0,1:0:0:0:
350,63,169010,5,4,1:2:0:0:
208,101,169127,1,2,3:2:0:0:
417,187,169244,5,2,1:2:0:0:
287,5,169361,2,0,P|303:100|281:186,1,170,10|0,0:0|1:0,0:0:0:0:
76,333,169713,2,0,B|67:290|67:290|83:240,1,85,8|0,0:0|3:0,3:0:0:0:
0,185,169947,2,0,P|55:207|173:161,1,170,12|0,0:0|1:0,0:0:0:0:
507,258,170299,2,0,P|452:280|334:234,1,170,12|0,0:0|1:0,0:0:0:0:
280,114,170650,5,8,0:0:0:0:
215,288,170767,1,8,0:0:0:0:
316,143,170885,1,8,0:0:0:0:
316,143,171119,6,0,L|304:43,1,85,4|0,1:2|0:0,0:0:0:0:
209,195,171353,1,8,0:0:0:0:
285,361,171470,1,0,1:0:0:0:
123,316,171588,2,0,P|169:304|220:307,1,85,8|0,0:0|0:0,0:0:0:0:
462,197,171822,2,0,P|413:250|294:238,1,170,2|8,1:2|0:0,0:0:0:0:
117,164,172174,2,0,P|175:111|295:129,1,170,2|0,1:2|3:0,0:0:0:0:
331,61,172525,2,0,P|344:101|342:143,1,85,10|0,0:0|3:0,3:0:0:0:
214,384,172760,5,2,1:2:0:0:
158,244,172877,1,2,0:2:0:0:
269,319,172994,1,10,0:2:0:0:
88,334,173111,2,0,P|146:323|198:323,1,85,0|0,1:0|0:0,0:0:0:0:
327,246,173345,1,0,3:0:0:0:
243,146,173463,2,0,P|232:192|242:241,1,85,8|0,0:0|0:0,0:0:0:0:
371,322,173697,5,0,1:0:0:0:
405,180,173814,1,0,3:0:0:0:
446,343,173931,2,0,P|386:352|338:364,1,85,8|0,0:0|0:0,0:0:0:0:
464,254,174166,5,0,1:0:0:0:
324,170,174283,1,0,3:0:0:0:
448,81,174400,2,0,P|482:125|486:175,1,85,8|0,0:0|0:0,0:0:0:0:
281,299,174635,6,0,B|196:285|199:332|88:292,1,170,4|8,1:2|0:0,0:0:0:0:
80,209,174986,2,0,P|23:231|-27:234,1,85,0|0,1:0|0:0,0:0:0:0:
110,384,175220,1,0,3:0:0:0:
168,222,175338,2,0,L|158:122,1,85,8|0,0:0|0:0,0:0:0:0:
232,44,175572,2,0,P|193:84|70:76,1,170,0|8,1:0|0:0,0:0:0:0:
320,122,175924,2,0,P|386:159|487:142,1,170,0|0,1:0|3:0,0:0:0:0:
240,174,176275,1,8,0:0:0:0:
366,54,176392,1,0,0:0:0:0:
315,227,176510,6,0,P|313:280|324:329,1,85,4|0,1:2|0:0,0:0:0:0:
254,359,176744,1,8,0:0:0:0:
512,383,176861,2,0,P|499:330|394:295,1,170,2|0,1:2|3:0,0:0:0:0:
120,299,177213,2,8,L|220:288,1,85
294,91,177447,5,0,1:0:0:0:
157,201,177564,1,8,0:0:0:0:
338,357,177681,5,8,0:0:0:0:
263,229,177799,1,0,1:0:0:0:
153,372,177916,5,8,0:0:0:0:
359,211,178033,1,8,0:0:0:0:
105,125,178150,5,8,0:3:0:0:
220,315,178267,1,8,0:3:0:0:
1,237,178385,6,0,B|91:263|77:210|195:232,1,170,2|8,1:2|0:0,0:0:0:0:
183,83,178736,2,0,P|227:124|269:138,1,85,2|0,1:2|0:0,0:0:0:0:
375,271,178970,5,4,1:2:0:0:
338,50,179088,1,8,0:0:0:0:
361,295,179205,1,8,0:3:0:0:
492,172,179322,6,0,P|439:190|333:117,1,170,2|8,1:2|0:0,0:0:0:0:
228,356,179674,2,0,P|233:314|224:250,1,85,2|0,1:2|0:0,0:0:0:0:
103,93,179908,1,4,1:2:0:0:
289,222,180025,1,8,0:0:0:0:
118,118,180142,1,0,3:0:0:0:
41,257,180260,6,0,P|121:260|191:179,1,170,2|8,1:2|0:0,0:0:0:0:
355,135,180611,1,0,1:0:0:0:
270,46,180728,2,8,P|274:107|265:158,1,85,2|8,3:2|0:0,0:0:0:0:
445,339,180963,2,0,P|437:292|440:229,1,85,0|8,3:0|3:3,3:0:0:0:
192,297,181197,5,0,1:0:0:0:
333,254,181314,1,8,0:0:0:0:
251,217,181431,5,10,0:3:0:0:
364,329,181549,1,0,1:0:0:0:
402,110,181666,5,8,0:3:0:0:
384,198,181783,1,10,0:3:0:0:
471,82,181900,2,0,P|421:80|382:71,1,85,2|8,1:2|0:3,0:0:0:0:
46,215,182135,6,0,P|83:164|207:149,1,170,4|8,1:2|0:0,0:0:0:0:
401,0,182486,2,0,P|332:58|236:31,1,170,2|0,1:2|3:0,0:0:0:0:
295,193,182838,2,0,P|287:244|294:294,1,85,10|0,0:2|0:0,0:0:0:0:
464,247,183072,2,0,P|478:187|404:87,1,170,2|8,1:2|0:0,0:0:0:0:
195,231,183424,2,0,P|164:279|196:395,1,170,2|0,1:2|3:0,0:0:0:0:
452,321,183775,2,0,P|403:310|360:312,1,85,10|0,3:2|3:0,3:0:0:0:
114,171,184010,6,0,P|181:186|274:124,1,170,2|8,1:2|0:0,0:0:0:0:
502,83,184361,2,0,P|425:79|350:9,1,170,2|0,1:2|3:0,0:0:0:0:
372,147,184713,2,0,P|366:208|371:249,1,85,10|0,0:2|0:0,0:0:0:0:
117,190,184947,2,0,P|171:189|213:195,1,85,2|0,1:2|0:0,0:0:0:0:
356,329,185182,1,8,0:0:0:0:
275,378,185299,2,0,P|271:326|278:280,1,85,0|0,1:0|0:0,0:0:0:0:
427,77,185533,1,0,1:0:0:0:
493,138,185651,2,1,P|497:190|490:236,1,85,8|8,0:0|0:0,0:0:0:0:
197,275,185885,6,0,P|217:221|353:209,1,170,2|8,1:2|0:0,0:0:0:0:
512,310,186236,2,0,P|448:306|413:307,1,85,2|0,1:2|0:0,0:0:0:0:
397,162,186470,5,4,1:2:0:0:
332,329,186588,1,8,0:0:0:0:
378,139,186705,1,8,0:3:0:0:
294,20,186822,6,0,P|281:74|289:120,1,85,2|0,1:2|0:0,0:0:0:0:
358,250,187056,1,8,0:0:0:0:
482,182,187174,2,0,P|488:125|468:76,1,85,2|0,1:2|0:0,0:0:0:0:
382,56,187408,1,4,3:2:0:0:
204,192,187525,2,0,P|246:191|288:185,1,85,8|8,0:0|3:0,0:0:0:0:
500,353,187760,6,0,P|452:345|405:345,1,85,2|0,1:2|0:0,0:0:0:0:
223,313,187994,1,8,0:0:0:0:
295,369,188111,2,0,P|312:324|304:281,1,85,2|10,1:2|0:3,0:0:0:0:
209,107,188345,1,8,0:0:0:0:
123,158,188463,2,0,P|124:205|161:253,1,85,8|8,0:3|0:3,0:0:0:0:
372,246,188697,5,0,1:0:0:0:
225,188,188814,1,8,0:0:0:0:
479,100,188931,2,0,P|440:132|317:135,1,170,2|0,1:2|0:0,0:0:0:0:
252,10,189283,2,0,P|236:66|246:117,1,85,10|8,0:3|3:0,0:0:0:0:
157,131,189517,1,8,3:0:0:0:
324,335,189635,6,0,P|366:306|374:184,1,170,4|8,1:2|0:0,0:0:0:0:
400,1,189986,2,0,P|446:40|450:167,1,170,2|0,1:2|3:0,0:0:0:0:
328,137,190338,2,0,P|276:152|230:157,1,85,10|0,0:2|0:0,0:0:0:0:
51,366,190572,6,0,P|104:311|205:300,1,170,2|8,1:2|0:0,0:0:0:0:
474,276,190924,2,0,P|426:242|307:240,1,170,2|0,1:2|3:0,0:0:0:0:
169,121,191275,2,0,P|156:182|162:226,1,85,10|0,0:2|0:0,0:0:0:0:
50,194,191510,2,0,P|36:173|78:25,1,170,2|8,1:2|0:0,0:0:0:0:
252,0,191861,2,0,P|280:50|253:158,1,170,0|0,1:2|3:0,0:0:0:0:
277,264,192213,1,10,0:2:0:0:
170,99,192330,1,8,0:0:0:0:
365,192,192447,5,2,1:2:0:0:
159,291,192564,1,0,1:0:0:0:
306,368,192681,5,8,0:0:0:0:
197,205,192799,1,2,1:2:0:0:
414,121,192916,5,8,0:0:0:0:
352,300,193033,1,8,3:0:0:0:
306,101,193150,5,8,0:0:0:0:
511,217,193267,1,0,3:0:0:0:
233,26,193385,6,0,P|224:69|229:116,1,85,4|0,1:2|0:0,0:0:0:0:
292,180,193619,1,8,0:0:0:0:
502,126,193736,2,0,P|480:65|372:30,1,170,2|0,1:2|3:0,0:0:0:0:
96,212,194088,2,0,P|151:197|181:192,1,85,10|0,0:2|0:0,0:0:0:0:
419,173,194322,6,0,P|426:226|413:264,1,85,2|0,1:2|0:0,0:0:0:0:
464,321,194556,1,8,0:0:0:0:
224,252,194674,2,0,P|203:197|280:97,1,170,2|0,1:2|3:0,0:0:0:0:
358,0,195025,2,0,P|351:63|359:101,1,85,10|0,0:2|0:0,0:0:0:0:
197,364,195260,5,2,1:2:0:0:
329,229,195377,1,2,0:2:0:0:
103,235,195494,5,10,0:3:0:0:
299,331,195611,1,2,1:2:0:0:
315,352,195845,5,0,1:0:0:0:
224,253,195963,1,8,0:0:0:0:
402,322,196080,1,8,0:3:0:0:
152,301,196197,5,2,1:2:0:0:
291,185,196314,1,10,0:2:0:0:
150,77,196431,1,8,0:3:0:0:
51,170,196549,6,0,P|116:189|221:131,1,170,2|2,1:2|3:2,0:0:0:0:
397,234,196900,1,10,0:2:0:0:
270,87,197017,1,2,3:2:0:0:
359,28,197135,6,0,P|351:88|355:123,1,85,4|0,1:2|0:0,0:0:0:0:
433,143,197369,1,8,0:0:0:0:
287,383,197486,2,0,B|311:286|257:308|283:199,1,170,2|0,1:2|3:0,0:0:0:0:
121,331,197838,2,0,P|179:322|218:323,1,85,10|0,0:2|0:0,0:0:0:0:
511,180,198072,6,0,P|472:225|363:226,1,170,2|8,1:2|0:0,0:0:0:0:
128,163,198424,2,0,P|177:118|281:126,1,170,2|0,1:2|3:0,0:0:0:0:
188,331,198775,2,0,P|131:340|85:355,1,85,10|0,0:2|0:0,0:0:0:0:
71,79,199010,5,2,1:2:0:0:
248,254,199127,1,2,0:2:0:0:
41,286,199244,5,2,3:2:0:0:
149,17,199361,2,0,P|162:69|154:129,1,85,10|0,0:2|0:0,0:0:0:0:
228,357,199595,5,8,0:0:0:0:
119,206,199713,1,8,0:0:0:0:
239,145,199830,1,8,0:0:0:0:
93,361,199947,5,2,1:2:0:0:
337,211,200064,2,0,P|294:227|222:228,1,85,10|0,0:2|0:0,0:0:0:0:
97,282,200299,1,12,0:0:0:0:
208,314,200416,5,8,0:0:0:0:
27,130,200533,1,8,0:0:0:0:
16,332,200650,5,8,0:0:0:0:
138,118,200767,1,8,0:0:0:0:
7,240,200885,6,2,P|91:248|185:188,1,187.000005706787,4|8,1:2|0:0,0:1:0:0:
133,49,201236,2,0,P|108:135|120:161,1,93.5000028533936,2|0,1:0|0:0,0:0:0:0:
265,380,201470,1,0,3:0:0:0:
343,321,201588,2,0,P|349:270|327:225,1,93.5000028533936,10|0,0:1|0:0,0:0:0:0:
433,206,201822,6,2,P|349:214|255:154,1,187.000005706787,0|8,1:0|0:0,0:1:0:0:
351,25,202174,2,0,P|340:90|346:132,1,93.5000028533936,2|0,1:0|0:0,0:0:0:0:
171,282,202408,1,0,3:0:0:0:
93,224,202525,2,0,P|151:206|194:204,1,93.5000028533936,10|0,0:1|0:0,0:0:0:0:
507,164,202760,6,2,B|521:214|521:214|508:253,1,93.5000028533936,2|0,1:0|0:0,0:0:0:0:
273,363,202994,2,0,B|262:319|262:319|273:272,1,93.5000028533936,10|0,0:1|0:0,0:0:0:0:
327,63,203228,5,2,1:0:0:0:
430,272,203345,1,0,3:0:0:0:
159,297,203463,5,10,0:1:0:0:
330,161,203580,1,2,3:1:0:0:
512,345,203697,6,2,P|442:367|329:283,1,187.000005706787,0|8,1:0|0:0,0:1:0:0:
234,65,204049,2,0,P|214:126|228:184,1,93.5000028533936,2|0,1:0|0:0,0:0:0:0:
241,361,204283,1,0,3:0:0:0:
316,122,204400,1,8,0:0:0:0:
81,206,204517,1,8,0:0:0:0:
368,238,204635,6,3,B|259:220|292:271|174:245,1,187.000005706787,0|8,1:0|0:0,0:1:0:0:
2,314,204986,2,0,L|126:302,1,93.5000028533936,2|0,1:0|0:0,0:0:0:0:
404,337,205220,1,0,1:0:0:0:
195,155,205338,1,10,0:1:0:0:
108,384,205455,1,0,3:0:0:0:
283,165,205572,2,0,P|275:117|268:51,1,93.5000028533936,2|0,1:0|0:0,0:0:0:0:
456,267,205806,2,0,P|484:227|526:175,1,93.5000028533936,10|0,0:1|3:0,3:0:0:0:
182,283,206041,6,0,P|138:228|107:200,1,93.5000028533936,2|0,1:0|0:0,0:0:0:0:
426,46,206275,2,0,P|409:115|397:167,1,93.5000028533936,10|0,0:1|3:0,3:0:0:0:
296,370,206510,5,6,1:1:0:0:
92,68,206627,1,2,3:1:0:0:
324,228,206744,5,10,0:1:0:0:
0,244,206861,1,2,1:1:0:0:
16,266,207095,5,2,1:1:0:0:
136,351,207213,1,8,0:1:0:0:
70,192,207330,1,2,3:2:0:0:
308,339,207447,5,6,1:0:0:0:
138,264,207564,1,8,0:0:0:0:
271,127,207681,1,8,0:0:0:0:
372,233,207799,5,2,1:0:0:0:
209,307,207916,1,8,0:0:0:0:
195,89,208033,1,8,0:0:0:0:
399,145,208150,5,8,0:0:0:0:
158,232,208267,1,8,0:0:0:0:
425,59,208385,6,2,P|504:98|500:208,1,187.000005706787,4|8,1:2|0:0,0:1:0:0:
282,383,208736,2,0,P|276:332|284:277,1,93.5000028533936,2|0,1:0|0:0,0:0:0:0:
198,142,208970,1,0,3:0:0:0:
330,201,209088,2,0,L|228:215,1,93.5000028533936,10|0,0:1|0:0,0:0:0:0:
0,362,209322,6,2,P|71:377|169:291,1,187.000005706787,0|8,1:0|0:0,0:1:0:0:
78,179,209674,2,0,P|86:233|81:283,1,93.5000028533936,2|0,1:0|0:0,0:0:0:0:
321,338,209908,1,0,3:0:0:0:
244,384,210025,2,0,P|236:330|241:280,1,93.5000028533936,10|0,0:1|0:0,0:0:0:0:
177,9,210260,6,0,P|164:73|164:127,1,93.5000028533936,2|0,1:0|0:0,0:0:0:0:
357,213,210494,2,0,L|249:208,1,93.5000028533936,10|0,0:1|0:0,0:0:0:0:
28,311,210728,1,2,1:0:0:0:
181,244,210845,1,0,3:0:0:0:
52,112,210963,1,10,0:1:0:0:
160,350,211080,1,2,3:1:0:0:
391,299,211197,6,2,P|441:245|410:121,1,187.000005706787,0|8,1:0|0:0,0:1:0:0:
198,15,211549,2,0,P|194:80|202:138,1,93.5000028533936,2|0,1:0|0:0,0:0:0:0:
232,331,211783,1,2,1:2:0:0:
125,146,211900,1,10,0:1:0:0:
337,221,212017,1,0,3:2:0:0:
8,231,212135,6,2,B|105:264|97:212|192:229,1,187.000005706787,4|8,1:2|0:0,0:1:0:0:
279,61,212486,2,0,P|310:103|354:133,1,93.5000028533936,2|0,1:0|0:0,0:0:0:0:
372,339,212720,1,2,1:2:0:0:
237,143,212838,1,10,0:1:0:0:
484,233,212955,1,2,3:2:0:0:
247,376,213072,2,0,P|247:326|258:280,1,93.5000028533936,2|0,1:0|0:0,0:0:0:0:
420,27,213306,2,0,P|438:89|428:158,1,93.5000028533936,10|0,0:1|3:0,3:0:0:0:
454,315,213541,5,2,1:0:0:0:
297,205,213658,1,0,3:0:0:0:
512,161,213775,2,0,P|515:216|503:271,1,93.5000028533936,10|0,0:1|3:0,3:0:0:0:
188,176,214010,5,6,1:1:0:0:
341,106,214127,1,2,3:1:0:0:
208,291,214244,5,10,0:1:0:0:
117,71,214361,1,10,0:1:0:0:
394,231,214478,5,0,1:0:0:0:
236,92,214595,1,10,0:2:0:0:
122,256,214713,5,10,0:2:0:0:
324,184,214830,1,2,1:2:0:0:
55,186,214947,6,2,P|-5:242|33:368,1,187.000005706787,12|0,0:2|1:0,0:1:0:0:
182,342,215299,1,10,0:0:0:0:
353,270,215416,1,0,1:0:0:0:
200,167,215533,1,8,0:3:0:0:
310,367,215650,1,8,1:3:0:0:
435,192,215767,1,8,3:3:0:0:
165,255,215885,6,0,P|117:257|54:269,1,93.5000028533936,6|0,1:0|0:0,0:0:0:0:
0,301,216119,1,8,0:0:0:0:
138,67,216236,2,2,P|213:135|311:108,1,187.000005706787,2|2,1:1|3:2,0:1:0:0:
253,219,216588,2,0,P|248:276|256:322,1,93.5000028533936,10|2,0:0|0:1,0:0:0:0:
512,355,216822,5,2,1:2:0:0:
389,188,216939,1,2,3:1:0:0:
343,339,217056,5,10,0:1:0:0:
509,222,217173,1,2,3:1:0:0:
400,79,217290,5,2,1:1:0:0:
412,277,217407,1,2,0:1:0:0:
277,135,217525,5,10,0:1:0:0:
512,63,217642,1,2,0:1:0:0:
239,42,217760,6,2,B|138:27|149:79|35:47,1,187.000005706787,0|8,1:0|0:0,0:1:0:0:
131,328,218111,2,0,P|124:279|141:227,1,93.5000028533936,2|0,1:0|0:0,0:0:0:0:
229,231,218345,1,0,1:0:0:0:
49,155,218463,1,10,0:1:0:0:
0,353,218580,1,0,3:0:0:0:
238,311,218697,6,0,P|308:315|358:327,1,93.5000028533936,2|0,1:0|0:0,3:0:0:0:
512,151,218931,2,2,P|484:95|345:72,1,187.000005706787,8|0,0:0|0:0,0:1:0:0:
158,112,219283,5,2,1:0:0:0:
136,288,219400,1,10,0:0:0:0:
214,59,219517,2,0,P|154:59|111:50,1,93.5000028533936,10|0,0:1|1:0,0:0:0:0:
57,192,219869,2,2,B|149:166|135:233|267:186,1,187.000005706787,12|0,0:2|0:0,0:1:0:0:
404,240,220220,1,0,1:0:0:0:
234,100,220338,5,10,0:1:0:0:
301,273,220455,1,2,3:1:0:0:
431,101,220572,5,2,1:0:0:0:
326,156,220689,1,0,3:0:0:0:
470,354,220806,5,10,0:1:0:0:
512,131,220924,2,0,P|501:60|484:31,1,93.5000028533936,2|0,1:0|0:0,0:0:0:0:
226,173,221158,1,2,3:1:0:0:
185,250,221275,2,0,P|177:311|188:365,1,93.5000028533936,8|0,0:0|0:0,0:0:0:0:
411,271,221510,5,6,1:0:0:0:
103,117,221627,1,2,1:0:0:0:
346,91,221744,5,10,1:0:0:0:
50,203,221861,1,6,1:0:0:0:
49,223,222095,5,0,1:0:0:0:
171,170,222213,1,8,0:0:0:0:
95,323,222330,1,8,0:0:0:0:
148,20,222447,5,6,1:1:0:0:
283,284,222564,1,2,3:1:0:0:
49,121,222681,5,10,0:1:0:0:
385,213,222799,1,6,1:1:0:0:
368,190,223033,5,0,1:0:0:0:
198,95,223150,1,8,0:0:0:0:
201,289,223267,1,0,3:0:0:0:
256,192,223385,5,0,1:0:0:0:
256,192,223502,1,0,3:0:0:0:
315,113,223619,5,14,2:2:0:0:
315,113,223697,1,2,0:2:0:0:
315,113,223775,1,2,0:2:0:0:
315,113,223853,2,0,L|354:28,1,93.5000028533936,2|0,1:0|0:0,0:0:0:0:
316,281,224088,5,10,0:2:0:0:
316,281,224166,1,2,0:2:0:0:
316,281,224244,1,2,0:2:0:0:
316,281,224322,2,0,L|378:370,1,93.5000028533936,2|0,1:0|0:0,0:0:0:0:
170,198,224556,5,10,0:2:0:0:
170,198,224634,1,2,0:2:0:0:
170,198,224712,1,2,0:2:0:0:
170,198,224790,2,0,L|77:205,1,93.5000028533936,2|0,1:0|0:0,0:0:0:0:
353,203,225025,5,10,2:2:0:0:
353,203,225103,1,2,0:2:0:0:
353,203,225181,1,2,0:2:0:0:
353,203,225260,2,0,L|447:195,1,93.5000028533936,2|0,1:0|0:0,0:0:0:0:
208,288,225494,5,10,0:2:0:0:
208,288,225572,1,2,0:2:0:0:
208,288,225650,1,2,0:2:0:0:
208,288,225728,2,0,L|162:386,1,93.5000028533936,2|0,1:0|0:0,0:0:0:0:
207,120,225963,6,0,L|154:44,1,93.5000028533936,8|0,0:0|0:0,0:0:0:0:
451,213,226197,6,0,P|392:215|343:225,1,93.5000028533936,2|0,1:0|3:0,3:0:0:0:
118,267,226431,1,10,0:1:0:0:
281,69,226549,2,0,P|291:126|281:173,1,93.5000028533936,2|0,1:0|0:0,0:0:0:0:
148,351,226783,1,2,1:0:0:0:
14,205,226900,2,0,P|56:196|111:192,1,93.5000028533936,10|0,0:1|0:0,0:0:0:0:
409,305,227135,6,2,B|305:327|327:272|213:297,1,187.000005706787,0|8,1:0|0:0,0:1:0:0:
199,59,227486,2,0,P|159:104|128:120,1,93.5000028533936,0|0,1:0|0:0,0:0:0:0:
104,354,227720,1,0,1:0:0:0:
218,193,227838,1,10,0:1:0:0:
39,100,227955,1,0,3:0:0:0:
329,201,228072,6,0,P|322:137|321:88,1,93.5000028533936,0|0,1:0|0:0,0:0:0:0:
143,284,228306,2,8,P|99:266|54:254,1,93.5000028533936,10|0,0:1|3:0,0:0:0:0:
487,34,228541,6,0,P|454:83|430:141,1,93.5000028533936,2|0,1:0|3:0,0:0:0:0:
154,135,228775,2,0,P|127:87|97:46,1,93.5000028533936,10|0,0:1|0:0,0:0:0:0:
359,120,229010,5,6,1:1:0:0:
236,357,229127,1,2,3:1:0:0:
56,176,229244,5,10,0:1:0:0:
359,257,229361,1,6,1:1:0:0:
383,274,229595,5,0,1:0:0:0:
236,278,229713,1,8,0:0:0:0:
426,191,229830,1,0,3:0:0:0:
352,371,229947,5,8,0:0:0:0:
283,197,230064,1,8,0:3:0:0:
512,262,230181,1,8,0:3:0:0:
215,117,230299,5,8,0:0:0:0:
359,257,230416,1,8,0:3:0:0:
454,107,230533,1,0,3:0:0:0:
160,256,230650,5,0,1:0:0:0:
347,114,230767,1,0,0:0:0:0:
113,48,230885,6,0,P|96:108|104:153,1,93.5000028533936,2|0,1:0|3:0,0:0:0:0:
25,185,231119,1,8,0:0:0:0:
239,345,231236,2,0,P|251:300|235:228,1,93.5000028533936,2|0,1:0|3:0,0:0:0:0:
359,94,231470,1,6,1:1:0:0:
162,215,231588,1,10,0:1:0:0:
24,53,231705,1,0,3:0:0:0:
262,179,231822,6,0,P|322:185|386:201,1,93.5000028533936,2|0,1:0|3:0,0:0:0:0:
415,243,232056,1,8,0:0:0:0:
154,321,232174,2,0,P|94:327|30:343,1,93.5000028533936,2|0,1:0|3:0,0:0:0:0:
0,384,232408,1,14,0:1:0:0:
175,239,232525,1,10,0:1:0:0:
356,365,232642,1,0,3:0:0:0:
86,240,232760,6,0,P|76:189|81:130,1,93.5000028533936,2|0,1:0|3:0,0:0:0:0:
285,9,232994,2,0,P|297:56|289:112,1,93.5000028533936,10|0,0:1|3:0,0:0:0:0:
285,284,233228,5,2,1:0:0:0:
155,131,233345,1,0,3:0:0:0:
385,66,233463,5,10,0:1:0:0:
241,202,233580,1,2,3:1:0:0:
14,84,233697,6,0,P|70:63|131:62,1,93.5000028533936,0|0,1:0|3:0,0:0:0:0:
187,262,233931,1,10,0:1:0:0:
106,377,234049,2,0,P|95:323|114:259,1,93.5000028533936,6|0,1:0|3:0,0:0:0:0:
332,125,234283,1,8,0:0:0:0:
257,24,234400,2,0,P|244:85|252:146,1,93.5000028533936,0|0,1:0|3:0,0:0:0:0:
511,293,234635,6,2,P|482:218|370:199,1,187.000005706787,4|8,1:2|0:0,0:1:0:0:
197,321,234986,2,0,P|249:332|306:312,1,93.5000028533936,2|0,1:0|3:0,0:0:0:0:
312,218,235220,1,2,1:2:0:0:
122,333,235338,1,10,0:1:0:0:
350,384,235455,1,2,3:2:0:0:
233,149,235572,2,0,B|223:198|223:198|240:266,1,93.5000028533936,2|0,1:0|0:0,0:0:0:0:
54,107,235806,2,0,L|171:94,1,93.5000028533936,10|0,0:1|0:0,0:0:0:0:
338,245,236041,1,2,1:0:0:0:
140,192,236158,1,0,3:0:0:0:
304,22,236275,2,0,P|326:86|325:134,1,93.5000028533936,10|0,0:1|3:0,0:0:0:0:
238,381,236510,5,6,1:1:0:0:
412,138,236627,1,2,3:1:0:0:
117,300,236744,5,10,0:1:0:0:
487,239,236861,1,6,1:1:0:0:
472,258,237095,5,2,1:1:0:0:
344,305,237213,1,10,0:1:0:0:
277,202,237330,1,2,3:1:0:0:
192,278,237447,5,4,1:2:0:0:
370,200,237564,1,2,3:1:0:0:
238,94,237681,1,10,0:1:0:0:
156,200,237799,5,6,1:0:0:0:
264,65,237916,1,0,3:0:0:0:
58,170,238033,1,10,0:1:0:0:
258,356,238150,5,2,1:0:0:0:
245,194,238267,1,10,0:1:0:0:
491,290,238385,6,0,P|423:302|379:303,1,93.5000028533936,2|0,1:1|3:0,0:0:0:0:
170,284,238619,1,8,0:0:0:0:
332,122,238736,2,0,P|344:178|334:220,1,93.5000028533936,2|0,1:0|3:0,0:0:0:0:
145,371,238970,1,4,1:2:0:0:
44,188,239088,1,10,0:1:0:0:
237,73,239205,1,0,3:0:0:0:
92,279,239322,6,0,P|24:291|-14:290,1,93.5000028533936,2|0,1:0|3:0,0:0:0:0:
247,343,239556,1,8,0:0:0:0:
166,122,239674,2,0,P|155:79|168:18,1,93.5000028533936,2|0,1:0|3:0,0:0:0:0:
363,155,239908,1,4,1:2:0:0:
175,285,240025,1,10,0:1:0:0:
55,83,240142,1,0,3:0:0:0:
302,240,240260,6,0,P|364:241|419:253,1,93.5000028533936,2|0,1:0|3:0,3:0:0:0:
497,21,240494,2,0,P|439:19|391:10,1,93.5000028533936,10|0,0:1|3:0,3:0:0:0:
215,177,240728,1,2,1:0:0:0:
291,351,240845,1,0,3:0:0:0:
480,271,240963,1,10,3:1:0:0:
402,94,241080,1,0,3:0:0:0:
136,227,241197,2,2,P|215:257|326:192,1,187.000005706787,0|8,1:0|0:0,0:1:0:0:
331,36,241549,2,0,P|314:94|320:137,1,93.5000028533936,2|0,1:0|3:0,0:0:0:0:
512,362,241783,1,0,1:0:0:0:
465,277,241900,2,0,L|357:265,1,93.5000028533936,10|0,0:1|0:0,0:0:0:0:
143,338,242135,5,6,1:0:0:0:
220,77,242252,2,0,P|227:146|218:192,1,93.5000028533936,0|8,3:0|0:0,0:0:0:0:
28,306,242486,2,2,P|78:262|201:268,1,187.000005706787,0|0,1:0|1:0,0:1:0:0:
286,318,242838,1,8,0:0:0:0:
120,158,242955,1,0,3:0:0:0:
416,193,243072,2,0,P|362:205|312:208,1,93.5000028533936,2|0,1:0|3:0,0:0:0:0:
12,119,243306,2,0,P|54:86|103:80,1,93.5000028533936,10|0,0:1|3:0,0:0:0:0:
204,147,243541,1,2,1:1:0:0:
128,326,243658,1,0,3:0:0:0:
245,82,243775,2,0,P|243:141|251:195,1,93.5000028533936,10|0,0:1|3:0,0:0:0:0:
359,384,244010,5,6,1:1:0:0:
122,228,244127,1,2,3:1:0:0:
355,109,244244,5,10,0:1:0:0:
246,350,244361,1,2,3:1:0:0:
34,268,244478,6,0,P|38:207|52:165,1,93.5000028533936,0|0,1:0|3:0,0:0:0:0:
303,237,244713,2,0,P|250:259|197:262,1,93.5000028533936,8|0,0:0|3:0,0:0:0:0:
121,331,244947,1,0,1:0:0:0:
225,176,245064,1,0,3:0:0:0:
143,76,245181,2,0,P|131:142|137:182,1,93.5000028533936,8|0,0:0|3:0,0:0:0:0:
368,355,245416,2,0,P|390:312|392:263,1,93.5000028533936,0|0,1:0|3:0,0:0:0:0:
217,99,245650,1,8,0:0:0:0:
283,322,245767,1,0,3:0:0:0:
289,226,245885,5,6,1:0:0:0:
177,278,246002,1,0,3:0:0:0:
75,201,246119,2,0,P|145:187|184:183,1,93.5000028533936,8|0,0:0|3:0,0:0:0:0:
295,301,246353,5,0,1:0:0:0:
358,198,246470,1,0,3:0:0:0:
276,93,246588,2,0,P|260:167|262:203,1,93.5000028533936,8|0,0:0|3:0,0:0:0:0:
512,235,246822,6,2,P|499:169|374:125,1,187.000005706787,0|8,1:0|0:0,0:1:0:0:
326,236,247174,1,2,1:2:0:0:
433,351,247291,1,2,3:2:0:0:
276,317,247408,5,2,1:2:0:0:
415,254,247525,1,10,0:2:0:0:
344,384,247642,5,2,3:2:0:0:
140,330,247760,2,0,P|134:288|142:230,1,93.5000028533936,6|0,1:0|3:0,0:0:0:0:
311,60,247994,2,0,P|333:120|321:183,1,93.5000028533936,8|2,0:0|3:2,0:0:0:0:
222,278,248228,1,0,1:0:0:0:
187,104,248345,1,0,3:0:0:0:
396,187,248463,2,0,P|351:227|300:239,1,93.5000028533936,8|0,0:0|3:0,0:0:0:0:
26,181,248697,6,0,P|78:157|143:159,1,93.5000028533936,0|0,1:0|3:0,0:0:0:0:
211,384,248931,1,8,0:0:0:0:
108,345,249049,1,0,3:0:0:0:
147,244,249166,1,2,3:2:0:0:
248,279,249283,1,2,3:2:0:0:
28,372,249400,2,0,P|22:334|30:278,1,93.5000028533936,10|0,0:0|3:0,0:0:0:0:
151,33,249635,5,6,1:2:0:0:
259,178,249752,1,2,0:2:0:0:
56,96,249869,5,10,0:2:0:0:
348,140,249986,1,2,1:2:0:0:
157,270,250103,5,10,0:2:0:0:
282,14,250220,1,2,1:2:0:0:
471,188,250338,5,10,0:2:0:0:
169,119,250455,1,2,1:2:0:0:
295,384,250572,1,10,0:2:0:0:
476,275,250689,5,2,1:1:0:0:
404,304,250806,1,10,0:1:0:0:
335,274,250924,1,2,1:1:0:0:
281,222,251041,1,10,0:1:0:0:
206,205,251158,1,2,1:1:0:0:
135,230,251275,1,2,1:1:0:0:
99,296,251392,1,2,1:1:0:0:
80,153,251510,6,0,P|80:126|75:94,1,31.8750012159348,6|0,1:1|0:0,0:0:0:0:
80,153,253385,6,0,P|80:126|75:94,1,31.8750012159348,2|0,1:0|0:0,0:0:0:0:
26,218,253736,2,0,P|6:218|-26:224,1,31.8750012159348,2|0,1:0|0:0,0:0:0:0:
120,233,254205,1,8,0:3:0:0:
120,233,254263,1,8,0:3:0:0:
120,233,254322,1,8,0:3:0:0:
190,195,254439,1,8,0:3:0:0:
252,247,254556,1,8,0:3:0:0:
326,215,254791,1,8,0:3:0:0:
393,259,254908,1,8,0:3:0:0:
462,221,255026,1,0,1:0:0:0:
474,206,255260,6,0,P|468:161|469:117,1,63.7500024318696,2|0,1:0|0:0,0:0:0:0:
481,58,255494,1,0,3:0:0:0:
481,58,255611,2,0,L|531:60,1,31.8750012159348,8|0,0:0|0:0,0:0:0:0:
383,136,255845,5,8,0:3:0:0:
308,172,256080,1,8,0:3:0:0:
242,119,256314,1,0,1:0:0:0:
166,148,256431,1,0,1:0:0:0:
142,164,256666,5,8,0:0:0:0:
191,29,256783,1,8,0:0:0:0:
64,117,256900,5,8,0:3:0:0:
238,279,257017,1,0,1:0:0:0:
56,321,257135,6,0,L|52:261,1,31.8750012159348,14|0,0:1|0:0,0:0:0:0:
141,248,257369,1,0,1:0:0:0:
141,248,257486,2,0,P|135:315|145:381,1,127.500004863739,8|0,0:0|3:0,0:0:0:0:
264,358,257838,1,8,0:0:0:0:
204,171,257955,1,8,0:0:0:0:
390,215,258072,5,6,1:0:0:0:
241,263,258189,1,0,1:0:0:0:
451,346,258306,5,8,0:0:0:0:
385,299,258424,2,0,P|338:303|309:310,1,63.7500024318696,10|0,0:2|0:0,0:0:0:0:
132,241,258658,1,8,0:3:0:0:
116,350,258775,1,8,0:3:0:0:
153,252,258892,1,0,3:0:0:0:
23,284,259010,6,0,P|55:282|72:281,1,31.8750012159348,2|0,1:0|0:0,0:0:0:0:
74,176,259244,1,0,3:0:0:0:
74,176,259361,2,0,P|68:125|63:41,1,127.500004863739,8|8,0:0|0:3,0:0:0:0:
133,11,259713,1,8,0:3:0:0:
199,57,259830,1,8,0:3:0:0:
166,133,259947,1,0,1:0:0:0:
166,157,260181,1,0,1:0:0:0:
134,230,260299,1,8,0:0:0:0:
183,297,260416,1,0,1:0:0:0:
262,284,260533,1,0,1:0:0:0:
361,228,260650,5,0,1:0:0:0:
269,175,260767,1,0,1:0:0:0:
415,353,260885,2,0,L|469:343,1,31.8750012159348,2|0,1:0|0:0,0:0:0:0:
351,289,261236,2,0,L|344:250,1,31.8750012159348,2|0,1:0|0:0,0:0:0:0:
318,384,261470,1,8,0:3:0:0:
225,269,261588,1,0,1:0:0:0:
57,195,261705,5,8,0:0:0:0:
131,218,261822,1,8,0:0:0:0:
178,153,261939,1,8,0:0:0:0:
253,176,262056,1,8,0:0:0:0:
306,117,262174,1,8,0:0:0:0:
381,138,262408,1,8,0:0:0:0:
428,78,262525,1,8,0:0:0:0:
465,73,262760,6,0,P|476:143|468:223,1,127.500004863739,2|0,1:0|3:0,0:0:0:0:
458,281,263111,1,8,0:0:0:0:
247,268,263345,2,0,L|329:254,1,63.7500024318696,8|0,0:3|0:0,0:0:0:0:
488,365,263580,2,0,L|408:355,1,63.7500024318696,8|0,0:3|0:0,0:0:0:0:
306,384,263814,1,0,1:0:0:0:
393,230,263931,1,8,0:3:0:0:
393,230,264166,5,0,1:0:0:0:
231,183,264283,1,8,0:0:0:0:
358,317,264400,1,8,0:3:0:0:
443,126,264517,1,8,0:3:0:0:
186,96,264635,6,0,P|146:163|173:273,1,170,4|8,1:2|0:0,0:0:0:0:
81,374,264986,2,0,P|91:330|70:274,1,85,0|0,1:2|0:0,0:0:0:0:
78,30,265220,1,0,3:2:0:0:
0,125,265338,2,0,L|96:103,1,85,8|0,0:0|0:0,0:0:0:0:
298,184,265572,5,0,1:0:0:0:
221,35,265689,1,8,0:0:0:0:
389,175,265806,5,8,0:0:0:0:
223,289,265924,1,8,0:0:0:0:
93,191,266041,5,8,0:0:0:0:
251,126,266158,1,8,0:0:0:0:
360,378,266275,5,8,0:0:0:0:
191,195,266392,1,8,0:0:0:0:
477,174,266510,6,0,L|472:238,1,42.5,6|0,1:0|0:0,0:0:0:0:
322,83,266744,1,0,1:0:0:0:
322,83,266861,2,0,P|314:32|317:-3,1,85,10|0,0:1|3:0,0:0:0:0:
234,267,267096,1,0,1:0:0:0:
234,267,267213,2,0,P|172:276|123:280,1,85,14|0,0:1|3:0,0:0:0:0:
398,112,267447,1,0,1:0:0:0:
398,112,267564,2,0,L|445:118,1,42.5,10|0,0:1|0:0,0:0:0:0:
505,68,267681,2,0,P|514:142|505:181,1,85,0|0,1:0|3:0,0:0:0:0:
406,384,267916,5,2,1:0:0:0:
290,158,268033,1,8,0:0:0:0:
501,231,268150,1,8,0:0:0:0:
350,294,268267,1,0,1:0:0:0:
214,198,268385,2,2,P|199:133|226:30,1,170,4|0,1:2|0:0,0:1:0:0:
303,58,269323,5,0,1:0:0:0:
109,129,269440,1,8,0:0:0:0:
178,49,269557,5,8,0:0:0:0:
278,237,269674,1,0,3:0:0:0:
370,138,269791,5,8,0:3:0:0:
193,200,269908,1,8,0:3:0:0:
422,256,270025,5,8,0:3:0:0:
422,256,270142,1,8,0:3:0:0:
302,23,270260,5,2,1:1:0:0:
208,361,270377,1,10,0:1:0:0:
446,112,270494,5,10,0:1:0:0:
85,238,270611,1,14,1:1:0:0:
