osu file format v14

[General]
AudioFilename: audio.mp3
AudioLeadIn: 0
PreviewTime: 88670
Countdown: 0
SampleSet: Soft
StackLeniency: 0.2
Mode: 0
LetterboxInBreaks: 0
WidescreenStoryboard: 0

[Editor]
DistanceSpacing: 1
BeatDivisor: 3
GridSize: 8
TimelineZoom: 1.7

[Metadata]
Title:GENS D'ARMES
TitleUnicode:GENS D'ARMES
Artist:Falcom Sound Team jdk
ArtistUnicode:Falcom Sound Team jdk
Creator:jonathanlfj
Version:CONQUEROR
Source:イースVIII -Lacrimosa of DANA-
Tags:J.D.K. Ys VIII 8 Lacrimosa DANA Super Ultimate arpg video game instrumental Masaru Teramae 寺前 甲 Tokunan Demetori Takahiro Unisuga 宇仁菅 孝宏 Yukihiro Jindo 神藤 由東大
BeatmapID:2256387
BeatmapSetID:1078344

[Difficulty]
HPDrainRate:6
CircleSize:4
OverallDifficulty:9.2
ApproachRate:9.8
SliderMultiplier:2
SliderTickRate:1

[Events]
//Background and Video events
0,0,"ys8.jpg",0,0
//Break Periods
//Storyboard Layer 0 (Background)
//Storyboard Layer 1 (Fail)
//Storyboard Layer 2 (Pass)
//Storyboard Layer 3 (Foreground)
//Storyboard Layer 4 (Overlay)
//Storyboard Sound Samples

[TimingPoints]
345,227.272727272727,4,2,1,5,1,0
572,-100,4,2,1,10,0,0
799,-100,4,2,1,15,0,0
1026,-100,4,2,1,20,0,0
1254,-100,4,2,1,25,0,0
1367,-100,4,2,1,30,0,0
1481,-100,4,2,1,35,0,0
1594,-100,4,2,1,40,0,0
1708,-100,4,2,1,45,0,0
1822,-100,4,2,1,50,0,0
1935,-100,4,2,1,55,0,0
2049,-100,4,2,1,60,0,0
2106,-100,4,2,1,5,0,0
2164,-90.9090909090909,4,1,1,60,0,0
3413,-111.111111111111,4,1,1,60,0,0
3754,-142.857142857143,4,1,1,60,0,0
5800,-90.9090909090909,4,1,1,60,0,0
7050,-111.111111111111,4,1,1,60,0,0
7391,-142.857142857143,4,1,1,60,0,0
9436,-90.9090909090909,4,1,1,60,0,0
10686,-111.111111111111,4,1,1,60,0,0
11027,-142.857142857143,4,1,1,60,0,0
12163,-90.9090909090909,4,1,1,60,0,0
12504,-111.111111111111,4,1,1,60,0,0
12845,-142.857142857143,4,1,1,60,0,0
13073,236.220472440945,4,1,1,40,1,0
13073,-142.857142857143,4,1,1,40,0,0
13545,-125,4,1,1,45,0,0
14017,-111.111111111111,4,1,1,50,0,0
14490,-100,4,1,1,55,0,0
14962,-90.9090909090909,4,1,1,60,0,0
16852,227.272727272727,4,1,1,50,1,0
30374,-100,4,1,1,50,0,0
30829,-86.9565217391304,4,1,1,55,0,0
31170,-76.9230769230769,4,1,1,60,0,0
31397,-100,4,1,1,50,0,0
45033,-90.9090909090909,4,1,1,55,0,0
45374,-90.9090909090909,4,1,1,60,0,0
45715,-90.9090909090909,4,1,1,65,0,0
45942,-86.9565217391304,4,1,1,70,0,1
45999,-86.9565217391304,4,1,1,70,0,0
60488,-100,4,1,1,55,0,0
74465,-86.9565217391304,4,1,1,60,0,0
74806,-76.9230769230769,4,1,1,65,0,0
75033,-100,4,1,1,55,0,0
88670,-100,4,1,1,60,0,0
89124,-100,4,1,1,65,0,0
89579,-86.9565217391304,4,1,1,70,0,1
89636,-86.9565217391304,4,1,1,70,0,0
106851,-90.9090909090909,4,1,1,70,0,0
120601,-90.9090909090909,4,1,1,75,0,1
121397,-90.9090909090909,4,1,1,70,0,0
131397,-90.9090909090909,4,1,1,75,0,1
131738,-80,4,1,1,75,0,1
132079,-71.4285714285714,4,1,1,75,0,1
132306,-90.9090909090909,4,1,1,70,0,0
135942,-90.9090909090909,4,1,1,65,0,0
137191,-111.111111111111,4,1,1,65,0,0
137532,-142.857142857143,4,1,1,65,0,0
138670,-90.9090909090909,4,1,1,65,0,0
139011,-111.111111111111,4,1,1,65,0,0
139352,-142.857142857143,4,1,1,65,0,0
141397,-90.9090909090909,4,1,1,65,0,0
143215,-83.3333333333333,4,1,1,70,0,1
146170,-125,4,1,1,70,0,1
146511,-83.3333333333333,4,1,1,70,0,1
146851,-100,4,1,1,70,0,1
148670,-90.9090909090909,4,1,1,70,0,1
149124,-83.3333333333333,4,1,1,70,0,1
149806,-125,4,1,1,70,0,1
150261,-83.3333333333333,4,1,1,70,0,1
153442,-125,4,1,1,70,0,1
153897,-83.3333333333333,4,1,1,70,0,1
154124,-83.3333333333333,4,1,1,60,0,1
155942,-83.3333333333333,4,1,1,65,0,1
156851,-83.3333333333333,4,1,1,70,0,1
160715,-125,4,1,1,70,0,1
161170,-83.3333333333333,4,1,1,70,0,1
163670,-83.3333333333333,4,1,1,65,0,1
164124,-83.3333333333333,4,1,1,60,0,1
164579,-83.3333333333333,4,1,1,55,0,1
165033,-125,4,1,1,50,0,1
165488,-111.111111111111,4,1,1,55,0,1
165942,-100,4,1,1,60,0,1
166397,-90.9090909090909,4,1,1,65,0,1
166851,-83.3333333333333,4,1,1,70,0,1
167988,-125,4,1,1,70,0,1
168442,-83.3333333333333,4,1,1,70,0,1
172306,-142.857142857143,4,3,1,55,0,0
179579,-71.4285714285714,4,3,1,70,0,1
188670,236.220472440945,4,2,1,40,1,0
188670,-200,4,2,1,40,0,0
189496,-200,4,2,1,5,0,0
189614,-200,4,2,1,40,0,0
190441,-200,4,2,1,5,0,0
190559,-200,4,2,1,40,0,0
191386,-200,4,2,1,5,0,0
191504,-200,4,2,1,40,0,0
191858,-200,4,2,1,5,0,0
191977,-200,4,2,1,40,0,0
192331,-200,4,2,1,5,0,0
192449,-166.666666666667,4,2,1,40,0,0
193276,-200,4,2,1,5,0,0
193394,-142.857142857143,4,2,1,40,0,0
194221,-200,4,2,1,5,0,0
194339,-200,4,2,1,40,0,0
195166,-200,4,2,1,5,0,0
195284,-200,4,2,1,50,0,0
204732,227.272727272727,4,1,1,55,1,0
205641,-100,4,1,1,60,0,0
206095,-100,4,1,1,65,0,0
206550,-90.9090909090909,4,1,1,70,0,1
206607,-90.9090909090909,4,1,1,70,0,0
216550,-90.9090909090909,4,1,1,75,0,1
216891,-80,4,1,1,75,0,1
217232,-71.4285714285714,4,1,1,75,0,1
217459,-90.9090909090909,4,1,1,70,0,0
220300,-90.9090909090909,4,1,1,80,0,1
221095,-90.9090909090909,4,1,1,70,0,0
231095,-90.9090909090909,4,1,1,75,0,1
231436,-80,4,1,1,75,0,1
231777,-71.4285714285714,4,1,1,75,0,1
232004,-90.9090909090909,4,1,1,70,0,0
249277,-83.3333333333333,4,1,1,75,0,0
249391,-83.3333333333333,4,1,1,75,0,1
250129,-83.3333333333333,4,1,1,75,0,0
250186,-86.9565217391304,4,1,1,70,0,1
260129,-86.9565217391304,4,1,1,70,0,0
260186,-86.9565217391304,4,1,1,75,0,1
260527,-76.9230769230769,4,1,1,75,0,1
260868,-68.9655172413793,4,1,1,75,0,1
261095,-86.9565217391304,4,1,1,70,0,1
264731,-83.3333333333333,4,1,1,70,0,1
274675,-83.3333333333333,4,1,1,70,0,0
274731,-83.3333333333333,4,1,1,75,0,1
275072,-74.0740740740741,4,1,1,75,0,1
275413,-66.6666666666667,4,1,1,75,0,1
275640,-83.3333333333333,4,1,1,70,0,1
279277,-90.9090909090909,4,1,1,60,0,0
280526,-111.111111111111,4,1,1,60,0,0
280867,-142.857142857143,4,1,1,60,0,0
282913,-90.9090909090909,4,1,1,60,0,0
284163,-111.111111111111,4,1,1,60,0,0
284504,-142.857142857143,4,1,1,60,0,0
286549,-90.9090909090909,4,1,1,60,0,0
287799,-111.111111111111,4,1,1,60,0,0
288140,-142.857142857143,4,1,1,60,0,0
289276,-90.9090909090909,4,1,1,60,0,0
289617,-111.111111111111,4,1,1,60,0,0
289958,-142.857142857143,4,1,1,60,0,0
290186,236.220472440945,4,1,1,40,1,0
290186,-142.857142857143,4,1,1,40,0,0
290658,-125,4,1,1,45,0,0
291130,-111.111111111111,4,1,1,50,0,0
291603,-100,4,1,1,55,0,0
292075,-90.9090909090909,4,1,1,60,0,0
294260,-100,4,1,1,30,0,0

[Colours]
Combo1 : 255,55,61
Combo2 : 0,168,249
Combo3 : 5,73,254
Combo4 : 225,0,5

[HitObjects]
256,192,345,12,0,2106,0:0:0:0:
20,206,2164,6,0,B|90:196|90:196|154:228|154:228|232:217,1,220.000006713867,4|0,0:0|0:0,0:0:0:0:
304,96,2467,1,0,0:0:0:0:
264,35,2542,1,8,0:0:0:0:
190,23,2618,2,0,P|175:75|172:145,1,110.000003356934,8|0,0:0|0:0,0:0:0:0:
355,300,2845,2,0,P|351:245|336:192,1,110.000003356934
87,298,3073,6,0,P|156:222|249:266,1,220.000006713867,4|0,0:3|2:0,0:0:0:0:
411,180,3413,2,0,P|344:118|263:165,1,179.999994506836,8|0,0:3|2:0,0:0:0:0:
102,100,3754,2,0,P|170:48|227:74,1,139.999995727539,8|0,0:3|0:0,0:0:0:0:
147,182,4057,37,0,0:0:0:0:
103,196,4132,1,8,0:0:0:0:
56,188,4209,2,0,P|25:164|4:122,1,69.9999978637696,8|0,0:0|0:0,0:0:0:0:
70,314,4436,2,0,P|104:296|152:282,1,69.9999978637696
211,142,4663,2,0,P|199:176|192:212,1,69.9999978637696
230,297,4891,5,8,3:0:0:0:
325,287,5004,1,2,0:2:0:0:
436,248,5118,1,0,0:0:0:0:
341,258,5231,1,2,0:2:0:0:
462,336,5345,37,2,0:2:0:0:
427,218,5459,1,8,0:0:0:0:
311,177,5573,1,8,0:0:0:0:
208,242,5686,1,10,0:2:0:0:
93,199,5800,6,0,P|58:79|106:6,1,220.000006713867,4|0,0:0|0:0,0:0:0:0:
215,210,6141,1,8,0:0:0:0:
106,339,6254,2,0,P|56:321|-2:306,1,110.000003356934,8|0,0:0|0:0,0:0:0:0:
183,106,6481,2,0,P|235:123|298:135,1,110.000003356934,0|8,0:0|0:0,0:0:0:0:
489,232,6709,38,0,B|435:219|386:252|386:252|335:284|277:263,1,220.000006713867,4|0,3:0|2:0,0:0:0:0:
215,22,7050,2,0,B|227:65|270:86|270:86|313:108|322:158,1,179.999994506836,8|0,3:0|2:0,0:0:0:0:
144,368,7391,2,0,B|180:329|176:274|176:274|174:217|218:179,1,209.999993591309,8|0,3:0|2:0,0:0:0:0:
53,23,7845,5,0,0:0:0:0:
32,64,7921,1,8,0:0:0:0:
35,110,7997,1,0,0:0:0:0:
65,145,8073,2,0,P|99:132|148:123,1,69.9999978637696,8|0,0:0|0:0,0:0:0:0:
18,253,8300,2,0,P|69:282|89:298,1,69.9999978637696
228,201,8527,37,8,3:0:0:0:
94,315,8641,1,0,3:0:0:0:
265,307,8754,1,2,3:2:0:0:
121,214,8868,1,2,3:2:0:0:
292,121,8982,6,0,B|385:84|446:142|446:142|421:150|398:138,1,209.999993591309,12|0,0:2|2:0,0:0:0:0:
385,21,9436,38,2,P|371:105|387:245,1,220.000006713867,6|0,0:0|0:0,0:0:0:0:
470,280,9739,1,0,0:0:0:0:
400,257,9814,1,8,0:0:0:0:
341,301,9890,2,0,P|292:304|210:291,1,110.000003356934,8|0,0:0|0:0,0:0:0:0:
480,144,10118,2,0,P|476:89|461:36,1,110.000003356934
232,38,10345,6,2,B|215:70|217:105|217:105|287:135|368:110,1,220.000006713867,4|0,3:0|2:0,0:0:0:0:
235,194,10686,2,2,B|240:205|256:212|256:212|326:183|365:107,1,179.999994506836,8|0,3:0|2:0,0:0:0:0:
157,166,11027,2,2,P|120:160|61:159,1,69.9999978637696,8|0,3:0|2:0,0:0:0:0:
22,292,11254,37,8,0:0:0:0:
60,257,11330,1,0,0:0:0:0:
111,261,11406,1,0,0:0:0:0:
145,298,11482,1,8,0:0:0:0:
195,306,11557,1,0,0:0:0:0:
240,282,11633,1,0,0:0:0:0:
258,234,11709,5,8,3:0:0:0:
308,288,11785,1,0,3:0:0:0:
381,288,11860,1,0,3:0:0:0:
432,233,11936,1,8,3:0:0:0:
425,158,12012,1,8,3:0:0:0:
368,109,12088,1,8,3:0:0:0:
294,120,12163,38,2,L|324:339,1,220.000006713867,4|0,3:0|2:0,0:0:0:0:
200,206,12504,2,2,B|327:341,1,179.999994506836,8|0,3:0|2:0,0:0:0:0:
184,321,12845,2,2,B|330:337,1,139.999995727539,8|0,3:0|2:0,0:0:0:0:
323,336,13309,6,0,P|329:298|338:262,1,69.9999978637696,8|0,0:0|2:0,0:0:0:0:
447,95,13545,38,0,P|456:140|480:188,1,80,10|0,0:2|2:0,0:0:0:0:
362,27,13781,2,0,P|343:78|341:115,1,80,8|0,0:0|2:0,0:0:0:0:
208,353,14017,6,0,P|188:298|182:254,1,89.9999972534181,10|0,0:2|2:0,0:0:0:0:
43,287,14254,2,0,P|49:224|66:182,1,89.9999972534181,8|0,0:0|2:0,0:0:0:0:
252,5,14490,37,10,0:2:0:0:
157,176,14608,1,0,2:0:0:0:
118,42,14726,1,8,0:0:0:0:
291,139,14844,1,2,2:0:0:0:
138,279,14962,6,2,P|85:255|73:109,1,220.000006713867,6|8,0:0|0:0,0:0:0:0:
280,59,15317,1,0,0:0:0:0:
157,176,15435,1,8,0:0:0:0:
196,11,15553,1,8,0:3:0:0:
248,208,15671,1,8,0:3:0:0:
86,330,15789,38,2,B|92:264|92:264|53:205|53:205|63:122,1,220.000006713867,6|0,0:0|2:0,0:0:0:0:
156,66,16143,1,8,0:0:0:0:
157,176,16261,1,8,0:0:0:0:
62,122,16380,5,8,0:0:0:0:
183,71,16498,1,8,0:0:0:0:
287,151,16616,1,8,0:0:0:0:
408,99,16734,1,8,0:0:0:0:
305,20,16852,38,0,B|278:76|278:76|295:227,1,200,4|8,0:0|0:0,0:0:0:0:
375,368,17192,1,0,0:0:0:0:
505,278,17306,2,0,P|440:258|381:251,1,100
253,326,17533,1,10,0:2:0:0:
408,253,17647,1,0,0:0:0:0:
216,154,17761,6,0,P|175:206|242:326,1,200,2|8,0:2|0:0,0:0:0:0:
336,157,18102,1,2,0:2:0:0:
281,44,18215,2,0,P|229:30|162:30,1,100
71,189,18442,2,0,P|155:161|232:153,1,150,8|0,0:0|2:0,0:0:0:0:
299,162,18670,38,0,P|195:148|99:103,1,200,2|8,0:2|0:0,0:0:0:0:
25,295,19011,2,0,P|73:271|132:259,1,100,2|0,0:2|0:0,0:0:0:0:
235,278,19238,1,0,0:0:0:0:
164,367,19351,2,0,B|138:315|138:315|163:150,1,200,10|0,0:2|0:0,0:0:0:0:
267,114,19692,5,0,0:0:0:0:
355,224,19806,2,0,P|265:238|227:256,1,100,8|0,0:0|0:0,0:0:0:0:
61,191,20033,2,0,P|151:177|189:159,1,100
347,27,20261,2,0,P|334:117|357:228,1,200,8|0,0:0|0:0,0:0:0:0:
354,223,20715,38,0,P|366:167|368:118,1,100,8|0,0:0|0:0,0:0:0:0:
244,242,20942,1,0,0:0:0:0:
317,318,21056,1,0,0:0:0:0:
245,212,21170,1,10,0:2:0:0:
348,326,21283,1,0,0:0:0:0:
192,362,21397,6,0,P|127:302|2:298,1,200,2|8,0:2|0:0,0:0:0:0:
215,341,21738,1,2,0:2:0:0:
336,234,21851,2,0,P|348:177|350:133,1,100
123,14,22079,2,0,P|119:85|186:111,1,150,8|0,0:0|2:0,0:0:0:0:
273,74,22306,38,0,P|231:123|236:252,1,200,2|8,0:2|0:0,0:0:0:0:
467,375,22647,2,0,P|483:278|430:196,1,200
314,314,22988,1,8,0:0:0:0:
377,105,23101,1,2,0:0:0:0:
204,215,23215,6,2,B|245:186|302:191|302:191|337:221|400:215,1,200,2|8,0:0|0:0,0:0:0:0:
178,312,23556,2,2,P|117:274|99:231,1,100,2|0,0:0|0:0,0:0:0:0:
158,118,23783,1,0,0:0:0:0:
300,233,23897,2,2,P|246:234|179:190,1,100,10|0,0:0|0:0,0:0:0:0:
149,5,24124,37,4,0:0:0:0:
267,130,24238,1,0,0:0:0:0:
38,131,24351,2,0,P|84:115|189:98,1,150,10|0,0:2|2:0,0:0:0:0:
267,130,24579,2,0,P|219:110|170:58,1,100
372,89,24806,2,0,P|375:142|362:193,1,100,8|0,0:0|0:0,0:0:0:0:
177,281,25033,6,0,P|219:250|298:240,1,100
463,300,25261,1,10,0:0:0:0:
366,358,25374,2,2,L|340:147,1,200,0|2,0:0|0:0,0:0:0:0:
474,51,25715,1,10,0:0:0:0:
445,151,25829,1,0,0:0:0:0:
291,72,25942,37,2,0:0:0:0:
464,15,26056,1,2,0:0:0:0:
358,192,26170,2,2,P|274:175|192:179,1,150,10|0,0:0|2:0,0:0:0:0:
133,216,26397,2,0,P|171:156|189:114,1,100
306,340,26624,2,0,P|235:337|189:342,1,100,8|0,0:0|0:0,0:0:0:0:
331,130,26851,6,0,P|363:192|391:229,1,100
352,23,27079,1,8,0:0:0:0:
256,229,27192,2,0,P|205:261|100:184,1,200
147,12,27533,1,10,0:2:0:0:
188,181,27647,1,2,0:2:0:0:
29,254,27761,38,0,B|2:206|2:206|26:59,1,200,2|8,0:2|0:0,0:0:0:0:
289,105,28101,2,0,B|316:153|316:153|292:300,1,200,2|0,0:2|0:0,0:0:0:0:
56,348,28442,2,0,P|112:308|214:307,1,150,10|0,0:2|2:0,0:0:0:0:
272,325,28670,6,0,L|381:296,1,100
121,205,28897,2,0,L|230:176,1,100,10|0,0:2|0:0,0:0:0:0:
371,198,29124,1,2,0:0:0:0:
217,179,29238,1,0,0:0:0:0:
397,83,29351,1,10,0:0:0:0:
217,179,29465,1,0,0:0:0:0:
416,296,29579,38,2,P|352:286|299:288,1,100,2|0,0:0|0:0,0:0:0:0:
129,101,29806,2,0,P|172:77|220:61,1,100,8|0,0:0|0:0,0:0:0:0:
371,198,30033,1,0,0:0:0:0:
217,179,30147,1,2,0:0:0:0:
397,83,30261,1,10,0:0:0:0:
416,296,30374,6,2,P|339:323|273:239,1,200,6|0,0:0|2:2,0:0:0:0:
371,198,30715,1,8,0:0:0:0:
191,316,30829,2,2,P|138:275|204:147,1,230.000004386902,6|0,0:0|0:0,0:0:0:0:
9,126,31170,2,2,P|72:45|161:78,1,194.999991073609,6|0,0:0|2:0,0:0:0:0:
194,148,31397,38,0,B|164:205|162:302|162:302|149:281|128:263,1,200,4|8,0:0|0:0,0:0:0:0:
16,218,31738,1,0,0:0:0:0:
95,352,31851,2,0,P|109:298|118:237,1,100
79,74,32079,1,10,0:2:0:0:
116,254,32193,1,0,0:0:0:0:
207,104,32307,6,0,L|1:126,1,200,2|8,0:2|0:0,0:0:0:0:
261,222,32647,1,2,0:2:0:0:
341,38,32761,2,0,P|318:93|312:143,1,100
452,277,32988,2,0,P|393:231|358:217,1,100,8|0,0:0|0:0,0:0:0:0:
156,247,33215,38,0,P|203:310|317:312,1,200,2|8,0:2|0:0,0:0:0:0:
453,168,33556,2,0,P|396:197|364:227,1,100,2|0,0:2|0:0,0:0:0:0:
316,312,33783,1,0,0:0:0:0:
161,140,33897,2,0,P|245:141|329:173,1,150,10|0,0:2|2:0,0:0:0:0:
369,220,34124,6,0,P|352:169|341:112,1,100
150,328,34351,2,0,P|208:338|267:360,1,100,8|0,0:0|0:0,0:0:0:0:
43,369,34579,1,0,0:0:0:0:
56,255,34692,1,0,0:0:0:0:
72,141,34806,1,8,0:0:0:0:
72,141,35033,38,0,P|137:130|162:239,1,200,0|8,0:0|0:0,0:0:0:0:
17,227,35374,2,0,P|34:148|43:26,1,200
241,17,35715,1,10,0:2:0:0:
162,237,35829,1,0,0:0:0:0:
19,59,35942,6,0,P|78:59|127:69,1,100,2|0,0:2|0:0,0:0:0:0:
223,170,36170,1,8,0:0:0:0:
43,206,36283,2,0,P|91:172|142:148,1,100,2|0,0:2|0:0,0:0:0:0:
310,208,36511,1,0,0:0:0:0:
189,315,36624,2,0,P|200:240|232:146,1,150,10|0,0:2|2:0,0:0:0:0:
223,90,36851,38,0,P|244:147|264:187,1,100,2|0,0:2|0:0,0:0:0:0:
510,330,37079,2,0,P|507:265|456:140,1,200,8|0,0:0|0:0,0:0:0:0:
351,98,37420,1,0,0:0:0:0:
410,258,37533,1,8,0:0:0:0:
441,40,37646,1,2,0:0:0:0:
261,145,37760,6,2,B|333:136|333:136|379:153|379:153|460:140,1,200,2|8,0:0|0:0,0:0:0:0:
315,232,38101,2,2,B|325:179|325:179|284:28,1,200,2|0,0:0|0:0,0:0:0:0:
138,158,38442,1,10,0:0:0:0:
315,232,38556,1,8,0:0:0:0:
189,70,38670,37,6,0:0:0:0:
234,282,38783,1,0,0:0:0:0:
420,197,38897,2,2,P|313:126|250:142,1,200,10|0,0:0|0:0,0:0:0:0:
148,319,39238,1,0,0:0:0:0:
259,340,39351,2,0,P|243:271|223:225,1,100,8|0,0:0|0:0,0:0:0:0:
126,44,39579,6,0,P|109:122|84:203,1,150,0|0,0:0|2:0,0:0:0:0:
39,256,39806,2,0,B|82:226|133:245|133:245|182:263|232:244,1,200,8|2,0:2|0:2,0:0:0:0:
334,108,40147,1,2,0:2:0:0:
180,156,40261,1,8,0:0:0:0:
393,195,40374,1,2,0:2:0:0:
273,22,40488,38,0,B|205:17|205:17|144:43|144:43|74:38,2,200,2|8|0,0:2|0:0|0:0,0:0:0:0:
333,108,41056,1,0,0:0:0:0:
256,179,41170,2,2,P|157:155|36:163,1,200,10|8,0:0|0:0,0:0:0:0:
59,158,41624,6,0,B|72:205|72:205|72:271,1,100,8|0,0:0|0:0,0:0:0:0:
256,179,41851,2,2,B|243:225|243:225|210:282,1,100,2|0,0:0|0:0,0:0:0:0:
419,277,42079,2,0,B|384:311|384:311|327:344,1,100,8|0,0:0|0:0,0:0:0:0:
408,93,42306,38,2,B|428:70|441:45|441:45|448:127|492:186,1,200,6|8,0:0|0:0,0:0:0:0:
382,109,42647,1,0,0:0:0:0:
319,239,42761,2,0,P|327:299|343:346,1,100
246,83,42988,6,2,B|226:60|213:35|213:35|206:117|162:176,1,200,14|2,0:2|0:0,0:0:0:0:
33,214,43329,1,0,0:0:0:0:
32,32,43442,2,0,P|64:83|77:126,1,100,8|0,0:0|0:0,0:0:0:0:
12,315,43670,2,0,P|78:291|114:283,1,100
264,322,43897,1,10,0:2:0:0:
106,284,44011,1,2,0:2:0:0:
215,200,44124,37,0,0:0:0:0:
231,333,44238,1,0,0:0:0:0:
259,202,44351,1,12,0:2:0:0:
239,68,44465,1,2,0:2:0:0:
113,224,44579,5,2,0:2:0:0:
309,130,44693,1,0,0:0:0:0:
92,90,44806,1,8,0:0:0:0:
259,202,44920,1,2,0:2:0:0:
130,332,45033,38,10,L|111:212,1,110.000003356934,10|0,0:0|0:0,0:0:0:0:
309,130,45261,1,8,0:0:0:0:
177,10,45374,2,2,L|203:122,1,110.000003356934,10|0,0:0|0:0,0:0:0:0:
449,150,45601,1,8,3:0:0:0:
332,346,45715,2,10,L|348:224,1,110.000003356934,10|8,3:1|3:0,3:1:0:0:
398,7,45942,22,0,P|405:53|432:146,1,115.000002193451,4|0,0:0|2:0,0:0:0:0:
493,349,46170,2,0,P|485:302|459:210,1,115.000002193451,8|0,0:0|2:0,0:0:0:0:
297,44,46397,2,0,P|282:100|264:155,1,115.000002193451,2|0,0:2|0:0,0:0:0:0:
326,368,46624,2,0,P|347:292|363:245,1,115.000002193451,8|2,0:0|2:2,0:0:0:0:
221,284,46851,5,2,0:2:0:0:
221,284,46908,1,0,2:0:0:0:
221,284,46965,1,2,2:2:0:0:
129,181,47079,1,8,0:0:0:0:
264,154,47192,1,0,2:2:0:0:
358,257,47306,37,2,0:2:0:0:
228,160,47420,1,0,0:0:0:0:
323,28,47533,1,8,0:0:0:0:
453,125,47647,1,2,2:0:0:0:
341,141,47761,6,0,P|280:130|215:107,1,115.000002193451,2|0,0:2|2:0,0:0:0:0:
43,229,47988,2,0,P|115:212|163:209,1,115.000002193451,8|0,0:0|2:0,0:0:0:0:
276,238,48215,1,2,0:2:0:0:
85,121,48329,2,0,P|67:57|57:5,2,115.000002193451,0|8|2,0:0|0:0|2:2,0:0:0:0:
197,293,48670,37,2,0:2:0:0:
197,293,48726,1,0,2:0:0:0:
197,293,48783,1,2,2:2:0:0:
204,166,48897,1,8,0:0:0:0:
85,121,49011,1,2,2:0:0:0:
80,247,49124,5,2,0:2:0:0:
239,170,49238,1,0,0:0:0:0:
146,22,49351,1,10,0:2:0:0:
150,186,49465,1,0,0:0:0:0:
312,258,49579,38,0,L|438:239,1,115.000002193451,2|0,0:2|2:2,0:0:0:0:
133,341,49806,2,0,L|7:322,1,115.000002193451,8|2,0:2|2:2,0:0:0:0:
219,122,50033,2,0,B|245:174|245:174|226:242,1,115.000002193451,2|0,0:2|0:0,0:0:0:0:
474,344,50261,2,0,B|448:292|448:292|463:237,1,115.000002193451,8|2,0:2|2:2,0:0:0:0:
372,166,50488,5,2,0:2:0:0:
372,166,50544,1,0,2:0:0:0:
372,166,50601,1,2,2:2:0:0:
343,296,50715,1,8,0:0:0:0:
462,237,50829,1,2,2:0:0:0:
491,109,50942,37,2,0:2:0:0:
316,85,51056,1,0,0:0:0:0:
473,212,51169,1,10,0:2:0:0:
410,43,51283,1,0,0:0:0:0:
315,189,51397,6,2,P|339:267|461:236,1,230.000004386902,2|8,0:0|0:0,0:0:0:0:
420,114,51738,1,0,0:0:0:0:
202,209,51851,2,2,P|252:193|318:189,1,115.000002193451,2|0,0:0|0:0,0:0:0:0:
130,56,52079,2,0,P|192:76|250:80,1,115.000002193451,12|2,0:2|2:0,0:0:0:0:
420,114,52306,37,2,0:0:0:0:
314,188,52420,1,8,0:0:0:0:
241,80,52533,1,8,0:0:0:0:
348,8,52647,1,8,0:0:0:0:
314,188,52761,5,0,3:3:0:0:
130,56,52874,1,0,3:3:0:0:
334,97,52988,1,8,3:3:0:0:
155,228,53101,1,8,3:3:0:0:
397,266,53215,38,0,P|407:194|429:134,1,115.000002193451,4|0,0:0|2:0,0:0:0:0:
179,253,53442,2,0,P|196:306|203:365,1,115.000002193451,8|0,0:0|2:0,0:0:0:0:
259,128,53669,2,0,P|278:74|291:18,1,115.000002193451,2|0,0:2|0:0,0:0:0:0:
69,164,53897,2,0,P|48:217|38:274,1,115.000002193451,8|2,0:0|2:2,0:0:0:0:
179,253,54124,5,2,0:2:0:0:
179,253,54181,1,0,2:0:0:0:
179,253,54238,1,2,2:0:0:0:
165,115,54351,1,8,0:0:0:0:
59,26,54465,1,2,2:0:0:0:
69,164,54579,37,2,0:2:0:0:
254,190,54692,1,0,0:0:0:0:
162,73,54806,1,8,0:0:0:0:
179,253,54920,1,2,0:2:0:0:
350,193,55033,6,0,P|326:131|288:98,1,115.000002193451,2|0,0:2|2:0,0:0:0:0:
79,253,55261,2,0,P|103:315|141:348,1,115.000002193451,8|2,0:2|2:0,0:0:0:0:
337,305,55488,1,2,0:2:0:0:
129,162,55601,2,0,P|74:151|6:175,2,115.000002193451,2|8|2,0:2|0:0|2:0,0:0:0:0:
235,232,55942,37,2,0:2:0:0:
336,142,56056,2,0,L|340:99,3,38.3333340644837,2|0|0|10,2:2|2:2|2:2|1:2,2:2:0:0:
449,232,56283,1,2,0:2:0:0:
297,302,56397,5,2,0:2:0:0:
360,127,56511,1,0,0:0:0:0:
440,261,56624,1,10,0:2:0:0:
241,200,56738,1,2,0:2:0:0:
331,15,56851,38,2,L|360:128,1,115.000002193451,6|0,0:0|2:0,0:0:0:0:
124,226,57079,2,0,L|156:98,1,115.000002193451,8|2,0:0|2:2,0:0:0:0:
241,200,57306,1,0,0:0:0:0:
114,259,57420,1,2,0:2:0:0:
48,107,57533,1,10,0:0:0:0:
225,32,57647,6,2,B|257:85|257:85|217:260,1,230.000004386902,2|0,0:0|0:0,0:0:0:0:
364,358,57988,2,0,L|341:238,1,115.000002193451,8|0,0:0|2:2,0:0:0:0:
465,68,58215,2,0,B|434:117|434:117|373:140,1,115.000002193451,2|0,0:2|0:0,0:0:0:0:
150,133,58442,2,2,L|272:164,1,115.000002193451,8|2,0:0|2:1,0:0:0:0:
369,264,58670,38,0,P|340:259|304:257,1,57.5000010967255,2|0,0:2|2:0,0:0:0:0:
235,300,58784,2,0,L|241:345,3,38.3333340644837,2|0|0|10,2:2|2:2|2:2|1:2,2:2:0:0:
261,161,59011,1,2,0:2:0:0:
369,264,59124,2,0,P|356:332|349:384,1,115.000002193451,2|0,0:2|0:0,0:0:0:0:
122,174,59351,2,0,P|137:237|144:301,1,115.000002193451,12|2,0:2|2:0,0:0:0:0:
205,82,59579,5,4,0:0:0:0:
19,8,59692,1,8,0:0:0:0:
122,174,59806,1,8,0:0:0:0:
308,74,59920,1,8,0:0:0:0:
103,60,60033,38,2,L|123:184,1,115.000002193451,2|0,3:1|3:1,3:1:0:0:
378,179,60261,1,8,3:0:0:0:
379,103,60336,1,0,3:0:0:0:
308,74,60412,1,0,3:0:0:0:
252,127,60488,38,0,P|253:239|271:330,1,200,4|8,0:0|0:0,0:0:0:0:
351,216,60829,1,0,0:0:0:0:
223,111,60942,2,0,P|171:100|98:98,1,100
34,211,61170,1,10,0:2:0:0:
252,127,61284,1,0,0:0:0:0:
94,4,61397,38,0,P|105:112|126:209,1,200,2|8,0:2|0:0,0:0:0:0:
202,354,61738,1,2,0:2:0:0:
10,314,61852,2,0,L|130:299,1,100
305,364,62079,2,0,L|405:375,1,100,8|0,0:0|0:0,0:0:0:0:
360,173,62306,6,0,B|380:218|380:218|370:273,1,100,2|0,0:2|0:0,0:0:0:0:
191,130,62533,2,0,B|259:121|259:121|304:75|304:75|371:66,1,200,8|2,0:0|0:2,0:0:0:0:
370,66,62874,1,0,0:0:0:0:
204,24,62988,2,0,P|152:23|87:13,1,100,8|0,0:0|0:0,0:0:0:0:
36,191,63215,38,0,P|117:192|176:290,1,200,0|8,0:0|0:0,0:0:0:0:
237,147,63556,1,0,0:0:0:0:
324,275,63670,2,0,P|302:334|289:384,1,100
382,161,63897,2,0,P|361:84|314:20,1,150,8|0,0:0|2:0,0:0:0:0:
235,4,64124,6,0,P|292:22|441:30,2,200,2|8|0,0:2|0:0|0:0,0:0:0:0:
109,123,64692,1,0,0:0:0:0:
239,102,64806,1,10,0:2:0:0:
75,28,64920,1,0,0:0:0:0:
78,217,65033,38,0,P|100:162|110:112,1,100,2|0,0:2|0:0,0:0:0:0:
176,272,65261,1,8,0:0:0:0:
78,331,65374,2,0,P|182:311|296:304,1,200,2|0,0:2|0:0,0:0:0:0:
470,382,65715,2,0,P|407:347|370:320,1,100,10|0,0:2|0:0,0:0:0:0:
373,63,65942,6,0,P|409:117|351:228,1,200,2|8,0:2|0:0,0:0:0:0:
122,263,66283,2,0,P|86:209|144:98,1,200
242,261,66624,1,10,0:2:0:0:
69,343,66738,1,0,0:0:0:0:
3,166,66851,38,2,L|220:145,1,200,2|8,0:0|0:0,0:0:0:0:
449,210,67192,2,2,B|400:218|400:218|332:194,1,100,2|0,0:0|0:0,0:0:0:0:
317,54,67420,1,0,0:0:0:0:
506,92,67533,2,2,L|407:110,1,100,10|0,0:0|0:0,0:0:0:0:
202,146,67761,5,4,0:0:0:0:
407,110,67874,1,2,0:2:0:0:
260,245,67988,2,0,P|233:185|284:64,1,200,8|0,0:0|0:0,0:0:0:0:
366,265,68329,1,0,0:0:0:0:
209,345,68442,2,0,P|148:353|100:354,1,100,8|0,0:0|0:0,0:0:0:0:
260,245,68670,38,0,P|324:243|425:261,1,150,0|0,0:0|2:0,0:0:0:0:
478,304,68897,2,2,P|452:257|431:197,1,100,10|0,0:0|0:0,0:0:0:0:
452,54,69124,2,0,P|415:104|386:133,1,100
231,144,69351,1,10,0:0:0:0:
348,34,69465,1,2,0:0:0:0:
196,28,69579,5,6,0:2:0:0:
388,130,69692,1,0,0:0:0:0:
175,213,69806,2,0,L|15:180,1,150,10|0,0:2|2:0,0:0:0:0:
29,95,70033,2,0,P|41:152|41:199,1,100
200,381,70261,2,0,P|210:321|224:272,1,100,8|0,0:0|0:0,0:0:0:0:
388,130,70488,38,0,P|344:141|286:150,1,100
22,287,70715,2,0,P|79:295|125:308,1,100,8|0,0:0|0:0,0:0:0:0:
294,257,70942,1,0,0:0:0:0:
187,215,71056,1,0,0:0:0:0:
289,364,71170,1,10,0:2:0:0:
379,180,71283,1,2,0:2:0:0:
200,37,71397,6,2,B|148:118|148:118|186:214,1,200,4|10,0:0|0:0,0:0:0:0:
374,321,71738,2,2,B|331:295|277:305|277:305|241:340|184:343,1,200,2|0,0:0|0:0,0:0:0:0:
293,135,72079,2,2,P|351:144|399:144,1,100,10|0,0:0|0:0,0:0:0:0:
186,214,72306,37,2,0:2:0:0:
149,175,72382,1,2,3:2:0:0:
96,166,72458,1,0,3:3:0:0:
47,186,72533,2,0,P|70:128|85:79,1,100,8|0,0:2|0:0,0:0:0:0:
106,255,72761,1,0,0:0:0:0:
198,100,72874,1,2,0:2:0:0:
114,271,72988,1,8,0:0:0:0:
260,186,73101,1,2,0:2:0:0:
123,289,73215,6,0,L|295:275,1,150,4|0,0:0|2:0,0:0:0:0:
346,221,73442,2,0,L|296:367,1,150,12|0,0:2|2:0,0:0:0:0:
272,276,73670,1,0,0:0:0:0:
421,168,73783,1,2,0:2:0:0:
418,359,73897,1,8,0:0:0:0:
204,341,74011,38,2,B|161:336|136:307|136:307|129:240|180:199,1,200,6|0,0:0|2:0,0:0:0:0:
224,339,74351,1,8,0:0:0:0:
86,131,74465,2,2,B|91:81|125:52|125:52|202:44|249:103,1,230.000004386902,6|0,0:0|3:0,0:0:0:0:
340,335,74806,2,2,P|309:252|299:197,1,129.999994049073,14|0,0:0|3:0,0:0:0:0:
487,15,75033,5,4,0:0:0:0:
487,15,75261,2,0,P|478:71|462:123,1,100,8|0,0:0|2:2,0:0:0:0:
265,118,75488,2,0,P|327:135|378:166,1,100
477,289,75715,1,10,0:2:0:0:
358,151,75829,1,0,0:0:0:0:
272,303,75942,38,0,P|332:270|389:249,1,100,2|0,0:2|0:0,0:0:0:0:
172,248,76170,1,8,0:0:0:0:
74,334,76283,2,0,P|14:284|33:160,1,200,2|0,0:2|0:0,0:0:0:0:
181,36,76624,2,0,P|163:87|135:141,1,100,8|0,0:0|0:0,0:0:0:0:
313,253,76851,6,0,P|279:196|259:150,1,100,2|0,0:2|0:0,0:0:0:0:
309,48,77079,1,8,0:0:0:0:
397,210,77192,2,0,P|318:198|177:198,1,200,2|0,0:2|0:0,0:0:0:0:
31,331,77533,38,0,B|80:361|80:361|230:335,2,200,8|0|8,0:0|0:0|0:0,0:0:0:0:
83,158,78101,2,0,B|110:201|110:201|101:264,1,100
321,266,78329,1,0,0:0:0:0:
237,331,78442,2,0,B|210:288|210:288|219:225,1,100,8|0,0:0|0:0,0:0:0:0:
448,259,78670,6,0,P|410:372|321:358,1,200,2|8,0:2|0:0,0:0:0:0:
375,178,79011,1,0,0:0:0:0:
507,145,79124,2,0,P|465:168|390:181,1,100
253,97,79351,1,10,0:2:0:0:
414,180,79465,1,0,0:0:0:0:
265,278,79579,38,0,P|236:218|228:167,1,100,2|0,0:2|0:0,0:0:0:0:
383,306,79806,1,8,0:0:0:0:
143,277,79920,2,0,P|89:285|22:310,1,100,2|0,0:2|0:0,0:0:0:0:
262,376,80147,1,0,0:0:0:0:
229,185,80261,2,0,P|233:113|268:36,1,150,10|0,0:2|2:0,0:0:0:0:
342,21,80488,6,0,P|258:32|200:31,1,100,2|0,0:2|0:0,0:0:0:0:
437,103,80715,2,0,P|467:160|378:246,1,200,8|0,0:0|0:0,0:0:0:0:
229,185,81056,1,0,0:0:0:0:
387,166,81170,1,10,0:2:0:0:
205,267,81283,1,0,0:0:0:0:
246,53,81397,38,2,L|291:258,1,200,2|8,0:0|0:0,0:0:0:0:
59,332,81738,2,2,B|132:339|132:339|175:364|175:364|258:369,1,200,2|0,0:0|0:0,0:0:0:0:
409,209,82079,2,2,B|425:163|425:163|409:110,1,100,10|0,0:0|0:0,0:0:0:0:
288,248,82306,5,4,0:0:0:0:
482,295,82419,1,2,0:2:0:0:
319,162,82533,2,0,L|120:149,1,200,8|0,0:0|0:0,0:0:0:0:
28,242,82874,1,0,0:0:0:0:
158,354,82988,2,0,L|130:239,1,100,8|0,0:0|0:0,0:0:0:0:
38,33,83215,38,0,P|23:98|4:150,1,100
215,199,83442,2,2,P|277:136|390:146,1,200,10|0,0:0|0:0,0:0:0:0:
439,339,83783,1,2,0:0:0:0:
321,241,83897,1,8,0:0:0:0:
511,272,84011,1,2,0:0:0:0:
304,363,84124,6,0,P|229:345|88:337,1,200,6|8,0:2|0:0,0:0:0:0:
106,336,84465,1,0,0:0:0:0:
321,241,84579,2,0,P|350:184|363:136,1,100
146,193,84806,2,0,P|200:181|260:153,1,100,10|0,0:2|0:0,0:0:0:0:
19,287,85033,38,0,P|131:306|222:353,1,200,2|8,0:0|0:0,0:0:0:0:
270,241,85374,1,0,0:0:0:0:
506,239,85488,2,0,P|445:295|325:339,1,200,2|8,0:2|0:0,0:2:0:0:
173,221,85829,1,0,0:0:0:0:
279,94,85942,6,2,P|287:182|258:262,1,150,6|0,0:0|2:0,0:0:0:0:
206,312,86170,2,0,P|181:269|172:220,1,100,8|0,0:0|0:0,0:0:0:0:
221,25,86397,1,0,0:0:0:0:
221,25,86511,1,0,0:0:0:0:
338,173,86624,2,2,B|284:175|247:141|247:141|202:106|150:112,1,200,14|0,0:0|0:0,0:0:0:0:
19,118,86965,1,0,0:0:0:0:
114,203,87079,38,0,P|136:158|153:111,1,100,8|0,0:0|0:0,0:0:0:0:
264,354,87306,2,0,P|292:312|317:260,1,100
253,113,87533,1,8,0:0:0:0:
203,263,87647,1,2,0:0:0:0:
400,247,87761,5,0,0:0:0:0:
273,193,87875,1,0,0:0:0:0:
132,330,87988,1,12,0:2:0:0:
285,311,88102,1,2,0:2:0:0:
115,216,88215,2,0,P|56:226|4:229,1,100,2|0,0:2|0:0,0:0:0:0:
169,320,88442,2,0,P|225:325|288:337,1,100,10|8,0:2|0:0,0:0:0:0:
371,212,88670,37,6,0:0:0:0:
230,232,88783,1,8,0:0:0:0:
151,112,88897,1,8,0:0:0:0:
292,95,89011,1,10,0:0:0:0:
194,253,89124,5,8,3:0:0:0:
28,165,89238,1,2,3:2:0:0:
125,6,89351,1,8,3:0:0:0:
292,95,89465,1,2,3:2:0:0:
133,195,89579,22,2,P|115:134|94:79,1,115.000002193451,6|0,0:0|2:0,0:0:0:0:
331,257,89807,2,0,P|314:305|298:376,1,115.000002193451,8|0,0:0|2:0,0:0:0:0:
289,148,90034,2,0,P|346:137|419:117,1,115.000002193451,2|0,0:2|0:0,0:0:0:0:
196,70,90261,1,8,0:0:0:0:
235,253,90374,1,2,2:1:0:0:
145,176,90488,37,2,0:0:0:0:
145,176,90545,1,0,2:0:0:0:
145,176,90601,1,2,2:0:0:0:
289,148,90715,2,0,P|360:161|420:180,1,115.000002193451,8|2,0:0|2:2,0:0:0:0:
484,307,90942,1,0,0:0:0:0:
326,254,91056,1,0,0:0:0:0:
397,77,91170,2,0,P|417:134|429:200,1,115.000002193451,10|0,0:2|2:0,0:0:0:0:
216,316,91397,6,2,P|179:253|196:102,1,230.000004386902,2|8,0:0|0:0,0:0:0:0:
326,254,91738,1,0,2:0:0:0:
115,364,91851,2,0,P|50:366|-9:357,1,115.000002193451
110,150,92079,1,10,0:0:0:0:
179,183,92155,1,2,2:0:0:0:
208,252,92230,1,2,2:0:0:0:
180,323,92306,1,2,0:0:0:0:
34,173,92420,38,0,L|31:117,3,38.3333340644837,2|0|0|8,2:0|2:0|2:0|0:0,0:0:0:0:
176,103,92647,1,0,0:0:0:0:
110,256,92761,2,0,P|58:267|-10:292,1,115.000002193451,2|0,2:1|0:0,0:0:0:0:
202,204,92988,2,0,P|265:236|367:261,1,172.500003290176,8|0,0:0|2:0,0:0:0:0:
453,247,93215,6,2,P|348:282|232:346,1,230.000004386902,6|8,0:0|0:0,0:0:0:0:
36,143,93556,2,2,P|109:127|168:109,1,115.000002193451,2|0,2:1|0:0,0:0:0:0:
426,134,93783,1,0,0:0:0:0:
426,134,93840,1,2,2:1:0:0:
426,134,93897,2,2,P|355:153|300:173,1,115.000002193451,8|2,0:0|2:0,0:0:0:0:
56,322,94124,38,2,P|172:316|170:202,1,230.000004386902,2|8,0:0|0:0,0:0:0:0:
277,372,94465,1,0,2:0:0:0:
448,240,94579,2,2,P|332:234|334:120,1,230.000004386902,2|8,0:0|0:0,0:0:0:0:
184,221,94920,1,2,2:0:0:0:
121,38,95033,6,2,P|173:79|217:128,1,115.000002193451,2|0,0:0|2:0,0:0:0:0:
102,294,95261,1,8,0:0:0:0:
297,237,95374,2,2,P|220:223|153:222,1,115.000002193451,2|0,2:1|0:0,0:0:0:0:
357,327,95601,1,0,0:0:0:0:
319,139,95715,2,2,B|332:61|410:38|410:38|407:71,1,172.500003290176,12|0,2:0|2:2,0:0:0:0:
405,153,95942,37,2,0:0:0:0:
240,172,96056,1,8,0:0:0:0:
220,7,96170,1,8,0:0:0:0:
220,7,96226,1,0,0:0:0:0:
220,7,96283,1,0,3:0:0:0:
319,139,96397,5,2,3:2:0:0:
128,226,96511,1,10,0:2:0:0:
252,87,96624,1,8,0:0:0:0:
182,296,96738,1,10,0:2:0:0:
40,130,96851,38,0,B|89:100|89:100|161:95,1,115.000002193451,4|0,0:0|2:0,0:0:0:0:
402,228,97079,2,0,B|353:258|353:258|295:261,1,115.000002193451,8|0,0:0|2:0,0:0:0:0:
287,39,97306,2,0,P|301:102|322:168,1,115.000002193451,2|0,0:2|0:0,0:0:0:0:
88,350,97533,2,0,P|106:278|125:227,1,115.000002193451,8|2,0:0|2:2,0:0:0:0:
225,119,97761,5,2,0:2:0:0:
295,260,97874,2,0,L|301:305,3,38.3333340644837,2|0|0|10,2:2|2:2|2:2|1:2,2:2:0:0:
126,225,98101,1,2,0:2:0:0:
317,175,98215,37,2,0:2:0:0:
197,298,98329,1,0,0:0:0:0:
135,132,98442,1,10,0:2:0:0:
308,85,98556,1,2,0:2:0:0:
368,253,98670,6,0,L|231:238,1,115.000002193451,2|0,0:2|2:0,0:0:0:0:
424,41,98898,2,0,L|465:161,1,115.000002193451,8|2,0:2|2:0,0:0:0:0:
398,351,99125,1,2,0:2:0:0:
253,240,99238,2,0,L|276:125,2,115.000002193451,2|8|2,0:2|0:0|2:0,0:0:0:0:
128,322,99579,37,2,0:2:0:0:
59,189,99693,2,0,L|53:144,3,38.3333340644837,2|0|0|10,2:2|2:2|2:2|1:2,2:2:0:0:
207,92,99920,1,2,0:2:0:0:
253,240,100034,5,2,0:2:0:0:
73,168,100148,1,0,0:0:0:0:
224,54,100261,1,10,0:2:0:0:
152,240,100375,1,2,0:2:0:0:
66,49,100488,38,2,P|122:64|198:61,1,115.000002193451,6|0,0:0|2:0,0:0:0:0:
407,38,100716,2,0,P|360:72|325:131,1,115.000002193451,8|2,0:0|2:2,0:0:0:0:
349,316,100943,1,0,0:0:0:0:
447,151,101057,1,2,0:2:0:0:
246,258,101170,1,10,0:0:0:0:
451,364,101284,6,2,P|485:256|446:150,1,230.000004386902,2|0,0:0|0:0,0:0:0:0:
298,362,101624,2,0,P|337:320|362:268,1,115.000002193451,8|0,0:0|2:0,0:0:0:0:
321,95,101851,1,2,0:2:0:0:
246,258,101965,1,0,0:0:0:0:
403,165,102079,1,8,0:0:0:0:
227,152,102192,1,2,2:0:0:0:
362,268,102306,37,2,0:2:0:0:
502,110,102420,2,0,L|505:54,3,38.3333340644837,2|0|0|8,2:0|2:0|2:0|0:0,0:0:0:0:
403,165,102647,1,0,2:0:0:0:
490,286,102761,5,2,0:0:0:0:
413,61,102874,1,0,0:0:0:0:
362,268,102988,1,8,0:0:0:0:
502,110,103101,1,2,2:1:0:0:
254,235,103215,38,2,P|167:229|142:102,1,230.000004386902,4|10,0:0|0:0,0:0:0:0:
335,162,103556,1,0,2:0:0:0:
246,341,103670,2,0,B|195:364|137:353|137:353|78:340|20:364,1,230.000004386902,0|8,0:0|0:0,0:0:0:0:
254,235,104011,1,0,2:0:0:0:
362,360,104124,6,0,P|464:332|467:211,1,230.000004386902,2|8,0:2|0:0,0:0:0:0:
385,98,104465,1,0,2:0:0:0:
391,270,104579,1,2,0:0:0:0:
265,108,104692,2,2,P|333:116|393:133,1,115.000002193451,2|8,0:0|0:0,0:0:0:0:
474,222,104920,1,2,2:0:0:0:
313,335,105033,38,2,L|297:207,1,115.000002193451,6|0,3:1|3:0,3:0:0:0:
57,253,105261,2,0,L|73:119,1,115.000002193451,0|0,3:0|3:0,3:0:0:0:
209,10,105488,2,0,L|225:138,1,115.000002193451,0|0,3:0|3:0,3:0:0:0:
465,92,105716,2,0,L|449:226,1,115.000002193451,4|0,3:2|3:0,3:0:0:0:
367,342,105942,5,2,1:2:0:0:
288,200,106056,1,8,0:0:0:0:
376,65,106170,1,0,1:0:0:0:
451,206,106283,1,8,0:0:0:0:
261,305,106397,37,8,0:3:0:0:
264,90,106511,1,2,3:1:0:0:
328,197,106624,1,8,3:0:0:0:
328,197,106681,1,0,3:0:0:0:
328,197,106738,1,0,3:1:0:0:
328,197,106795,1,0,3:0:0:0:
328,197,106851,22,2,P|243:181|106:169,1,220.000006713867,6|8,0:0|0:0,0:0:0:0:
110,169,107192,1,0,3:0:0:0:
365,280,107306,2,0,P|347:196|336:63,1,220.000006713867,2|8,0:0|0:0,0:0:0:0:
455,196,107647,1,0,3:0:0:0:
264,340,107761,6,2,P|197:317|143:311,1,110.000003356934,2|0,0:0|3:0,0:0:0:0:
365,280,107988,1,8,0:0:0:0:
213,150,108101,2,2,P|268:167|329:175,1,110.000003356934,2|0,0:0|3:0,0:0:0:0:
102,207,108329,2,2,P|43:225|-6:248,1,110.000003356934,2|8,0:0|0:0,0:0:0:0:
110,82,108556,38,2,P|187:114|279:-6,1,220.000006713867,2|0,0:0|3:0,0:0:0:0:
480,113,108897,2,0,P|422:99|361:95,1,110.000003356934,8|0,0:0|3:0,0:0:0:0:
215,215,109124,2,2,P|237:145|176:13,1,220.000006713867,2|8,0:0|0:0,0:0:0:0:
112,189,109465,1,0,3:0:0:0:
323,248,109579,6,2,L|450:227,1,110.000003356934,2|0,0:0|3:0,0:0:0:0:
215,215,109806,1,8,0:0:0:0:
397,336,109920,2,2,L|511:360,1,110.000003356934,2|0,0:0|3:0,0:0:0:0:
493,101,110147,2,2,L|378:137,1,110.000003356934,2|8,0:0|0:0,0:0:0:0:
280,329,110374,38,2,B|308:270|308:270|280:139,1,165.000005035401,2|0,0:0|2:0,0:0:0:0:
271,94,110601,1,2,0:0:0:0:
202,260,110715,2,2,B|245:225|311:231|311:231|352:260|411:259,1,220.000006713867,10|0,0:0|3:0,0:0:0:0:
388,133,111056,1,0,3:0:0:0:
231,33,111170,2,0,L|255:150,1,110.000003356934,8|0,0:0|3:0,0:0:0:0:
112,336,111397,6,0,L|145:114,1,220.000006713867,0|8,3:0|0:0,3:0:0:0:
93,25,111738,1,2,0:0:0:0:
253,140,111851,1,2,0:0:0:0:
42,150,111965,1,0,3:0:0:0:
231,33,112079,1,10,0:0:0:0:
225,253,112192,38,2,P|156:232|100:223,1,110.000003356934,2|0,0:0|3:0,0:0:0:0:
289,348,112420,1,2,0:0:0:0:
432,221,112533,2,2,P|440:139|323:68,1,220.000006713867,10|0,0:0|3:0,0:0:0:0:
197,156,112874,1,0,3:0:0:0:
356,282,112988,2,2,P|345:215|328:151,1,110.000003356934,8|2,0:0|0:0,0:0:0:0:
88,203,113215,6,2,P|69:265|170:370,1,220.000006713867,2|8,0:0|0:0,0:0:0:0:
197,156,113556,2,2,P|182:220|176:274,1,110.000003356934,2|0,0:0|3:0,0:0:0:0:
176,263,113726,1,0,3:0:0:0:
176,263,113783,1,0,3:0:0:0:
337,234,113897,2,0,P|353:166|359:122,1,110.000003356934,8|0,0:0|3:0,0:0:0:0:
206,29,114124,38,2,B|258:57|309:35|309:35|364:14|418:40,2,220.000006713867,6|8|0,0:0|0:0|3:0,0:0:0:0:
95,79,114692,1,0,3:0:0:0:
261,175,114806,1,10,0:0:0:0:
103,286,114920,6,2,L|121:44,1,220.000006713867,2|0,0:0|3:0,0:0:0:0:
328,118,115261,2,0,B|278:140|278:140|213:132,1,110.000003356934,8|0,0:0|3:0,0:0:0:0:
262,26,115488,1,0,3:0:0:0:
435,136,115601,1,2,0:0:0:0:
263,219,115715,1,8,0:0:0:0:
398,31,115829,1,2,0:0:0:0:
376,269,115942,38,2,L|365:378,1,110.000003356934,2|0,0:0|3:0,0:0:0:0:
263,219,116170,2,0,B|313:167|313:167|470:147,1,220.000006713867,8|0,0:0|3:0,0:0:0:0:
376,269,116511,1,0,3:0:0:0:
318,75,116624,1,10,0:0:0:0:
485,144,116738,1,2,0:0:0:0:
346,263,116851,6,2,B|309:287|309:287|225:240|250:137,1,220.000006713867,2|8,0:0|0:0,0:0:0:0:
479,17,117192,2,2,B|504:120|420:167|420:167|383:143,1,220.000006713867,2|0,0:0|3:0,0:0:0:0:
177,58,117533,2,2,P|236:35|288:36,1,110.000003356934,10|0,0:0|3:0,0:0:0:0:
200,286,117761,38,2,P|108:264|112:142,1,220.000006713867,6|8,0:0|0:0,0:0:0:0:
299,350,118101,2,0,P|317:286|310:236,1,110.000003356934,0|0,3:0|3:0,3:0:0:0:
177,58,118329,1,2,0:0:0:0:
200,286,118442,1,10,0:0:0:0:
312,75,118556,6,2,P|384:46|481:148,1,220.000006713867,2|0,0:0|3:0,0:0:0:0:
258,183,118897,1,10,0:2:0:0:
192,32,119011,2,0,P|90:8|23:88,1,220.000006713867,2|0,0:2|3:0,0:0:0:0:
137,262,119351,1,8,0:0:0:0:
123,104,119465,1,2,3:2:0:0:
18,259,119579,38,0,L|149:233,1,110.000003356934,2|0,0:2|3:0,0:0:0:0:
332,330,119806,2,0,L|201:304,1,110.000003356934,10|0,0:2|3:0,0:0:0:0:
12,370,120033,2,0,L|143:344,1,110.000003356934,2|0,0:2|3:0,0:0:0:0:
208,159,120261,1,12,0:2:0:0:
89,253,120374,2,0,B|152:245|152:245|184:262|184:262|249:254,1,165.000005035401,2|0,0:2|2:0,0:0:0:0:
334,245,120601,21,10,0:0:0:0:
62,123,120715,1,10,0:0:0:0:
360,127,120829,1,8,0:0:0:0:
218,265,120942,5,10,0:2:0:0:
248,50,121056,1,8,3:0:0:0:
237,273,121170,1,8,3:0:0:0:
228,44,121283,1,2,0:2:0:0:
255,281,121397,22,0,L|481:240,1,220.000006713867,4|8,0:0|0:0,0:0:0:0:
303,170,121738,1,0,3:0:0:0:
132,255,121851,2,0,B|132:310|132:310|163:360,1,110.000003356934,2|0,0:2|3:0,0:0:0:0:
185,160,122079,2,0,P|134:148|80:125,1,110.000003356934,8|0,0:0|3:0,0:0:0:0:
315,14,122306,38,0,P|303:71|285:125,1,110.000003356934,2|0,0:2|3:0,0:0:0:0:
383,262,122533,1,8,0:0:0:0:
484,133,122647,2,0,P|479:85|466:21,1,110.000003356934,2|0,0:2|3:0,0:0:0:0:
266,226,122874,2,0,P|256:282|251:342,1,110.000003356934,2|8,0:2|0:0,0:0:0:0:
387,170,123101,6,0,P|310:106|194:120,1,220.000006713867,2|0,0:2|3:0,0:0:0:0:
289,333,123442,2,0,P|278:271|264:222,1,110.000003356934,8|0,0:0|3:0,0:0:0:0:
37,259,123670,2,0,L|155:229,1,110.000003356934,2|0,0:2|3:0,0:0:0:0:
270,53,123897,2,0,L|152:23,1,110.000003356934,8|0,0:2|3:0,0:0:0:0:
387,170,124124,38,0,B|403:222|403:222|383:278,1,110.000003356934,2|0,0:2|3:0,0:0:0:0:
207,318,124351,1,8,0:0:0:0:
231,137,124465,2,0,B|276:166|276:166|297:222,1,110.000003356934,2|0,0:2|3:0,0:0:0:0:
106,353,124692,2,0,L|131:237,1,110.000003356934,2|8,0:2|0:0,0:0:0:0:
65,24,124920,6,0,B|112:59|112:59|285:23,1,220.000006713867,2|2,0:2|0:2,0:0:0:0:
449,164,125261,2,0,L|226:136,1,220.000006713867,8|0,0:0|3:0,0:0:0:0:
124,210,125601,1,0,3:0:0:0:
335,181,125715,1,10,0:2:0:0:
111,83,125829,1,2,0:2:0:0:
120,329,125942,38,0,P|138:262|145:196,1,110.000003356934,2|0,0:2|3:0,0:0:0:0:
9,91,126170,1,8,0:0:0:0:
200,9,126283,2,0,P|166:57|128:98,1,110.000003356934,2|0,0:2|3:0,0:0:0:0:
239,300,126511,2,0,P|270:255|307:214,1,110.000003356934,2|8,0:2|0:0,0:0:0:0:
504,126,126738,6,0,B|435:93|396:14|396:14|375:47|346:65,1,220.000006713867,2|0,0:2|3:0,0:0:0:0:
151,112,127079,2,0,P|206:110|260:116,1,110.000003356934,8|0,0:0|3:0,0:0:0:0:
478,232,127306,1,2,0:2:0:0:
260,116,127420,1,2,0:2:0:0:
504,126,127533,1,10,0:2:0:0:
228,221,127647,38,0,P|160:168|180:41,1,220.000006713867,2|0,0:2|3:0,0:0:0:0:
361,198,127988,2,0,L|330:322,1,110.000003356934,8|0,0:0|3:0,0:0:0:0:
36,309,128215,2,0,L|62:202,1,110.000003356934,0|0,3:0|3:0,0:0:0:0:
260,116,128442,1,10,0:0:0:0:
145,281,128556,1,2,0:0:0:0:
10,98,128670,6,2,B|88:89|88:89|150:118|150:118|229:104,1,220.000006713867,6|8,0:0|0:0,0:0:0:0:
421,33,129011,1,0,3:0:0:0:
237,8,129124,2,0,P|251:61|262:139,1,110.000003356934,0|0,3:0|3:0,3:0:0:0:
458,212,129351,1,10,0:0:0:0:
334,46,129465,1,2,0:0:0:0:
342,253,129579,38,0,P|364:201|370:139,1,110.000003356934,2|0,0:0|3:0,0:0:0:0:
230,296,129806,1,8,0:0:0:0:
458,212,129920,2,2,P|470:140|463:92,1,110.000003356934,2|0,0:0|3:0,0:0:0:0:
201,42,130147,2,2,P|198:97|212:151,1,110.000003356934,2|8,0:0|0:0,0:0:0:0:
388,292,130374,6,2,B|344:247|295:246|295:246|237:278|171:271,1,220.000006713867,2|0,0:0|3:0,0:0:0:0:
11,126,130715,2,0,P|87:157|127:184,1,110.000003356934,8|0,0:0|3:0,0:0:0:0:
306,49,130942,2,0,P|259:75|206:117,1,110.000003356934,0|0,3:0|3:0,3:0:0:0:
149,272,131170,1,10,0:0:0:0:
317,174,131283,1,2,0:0:0:0:
101,63,131397,6,2,P|104:112|114:192,1,110.000003356934,6|0,0:0|3:0,0:0:0:0:
370,263,131624,1,0,3:0:0:0:
230,375,131738,2,2,P|233:313|242:250,1,125,14|0,0:0|3:0,0:0:0:0:
508,162,131965,1,0,3:0:0:0:
352,6,132079,2,2,P|355:74|367:147,1,139.999995727539,6|0,0:0|3:0,0:0:0:0:
122,298,132306,22,2,B|71:261|71:261|52:174|112:116,2,220.000006713867,6|8|0,0:0|0:0|3:0,0:0:0:0:
238,223,132874,1,0,3:0:0:0:
348,307,132988,2,0,P|372:246|379:171,1,110.000003356934,8|0,0:0|3:0,0:0:0:0:
205,86,133215,6,0,P|263:101|325:109,1,110.000003356934,0|0,3:0|3:0,3:0:0:0:
125,257,133442,2,0,P|70:265|17:279,1,110.000003356934,8|0,0:0|3:0,3:0:0:0:
238,223,133670,1,2,0:0:0:0:
50,137,133783,1,2,0:0:0:0:
210,340,133897,1,10,0:0:0:0:
394,159,134011,38,2,P|389:60|283:15,1,220.000006713867,2|0,0:0|3:0,0:0:0:0:
350,272,134351,2,0,P|414:260|466:259,1,110.000003356934,8|0,0:0|3:0,0:0:0:0:
394,159,134579,1,8,0:0:0:0:
238,223,134692,1,8,0:0:0:0:
82,287,134806,2,0,L|110:124,1,165.000005035401,12|0,0:0|2:0,0:0:0:0:
126,43,135033,5,0,3:0:0:0:
7,227,135147,1,8,0:0:0:0:
190,97,135261,1,8,0:0:0:0:
82,287,135374,1,8,0:0:0:0:
197,222,135488,37,8,3:0:0:0:
292,311,135601,1,0,3:0:0:0:
413,257,135715,1,8,3:0:0:0:
397,125,135829,1,8,3:0:0:0:
397,125,135886,1,0,3:0:0:0:
397,125,135942,6,2,B|324:134|324:134|261:108|261:108|182:121,1,220.000006713867,6|0,1:0|0:0,0:0:0:0:
122,223,136245,1,0,0:0:0:0:
157,287,136320,1,8,0:0:0:0:
228,310,136397,2,0,P|246:253|249:194,1,110.000003356934,8|0,0:0|0:0,0:0:0:0:
49,12,136624,2,0,P|53:67|68:120,1,110.000003356934
395,113,136851,38,2,B|322:87|322:87|183:120,1,220.000006713867,4|0,3:0|2:0,0:0:0:0:
364,202,137192,2,2,B|317:183|317:183|177:216,1,179.999994506836,8|0,3:0|2:0,0:0:0:0:
376,303,137533,2,2,L|293:274,1,69.9999978637696,8|0,3:0|2:0,0:0:0:0:
86,303,137760,5,8,0:0:0:0:
114,259,137836,1,0,0:0:0:0:
113,207,137912,1,0,0:0:0:0:
80,167,137988,1,8,0:0:0:0:
72,116,138063,1,0,0:0:0:0:
90,67,138139,1,0,0:0:0:0:
134,41,138215,37,8,0:0:0:0:
279,136,138329,1,8,0:0:0:0:
177,129,138442,1,0,0:0:0:0:
177,129,138499,1,0,3:0:0:0:
177,129,138556,1,8,3:0:0:0:
340,55,138670,6,2,P|313:154|302:274,1,220.000006713867,4|0,3:0|2:0,0:0:0:0:
353,74,139011,2,2,P|364:171|391:265,1,179.999994506836,8|0,3:0|2:0,0:0:0:0:
368,89,139352,2,2,P|410:157|453:204,1,139.999995727539,8|0,3:0|2:0,0:0:0:0:
450,201,139806,38,0,P|400:188|360:182,1,69.9999978637696,0|0,0:0|2:0,0:0:0:0:
228,306,140033,2,0,P|264:269|289:237,1,69.9999978637696,0|0,0:0|2:0,0:0:0:0:
247,60,140261,2,0,P|260:110|275:147,1,69.9999978637696,0|0,0:0|2:0,0:0:0:0:
382,184,140488,1,2,0:2:0:0:
350,65,140601,1,0,2:0:0:0:
288,228,140715,1,0,0:0:0:0:
448,297,140829,1,2,2:0:0:0:
439,104,140942,5,2,0:0:0:0:
168,181,141094,1,2,2:1:0:0:
369,376,141245,1,2,2:1:0:0:
287,80,141397,38,0,B|209:57|155:84|155:84|119:55|74:55,1,220.000006713867,6|8,0:0|0:0,0:0:0:0:
46,246,141738,1,0,0:0:0:0:
225,174,141851,1,8,0:0:0:0:
16,145,141965,1,8,0:3:0:0:
144,313,142079,1,8,0:3:0:0:
326,211,142192,6,2,B|332:145|332:145|293:86|293:86|303:3,1,220.000006713867,6|0,0:0|2:0,0:0:0:0:
401,63,142533,1,8,0:0:0:0:
225,174,142647,1,8,0:0:0:0:
372,309,142761,37,8,0:0:0:0:
339,181,142874,1,8,0:0:0:0:
211,145,142988,2,0,L|214:213,1,55.0000016784668,8|0,0:0|2:0,0:0:0:0:
119,238,143101,2,0,L|168:290,1,55.0000016784668,8|0,0:0|2:0,0:0:0:0:
254,289,143215,22,0,P|281:269|305:241,3,59.9999981689454,6|0|2|0,0:0|2:0|2:0|2:0,0:0:0:0:
339,181,143442,1,10,0:2:0:0:
334,163,143499,1,0,2:0:0:0:
330,145,143556,1,2,2:0:0:0:
326,127,143613,1,2,2:0:0:0:
322,109,143670,2,0,L|338:27,2,79.9999975585938,0|0|2,0:0|2:0|2:0,0:0:0:0:
222,103,143897,2,0,L|238:185,2,79.9999975585938,8|0|2,0:0|2:0|2:0,0:0:0:0:
129,63,144124,5,2,0:2:0:0:
113,73,144181,1,0,2:0:0:0:
97,82,144238,1,2,2:0:0:0:
81,92,144295,1,2,2:0:0:0:
66,102,144351,2,0,P|54:131|50:170,3,59.9999981689454,10|0|0|0,0:2|2:0|2:0|2:0,0:0:0:0:
93,244,144579,2,0,P|127:232|159:225,1,59.9999981689454,2|0,0:2|2:0,2:0:0:0:
232,302,144692,2,0,P|260:312|289:319,1,59.9999981689454,2|0,0:2|2:0,2:0:0:0:
362,222,144806,2,0,P|395:214|424:210,3,59.9999981689454,10|0|0|0,0:2|2:0|2:0|2:0,0:0:0:0:
416,324,145033,38,0,B|449:343|449:343|490:344,2,79.9999975585938,2|0|0,0:2|2:0|2:0,0:0:0:0:
376,124,145261,2,0,B|397:88|397:88|440:65,2,79.9999975585938,10|0|0,0:2|2:0|2:0,0:0:0:0:
362,222,145488,1,2,0:2:0:0:
344,217,145545,1,0,2:0:0:0:
325,217,145602,1,2,2:0:0:0:
307,222,145659,1,2,2:0:0:0:
292,231,145715,2,0,P|251:239|198:235,2,79.9999975585938,10|0|0,0:2|2:0|2:0,0:0:0:0:
245,137,145942,6,0,L|172:127,1,59.9999981689454,2|0,0:2|2:0,2:0:0:0:
131,300,146056,2,0,L|43:312,1,59.9999981689454,2|0,0:2|2:0,2:0:0:0:
212,237,146170,38,2,B|252:244|292:231|292:231|335:217|382:228|382:228|358:253|321:258,1,240,14|0,0:0|0:0,0:0:0:0:
245,137,146624,2,0,P|228:73|226:14,1,119.999996337891,8|0,0:0|3:0,0:0:0:0:
79,160,146851,6,2,P|114:232|96:359,1,200,6|8,0:0|0:0,0:0:0:0:
101,348,147192,1,0,2:0:0:0:
251,270,147306,2,0,P|197:254|127:247,1,100
354,329,147533,1,8,0:0:0:0:
429,246,147647,2,2,B|444:197|444:197|437:143,1,100,2|0,2:1|0:0,0:0:0:0:
272,27,147874,37,0,2:0:0:0:
230,130,147988,2,2,B|280:136|280:136|341:117,1,100,10|0,0:0|2:2,0:0:0:0:
503,19,148215,2,2,L|390:40,1,100,0|2,0:0|0:0,0:0:0:0:
299,238,148442,2,0,P|348:222|414:213,1,100,8|2,0:0|0:0,0:0:0:0:
250,338,148670,5,0,0:0:0:0:
250,338,148783,1,0,2:0:0:0:
136,274,148897,2,2,P|71:258|16:251,1,110.000003356934,10|0,0:0|2:0,0:0:0:0:
154,104,149124,1,2,0:0:0:0:
285,149,149238,38,2,P|343:135|404:109,1,119.999996337891,0|10,0:0|0:0,0:0:0:0:
279,367,149465,2,2,P|256:290|251:229,1,119.999996337891,2|0,0:0|2:2,0:0:0:0:
312,44,149692,1,0,0:0:0:0:
368,249,149806,6,2,B|292:274|212:235|212:235|187:268|146:278,1,240,14|0,0:0|0:0,0:0:0:0:
2,136,150261,2,0,P|90:158|134:179,1,119.999996337891,8|8,0:0|3:0,0:0:0:0:
294,104,150488,37,6,0:0:0:0:
135,182,150601,1,0,2:0:0:0:
197,57,150715,1,0,0:0:0:0:
243,244,150829,1,2,2:0:0:0:
35,233,150942,5,2,0:2:0:0:
218,152,151056,1,0,0:0:0:0:
26,98,151170,1,8,0:0:0:0:
145,287,151283,1,2,2:0:0:0:
336,168,151397,38,2,L|215:151,1,119.999996337891,2|0,0:0|2:0,0:0:0:0:
394,311,151624,2,2,L|273:294,1,119.999996337891,10|2,0:0|2:0,0:0:0:0:
458,189,151851,1,2,0:2:0:0:
290,62,151965,1,0,0:0:0:0:
350,217,152079,1,8,0:0:0:0:
434,4,152192,1,2,2:2:0:0:
198,27,152306,6,2,B|192:85|192:85|229:136,1,119.999996337891,2|0,0:0|2:0,0:0:0:0:
249,162,152476,1,2,2:0:0:0:
249,163,152533,2,2,L|128:147,1,119.999996337891,8|8,0:0|0:0,0:0:0:0:
19,301,152761,1,0,0:0:0:0:
39,133,152874,1,2,0:2:0:0:
109,314,152988,1,8,0:0:0:0:
130,147,153101,1,2,2:2:0:0:
4,36,153215,37,2,0:0:0:0:
73,222,153329,1,0,0:0:0:0:
273,146,153442,2,2,B|297:115|300:71|300:71|352:137|330:226,1,240,14|0,0:0|0:0,0:0:0:0:
147,316,153897,2,0,P|208:296|266:289,1,119.999996337891,8|0,0:0|3:0,0:0:0:0:
471,363,154124,5,6,0:2:0:0:
436,329,154200,1,2,3:2:0:0:
431,281,154276,1,2,3:2:0:0:
451,238,154351,1,8,0:2:0:0:
487,206,154427,1,0,3:2:0:0:
498,159,154503,1,0,3:2:0:0:
482,113,154579,37,2,0:2:0:0:
440,86,154655,1,2,3:2:0:0:
391,85,154730,1,2,3:2:0:0:
350,110,154806,1,8,0:2:0:0:
333,155,154882,1,0,3:2:0:0:
344,201,154958,1,0,3:2:0:0:
377,236,155033,5,2,0:2:0:0:
332,217,155109,1,2,3:2:0:0:
283,218,155185,1,2,3:2:0:0:
240,239,155261,1,8,0:2:0:0:
194,251,155336,1,0,3:2:0:0:
146,244,155412,1,0,3:2:0:0:
105,219,155488,37,2,0:2:0:0:
121,263,155564,1,2,3:2:0:0:
161,290,155639,1,2,3:2:0:0:
208,294,155715,1,8,0:2:0:0:
249,268,155791,1,0,3:2:0:0:
269,223,155867,1,0,3:2:0:0:
260,176,155942,5,6,0:2:0:0:
286,126,156018,1,0,3:2:0:0:
339,110,156094,1,2,3:2:0:0:
392,126,156170,1,14,0:2:0:0:
419,174,156245,1,0,3:2:0:0:
406,228,156321,1,2,3:2:0:0:
360,260,156397,37,0,0:2:0:0:
330,212,156473,1,0,3:2:0:0:
280,187,156548,1,2,3:2:0:0:
224,182,156624,1,10,0:2:0:0:
171,202,156700,1,0,3:2:0:0:
133,244,156776,1,2,3:2:0:0:
113,296,156851,5,6,0:2:0:0:
176,302,156927,1,0,3:2:0:0:
228,265,157003,1,2,3:2:0:0:
243,202,157079,1,12,0:2:0:0:
212,145,157155,1,0,3:2:0:0:
150,129,157230,1,2,3:2:0:0:
93,157,157306,37,10,0:2:0:0:
146,209,157382,1,2,3:2:0:0:
220,203,157458,1,2,3:2:0:0:
270,148,157533,1,14,0:2:0:0:
345,148,157609,1,2,3:2:0:0:
387,210,157685,1,2,3:2:0:0:
362,281,157761,6,2,P|296:290|231:311,1,119.999996337891,6|0,0:0|2:2,0:0:0:0:
17,261,157988,2,0,P|87:298|135:310,1,119.999996337891,8|0,0:0|2:0,0:0:0:0:
345,148,158215,1,2,0:2:0:0:
114,187,158329,1,0,0:0:0:0:
281,354,158442,2,0,P|273:269|259:208,1,119.999996337891,8|2,0:0|2:0,0:0:0:0:
110,45,158670,38,0,B|158:47|195:69|195:69|249:43|249:43|292:63|337:57,1,239.999992675781,2|8,0:2|0:0,0:0:0:0:
451,21,159011,1,0,2:0:0:0:
256,141,159124,1,2,0:2:0:0:
468,247,159238,1,2,0:2:0:0:
468,247,159465,5,0,0:0:0:0:
361,197,159579,2,0,P|358:261|378:317,1,119.999996337891,2|0,0:2|2:0,0:0:0:0:
444,109,159806,2,0,P|378:78|302:83,1,119.999996337891,8|2,0:0|2:0,0:0:0:0:
165,230,160033,1,0,0:0:0:0:
331,76,160147,1,0,0:0:0:0:
111,101,160261,1,8,0:0:0:0:
361,197,160374,1,2,2:2:0:0:
231,27,160488,38,0,B|218:85|218:85|248:147,1,119.999996337891,2|0,0:2|2:2,0:0:0:0:
436,225,160715,2,2,B|405:235|381:227|381:227|353:254|353:254|323:223|323:223|277:257|226:251,1,240,14|0,0:0|0:0,0:0:0:0:
262,378,161170,2,0,P|211:360|134:349,1,119.999996337891,8|0,0:0|0:0,0:0:0:0:
12,231,161397,6,2,L|133:207,1,119.999996337891,6|0,0:0|2:0,0:0:0:0:
364,292,161624,2,0,P|339:232|325:168,1,119.999996337891,8|2,0:0|2:0,0:0:0:0:
94,69,161851,2,0,L|230:97,1,119.999996337891,2|0,0:2|0:0,0:0:0:0:
468,195,162079,2,0,P|445:134|434:64,1,119.999996337891,8|2,0:0|2:0,0:0:0:0:
248,263,162306,38,0,P|312:273|378:299,1,119.999996337891,2|0,0:2|2:0,0:0:0:0:
294,43,162533,2,0,P|252:93|197:137,1,119.999996337891,8|2,0:0|2:0,0:0:0:0:
0,157,162761,1,0,0:0:0:0:
177,26,162874,1,2,0:2:0:0:
214,240,162988,1,8,0:2:0:0:
9,195,163101,1,2,2:0:0:0:
140,15,163215,5,2,0:2:0:0:
216,37,163291,1,0,2:0:0:0:
292,61,163367,1,0,2:0:0:0:
367,84,163442,37,10,0:2:0:0:
300,102,163518,1,2,2:2:0:0:
231,124,163594,1,0,2:2:0:0:
164,145,163670,5,2,0:2:0:0:
224,162,163746,1,0,2:0:0:0:
285,181,163822,1,0,2:0:0:0:
345,200,163897,37,10,0:2:0:0:
293,215,163973,1,2,2:2:0:0:
240,232,164049,1,0,2:2:0:0:
187,248,164124,5,2,0:2:0:0:
232,261,164200,1,0,2:0:0:0:
278,275,164276,1,0,2:0:0:0:
323,289,164351,37,14,0:0:0:0:
286,299,164427,1,0,2:2:0:0:
248,311,164503,1,2,2:2:0:0:
210,323,164579,5,2,0:2:0:0:
240,332,164655,1,0,2:0:0:0:
270,341,164731,1,0,2:0:0:0:
300,350,164806,37,10,0:2:0:0:
277,356,164882,1,2,2:2:0:0:
254,363,164958,1,2,2:2:0:0:
232,370,165033,6,0,L|163:356,2,53.3333333333333,6|0|0,0:0|2:0|2:0,0:0:0:0:
322,344,165261,2,0,L|393:328,2,53.3333333333333,10|0|0,0:2|2:0|2:0,0:0:0:0:
201,274,165488,38,0,L|125:258,2,59.9999981689454,2|0|0,0:2|2:0|2:0,0:0:0:0:
336,245,165716,2,0,L|414:227,2,59.9999981689454,10|0|0,0:2|2:0|2:0,0:0:0:0:
172,168,165942,6,0,L|95:153,2,66.6666666666667,2|0|0,0:2|2:0|2:0,0:0:0:0:
350,136,166170,2,0,L|430:118,2,66.6666666666667,10|0|0,0:2|2:0|2:0,0:0:0:0:
138,50,166397,38,0,L|53:33,2,73.3333355712891,2|0|0,0:2|2:0|2:0,0:0:0:0:
365,18,166625,2,0,L|453:-1,2,73.3333355712891,10|0|0,0:2|2:0|2:0,0:0:0:0:
253,40,166851,5,2,0:2:0:0:
457,236,166965,1,2,2:2:0:0:
199,114,167079,1,8,0:2:0:0:
480,150,167192,1,2,0:2:0:0:
208,205,167306,37,0,2:2:0:0:
414,86,167420,1,0,0:2:0:0:
253,40,167533,1,10,0:2:0:0:
369,254,167647,1,2,2:2:0:0:
369,254,167874,1,0,0:0:0:0:
396,134,167988,6,2,B|327:121|278:168|278:168|251:151|251:151|211:164|169:149,1,240,14|0,0:0|0:0,0:0:0:0:
9,10,168442,2,0,P|45:50|80:111,1,119.999996337891,8|0,0:0|3:0,0:0:0:0:
7,294,168670,38,2,P|47:242|101:204,1,119.999996337891,6|0,0:0|2:0,0:0:0:0:
307,332,168897,2,0,P|229:352|176:279,1,179.999994506836,8|0,0:0|2:0,0:0:0:0:
194,195,169124,1,2,0:2:0:0:
194,195,169238,1,0,0:0:0:0:
409,168,169351,2,0,L|386:290,1,119.999996337891,8|0,0:0|2:0,0:0:0:0:
214,109,169579,6,0,P|111:68|31:171,1,239.999992675781,2|8,0:2|0:0,0:0:0:0:
271,235,169920,1,0,0:0:0:0:
314,61,170033,2,0,P|351:48|435:50,1,119.999996337891,2|0,0:2|0:0,0:0:0:0:
228,134,170261,2,0,B|197:141|197:141|130:119|61:63,1,179.999994506836,12|0,0:2|2:0,0:0:0:0:
32,151,170488,38,0,B|57:190|57:190|53:225|64:268,1,119.999996337891,2|0,0:2|2:0,0:0:0:0:
220,353,170715,2,0,B|234:329|262:315|262:315|273:286|272:257|272:257|305:272|323:298|323:298|356:302|384:293,1,239.999992675781,12|0,0:2|0:0,0:0:0:0:
488,196,171056,1,0,0:0:0:0:
378,161,171170,2,0,B|370:201|370:201|386:236|395:291,1,119.999996337891,10|0,0:2|0:0,0:0:0:0:
175,235,171397,6,0,B|175:205|161:181|161:181|192:153|204:123|204:123|191:86|195:45|195:45|181:56|177:74,2,239.999992675781,2|8|0,0:2|0:0|0:0,0:0:0:0:
54,233,171965,1,8,0:0:0:0:
12,119,172079,1,8,0:0:0:0:
98,37,172192,1,8,0:0:0:0:
210,79,172306,5,6,0:1:0:0:
212,92,172420,1,0,0:0:0:0:
214,105,172533,1,0,0:0:0:0:
216,118,172647,1,0,0:0:0:0:
218,131,172761,1,8,0:2:0:0:
220,144,172874,1,0,0:0:0:0:
222,157,172988,1,0,0:0:0:0:
224,170,173101,1,0,0:0:0:0:
226,183,173215,6,0,L|306:169,1,69.9999978637696,2|0,0:2|0:0,0:0:0:0:
413,270,173442,1,0,0:0:0:0:
412,284,173556,2,0,L|336:274,1,69.9999978637696,2|8,0:2|0:2,0:0:0:0:
221,333,173783,1,0,0:0:0:0:
220,347,173897,2,0,L|144:337,1,69.9999978637696,2|0,0:2|0:0,0:0:0:0:
53,245,174124,37,0,0:0:0:0:
55,231,174238,1,0,0:0:0:0:
57,217,174351,1,0,0:0:0:0:
59,203,174465,1,0,0:0:0:0:
61,189,174579,1,8,0:2:0:0:
64,175,174692,1,0,0:0:0:0:
67,161,174806,1,0,0:0:0:0:
70,147,174920,1,0,0:0:0:0:
73,133,175033,6,0,L|62:61,1,69.9999978637696,2|0,0:2|0:0,0:0:0:0:
156,186,175261,2,0,L|171:109,1,69.9999978637696
239,232,175488,2,0,P|294:211|314:132,1,139.999995727539,8|0,0:2|0:0,0:0:0:0:
260,82,175829,1,0,0:0:0:0:
240,157,175942,37,2,0:2:0:0:
253,159,176056,1,0,0:0:0:0:
267,159,176170,1,0,0:0:0:0:
280,157,176283,1,0,0:0:0:0:
293,153,176397,1,8,0:2:0:0:
305,146,176511,1,0,0:0:0:0:
315,138,176624,1,0,0:0:0:0:
325,129,176738,1,0,0:0:0:0:
332,117,176851,6,0,L|345:36,1,69.9999978637696,2|0,0:2|0:0,0:0:0:0:
421,172,177079,1,0,0:0:0:0:
414,184,177192,2,0,L|427:265,1,69.9999978637696,2|8,0:2|0:2,0:0:0:0:
281,230,177420,1,0,0:0:0:0:
274,242,177533,2,0,L|287:323,1,69.9999978637696,2|0,0:2|0:0,0:0:0:0:
162,234,177761,37,0,0:0:0:0:
156,221,177874,1,0,0:0:0:0:
153,207,177988,1,0,0:0:0:0:
153,193,178101,1,0,0:0:0:0:
156,179,178215,1,8,0:2:0:0:
162,166,178329,1,0,0:0:0:0:
170,154,178442,1,0,0:0:0:0:
181,145,178556,1,0,0:0:0:0:
193,139,178670,6,0,P|246:148|282:146,1,69.9999978637696,2|0,0:2|0:0,0:0:0:0:
177,48,178897,2,0,P|224:33|256:16,1,69.9999978637696
82,35,179124,1,8,0:1:0:0:
193,139,179238,1,8,0:1:0:0:
177,48,179351,1,8,0:0:0:0:
37,118,179465,1,8,0:0:0:0:
108,185,179579,5,6,0:1:0:0:
135,180,179692,1,0,0:0:0:0:
162,175,179806,1,0,0:0:0:0:
189,170,179920,1,0,0:0:0:0:
216,165,180033,1,8,0:2:0:0:
243,160,180147,1,0,0:0:0:0:
270,155,180261,1,0,0:0:0:0:
297,150,180374,1,0,0:0:0:0:
324,145,180488,6,2,L|290:294,1,139.999995727539,2|0,0:1|0:0,0:1:0:0:
449,361,180715,1,0,0:0:0:0:
498,283,180829,2,2,L|466:146,1,139.999995727539,2|8,0:1|0:2,0:1:0:0:
267,31,181056,1,0,0:0:0:0:
248,123,181170,2,2,L|411:89,1,139.999995727539,2|0,0:1|0:0,0:1:0:0:
248,215,181397,37,4,0:1:0:0:
219,213,181511,1,0,0:0:0:0:
193,201,181624,1,0,0:0:0:0:
172,181,181738,1,0,0:0:0:0:
159,156,181851,1,8,0:2:0:0:
136,139,181965,1,0,0:0:0:0:
108,132,182079,1,0,0:0:0:0:
80,133,182192,1,0,0:0:0:0:
54,145,182306,6,0,P|107:81|131:20,1,139.999995727539,2|0,0:1|0:0,0:1:0:0:
99,230,182533,1,0,0:0:0:0:
197,241,182647,2,0,P|247:283|286:357,1,139.999995727539,2|8,0:1|0:2,0:1:0:0:
246,153,182874,1,0,0:0:0:0:
344,160,182988,2,2,P|414:127|454:78,1,139.999995727539,2|0,0:1|0:0,0:1:0:0:
231,72,183215,37,4,0:1:0:0:
236,99,183329,1,0,0:0:0:0:
241,126,183442,1,0,0:0:0:0:
246,153,183556,1,0,0:0:0:0:
78,188,183670,5,10,0:1:0:0:
97,150,183784,1,0,0:0:0:0:
115,113,183897,1,0,0:0:0:0:
133,75,184011,1,0,0:0:0:0:
321,42,184124,37,2,0:1:0:0:
359,78,184238,1,0,0:0:0:0:
398,115,184351,1,0,0:0:0:0:
437,152,184465,1,0,0:0:0:0:
378,339,184579,5,10,0:1:0:0:
315,350,184693,1,0,0:0:0:0:
252,362,184806,1,0,0:0:0:0:
189,373,184920,1,0,0:0:0:0:
242,192,185033,37,6,0:1:0:0:
255,178,185147,1,0,0:0:0:0:
269,191,185261,1,0,0:0:0:0:
256,205,185374,1,0,0:0:0:0:
230,183,185488,5,8,0:1:0:0:
264,166,185602,1,0,0:0:0:0:
281,200,185716,1,0,0:0:0:0:
247,217,185829,1,0,0:0:0:0:
223,166,185942,37,0,0:0:0:0:
281,159,186056,1,0,0:0:0:0:
288,217,186170,1,0,0:0:0:0:
230,224,186283,1,0,0:0:0:0:
227,145,186397,5,8,0:1:0:0:
302,163,186511,1,0,0:0:0:0:
208,220,186625,1,2,0:1:0:0:
152,127,186738,1,2,0:1:0:0:
246,71,186851,38,2,P|317:86|392:88,1,139.999995727539,6|0,0:1|0:0,0:1:0:0:
364,244,187079,1,0,0:0:0:0:
156,261,187192,2,2,P|133:192|97:126,1,139.999995727539,2|8,0:1|0:2,0:1:0:0:
246,71,187420,1,0,0:0:0:0:
365,243,187533,2,2,P|317:297|278:361,1,139.999995727539,2|0,0:1|0:0,0:1:0:0:
156,261,187761,5,8,0:2:0:0:
303,164,187874,1,8,0:2:0:0:
198,341,187988,1,8,0:0:0:0:
13,194,188101,1,8,0:0:0:0:
201,5,188215,37,4,0:0:0:0:
442,258,188442,1,4,0:0:0:0:
105,342,188670,22,0,B|63:307|68:255|68:255|130:240|181:278|181:278|183:207|135:157,1,350,4|0,0:0|0:0,0:0:0:0:
49,88,189614,2,0,B|83:136|157:125|180:69|180:69|232:77|256:118|256:118|280:73|331:66,1,350,2|0,0:0|0:0,0:0:0:0:
389,198,190559,6,0,B|357:183|345:156|345:156|408:130|476:178|476:178|482:225|459:268|459:268|429:274|408:292,1,350,2|0,0:0|0:0,0:0:0:0:
286,322,191504,2,0,B|274:286|244:263|244:263|202:255|166:272,1,150,2|0,0:0|0:0,0:0:0:0:
66,346,191977,2,0,B|102:353|138:339|138:339|166:306|169:267,1,150,2|0,0:0|0:0,0:0:0:0:
121,73,192449,38,0,B|114:60|118:40|118:40|162:56|190:97|190:97|236:70|244:26|244:26|159:81|217:129|141:191,1,419.999987182618,2|0,0:0|0:0,0:0:0:0:
77,240,193394,2,0,B|47:231|28:197|28:197|137:171|232:231|232:231|331:289|434:244,1,489.999985046387,2|0,0:0|0:0,0:0:0:0:
402,82,194339,6,0,B|355:50|299:78|299:78|316:116|369:122|388:168|388:168|335:199|283:158,1,350,2|0,0:0|0:0,0:0:0:0:
216,52,195284,1,2,0:0:0:0:
219,85,195362,1,0,0:0:0:0:
205,116,195441,1,0,0:0:0:0:
178,136,195520,1,0,0:0:0:0:
146,139,195599,1,0,0:0:0:0:
117,125,195677,1,0,0:0:0:0:
100,95,195756,1,2,0:0:0:0:
71,79,195835,1,0,0:0:0:0:
38,80,195914,1,0,0:0:0:0:
11,100,195992,1,2,0:0:0:0:
0,131,196071,1,0,0:0:0:0:
8,163,196150,1,2,0:0:0:0:
32,186,196229,38,0,L|97:201,1,66.6666666666667,2|0,0:0|0:0,0:0:0:0:
125,207,196465,1,2,0:0:0:0:
144,109,196583,1,0,0:0:0:0:
150,205,196701,1,2,0:0:0:0:
119,111,196819,1,0,0:0:0:0:
172,191,196937,1,2,0:0:0:0:
97,125,197055,1,0,0:0:0:0:
183,168,197173,1,2,0:0:0:0:
86,148,197291,1,0,0:0:0:0:
182,142,197410,6,0,L|266:135,1,66.6666666666667,2|0,0:0|0:0,0:0:0:0:
281,133,197646,1,2,0:0:0:0:
264,161,197725,1,0,0:0:0:0:
265,193,197803,1,0,0:0:0:0:
283,221,197882,1,2,0:0:0:0:
313,235,197961,1,2,0:0:0:0:
346,232,198040,1,0,0:0:0:0:
372,212,198118,38,0,P|365:247|373:287,1,66.6666666666667,2|0,0:0|0:0,0:0:0:0:
460,247,198355,2,0,L|498:253,2,33.3333333333333,2|0|2,0:0|0:0|0:0,0:0:0:0:
372,212,198591,1,0,0:0:0:0:
448,153,198709,1,2,0:0:0:0:
372,212,198827,1,0,0:0:0:0:
361,116,198945,1,2,0:0:0:0:
372,212,199063,1,0,0:0:0:0:
284,173,199181,1,2,0:0:0:0:
372,212,199299,2,0,L|436:243,1,66.6666666666667,0|2,0:0|0:0,0:0:0:0:
443,273,199536,5,2,0:0:0:0:
436,305,199614,1,0,0:0:0:0:
414,330,199693,1,0,0:0:0:0:
382,340,199772,1,2,0:0:0:0:
349,333,199851,1,2,0:0:0:0:
323,312,199929,1,2,0:0:0:0:
312,280,200008,38,0,P|277:292|237:293,1,66.6666666666667,2|0,0:0|0:0,0:0:0:0:
215,290,200244,1,2,0:0:0:0:
259,174,200362,1,0,0:0:0:0:
247,293,200481,1,2,0:0:0:0:
227,171,200599,1,0,0:0:0:0:
276,280,200717,1,2,0:0:0:0:
197,183,200835,1,0,0:0:0:0:
294,253,200954,1,2,0:0:0:0:
179,210,201072,1,0,0:0:0:0:
298,222,201189,1,2,0:0:0:0:
175,241,201307,1,0,0:0:0:0:
284,192,201426,1,2,0:0:0:0:
189,271,201544,1,0,0:0:0:0:
258,174,201662,1,2,0:0:0:0:
215,289,201780,1,0,0:0:0:0:
186,170,201898,6,0,L|148:125,2,33.3333333333333,2|0|0,0:0|0:0|0:0,0:0:0:0:
287,293,202134,2,0,L|317:329,2,33.3333333333333,2|2|0,0:0|0:0|0:0,0:0:0:0:
157,244,202370,2,0,L|100:254,2,33.3333333333333,2|0|0,0:0|0:0|0:0,0:0:0:0:
315,218,202606,2,0,L|361:210,2,33.3333333333333,2|2|2,0:0|0:0|0:0,0:0:0:0:
208,305,202843,38,0,B|200:353|136:380|86:353|86:353|89:288|149:245|228:275|228:275|246:336|311:342|311:342|334:330|342:306|342:306|362:323|370:345|370:345|393:339|414:343,1,600,2|0,0:0|0:0,0:0:0:0:
414,343,204732,6,0,P|462:319|517:300,1,100,12|0,0:0|0:0,0:0:0:0:
338,206,204959,2,0,P|360:153|386:109,1,100,8|0,0:0|0:0,0:0:0:0:
173,206,205186,2,0,P|155:159|130:116,1,100,8|0,0:0|0:0,0:0:0:0:
97,342,205413,2,0,P|53:320|6:303,1,100,8|0,0:0|0:0,0:0:0:0:
207,311,205641,37,8,0:0:0:0:
173,206,205754,1,2,0:2:0:0:
65,235,205868,1,8,0:0:0:0:
97,342,205982,1,2,0:2:0:0:
271,243,206095,5,8,3:0:0:0:
91,145,206209,1,2,3:2:0:0:
207,311,206322,1,8,3:0:0:0:
211,102,206436,1,2,3:2:0:0:
8,45,206550,38,0,P|3:121|128:164,1,220.000006713867,4|0,0:0|0:0,0:0:0:0:
251,4,206891,1,0,2:2:0:0:
344,162,207004,2,0,P|273:143|224:119,1,110.000003356934,2|0,0:2|0:0,0:0:0:0:
39,286,207232,2,0,P|114:299|212:328,1,165.000005035401,8|0,0:0|2:2,0:0:0:0:
284,356,207459,6,0,P|276:301|271:233,1,110.000003356934,2|0,0:2|2:2,0:0:0:0:
451,88,207686,1,8,0:0:0:0:
324,53,207800,2,0,P|335:121|347:177,1,110.000003356934,2|0,0:2|2:0,0:0:0:0:
157,270,208027,2,0,P|175:195|183:149,1,110.000003356934,2|8,0:2|0:0,0:0:0:0:
47,301,208254,1,2,0:2:0:0:
271,246,208368,38,0,B|330:226|384:252|384:252|436:275|487:253,1,220.000006713867,2|8,0:2|0:0,0:0:0:0:
484,253,208709,1,0,2:0:0:0:
400,60,208822,2,0,P|418:121|443:181,1,110.000003356934,2|0,0:2|0:0,0:0:0:0:
167,189,209050,2,0,P|228:125|273:48,1,165.000005035401,8|0,0:0|2:0,0:0:0:0:
180,22,209277,6,0,P|190:79|209:133,1,110.000003356934,2|0,0:2|2:0,0:0:0:0:
41,243,209504,1,10,0:2:0:0:
191,337,209618,2,0,P|172:275|154:227,1,110.000003356934,2|0,0:2|2:0,0:0:0:0:
390,298,209845,2,0,P|333:337|285:379,1,110.000003356934,2|8,0:2|0:0,0:0:0:0:
371,87,210072,2,0,P|387:150|406:202,1,110.000003356934,2|4,0:2|0:0,0:0:0:0:
503,273,210300,37,2,0:2:0:0:
278,170,210413,2,0,B|226:147|226:147|164:216|210:302,1,220.000006713867,8|0,0:0|0:0,0:0:0:0:
305,180,210754,1,0,0:0:0:0:
285,46,210868,2,0,L|173:-2,1,110.000003356934,8|0,0:0|2:2,0:0:0:0:
367,291,211095,6,0,P|436:212|403:113,1,220.000006713867,0|8,0:0|0:0,0:0:0:0:
194,122,211436,1,0,0:0:0:0:
333,190,211550,1,2,2:2:0:0:
173,128,211663,1,0,0:0:0:0:
383,95,211777,1,10,0:2:0:0:
145,32,211891,38,0,P|86:73|106:207,1,220.000006713867,2|2,0:2|2:2,0:0:0:0:
270,302,212232,2,0,B|325:283|343:230|343:230|336:168|279:142,1,220.000006713867,10|0,0:2|0:0,0:0:0:0:
173,128,212572,1,0,0:0:0:0:
249,220,212686,1,10,0:2:0:0:
235,47,212800,1,2,2:0:0:0:
104,205,212913,6,0,P|122:274|134:317,1,110.000003356934,4|0,0:2|2:0,0:0:0:0:
151,104,213141,1,8,0:0:0:0:
249,220,213254,2,0,L|286:336,1,110.000003356934,4|0,0:2|0:0,0:0:0:0:
315,122,213482,1,8,0:0:0:0:
370,230,213595,1,10,0:2:0:0:
249,220,213709,1,8,0:0:0:0:
192,114,213822,37,4,0:0:0:0:
280,227,213936,1,2,2:2:0:0:
208,351,214050,1,8,0:0:0:0:
66,333,214163,1,2,2:2:0:0:
66,333,214391,5,2,0:2:0:0:
84,198,214504,1,8,0:0:0:0:
102,61,214618,1,2,2:2:0:0:
102,61,214845,37,2,2:2:0:0:
120,214,214959,1,8,0:0:0:0:
137,366,215072,1,2,0:2:0:0:
137,366,215300,5,2,0:2:0:0:
158,198,215413,1,8,0:0:0:0:
180,28,215527,1,2,2:2:0:0:
62,152,215641,37,4,0:0:0:0:
231,121,215755,1,2,2:2:0:0:
76,49,215869,1,8,0:0:0:0:
158,198,215982,1,2,2:2:0:0:
158,198,216209,5,10,0:2:0:0:
334,158,216322,1,10,0:2:0:0:
512,120,216436,1,10,0:2:0:0:
328,52,216550,6,2,B|253:14|169:40|169:40|196:46|223:61,1,220.000006713867,6|8,0:0|0:0,0:0:0:0:
336,350,216891,2,2,B|416:297|439:198|439:198|417:222|387:240,1,250,12|2,0:2|0:0,0:0:0:0:
66,236,217232,2,2,P|93:311|141:357,1,139.999995727539,10|0,0:0|0:0,0:0:0:0:
316,163,217459,22,0,P|227:142|193:245,1,220.000006713867,4|8,0:0|0:0,0:0:0:0:
311,288,217800,1,0,2:0:0:0:
346,140,217913,1,2,0:2:0:0:
343,306,218027,1,0,0:0:0:0:
192,244,218141,1,10,0:2:0:0:
275,81,218254,6,0,P|346:50|436:147,1,220.000006713867,2|0,0:2|2:0,0:0:0:0:
270,183,218595,1,8,0:0:0:0:
180,39,218709,2,0,P|109:8|19:105,1,220.000006713867,2|0,0:2|0:0,0:0:0:0:
162,244,219050,1,8,0:0:0:0:
111,97,219163,1,0,0:0:0:0:
86,303,219277,38,0,P|138:334|181:373,1,110.000003356934,2|0,0:2|2:0,0:0:0:0:
295,270,219504,2,0,P|283:198|265:145,1,110.000003356934,8|2,0:0|2:2,0:0:0:0:
482,197,219731,2,0,P|465:264|446:310,1,110.000003356934,2|0,0:2|0:0,0:0:0:0:
318,368,219959,1,8,0:0:0:0:
162,244,220072,2,0,P|127:158|164:82,1,165.000005035401,2|0,0:2|2:0,0:0:0:0:
248,69,220300,21,10,0:0:0:0:
294,350,220413,1,10,0:0:0:0:
25,250,220527,1,10,0:0:0:0:
269,210,220641,5,8,0:3:0:0:
44,138,220754,1,10,0:2:0:0:
183,294,220868,1,8,0:0:0:0:
151,94,220981,1,10,0:2:0:0:
68,315,221095,22,0,B|289:344,1,220.000006713867,12|8,0:0|0:0,0:0:0:0:
414,360,221436,1,0,2:2:0:0:
506,199,221550,2,0,P|439:217|385:237,1,110.000003356934,2|0,0:2|0:0,0:0:0:0:
192,172,221777,2,0,P|277:154|370:126,1,165.000005035401,8|0,0:0|2:2,0:0:0:0:
374,24,222004,38,0,P|360:84|351:138,1,110.000003356934,2|0,0:2|2:0,0:0:0:0:
87,244,222231,1,8,0:0:0:0:
192,172,222345,2,0,P|204:226|216:303,1,110.000003356934,2|0,0:2|2:0,0:0:0:0:
70,120,222572,2,0,P|88:45|96:-1,1,110.000003356934,2|8,0:2|0:0,0:0:0:0:
192,172,222799,1,2,0:2:0:0:
99,353,222913,6,0,P|88:284|86:232,1,110.000003356934,6|0,0:2|2:0,0:0:0:0:
376,299,223141,2,0,L|200:278,1,165.000005035401,8|0,0:0|2:2,0:0:0:0:
298,199,223368,2,0,L|413:179,1,110.000003356934,2|0,0:2|0:0,0:0:0:0:
184,139,223595,2,0,L|58:127,1,110.000003356934,8|0,0:0|2:2,0:0:0:0:
311,90,223822,38,0,P|310:141|297:199,1,110.000003356934,2|0,0:2|2:0,0:0:0:0:
498,271,224049,1,10,0:2:0:0:
366,377,224163,2,0,P|373:321|389:264,1,110.000003356934,2|0,0:2|2:0,0:0:0:0:
184,139,224390,2,0,P|129:169|79:220,1,110.000003356934,2|8,0:2|0:0,0:0:0:0:
342,133,224618,2,0,P|330:84|323:25,1,110.000003356934,2|4,0:2|0:0,0:0:0:0:
456,178,224846,5,2,0:2:0:0:
286,278,224959,2,0,B|192:302|125:272|125:272|151:257|196:255,1,220.000006713867,8|0,0:0|0:0,0:0:0:0:
309,268,225300,1,0,0:0:0:0:
152,370,225413,1,10,0:2:0:0:
268,172,225527,1,0,2:0:0:0:
356,380,225641,38,0,P|303:366|239:358,1,110.000003356934,2|0,0:2|2:0,0:0:0:0:
64,292,225868,1,8,0:0:0:0:
336,221,225981,2,0,P|272:248|170:255,1,165.000005035401,2|0,0:2|2:0,0:0:0:0:
91,203,226209,2,0,L|111:83,1,110.000003356934,0|8,0:0|0:0,0:0:0:0:
398,133,226436,6,0,B|438:187|438:187|416:358,1,220.000006713867,4|0,0:2|2:0,0:0:0:0:
268,172,226777,2,0,B|256:118|256:118|278:60,1,110.000003356934,8|0,0:0|2:2,0:0:0:0:
398,133,227004,1,2,0:2:0:0:
264,278,227118,1,0,0:0:0:0:
275,66,227231,1,10,0:2:0:0:
386,249,227345,38,0,P|369:321|362:372,1,110.000003356934,4|0,0:2|2:0,0:0:0:0:
510,306,227572,1,8,0:0:0:0:
386,249,227686,1,8,0:0:0:0:
262,192,227800,1,0,3:0:0:0:
398,133,227913,5,8,0:0:0:0:
240,289,228027,1,8,0:0:0:0:
92,96,228141,1,2,0:0:0:0:
290,205,228254,1,2,0:0:0:0:
58,278,228368,38,2,P|24:209|97:95,1,220.000006713867,6|8,0:0|0:0,0:0:0:0:
202,114,228709,1,0,2:0:0:0:
167,308,228822,2,0,P|145:250|136:186,1,110.000003356934
264,26,229050,1,10,0:0:0:0:
251,226,229163,1,0,2:0:0:0:
92,96,229277,6,2,B|148:84|199:113|199:113|248:140|307:130,1,220.000006713867,0|10,0:0|0:0,0:0:0:0:
487,18,229618,2,0,P|403:26|367:45,1,110.000003356934,2|0,0:0|2:0,0:0:0:0:
266,241,229845,2,0,P|350:233|386:214,1,110.000003356934,2|8,0:0|0:0,0:0:0:0:
449,126,230072,1,2,0:0:0:0:
164,179,230186,38,2,P|83:139|117:21,1,220.000006713867,4|10,0:2|0:0,0:0:0:0:
275,133,230527,2,0,P|278:188|267:241,1,110.000003356934
164,179,230754,1,8,0:0:0:0:
404,219,230868,1,10,0:0:0:0:
216,369,230981,1,8,0:0:0:0:
275,133,231095,22,2,B|338:65|416:48|416:48|404:71|380:90,1,220.000006713867,12|8,0:0|0:0,0:0:0:0:
192,205,231436,2,2,B|92:182|33:117|33:117|68:120|96:135,1,250,12|0,0:0|3:3,0:0:0:0:
297,237,231777,2,2,P|315:301|308:376,1,139.999995727539,12|0,0:0|3:3,0:0:0:0:
94,337,232004,38,2,P|179:318|230:312,1,110.000003356934,6|0,0:0|2:0,0:0:0:0:
436,366,232231,2,0,P|366:322|307:264,1,165.000005035401,8|0,0:0|2:2,0:0:0:0:
302,152,232459,2,0,P|359:177|411:217,1,110.000003356934
176,302,232686,2,0,P|198:242|212:177,1,110.000003356934,8|0,0:0|2:0,0:0:0:0:
102,32,232913,38,0,P|133:97|221:88,1,165.000005035401,0|0,0:0|2:0,0:0:0:0:
249,10,233141,2,0,L|259:125,1,110.000003356934,8|0,0:0|0:0,0:0:0:0:
460,219,233368,1,2,0:0:0:0:
343,59,233481,1,0,0:0:0:0:
368,263,233595,1,10,0:0:0:0:
498,114,233709,6,2,B|423:118|423:118|361:157|361:157|280:161,1,220.000006713867,6|0,0:0|2:2,0:0:0:0:
95,167,234050,1,8,0:0:0:0:
191,94,234163,1,0,0:0:0:0:
257,274,234277,1,8,0:0:0:0:
138,278,234391,1,8,0:0:0:0:
289,160,234504,37,0,3:3:0:0:
332,350,234618,1,8,0:0:0:0:
214,278,234731,1,0,3:0:0:0:
404,235,234845,1,8,0:0:0:0:
328,67,234959,5,8,3:0:0:0:
309,256,235072,1,0,3:0:0:0:
428,359,235186,37,8,3:0:0:0:
393,195,235300,1,0,3:0:0:0:
495,100,235413,5,8,3:0:0:0:
478,246,235527,1,0,3:0:0:0:
365,166,235641,38,0,P|358:91|486:72,1,220.000006713867,4|8,0:0|0:0,0:0:0:0:
476,63,235981,1,0,2:2:0:0:
257,131,236095,2,0,P|202:122|140:93,1,110.000003356934,2|0,0:2|0:0,0:0:0:0:
301,290,236322,2,0,P|372:259|519:248,1,220.000006713867,10|0,0:2|0:0,0:0:0:0:
280,317,236663,5,0,2:2:0:0:
141,323,236777,2,0,P|87:287|47:244,1,110.000003356934,10|0,0:2|0:0,0:0:0:0:
245,112,237004,1,0,2:2:0:0:
117,107,237118,2,0,P|146:173|174:217,1,110.000003356934,2|8,0:2|0:0,0:0:0:0:
373,206,237345,1,0,2:0:0:0:
251,5,237459,38,0,L|271:231,2,220.000006713867,2|8|0,0:2|0:0|0:2,0:2:0:0:
165,205,238027,1,0,0:0:0:0:
414,302,238141,2,2,P|485:244|438:116,1,220.000006713867,10|0,0:0|0:0,0:0:0:0:
270,224,238481,5,0,2:0:0:0:
347,380,238595,1,8,0:0:0:0:
103,280,238709,2,0,P|72:180|149:109,1,220.000006713867
262,255,239050,2,2,L|237:377,1,110.000003356934,8|2,0:0|2:1,0:0:0:0:
371,210,239277,38,0,B|402:168|402:168|372:55,1,165.000005035401,0|0,0:0|2:0,0:0:0:0:
288,21,239504,2,2,L|406:38,1,110.000003356934,10|0,0:0|2:0,0:0:0:0:
226,128,239731,1,0,0:0:0:0:
44,67,239845,2,2,L|163:43,2,110.000003356934,2|8|2,0:0|0:0|2:1,0:0:0:0:
176,212,240186,5,0,0:0:0:0:
277,44,240300,1,2,2:1:0:0:
79,160,240413,1,8,0:0:0:0:
275,283,240527,2,2,B|350:273|350:273|382:241|382:241|439:231|439:231|398:210,1,220.000006713867,2|0,0:0|0:0,0:0:0:0:
176,212,240868,2,2,B|177:250|177:250|145:265|145:265|141:312|165:353,1,165.000005035401,10|0,0:0|2:0,0:0:0:0:
255,379,241095,38,0,P|329:360|372:353,1,110.000003356934,2|0,0:2|2:0,0:0:0:0:
359,109,241322,2,0,P|301:155|253:200,1,110.000003356934,8|2,0:0|2:0,0:0:0:0:
413,251,241550,1,0,0:0:0:0:
463,106,241663,1,2,0:2:0:0:
327,33,241777,1,10,0:2:0:0:
274,179,241891,1,0,2:0:0:0:
469,188,242004,5,2,0:0:0:0:
272,96,242118,1,0,2:0:0:0:
474,145,242231,1,10,0:0:0:0:
263,137,242345,2,2,B|219:132|219:132|204:153|204:153|151:137|151:137|106:157|53:151,1,220.000006713867,2|0,0:0|0:0,0:0:0:0:
126,339,242686,2,0,P|148:281|154:213,1,110.000003356934,8|0,0:0|2:0,0:0:0:0:
23,48,242913,38,0,P|47:101|60:165,1,110.000003356934,4|0,0:0|2:2,0:0:0:0:
247,315,243141,2,0,P|272:256|306:206,1,110.000003356934,8|2,0:0|2:0,0:0:0:0:
492,214,243368,1,2,0:2:0:0:
369,312,243481,1,2,0:2:0:0:
397,180,243595,1,8,0:0:0:0:
465,350,243709,1,2,0:2:0:0:
296,217,243822,5,2,0:0:0:0:
476,115,243936,1,0,2:0:0:0:
369,312,244050,1,10,0:0:0:0:
172,210,244163,1,2,0:2:0:0:
172,210,244220,1,0,2:0:0:0:
172,210,244277,2,2,B|188:164|167:124|167:124|125:102|140:55|140:55|157:77|186:91,1,220.000006713867,2|8,0:0|0:0,0:0:0:0:
363,117,244618,1,2,2:1:0:0:
270,23,244731,37,2,0:0:0:0:
270,23,244788,1,0,2:0:0:0:
270,23,244845,2,0,L|277:100,1,55.0000016784668,2|0,2:0|2:0,2:0:0:0:
285,167,244959,2,0,P|348:154|402:151,1,110.000003356934,8|0,0:0|2:0,0:0:0:0:
172,210,245186,1,10,0:0:0:0:
367,62,245300,1,0,0:0:0:0:
266,271,245413,6,2,B|233:291|215:318|215:318|156:314|156:314|130:332|104:332|104:332|89:320|71:315,2,220.000006713867,10|2|8,0:0|0:2|0:0,0:0:0:0:
440,297,245981,1,0,0:0:0:0:
328,377,246095,2,0,P|310:301|308:251,1,110.000003356934,2|0,2:0|0:0,0:0:0:0:
397,30,246322,2,2,P|378:97|314:180,1,165.000005035401,10|0,0:0|2:0,0:0:0:0:
230,208,246550,37,2,1:1:0:0:
235,192,246625,1,0,3:0:0:0:
240,176,246701,1,0,3:0:0:0:
245,159,246778,5,10,1:2:0:0:
260,175,246853,1,0,3:0:0:0:
274,192,246929,1,0,3:0:0:0:
290,207,247004,37,0,1:0:0:0:
263,214,247079,1,0,3:0:0:0:
236,219,247155,1,0,3:0:0:0:
209,227,247231,5,10,1:2:0:0:
219,196,247306,1,0,3:0:0:0:
228,163,247382,1,0,3:0:0:0:
238,130,247459,37,2,1:1:0:0:
264,157,247534,1,0,3:0:0:0:
290,186,247610,1,0,3:0:0:0:
317,213,247686,5,10,1:2:0:0:
275,223,247761,1,0,3:0:0:0:
232,232,247837,1,0,3:0:0:0:
189,242,247913,37,2,1:1:0:0:
204,196,247988,1,0,3:0:0:0:
219,147,248064,1,0,3:0:0:0:
233,98,248141,5,10,1:2:0:0:
271,138,248216,1,0,3:0:0:0:
308,179,248292,1,0,3:0:0:0:
348,219,248369,37,2,1:1:0:0:
290,232,248444,1,0,3:0:0:0:
230,245,248520,1,0,3:0:0:0:
172,261,248595,5,10,1:2:0:0:
191,199,248670,1,0,3:0:0:0:
209,136,248746,1,0,3:0:0:0:
229,71,248822,37,2,1:1:0:0:
278,123,248897,1,0,3:0:0:0:
324,176,248973,1,0,3:0:0:0:
377,227,249050,5,14,1:2:0:0:
303,243,249125,1,0,3:0:0:0:
228,261,249201,1,0,3:0:0:0:
154,280,249277,6,0,L|26:271,1,119.999996337891,2|2,3:1|2:2,0:0:0:0:
229,71,249504,1,10,0:2:0:0:
303,340,249618,1,10,0:2:0:0:
160,164,249731,5,10,0:0:0:0:
377,227,249845,1,10,0:0:0:0:
160,295,249959,1,8,0:0:0:0:
295,114,250072,1,10,0:0:0:0:
33,188,250186,38,2,L|276:227,1,230.000004386902,6|8,0:0|0:0,0:0:0:0:
462,319,250527,1,0,2:0:0:0:
259,339,250641,2,0,B|254:283|254:283|282:224,1,115.000002193451,2|0,0:2|0:0,0:0:0:0:
478,96,250868,2,0,B|428:135|428:135|297:114,1,172.500003290176,8|0,0:0|2:0,0:0:0:0:
273,19,251095,6,0,L|294:144,1,115.000002193451,2|0,0:2|2:0,0:0:0:0:
173,279,251322,1,8,0:0:0:0:
429,352,251436,2,0,L|402:218,1,115.000002193451,2|0,0:2|2:0,0:0:0:0:
145,88,251663,2,0,L|126:212,1,115.000002193451,2|8,0:2|0:0,0:0:0:0:
327,317,251891,1,2,0:2:0:0:
443,101,252004,38,0,B|367:106|367:106|311:157|311:157|234:163,1,230.000004386902,2|8,0:2|0:0,0:0:0:0:
39,134,252345,1,0,2:2:0:0:
106,314,252459,2,0,P|114:252|127:200,1,115.000002193451,2|0,0:2|0:0,0:0:0:0:
254,22,252686,2,0,P|282:167|295:205,1,172.500003290176,8|0,0:0|2:2,0:0:0:0:
429,243,252913,6,0,P|375:216|307:192,1,115.000002193451,2|0,0:2|2:0,0:0:0:0:
35,248,253141,1,8,0:0:0:0:
276,350,253254,2,0,P|240:304|196:268,1,115.000002193451,2|0,0:2|2:0,0:0:0:0:
382,95,253481,2,0,P|361:148|352:205,1,115.000002193451,2|8,0:2|0:0,0:0:0:0:
109,130,253709,2,0,P|165:122|219:101,1,115.000002193451,2|4,0:2|0:0,0:0:0:0:
2,90,253936,37,0,2:2:0:0:
190,222,254050,2,0,B|221:253|237:289|237:289|306:253|383:249,1,230.000004386902,8|0,0:0|0:0,0:0:0:0:
483,305,254391,1,0,0:0:0:0:
295,169,254504,1,10,0:2:0:0:
501,57,254618,1,2,0:2:0:0:
378,249,254731,6,0,P|288:278|212:250,1,172.500003290176,2|0,0:2|2:0,0:0:0:0:
175,173,254959,1,8,0:0:0:0:
327,21,255072,2,0,P|305:86|290:155,1,115.000002193451,2|0,0:2|2:0,0:0:0:0:
159,360,255300,2,0,P|135:284|109:231,1,115.000002193451,2|8,0:2|0:0,0:0:0:0:
221,47,255527,38,0,B|298:88|398:75|398:75|348:53,1,230.000004386902,2|0,0:2|2:2,0:0:0:0:
123,106,255868,2,0,P|67:122|9:158,1,115.000002193451,8|0,0:0|2:2,0:0:0:0:
234,277,256095,1,2,0:2:0:0:
221,47,256209,1,2,0:2:0:0:
120,252,256322,1,8,0:0:0:0:
328,350,256436,6,0,B|356:285|356:285|313:113,1,230.000004386902,2|0,0:2|2:2,0:0:0:0:
234,277,256777,1,8,0:0:0:0:
442,189,256891,2,0,B|483:9|483:9|432:44,1,230.000004386902
232,172,257231,1,10,0:0:0:0:
444,286,257345,1,2,2:1:0:0:
291,48,257459,38,2,B|233:30|175:45|175:45|135:85|71:90,2,230.000004386902,6|8|0,0:0|0:0|0:0,0:0:0:0:
374,191,258027,1,0,0:0:0:0:
228,139,258141,1,10,0:0:0:0:
435,98,258254,1,2,2:1:0:0:
231,243,258368,6,2,P|153:234|56:198,1,172.500003290176,2|0,0:0|2:0,0:0:0:0:
2,148,258595,1,8,0:0:0:0:
193,341,258709,2,2,L|312:316,1,115.000002193451,2|0,0:0|2:0,0:0:0:0:
228,139,258936,2,2,L|347:114,1,115.000002193451,2|8,0:0|0:0,0:0:0:0:
512,254,259163,38,2,P|365:269|353:190,1,230.000004386902,2|0,0:0|2:0,0:0:0:0:
488,35,259504,2,0,P|505:99|504:151,1,115.000002193451,8|0,0:0|2:2,0:0:0:0:
300,127,259731,1,0,0:0:0:0:
407,101,259845,1,0,0:0:0:0:
244,217,259959,1,10,0:0:0:0:
309,22,260072,1,2,0:0:0:0:
327,288,260186,6,2,P|272:303|212:329,1,115.000002193451,6|0,3:1|3:0,3:1:0:0:
94,100,260413,1,8,0:0:0:0:
3,307,260527,2,2,P|58:292|128:261,1,129.999994049073,6|0,3:1|3:0,3:1:0:0:
392,375,260754,1,0,3:0:0:0:
406,83,260868,2,2,P|351:98|270:137,1,145.000004425049,14|0,1:0|3:0,3:1:0:0:
259,358,261095,38,2,B|270:302|270:302|241:233,1,115.000002193451,6|0,0:0|3:0,0:0:0:0:
21,97,261322,2,0,L|141:117,1,115.000002193451,8|0,0:0|3:0,0:0:0:0:
357,154,261550,1,0,3:0:0:0:
357,154,261663,1,0,3:0:0:0:
248,109,261777,2,0,L|264:232,1,115.000002193451,8|0,0:0|3:0,0:0:0:0:
470,118,262004,6,0,L|485:4,1,115.000002193451,0|0,3:0|3:0,3:0:0:0:
404,259,262231,2,0,P|464:278|515:303,1,115.000002193451,8|0,0:0|3:0,0:0:0:0:
304,325,262459,1,2,3:1:0:0:
364,110,262572,1,2,3:1:0:0:
416,381,262686,1,8,0:0:0:0:
160,316,262800,38,2,P|180:215|287:245,1,230.000004386902,6|0,0:0|3:0,0:0:0:0:
320,6,263141,2,0,P|352:55|364:110,1,115.000002193451,8|0,0:0|3:0,0:0:0:0:
71,155,263368,2,0,P|124:106|178:85,1,115.000002193451,0|0,3:0|3:0,3:0:0:0:
281,235,263595,1,8,0:0:0:0:
170,196,263709,1,0,3:0:0:0:
263,82,263822,5,8,3:0:0:0:
307,224,263936,1,8,3:0:0:0:
214,340,264050,1,2,3:1:0:0:
248,163,264163,1,0,3:0:0:0:
248,163,264220,1,0,3:0:0:0:
248,163,264277,37,8,3:0:0:0:
311,364,264391,1,10,3:1:0:0:
89,375,264504,1,8,3:0:0:0:
287,257,264618,1,2,3:1:0:0:
79,140,264731,6,2,L|65:262,1,119.999996337891,6|0,3:1|3:0,0:0:0:0:
202,65,264959,2,0,P|275:68|349:145,1,179.999994506836,8|0,0:0|2:0,0:0:0:0:
338,243,265186,2,2,P|280:248|212:274,1,119.999996337891,2|0,3:1|3:0,0:0:0:0:
431,204,265413,2,0,P|456:270|485:321,1,119.999996337891,8|0,0:0|3:0,0:0:0:0:
478,75,265641,38,2,L|354:104,1,119.999996337891,2|0,3:1|3:0,0:0:0:0:
128,147,265868,1,8,0:0:0:0:
301,1,265981,2,2,P|273:62|238:107,1,119.999996337891,2|0,3:1|3:0,0:0:0:0:
122,272,266209,2,2,P|62:229|2:208,1,119.999996337891,2|8,3:1|0:0,0:0:0:0:
238,220,266436,1,2,3:1:0:0:
323,372,266550,6,0,P|417:363|451:226,1,239.999992675781,4|8,3:2|0:0,0:0:0:0:
250,312,266891,1,0,3:0:0:0:
128,147,267004,2,2,P|116:77|131:22,1,119.999996337891,2|0,3:1|3:0,1:1:0:0:
403,150,267231,2,0,P|333:154|218:191,1,179.999994506836,0|0,0:0|2:0,0:0:0:0:
183,292,267459,38,2,B|221:247|221:247|228:181,1,119.999996337891,2|0,3:1|3:0,0:0:0:0:
45,17,267686,1,8,0:0:0:0:
5,249,267800,2,2,P|59:223|123:202,1,119.999996337891,2|0,3:1|3:0,0:0:0:0:
421,325,268027,2,2,P|361:299|290:284,1,119.999996337891,2|8,3:1|0:0,0:0:0:0:
138,63,268254,6,2,B|224:86|283:40|283:40|333:50|374:73,1,239.999992675781,6|0,3:1|3:0,0:0:0:0:
204,352,268595,2,2,P|188:282|198:225,1,119.999996337891,10|0,0:0|3:0,0:0:0:0:
298,164,268822,1,0,3:0:0:0:
308,286,268936,1,0,3:0:0:0:
146,125,269050,1,10,0:0:0:0:
365,68,269163,1,2,3:1:0:0:
395,303,269277,38,2,P|320:288|183:278,1,179.999994506836,2|0,3:1|2:0,0:0:0:0:
129,287,269504,1,8,0:0:0:0:
403,196,269618,2,2,P|451:140|479:88,1,119.999996337891,2|0,3:1|3:0,3:1:0:0:
185,70,269845,2,2,P|208:125|243:174,1,119.999996337891,2|8,3:1|0:0,3:1:0:0:
60,360,270072,6,2,P|31:254|132:189,1,239.999992675781,4|0,3:2|3:0,0:0:0:0:
319,313,270413,2,0,L|199:294,1,119.999996337891,8|0,0:0|3:0,0:0:0:0:
57,82,270641,1,2,3:1:0:0:
275,205,270754,1,0,3:0:0:0:
445,18,270868,1,10,0:0:0:0:
191,109,270981,38,2,B|123:148|106:235|106:235|81:199|40:184,1,239.999992675781,6|0,3:1|3:0,0:0:0:0:
113,350,271322,1,8,0:0:0:0:
245,227,271436,1,8,0:0:0:0:
172,62,271550,1,8,0:0:0:0:
145,246,271663,1,8,0:0:0:0:
341,211,271777,1,2,3:1:0:0:
127,152,271891,1,2,3:1:0:0:
289,303,272004,6,2,B|350:313|350:313|411:289,1,119.999996337891,6|0,3:1|3:0,0:0:0:0:
367,60,272231,2,0,L|343:192,1,119.999996337891,8|0,0:0|3:0,0:0:0:0:
221,384,272459,2,0,P|208:317|186:255,1,119.999996337891,0|0,3:0|3:0,3:0:0:0:
127,152,272686,1,8,0:0:0:0:
346,179,272800,1,2,3:1:0:0:
271,3,272913,38,2,P|256:72|251:134,1,119.999996337891,2|0,3:1|3:0,0:0:0:0:
394,270,273141,1,8,0:0:0:0:
137,262,273254,2,2,P|220:237|273:228,1,119.999996337891,2|0,3:1|3:0,0:0:0:0:
464,359,273481,1,10,0:0:0:0:
271,231,273595,1,8,0:0:0:0:
487,161,273709,1,10,0:0:0:0:
285,336,273822,5,8,3:0:0:0:
229,329,273898,1,0,3:0:0:0:
185,293,273974,1,0,3:0:0:0:
167,239,274050,1,8,3:0:0:0:
175,184,274125,1,0,3:0:0:0:
212,142,274201,1,0,3:0:0:0:
214,85,274277,1,8,3:0:0:0:
176,43,274353,1,0,3:0:0:0:
120,37,274428,1,0,3:0:0:0:
74,70,274504,37,10,3:1:0:0:
140,114,274580,1,8,3:0:0:0:
220,114,274656,1,8,3:0:0:0:
294,86,274731,6,2,B|328:60|343:23|343:23|355:107|409:169,1,239.999992675781,6|0,0:0|3:0,0:0:0:0:
153,376,275072,2,2,P|127:316|87:252,1,135.000000514984,14|0,0:0|3:0,0:0:0:0:
176,43,275300,1,0,3:0:0:0:
363,314,275413,2,2,P|440:355|509:375,1,150.000005722046,14|0,0:0|3:0,0:0:0:0:
204,139,275641,38,2,P|91:123|1:207,1,239.999992675781,6|8,0:0|0:0,0:0:0:0:
236,266,275981,1,0,3:0:0:0:
357,156,276095,2,0,P|351:100|325:39,1,119.999996337891,0|0,3:0|3:0,3:0:0:0:
125,236,276322,2,0,P|135:324|206:373,1,179.999994506836,8|0,0:0|2:0,0:0:0:0:
333,367,276550,6,0,P|249:347|194:344,1,119.999996337891,0|0,3:0|3:0,3:0:0:0:
87,113,276777,2,0,P|171:133|226:136,1,119.999996337891,8|0,0:0|3:0,3:0:0:0:
374,85,277004,1,2,3:1:0:0:
125,236,277118,1,0,3:0:0:0:
246,26,277231,1,8,0:0:0:0:
283,315,277345,1,6,0:1:0:0:
204,135,277459,38,0,P|146:118|87:113,1,119.999996337891,2|0,3:2|3:0,3:0:0:0:
267,216,277686,1,8,0:0:0:0:
374,85,277800,2,0,P|432:67|491:62,1,119.999996337891,2|0,3:2|3:0,3:0:0:0:
267,216,278027,1,0,3:0:0:0:
160,32,278141,2,0,P|101:14|42:9,1,119.999996337891,12|0,0:2|3:0,3:0:0:0:
125,229,278368,5,8,0:0:0:0:
185,50,278481,1,8,0:0:0:0:
6,99,278595,1,8,3:0:0:0:
217,158,278709,1,0,3:0:0:0:
135,324,278822,37,8,3:0:0:0:
94,185,278936,1,0,3:0:0:0:
187,74,279050,1,8,3:0:0:0:
329,88,279163,1,0,3:0:0:0:
400,212,279277,22,0,B|330:202|330:202|266:234|266:234|188:223,1,220.000006713867,4|0,0:0|0:0,0:0:0:0:
223,343,279580,1,0,0:0:0:0:
293,358,279655,1,8,0:0:0:0:
360,329,279731,2,0,P|343:276|331:187,1,110.000003356934,8|0,0:0|0:0,0:0:0:0:
152,10,279958,2,0,P|145:66|133:118,1,110.000003356934
329,88,280186,6,0,P|440:86|480:190,1,220.000006713867,4|0,0:3|2:0,0:0:0:0:
206,184,280526,2,0,P|126:153|66:214,1,179.999994506836,8|0,0:3|2:0,0:0:0:0:
329,283,280867,2,0,P|395:271|442:320,1,139.999995727539,8|0,0:3|0:0,0:0:0:0:
300,370,281171,37,0,0:0:0:0:
259,347,281247,1,8,0:0:0:0:
235,305,281322,2,0,L|245:232,1,69.9999978637696,8|0,0:0|0:0,0:0:0:0:
377,205,281549,2,0,L|363:127,1,69.9999978637696
161,147,281777,2,0,L|173:59,1,69.9999978637696
300,27,282004,5,8,3:0:0:0:
172,56,282117,1,2,0:2:0:0:
304,67,282231,1,0,0:0:0:0:
432,36,282344,1,2,0:2:0:0:
268,49,282458,37,2,0:2:0:0:
199,198,282572,1,8,0:0:0:0:
35,212,282686,1,8,0:0:0:0:
106,65,282799,1,10,0:2:0:0:
268,49,282913,6,0,P|371:120|375:210,1,220.000006713867,4|0,0:0|0:0,0:0:0:0:
204,361,283254,1,8,0:0:0:0:
154,162,283368,2,0,P|213:172|274:170,1,110.000003356934,8|0,0:0|0:0,0:0:0:0:
460,309,283595,2,0,P|408:326|345:338,1,110.000003356934,0|8,0:0|0:0,0:0:0:0:
37,300,283822,38,0,B|91:313|140:280|140:280|191:248|249:269,1,220.000006713867,4|0,3:0|2:0,0:0:0:0:
155,34,284163,2,0,B|167:77|210:97|210:97|253:120|262:169,1,179.999994506836,8|0,3:0|2:0,0:0:0:0:
396,110,284504,2,0,B|371:135|374:172|374:172|375:210|346:235,1,139.999995727539,8|8,3:0|0:0,0:0:0:0:
346,235,284959,5,8,0:0:0:0:
217,181,285072,1,8,0:0:0:0:
87,127,285186,1,8,0:0:0:0:
87,127,285413,37,8,0:0:0:0:
257,86,285527,1,8,0:0:0:0:
427,45,285641,1,2,0:2:0:0:
467,82,285716,1,0,0:0:0:0:
461,137,285792,1,0,0:0:0:0:
412,164,285868,1,0,0:0:0:0:
396,217,285944,1,0,0:0:0:0:
421,266,286019,1,0,0:0:0:0:
473,285,286095,5,8,0:3:0:0:
470,211,286171,1,8,0:3:0:0:
412,164,286247,1,8,0:3:0:0:
338,171,286322,1,8,0:3:0:0:
295,232,286398,1,8,0:3:0:0:
220,223,286474,1,8,0:3:0:0:
179,158,286550,38,2,P|250:249|200:328,1,220.000006713867,6|8,0:0|0:0,0:0:0:0:
60,156,286891,1,0,0:0:0:0:
248,42,287004,2,0,P|227:98|190:156,1,110.000003356934,8|0,0:0|0:0,0:0:0:0:
16,305,287232,2,0,P|65:279|121:260,1,110.000003356934
423,336,287459,6,2,B|392:264|312:231|312:231|306:265|320:294,1,220.000006713867,4|0,3:0|2:0,0:0:0:0:
446,205,287800,2,2,B|442:137|387:87|387:87|371:112|374:140,1,179.999994506836,8|0,3:0|2:0,0:0:0:0:
510,77,288141,2,2,P|503:42|490:8,1,69.9999978637696,8|0,3:0|2:0,0:0:0:0:
296,31,288368,37,0,0:0:0:0:
276,83,288444,1,0,0:0:0:0:
273,139,288520,1,0,0:0:0:0:
290,192,288596,1,8,0:0:0:0:
320,238,288671,1,0,0:0:0:0:
368,266,288747,1,0,0:0:0:0:
424,266,288823,5,8,3:0:0:0:
396,196,288899,1,0,3:0:0:0:
329,163,288974,1,0,3:0:0:0:
255,177,289050,1,8,3:0:0:0:
208,235,289126,1,8,3:0:0:0:
211,309,289202,1,8,3:0:0:0:
263,363,289277,38,2,L|45:330,1,220.000006713867,4|0,3:0|2:0,0:0:0:0:
304,283,289618,2,2,B|136:200,1,179.999994506836,8|0,3:0|2:0,0:0:0:0:
370,216,289959,2,2,B|258:119,1,139.999995727539,8|0,3:0|2:0,0:0:0:0:
264,124,290422,6,0,P|302:117|341:104,1,69.9999978637696,8|0,0:0|2:0,0:0:0:0:
124,207,290658,38,0,P|85:201|44:187,1,80,10|0,0:2|2:0,0:0:0:0:
110,101,290894,2,0,P|74:82|41:53,1,80,8|0,0:0|2:0,0:0:0:0:
373,274,291130,6,0,P|414:266|467:241,1,89.9999972534181,10|0,0:2|2:0,0:0:0:0:
387,160,291367,2,0,P|417:147|440:132,2,59.9999981689454,8|0|0,0:0|2:0|2:0,0:0:0:0:
200,139,291603,38,0,P|170:148|131:170,2,66.6666666666667,10|0|0,0:2|2:0|2:0,0:0:0:0:
211,259,291839,1,10,0:2:0:0:
142,284,291918,1,0,2:0:0:0:
71,263,291997,1,2,2:0:0:0:
30,201,292075,6,2,B|57:108|49:30|49:30|64:47|86:59,1,220.000006713867,6|8,0:0|0:0,0:0:0:0:
312,126,292430,1,0,0:0:0:0:
175,3,292548,1,8,0:0:0:0:
240,199,292666,1,8,0:3:0:0:
390,48,292784,1,8,0:3:0:0:
208,102,292902,38,2,L|231:323,1,220.000006713867,6|0,0:0|2:0,0:0:0:0:
369,374,293256,1,8,0:0:0:0:
209,312,293374,1,8,0:0:0:0:
368,228,293493,5,8,0:0:0:0:
134,152,293611,1,8,0:0:0:0:
313,302,293729,1,8,0:0:0:0:
255,70,293847,1,8,0:0:0:0:
72,232,293965,37,4,0:0:0:0:
256,192,294083,1,8,0:0:0:0:
440,152,294201,1,4,3:2:0:0:
256,192,294260,12,4,301524,0:3:0:0:
