osu file format v14

[General]
AudioFilename: audio.mp3
AudioLeadIn: 0
PreviewTime: 88670
Countdown: 0
SampleSet: Soft
StackLeniency: 0.2
Mode: 2
LetterboxInBreaks: 0
WidescreenStoryboard: 1

[Editor]
DistanceSpacing: 1
BeatDivisor: 4
GridSize: 8
TimelineZoom: 3.099999

[Metadata]
Title:GENS D'ARMES
TitleUnicode:GENS D'ARMES
Artist:Falcom Sound Team jdk
ArtistUnicode:Falcom Sound Team jdk
Creator:Emiru
Version:CRIMSON KING & WANDERING MAIDEN
Source:イースVIII -Lacrimosa of DANA-
Tags:J.D.K. Ys VIII 8 Lacrimosa DANA Super Ultimate arpg video game instrumental Masaru Teramae 寺前 甲 Tokunan Demetori Takahiro Unisuga 宇仁菅 孝宏 Yukihiro Jindo 神藤 由東大 jonathanlfj
BeatmapID:2835002
BeatmapSetID:1371169

[Difficulty]
HPDrainRate:5
CircleSize:4.2
OverallDifficulty:9.7
ApproachRate:9.7
SliderMultiplier:1.6
SliderTickRate:2

[Events]
//Background and Video events
0,0,"bg.jpg",0,0
//Break Periods
//Storyboard Layer 0 (Background)
//Storyboard Layer 1 (Fail)
//Storyboard Layer 2 (Pass)
//Storyboard Layer 3 (Foreground)
//Storyboard Layer 4 (Overlay)
//Storyboard Sound Samples

[TimingPoints]
345,227.272727272727,4,2,1,5,1,0
345,-125,4,2,1,5,0,0
572,-100,4,2,1,10,0,0
799,-100,4,2,1,15,0,0
1026,-100,4,2,1,20,0,0
1254,-100,4,2,1,25,0,0
1367,-100,4,2,1,30,0,0
1481,-100,4,2,1,35,0,0
1594,-100,4,2,1,40,0,0
1708,-100,4,2,1,30,0,0
1822,-100,4,2,1,35,0,0
1935,-100,4,2,1,40,0,0
2049,-100,4,2,1,45,0,0
2163,-100,4,1,1,60,0,0
2390,-83.3333333333333,4,1,1,60,0,0
3413,-83.3333333333333,4,1,1,60,0,0
3754,-83.3333333333333,4,1,1,60,0,0
5800,-83.3333333333333,4,1,1,60,0,0
7050,-83.3333333333333,4,1,1,60,0,0
7391,-83.3333333333333,4,1,1,60,0,0
9436,-83.3333333333333,4,1,1,60,0,0
10686,-83.3333333333333,4,1,1,60,0,0
11027,-83.3333333333333,4,1,1,60,0,0
12163,-83.3333333333333,4,1,1,60,0,0
12504,-83.3333333333333,4,1,1,60,0,0
12845,-83.3333333333334,4,1,1,60,0,0
13073,236.220472440945,4,1,1,40,1,0
13073,-83.3333333333334,4,1,1,40,0,0
13545,-83.3333333333333,4,1,1,45,0,0
14017,-83.3333333333333,4,1,1,50,0,0
14490,-83.3333333333333,4,1,1,55,0,0
14962,-83.3333333333333,4,1,1,60,0,0
16852,227.272727272727,4,1,1,50,1,0
16852,-83.3333333333333,4,1,1,50,0,0
30374,-83.3333333333333,4,1,1,50,0,0
30829,-83.3333333333333,4,1,1,55,0,0
31170,-83.3333333333333,4,1,1,60,0,0
31397,-83.3333333333333,4,1,1,50,0,0
45033,-83.3333333333333,4,1,1,55,0,0
45374,-83.3333333333333,4,1,1,60,0,0
45715,-83.3333333333333,4,1,1,65,0,0
45942,-83.3333333333333,4,1,1,70,0,1
45999,-83.3333333333333,4,1,1,70,0,0
60488,-83.3333333333333,4,1,1,55,0,0
74465,-83.3333333333333,4,1,1,60,0,0
74806,-83.3333333333333,4,1,1,65,0,0
75033,-83.3333333333333,4,1,1,55,0,0
88670,-100,4,1,1,60,0,0
89124,-100,4,1,1,65,0,0
89579,-83.3333333333333,4,1,1,70,0,1
89636,-83.3333333333333,4,1,1,70,0,0
106851,-83.3333333333333,4,1,1,70,0,0
120601,-83.3333333333333,4,1,1,75,0,1
121397,-83.3333333333333,4,1,1,70,0,0
131397,-83.3333333333333,4,1,1,75,0,1
131738,-83.3333333333333,4,1,1,75,0,1
132079,-83.3333333333333,4,1,1,75,0,1
132306,-83.3333333333333,4,1,1,70,0,0
135942,-83.3333333333333,4,1,1,65,0,0
137191,-83.3333333333333,4,1,1,65,0,0
137532,-83.3333333333333,4,1,1,65,0,0
138670,-83.3333333333333,4,1,1,65,0,0
139011,-83.3333333333333,4,1,1,65,0,0
139352,-83.3333333333333,4,1,1,65,0,0
141397,-83.3333333333333,4,1,1,65,0,0
143215,-83.3333333333333,4,1,1,70,0,1
146170,-100,4,1,1,70,0,1
146511,-83.3333333333333,4,1,1,70,0,1
146851,-83.3333333333333,4,1,1,70,0,1
148670,-90.9090909090909,4,1,1,70,0,1
149124,-83.3333333333333,4,1,1,70,0,1
149806,-100,4,1,1,70,0,1
150261,-83.3333333333333,4,1,1,70,0,1
153442,-100,4,1,1,70,0,1
153897,-83.3333333333333,4,1,1,70,0,1
154124,-83.3333333333333,4,1,1,60,0,1
155942,-83.3333333333333,4,1,1,65,0,1
156851,-83.3333333333333,4,1,1,70,0,1
160715,-100,4,1,1,70,0,1
161170,-83.3333333333333,4,1,1,70,0,1
163670,-83.3333333333333,4,1,1,65,0,1
164124,-83.3333333333333,4,1,1,60,0,1
164579,-83.3333333333333,4,1,1,55,0,1
165033,-100,4,1,1,50,0,1
165488,-83.3333333333333,4,1,1,55,0,1
165942,-71.4285714285714,4,1,1,60,0,1
166397,-62.5,4,1,1,65,0,1
166851,-100,4,1,1,70,0,1
167988,-100,4,1,1,70,0,1
168442,-83.3333333333333,4,1,1,70,0,1
172306,-83.3333333333333,4,3,1,55,0,0
179579,-83.3333333333333,4,3,1,70,0,1
185033,-83.3333333333333,4,3,1,70,0,1
186851,-83.3333333333333,4,3,1,70,0,1
188670,236.220472440945,4,2,1,40,1,0
188670,-125,4,2,1,40,0,0
189496,-125,4,2,1,5,0,0
189614,-125,4,2,1,40,0,0
190441,-125,4,2,1,5,0,0
190559,-125,4,2,1,40,0,0
191386,-125,4,2,1,5,0,0
191504,-125,4,2,1,40,0,0
191858,-125,4,2,1,5,0,0
191977,-125,4,2,1,40,0,0
192331,-200,4,2,1,5,0,0
192449,-125,4,2,1,40,0,0
193276,-200,4,2,1,5,0,0
193394,-125,4,2,1,40,0,0
194221,-200,4,2,1,5,0,0
194339,-125,4,2,1,40,0,0
195166,-100,4,2,1,5,0,0
195284,-100,4,2,1,50,0,0
201898,-83.3333333333333,4,2,1,50,0,0
202843,-125,4,2,1,50,0,0
204732,227.272727272727,4,1,1,55,1,0
205641,-100,4,1,1,60,0,0
206095,-100,4,1,1,65,0,0
206550,-83.3333333333333,4,1,1,70,0,1
206607,-83.3333333333333,4,1,1,70,0,0
216550,-83.3333333333333,4,1,1,75,0,1
216891,-83.3333333333333,4,1,1,75,0,1
217232,-83.3333333333333,4,1,1,75,0,1
217459,-83.3333333333333,4,1,1,70,0,0
220300,-83.3333333333333,4,1,1,80,0,1
221095,-83.3333333333333,4,1,1,70,0,0
231095,-83.3333333333333,4,1,1,75,0,1
231436,-83.3333333333333,4,1,1,75,0,1
231777,-83.3333333333333,4,1,1,75,0,1
232004,-83.3333333333333,4,1,1,70,0,0
249277,-83.3333333333333,4,1,1,75,0,0
249391,-83.3333333333333,4,1,1,75,0,1
250186,-83.3333333333333,4,1,1,70,0,1
260186,-83.3333333333333,4,1,1,75,0,1
260527,-83.3333333333333,4,1,1,75,0,1
260868,-83.3333333333333,4,1,1,75,0,1
261095,-83.3333333333333,4,1,1,70,0,1
264731,-83.3333333333333,4,1,1,70,0,1
274731,-83.3333333333333,4,1,1,75,0,1
275072,-83.3333333333333,4,1,1,75,0,1
275413,-83.3333333333333,4,1,1,75,0,1
275640,-83.3333333333333,4,1,1,70,0,1
279277,-83.3333333333333,4,1,1,60,0,0
280526,-83.3333333333333,4,1,1,60,0,0
280867,-83.3333333333333,4,1,1,60,0,0
282913,-83.3333333333333,4,1,1,60,0,0
284163,-83.3333333333333,4,1,1,60,0,0
284504,-83.3333333333333,4,1,1,60,0,0
286549,-83.3333333333333,4,1,1,60,0,0
287799,-83.3333333333333,4,1,1,60,0,0
288140,-83.3333333333333,4,1,1,60,0,0
289276,-83.3333333333333,4,1,1,60,0,0
289617,-83.3333333333333,4,1,1,60,0,0
289958,-83.3333333333333,4,1,1,60,0,0
290186,236.220472440945,4,1,1,40,1,0
290186,-83.3333333333333,4,1,1,40,0,0
290658,-83.3333333333333,4,1,1,45,0,0
291130,-83.3333333333333,4,1,1,50,0,0
291603,-83.3333333333333,4,1,1,55,0,0
292075,-83.3333333333333,4,1,1,60,0,0
294319,-100,4,1,1,30,0,0
299634,-125,4,1,1,30,0,0

[Colours]
Combo1 : 255,145,148
Combo2 : 0,168,249
Combo3 : 5,73,254
Combo4 : 225,0,5

[HitObjects]
72,48,345,6,0,P|296:64|64:320,1,768,0|0,0:0|0:0,0:0:0:0:
24,280,1737,5,0,0:0:0:0:
56,280,1765,1,0,0:0:0:0:
16,256,1793,1,0,0:0:0:0:
64,256,1822,1,0,0:0:0:0:
24,232,1850,1,0,0:0:0:0:
56,232,1878,1,0,0:0:0:0:
16,208,1906,1,0,0:0:0:0:
64,208,1935,1,0,0:0:0:0:
24,184,1964,1,0,0:0:0:0:
56,184,1992,1,0,0:0:0:0:
16,160,2020,1,0,0:0:0:0:
64,160,2049,1,0,0:0:0:0:
24,136,2077,1,0,0:0:0:0:
56,136,2105,1,0,0:0:0:0:
320,80,2163,6,0,P|368:136|296:184,1,160,4|0,0:0|0:0,0:0:0:0:
266,193,2467,1,0,0:0:0:0:
216,192,2542,1,8,0:0:0:0:
384,248,2617,2,0,L|480:248,1,95.9999970703126,8|0,0:0|0:0,0:0:0:0:
384,280,2844,2,0,L|288:280,1,95.9999970703126,0|0,0:0|0:0,0:0:0:0:
96,48,3072,6,0,P|40:72|112:152,1,191.999994140625,4|0,0:3|2:0,0:0:0:0:
352,32,3413,2,0,L|144:32,1,191.999994140625,8|0,0:3|2:0,0:0:0:0:
416,48,3754,6,0,P|480:104|392:160,1,191.999994140625,8|0,0:3|0:0,0:0:0:0:
365,168,4058,1,0,0:0:0:0:
312,168,4133,1,8,0:0:0:0:
112,88,4208,2,0,L|8:88,1,95.9999970703126,8|0,0:0|0:0,0:0:0:0:
112,144,4435,2,0,L|216:144,1,95.9999970703126,0|0,0:0|0:0,0:0:0:0:
416,80,4663,2,0,L|304:80,1,95.9999970703126,0|0,0:0|0:0,0:0:0:0:
144,232,4890,6,0,L|16:232,1,95.9999970703126,8|2,3:0|0:2,0:0:0:0:
256,192,5117,2,0,L|160:192,1,95.9999970703126,0|2,0:0|0:2,0:0:0:0:
368,232,5344,2,0,L|496:232,1,95.9999970703126,2|8,0:2|0:0,0:0:0:0:
256,192,5571,2,0,L|352:192,1,95.9999970703126,0|10,0:0|0:2,0:0:0:0:
112,336,5799,6,0,P|48:288|136:240,1,191.999994140625,4|0,0:0|0:0,0:0:0:0:
216,224,6141,1,8,0:0:0:0:
416,56,6254,2,0,L|312:56,1,95.9999970703126,8|0,0:0|0:0,0:0:0:0:
416,120,6481,2,0,L|512:120,1,95.9999970703126,0|8,0:0|0:0,0:0:0:0:
304,120,6708,6,0,B|208:120|208:120|312:120,1,191.999994140625,4|0,3:0|2:0,0:0:0:0:
104,120,7049,2,0,P|48:144|128:216,1,191.999994140625,8|0,3:0|2:0,0:0:0:0:
360,192,7390,2,0,P|440:224|344:352,1,287.999991210938,8|0,3:0|2:0,0:0:0:0:
128,184,7844,5,0,0:0:0:0:
67,194,7919,1,0,0:0:0:0:
27,242,7995,1,0,0:0:0:0:
30,305,8071,1,0,0:0:0:0:
73,350,8147,1,0,0:0:0:0:
136,355,8222,1,0,0:0:0:0:
352,88,8299,2,0,L|232:88,1,95.9999970703126
448,144,8526,6,0,L|352:144,1,95.9999970703126,8|0,3:0|3:0,0:0:0:0:
160,192,8754,1,2,3:2:0:0:
352,192,8867,1,2,3:2:0:0:
72,72,8981,2,0,L|400:72,1,287.999991210938,12|0,0:2|2:0,0:0:0:0:
152,160,9435,6,0,P|88:216|176:264,1,191.999994140625,6|0,0:0|0:0,0:0:0:0:
204,272,9739,1,0,0:0:0:0:
256,272,9814,1,8,0:0:0:0:
408,192,9890,2,0,L|296:192,1,95.9999970703126,8|0,0:0|0:0,0:0:0:0:
72,192,10117,2,0,L|184:192,1,95.9999970703126,0|0,0:0|0:0,0:0:0:0:
376,96,10344,6,0,B|472:96|472:96|360:96,1,191.999994140625,4|0,3:0|2:0,0:0:0:0:
160,32,10685,2,0,L|376:32,1,191.999994140625,8|0,3:0|2:0,0:0:0:0:
160,112,11026,2,0,L|48:112,1,95.9999970703126,8|0,3:0|2:0,0:0:0:0:
328,280,11254,5,8,0:0:0:0:
391,275,11329,1,0,0:0:0:0:
439,233,11405,1,0,0:0:0:0:
452,172,11481,1,8,0:0:0:0:
426,114,11557,1,0,0:0:0:0:
372,83,11632,1,0,0:0:0:0:
184,280,11708,1,8,3:0:0:0:
122,275,11783,1,0,0:0:0:0:
74,233,11859,1,0,3:0:0:0:
61,172,11935,1,8,3:0:0:0:
87,114,12011,1,8,3:0:0:0:
141,83,12086,1,0,0:0:0:0:
384,336,12163,6,0,P|448:304|368:240,1,191.999994140625,4|0,3:0|2:0,0:0:0:0:
160,160,12504,2,0,L|376:160,1,191.999994140625,8|0,3:0|2:0,0:0:0:0:
128,320,12844,2,0,P|64:264|144:224,1,191.999994140625,8|0,3:0|0:0,0:0:0:0:
224,224,13191,1,0,0:0:0:0:
424,128,13309,2,0,L|328:128,1,95.9999970703126,8|0,0:0|2:0,0:0:0:0:
48,40,13545,6,0,L|184:40,1,95.9999970703126,10|0,0:2|2:0,0:0:0:0:
352,192,13781,2,0,L|232:192,1,95.9999970703126,8|0,0:0|2:0,0:0:0:0:
464,40,14017,2,0,L|328:40,1,95.9999970703126,10|0,0:2|2:0,0:0:0:0:
160,192,14253,2,0,L|280:192,1,95.9999970703126,8|0,0:0|2:0,0:0:0:0:
464,128,14490,2,0,L|368:128,1,95.9999970703126,10|0,0:2|2:0,0:0:0:0:
184,128,14726,1,8,0:0:0:0:
368,104,14844,1,2,2:0:0:0:
184,64,14962,6,0,P|120:80|56:200,1,191.999994140625,6|8,0:0|0:0,0:0:0:0:
256,192,15317,2,0,L|352:192,1,95.9999970703126,0|8,0:0|0:0,0:0:0:0:
256,240,15553,2,0,L|136:240,1,95.9999970703126,8|8,0:3|0:3,0:0:0:0:
384,240,15789,6,0,P|440:192|368:112,1,191.999994140625,6|0,0:0|2:0,0:0:0:0:
176,48,16143,2,0,L|72:48,1,95.9999970703126,8|8,0:0|0:0,0:0:0:0:
336,48,16380,2,0,L|440:48,1,95.9999970703126,8|8,0:0|0:0,0:0:0:0:
256,48,16616,1,8,0:0:0:0:
432,48,16734,1,8,0:0:0:0:
256,192,16852,6,0,L|56:192,1,191.999994140625,4|8,0:0|0:0,0:0:0:0:
160,232,17192,1,0,0:0:0:0:
352,296,17306,2,0,L|232:296,1,95.9999970703126,0|0,0:0|0:0,0:0:0:0:
352,336,17533,2,0,L|448:336,1,95.9999970703126,10|0,0:2|0:0,0:0:0:0:
256,24,17761,2,0,P|192:48|256:112,1,191.999994140625,2|8,0:2|0:0,0:0:0:0:
352,112,18102,1,2,0:2:0:0:
160,192,18215,2,0,L|24:192,1,95.9999970703126,0|0,0:0|0:0,0:0:0:0:
256,192,18442,2,0,L|256:312,1,95.9999970703126,8|0,0:0|0:0,0:0:0:0:
64,344,18670,6,0,L|256:344,1,191.999994140625,2|8,0:2|0:0,0:0:0:0:
448,344,19011,2,0,L|344:344,2,95.9999970703126,2|0|0,0:2|0:0|0:0,0:0:0:0:
160,256,19351,2,0,L|360:256,1,191.999994140625,10|0,0:2|0:0,0:0:0:0:
256,224,19692,1,0,0:0:0:0:
432,64,19806,2,0,L|432:160,1,95.9999970703126,8|0,0:0|0:0,0:0:0:0:
256,64,20033,2,0,L|352:64,1,95.9999970703126,0|0,0:0|0:0,0:0:0:0:
168,72,20261,2,0,P|112:104|192:184,1,191.999994140625,8|0,0:0|0:0,0:0:0:0:
256,192,20601,1,0,0:0:0:0:
64,304,20715,6,0,L|176:304,1,95.9999970703126,8|0,0:0|0:0,0:0:0:0:
256,304,20942,2,0,L|152:304,1,95.9999970703126,0|0,0:0|0:0,0:0:0:0:
360,304,21170,2,0,L|360:200,1,95.9999970703126,10|0,0:2|0:0,0:0:0:0:
160,112,21397,2,0,L|360:112,1,191.999994140625,2|8,0:2|0:0,0:0:0:0:
256,152,21738,1,2,0:2:0:0:
448,24,21851,2,0,L|336:24,1,95.9999970703126,0|0,0:0|0:0,0:0:0:0:
256,24,22078,2,0,L|360:24,1,95.9999970703126,8|0,0:0|0:0,0:0:0:0:
160,80,22306,6,0,P|104:104|192:168,1,191.999994140625,2|8,0:2|0:0,0:0:0:0:
352,80,22647,2,0,P|408:104|320:168,1,191.999994140625,0|0,0:0|0:0,0:0:0:0:
160,264,22988,2,0,L|64:264,1,95.9999970703126,8|2,0:0|0:0,0:0:0:0:
256,336,23215,2,0,L|448:336,1,191.999994140625,2|8,0:0|0:0,0:0:0:0:
256,192,23556,2,0,L|144:192,2,95.9999970703126,2|0|0,0:0|0:0|0:0,0:0:0:0:
448,192,23897,2,0,L|336:192,1,95.9999970703126,10|0,0:0|0:0,0:0:0:0:
160,192,24124,37,4,0:0:0:0:
352,160,24238,1,0,0:0:0:0:
160,160,24351,2,0,L|48:160,1,95.9999970703126,10|0,0:2|0:0,0:0:0:0:
160,120,24579,2,0,L|264:120,1,95.9999970703126,0|0,0:0|0:0,0:0:0:0:
64,224,24806,2,0,L|64:328,1,95.9999970703126,8|0,0:0|0:0,0:0:0:0:
256,320,25033,2,0,L|160:320,2,95.9999970703126,0|0|10,0:0|0:0|0:0,0:0:0:0:
448,192,25374,2,0,L|240:192,1,191.999994140625,0|2,0:0|0:0,0:0:0:0:
24,80,25715,2,0,L|136:80,1,95.9999970703126,10|0,0:0|0:0,0:0:0:0:
352,64,25942,6,0,L|240:64,1,95.9999970703126,2|2,0:0|0:0,0:0:0:0:
464,64,26170,2,0,L|464:160,1,95.9999970703126,10|0,0:0|0:0,0:0:0:0:
256,160,26397,2,0,L|360:160,1,95.9999970703126,0|0,0:0|0:0,0:0:0:0:
256,192,26624,2,0,L|160:192,1,95.9999970703126,8|0,0:0|0:0,0:0:0:0:
368,304,26851,2,0,L|464:304,2,95.9999970703126,0|0|8,0:0|0:0|0:0,0:0:0:0:
160,352,27192,2,0,L|360:352,1,191.999994140625,0|0,0:0|0:0,0:0:0:0:
256,320,27533,1,10,0:2:0:0:
160,320,27647,1,2,0:2:0:0:
352,272,27761,6,0,P|416:240|472:120,1,191.999994140625,2|8,0:2|0:0,0:0:0:0:
160,32,28101,2,0,L|352:32,1,191.999994140625,2|0,0:2|0:0,0:0:0:0:
160,112,28442,2,0,L|56:112,1,95.9999970703126,10|0,0:2|0:0,0:0:0:0:
160,168,28670,2,0,L|264:168,1,95.9999970703126,0|0,0:0|0:0,0:0:0:0:
64,192,28897,2,0,L|64:288,1,95.9999970703126,10|0,0:2|0:0,0:0:0:0:
256,288,29124,2,0,L|160:288,1,95.9999970703126,2|0,0:0|0:0,0:0:0:0:
368,240,29351,2,0,L|464:240,1,95.9999970703126,10|0,0:0|0:0,0:0:0:0:
256,240,29579,6,0,L|152:240,1,95.9999970703126,2|0,0:0|0:0,0:0:0:0:
256,192,29806,2,0,L|352:192,1,95.9999970703126,8|0,0:0|0:0,0:0:0:0:
112,120,30033,2,0,L|216:120,2,95.9999970703126,0|2|10,0:0|0:0|0:0,0:0:0:0:
352,40,30374,6,0,L|160:40,1,191.999994140625,6|0,0:0|2:2,0:0:0:0:
64,40,30715,1,8,0:0:0:0:
256,104,30829,2,0,P|312:144|240:224,1,191.999994140625,6|0,0:0|0:0,0:0:0:0:
64,296,31170,2,0,L|168:296,1,95.9999970703126,6|0,0:0|0:0,0:0:0:0:
352,192,31397,6,0,P|416:232|336:288,1,191.999994140625,4|8,0:0|0:0,0:0:0:0:
256,296,31738,1,0,0:0:0:0:
464,192,31851,2,0,L|464:96,1,95.9999970703126,0|0,0:0|0:0,0:0:0:0:
288,48,32079,2,0,L|384:48,1,95.9999970703126,10|0,0:2|0:0,0:0:0:0:
160,88,32306,2,0,P|96:136|168:192,1,191.999994140625,2|8,0:2|0:0,0:0:0:0:
256,192,32647,1,2,0:2:0:0:
64,296,32761,2,0,L|176:296,1,95.9999970703126,0|0,0:0|0:0,0:0:0:0:
256,296,32988,2,0,L|152:296,1,95.9999970703126,8|0,0:0|0:0,0:0:0:0:
368,296,33215,6,0,P|432:248|352:192,1,191.999994140625,2|8,0:2|0:0,0:0:0:0:
160,64,33556,2,0,L|256:64,2,95.9999970703126,2|0|0,0:2|0:0|0:0,0:0:0:0:
392,64,33897,2,0,L|288:64,1,95.9999970703126,10|0,0:2|0:0,0:0:0:0:
392,112,34124,2,0,L|496:112,1,95.9999970703126,0|0,0:0|0:0,0:0:0:0:
256,192,34351,2,0,L|352:192,1,95.9999970703126,8|0,0:0|0:0,0:0:0:0:
160,192,34579,2,0,L|160:296,1,95.9999970703126,0|0,0:0|0:0,0:0:0:0:
352,288,34806,2,0,L|256:288,1,95.9999970703126,8|0,0:0|0:0,0:0:0:0:
64,352,35033,6,0,L|256:352,1,191.999994140625,0|8,0:0|0:0,0:0:0:0:
448,352,35374,2,0,L|256:352,1,191.999994140625,0|0,0:0|0:0,0:0:0:0:
352,320,35715,1,10,0:2:0:0:
448,320,35829,1,0,0:0:0:0:
256,320,35942,2,0,L|160:320,2,95.9999970703126,2|0|8,0:2|0:0|0:0,0:0:0:0:
448,192,36283,1,2,0:2:0:0:
352,192,36396,1,0,0:0:0:0:
256,192,36510,1,0,0:0:0:0:
32,120,36624,2,0,L|136:120,1,95.9999970703126,10|0,0:2|0:0,0:0:0:0:
352,56,36851,6,0,L|256:56,1,95.9999970703126,2|0,0:2|0:0,0:0:0:0:
32,272,37079,2,0,L|224:272,1,191.999994140625,8|0,0:0|0:0,0:0:0:0:
408,192,37420,2,0,L|296:192,2,95.9999970703126,0|8|0,0:0|0:0|0:0,0:0:0:0:
224,64,37761,2,0,L|32:64,1,191.999994140625,2|8,0:0|0:0,0:0:0:0:
256,128,38101,2,0,P|320:160|256:224,1,191.999994140625,2|0,0:0|0:0,0:0:0:0:
168,224,38442,1,10,0:0:0:0:
80,224,38556,1,8,0:0:0:0:
256,288,38670,5,6,0:0:0:0:
432,288,38783,1,0,0:0:0:0:
256,40,38897,2,0,P|200:72|272:152,1,191.999994140625,10|0,0:0|0:0,0:0:0:0:
344,160,39238,1,0,0:0:0:0:
80,192,39351,2,0,L|80:296,1,95.9999970703126,8|0,0:0|0:0,0:0:0:0:
256,336,39579,2,0,L|160:336,1,95.9999970703126,0|0,0:0|0:0,0:0:0:0:
352,304,39806,2,0,P|408:272|336:192,1,191.999994140625,8|2,0:2|0:2,0:0:0:0:
160,112,40147,1,2,0:2:0:0:
256,112,40260,1,8,0:0:0:0:
352,112,40374,1,2,0:2:0:0:
160,192,40488,6,0,P|80:216|40:320,2,191.999994140625,2|8|0,0:2|0:0|0:0,0:0:0:0:
256,192,41056,1,0,0:0:0:0:
448,280,41170,2,0,L|256:280,1,191.999994140625,10|8,0:0|0:0,0:0:0:0:
352,312,41511,1,0,0:0:0:0:
168,192,41624,2,0,L|168:296,1,95.9999970703126,8|0,0:0|0:0,0:0:0:0:
352,192,41851,2,0,L|256:192,1,95.9999970703126,2|0,0:0|0:0,0:0:0:0:
72,128,42079,2,0,L|176:128,1,95.9999970703126,8|0,0:0|0:0,0:0:0:0:
352,40,42306,6,0,P|416:80|336:136,1,191.999994140625,6|8,0:0|0:0,0:0:0:0:
256,144,42647,1,0,0:0:0:0:
472,248,42761,2,0,L|336:248,1,95.9999970703126,0|0,0:0|0:0,0:0:0:0:
160,328,42988,6,0,L|368:328,1,191.999994140625,14|2,0:2|0:0,0:0:0:0:
256,296,43329,1,0,0:0:0:0:
72,296,43442,1,8,0:0:0:0:
256,256,43556,1,0,0:0:0:0:
72,256,43670,1,0,0:0:0:0:
256,208,43783,2,0,L|360:208,2,95.9999970703126,0|10|2,0:0|0:2|0:2,0:0:0:0:
464,56,44124,6,0,L|464:152,1,95.9999970703126,0|0,0:0|0:0,0:0:0:0:
256,56,44351,2,0,L|352:56,1,95.9999970703126,12|2,0:2|0:2,0:0:0:0:
48,56,44579,2,0,L|48:152,1,95.9999970703126,2|0,0:2|0:0,0:0:0:0:
256,120,44806,2,0,L|160:120,1,95.9999970703126,8|2,0:0|0:2,0:0:0:0:
416,304,45033,38,10,L|320:304,2,95.9999970703126,10|0|8,0:0|0:0|0:0,0:0:0:0:
96,304,45374,2,0,L|208:304,2,95.9999970703126,10|0|8,0:0|0:0|3:0,0:0:0:0:
320,256,45715,2,0,L|432:256,1,95.9999970703126,10|8,3:1|3:0,0:0:0:0:
192,256,45942,6,0,L|80:256,1,95.9999970703126,4|0,0:0|2:0,0:0:0:0:
320,96,46170,2,0,L|320:192,1,95.9999970703126,8|0,0:0|2:0,0:0:0:0:
88,144,46397,2,0,L|200:144,1,95.9999970703126,2|0,0:2|0:0,0:0:0:0:
280,192,46624,2,0,L|168:192,1,95.9999970703126,8|2,0:0|2:2,0:0:0:0:
392,304,46851,6,0,L|448:304,2,47.9999985351563,2|0|2,0:2|2:0|2:2,0:0:0:0:
216,304,47079,1,8,0:0:0:0:
392,272,47192,1,0,2:2:0:0:
176,248,47306,2,0,L|72:248,1,95.9999970703126,2|0,0:2|0:0,0:0:0:0:
256,192,47533,1,8,0:0:0:0:
432,192,47647,1,2,2:0:0:0:
256,112,47761,6,0,L|160:112,1,95.9999970703126,2|0,0:2|2:0,0:0:0:0:
256,72,47988,2,0,L|360:72,1,95.9999970703126,8|0,0:0|2:0,0:0:0:0:
160,72,48215,1,2,0:2:0:0:
352,152,48329,2,0,L|240:152,2,95.9999970703126,0|8|2,0:0|0:0|2:2,0:0:0:0:
176,296,48670,6,0,L|120:296,2,47.9999985351563,2|0|2,0:2|2:0|2:2,0:0:0:0:
352,296,48898,1,8,0:0:0:0:
176,264,49011,1,2,2:0:0:0:
352,192,49124,2,0,L|256:192,1,95.9999970703126,2|0,0:2|0:0,0:0:0:0:
480,112,49351,2,0,L|384:112,1,95.9999970703126,10|0,0:2|0:0,0:0:0:0:
128,112,49579,6,0,L|32:112,1,95.9999970703126,2|0,0:2|2:2,0:0:0:0:
256,48,49806,2,0,L|160:48,1,95.9999970703126,8|2,0:2|2:2,0:0:0:0:
384,224,50033,2,0,L|480:224,1,95.9999970703126,2|0,0:2|0:0,0:0:0:0:
256,160,50260,2,0,L|352:160,1,95.9999970703126,8|2,0:2|2:2,0:0:0:0:
176,344,50488,6,0,L|120:344,2,47.9999985351563,2|0|2,0:2|2:0|2:2,0:0:0:0:
352,344,50716,1,8,0:0:0:0:
176,312,50829,1,2,2:0:0:0:
352,256,50942,2,0,L|448:256,1,95.9999970703126,2|0,0:2|0:0,0:0:0:0:
256,256,51170,2,0,L|152:256,1,95.9999970703126,10|0,0:2|0:0,0:0:0:0:
384,72,51397,6,0,P|440:104|360:184,1,191.999994140625,2|8,0:0|0:0,0:0:0:0:
192,192,51738,1,0,0:0:0:0:
384,256,51851,2,0,L|280:256,1,95.9999970703126,2|0,0:0|0:0,0:0:0:0:
80,312,52079,2,0,L|192:312,1,95.9999970703126,12|2,0:2|2:0,0:0:0:0:
385,190,52306,37,2,0:0:0:0:
480,192,52420,1,8,0:0:0:0:
304,192,52533,1,8,0:0:0:0:
480,192,52647,1,8,0:0:0:0:
168,32,52761,5,0,3:3:0:0:
344,32,52874,1,0,3:3:0:0:
168,96,52988,1,8,3:3:0:0:
344,96,53101,1,8,3:3:0:0:
168,192,53215,6,0,L|56:192,1,95.9999970703126,4|0,0:0|2:0,0:0:0:0:
256,192,53442,2,0,L|256:288,1,95.9999970703126,8|0,0:0|2:0,0:0:0:0:
72,288,53670,2,0,L|184:288,1,95.9999970703126,2|0,0:2|0:0,0:0:0:0:
352,352,53897,2,0,L|248:352,1,95.9999970703126,8|2,0:0|2:2,0:0:0:0:
432,280,54124,6,0,L|488:280,2,47.9999985351563,2|0|2,0:2|2:0|2:0,0:0:0:0:
256,280,54352,1,8,0:0:0:0:
432,248,54465,1,2,2:0:0:0:
256,192,54579,2,0,L|360:192,1,95.9999970703126,2|0,0:2|0:0,0:0:0:0:
256,144,54806,2,0,L|144:144,1,95.9999970703126,8|2,0:0|0:2,0:0:0:0:
376,136,55033,6,0,L|376:240,1,95.9999970703126,2|0,0:2|2:0,0:0:0:0:
160,240,55261,2,0,L|280:240,1,95.9999970703126,8|2,0:2|2:0,0:0:0:0:
72,240,55488,1,2,0:2:0:0:
256,320,55601,2,0,L|368:320,2,95.9999970703126,2|8|2,0:2|0:0|2:0,0:0:0:0:
64,320,55942,37,2,0:2:0:0:
256,248,56056,1,2,2:2:0:0:
284,235,56093,1,0,2:2:0:0:
284,205,56131,1,0,2:2:0:0:
257,192,56169,1,10,1:2:0:0:
160,192,56283,1,2,0:2:0:0:
392,80,56397,2,0,L|288:80,1,95.9999970703126,2|0,0:2|0:0,0:0:0:0:
120,80,56624,2,0,L|224:80,1,95.9999970703126,10|2,0:2|0:2,0:0:0:0:
16,80,56851,6,0,L|16:192,1,95.9999970703126,6|0,0:0|2:0,0:0:0:0:
216,144,57079,2,0,L|104:144,1,95.9999970703126,8|2,0:0|2:2,0:0:0:0:
432,232,57306,1,0,0:0:0:0:
256,232,57420,1,2,0:2:0:0:
80,232,57533,1,10,0:0:0:0:
256,192,57647,6,0,L|456:192,1,191.999994140625,2|0,0:0|0:0,0:0:0:0:
256,112,57988,2,0,L|152:112,1,95.9999970703126,8|0,0:0|2:2,0:0:0:0:
352,80,58215,2,0,L|456:80,1,95.9999970703126,2|0,0:2|0:0,0:0:0:0:
256,16,58442,2,0,L|368:16,1,95.9999970703126,8|2,0:0|2:1,0:0:0:0:
160,16,58670,5,2,0:2:0:0:
352,192,58783,1,2,2:2:0:0:
380,179,58820,1,0,2:0:0:0:
380,149,58858,1,0,2:0:0:0:
353,136,58896,1,0,0:0:0:0:
256,136,59010,1,2,2:2:0:0:
72,248,59124,2,0,L|168:248,1,95.9999970703126,2|0,0:2|0:0,0:0:0:0:
352,288,59351,2,0,L|248:288,1,95.9999970703126,12|2,0:2|2:0,0:0:0:0:
440,344,59579,5,4,0:0:0:0:
256,344,59692,1,8,0:0:0:0:
72,344,59806,1,8,0:0:0:0:
256,344,59920,1,8,0:0:0:0:
440,288,60033,2,0,L|440:192,1,95.9999970703126,2|0,3:1|3:1,0:0:0:0:
200,40,60261,1,8,3:0:0:0:
256,40,60336,1,0,3:0:0:0:
312,40,60412,1,0,3:0:0:0:
80,248,60488,6,0,P|24:224|96:144,1,191.999994140625,4|8,0:0|0:0,0:0:0:0:
176,136,60829,1,0,0:0:0:0:
384,192,60942,2,0,L|288:192,1,95.9999970703126,0|0,0:0|0:0,0:0:0:0:
408,240,61170,2,0,L|416:336,1,95.9999970703126,10|0,0:2|0:0,0:0:0:0:
160,24,61397,2,0,L|360:24,1,191.999994140625,2|8,0:2|0:0,0:0:0:0:
256,64,61738,1,2,0:2:0:0:
432,96,61851,2,0,L|432:192,1,95.9999970703126,0|0,0:0|0:0,0:0:0:0:
256,256,62079,2,0,L|352:256,1,95.9999970703126,8|0,0:0|0:0,0:0:0:0:
256,208,62306,2,0,L|152:208,1,95.9999970703126,2|0,0:2|0:0,0:0:0:0:
440,336,62533,6,0,L|240:336,1,191.999994140625,8|2,0:0|0:2,0:0:0:0:
152,336,62874,1,0,0:0:0:0:
344,272,62988,2,0,L|440:272,1,95.9999970703126,8|0,0:0|0:0,0:0:0:0:
160,192,63215,2,0,L|360:192,1,191.999994140625,0|8,0:0|0:0,0:0:0:0:
256,160,63556,1,0,0:0:0:0:
48,48,63670,2,0,L|48:144,1,95.9999970703126,0|0,0:0|0:0,0:0:0:0:
256,48,63897,2,0,L|120:48,1,95.9999970703126,8|0,0:0|0:0,0:0:0:0:
448,192,64124,6,0,L|240:192,2,191.999994140625,2|8|0,0:2|0:0|0:0,0:0:0:0:
352,224,64692,1,0,0:0:0:0:
256,224,64806,1,10,0:2:0:0:
448,224,64920,1,0,0:0:0:0:
256,296,65033,2,0,L|160:296,1,95.9999970703126,2|0,0:2|0:0,0:0:0:0:
352,296,65261,1,8,0:0:0:0:
160,352,65374,2,0,L|368:352,1,191.999994140625,2|0,0:2|0:0,0:0:0:0:
160,288,65715,2,0,L|160:192,1,95.9999970703126,10|0,0:2|0:0,0:0:0:0:
352,24,65942,6,0,P|408:56|336:136,1,191.999994140625,2|8,0:2|0:0,0:0:0:0:
160,80,66283,2,0,L|368:80,1,191.999994140625
160,152,66624,2,0,L|56:152,1,95.9999970703126,10|0,0:2|0:0,0:0:0:0:
256,192,66851,2,0,P|312:224|240:304,1,191.999994140625,2|8,0:0|0:0,0:0:0:0:
64,288,67192,2,0,L|176:288,2,95.9999970703126,2|0|0,0:0|0:0|0:0,0:0:0:0:
352,344,67533,2,0,L|456:344,1,95.9999970703126,10|0,0:0|0:0,0:0:0:0:
256,344,67761,5,4,0:0:0:0:
64,344,67874,1,2,0:2:0:0:
256,296,67988,2,0,P|312:272|248:192,1,191.999994140625,8|0,0:0|0:0,0:0:0:0:
160,192,68329,1,0,0:0:0:0:
344,104,68442,2,0,L|448:104,1,95.9999970703126,8|0,0:0|0:0,0:0:0:0:
344,64,68670,2,0,L|240:64,1,95.9999970703126,0|0,0:0|0:0,0:0:0:0:
48,64,68897,2,0,L|184:64,1,95.9999970703126,10|0,0:0|0:0,0:0:0:0:
32,120,69124,2,0,L|24:216,1,95.9999970703126,0|0,0:0|0:0,0:0:0:0:
216,248,69351,2,0,L|120:248,1,95.9999970703126,10|2,0:0|0:0,0:0:0:0:
312,248,69579,6,0,L|320:128,1,95.9999970703126,6|0,0:2|0:0,0:0:0:0:
104,344,69806,2,0,L|200:344,1,95.9999970703126,10|0,0:2|0:0,0:0:0:0:
104,304,70033,2,0,L|8:304,1,95.9999970703126,0|0,0:0|0:0,0:0:0:0:
208,296,70261,2,0,L|304:296,1,95.9999970703126,8|0,0:0|0:0,0:0:0:0:
104,192,70488,2,0,L|104:72,1,95.9999970703126,0|0,0:0|0:0,0:0:0:0:
304,232,70715,2,0,L|200:232,1,95.9999970703126,8|0,0:0|0:0,0:0:0:0:
304,192,70942,2,0,L|408:192,1,95.9999970703126,0|0,0:0|0:0,0:0:0:0:
208,120,71170,2,0,L|104:120,1,95.9999970703126,10|2,0:2|0:2,0:0:0:0:
304,168,71397,6,0,P|388:129|416:40,1,191.999994140625,4|10,0:0|0:0,0:0:0:0:
160,256,71738,2,0,L|368:256,1,191.999994140625,2|0,0:0|0:0,0:0:0:0:
128,336,72079,2,0,L|128:208,1,95.9999970703126,10|0,0:0|0:0,0:0:0:0:
320,344,72306,2,2,L|216:344,1,95.9999970703126
400,296,72533,2,0,L|400:184,1,95.9999970703126,8|0,0:2|0:0,0:0:0:0:
160,72,72761,2,0,L|272:72,1,95.9999970703126,0|2,0:0|0:2,0:0:0:0:
432,72,72988,1,8,0:0:0:0:
256,104,73101,1,2,0:2:0:0:
80,152,73215,6,0,L|192:152,1,95.9999970703126,4|0,0:0|0:0,0:0:0:0:
272,152,73442,2,0,L|176:152,1,95.9999970703126,12|0,0:2|0:0,0:0:0:0:
432,272,73670,2,0,L|336:272,2,95.9999970703126,0|2|8,0:0|0:2|0:0,0:0:0:0:
160,336,74011,6,0,L|352:336,1,191.999994140625,6|0,0:0|2:0,0:0:0:0:
256,312,74351,1,8,0:0:0:0:
432,80,74465,2,0,P|488:104|400:168,1,191.999994140625,6|0,0:0|3:0,0:0:0:0:
208,48,74806,2,0,L|312:48,1,95.9999970703126,14|0,0:0|3:0,0:0:0:0:
88,128,75033,5,4,0:0:0:0:
256,192,75261,2,0,L|352:192,1,95.9999970703126,8|0,0:0|2:2,0:0:0:0:
256,240,75488,2,0,L|160:240,1,95.9999970703126,0|0,0:0|0:0,0:0:0:0:
408,336,75715,2,0,L|312:336,1,95.9999970703126,10|0,0:2|0:0,0:0:0:0:
112,296,75942,2,0,L|208:296,2,95.9999970703126,2|0|8,0:2|0:0|0:0,0:0:0:0:
352,216,76283,2,0,L|160:216,1,191.999994140625,2|0,0:2|0:0,0:0:0:0:
352,136,76624,2,0,L|472:136,1,95.9999970703126,8|0,0:0|0:0,0:0:0:0:
256,136,76851,6,0,L|160:136,2,95.9999970703126,2|0|8,0:2|0:0|0:0,0:0:0:0:
448,48,77192,2,0,L|256:48,1,191.999994140625,2|0,0:2|0:0,0:0:0:0:
64,192,77533,2,0,L|264:192,2,191.999994140625,8|0|8,0:0|0:0|0:0,0:0:0:0:
160,160,78101,1,0,0:0:0:0:
256,160,78214,1,0,0:0:0:0:
160,112,78328,1,0,0:0:0:0:
352,192,78442,2,0,L|448:192,1,95.9999970703126,8|0,0:0|0:0,0:0:0:0:
256,232,78670,6,0,P|192:264|264:328,1,191.999994140625,2|8,0:2|0:0,0:0:0:0:
344,328,79011,1,0,0:0:0:0:
168,280,79124,2,0,L|64:280,1,95.9999970703126,0|0,0:0|0:0,0:0:0:0:
256,120,79351,2,0,L|352:120,1,95.9999970703126,10|0,0:2|0:0,0:0:0:0:
160,104,79579,2,0,L|48:104,2,95.9999970703126,2|0|8,0:2|0:0|0:0,0:0:0:0:
352,192,79920,1,2,0:2:0:0:
256,192,80033,1,0,0:0:0:0:
160,192,80147,1,0,0:0:0:0:
352,104,80261,2,0,L|448:104,1,95.9999970703126,10|0,0:2|0:0,0:0:0:0:
256,48,80488,6,0,L|160:48,1,95.9999970703126,2|0,0:2|0:0,0:0:0:0:
352,192,80715,2,0,P|416:224|344:288,1,191.999994140625,8|0,0:0|0:0,0:0:0:0:
256,288,81056,1,0,0:0:0:0:
64,288,81170,2,0,L|168:288,1,95.9999970703126,10|0,0:2|0:0,0:0:0:0:
352,40,81397,6,0,L|136:40,1,191.999994140625,2|8,0:0|0:0,0:0:0:0:
400,144,81738,2,0,P|464:168|384:224,1,191.999994140625,2|0,0:0|0:0,0:0:0:0:
208,312,82079,2,0,L|112:312,1,95.9999970703126,10|0,0:0|0:0,0:0:0:0:
304,312,82306,5,4,0:0:0:0:
112,312,82419,1,2,0:2:0:0:
304,88,82533,2,0,P|376:96|424:216,1,191.999994140625,8|0,0:0|0:0,0:0:0:0:
328,192,82874,1,0,0:0:0:0:
120,48,82988,2,0,L|224:48,1,95.9999970703126,8|0,0:0|0:0,0:0:0:0:
120,96,83215,2,0,L|24:96,1,95.9999970703126,0|0,0:0|0:0,0:0:0:0:
344,328,83442,2,0,L|144:328,1,191.999994140625,10|0,0:0|0:0,0:0:0:0:
256,288,83783,1,2,0:0:0:0:
472,224,83897,2,0,L|336:224,1,95.9999970703126,8|2,0:0|0:0,0:0:0:0:
160,40,84124,6,0,L|360:40,1,191.999994140625,6|8,0:2|0:0,0:0:0:0:
256,80,84465,1,0,0:0:0:0:
432,104,84579,2,0,L|432:208,1,95.9999970703126,0|0,0:0|0:0,0:0:0:0:
256,272,84806,2,0,L|368:272,1,95.9999970703126,10|0,0:2|0:0,0:0:0:0:
152,72,85033,2,0,P|104:96|168:192,1,191.999994140625,2|8,0:0|0:0,0:0:0:0:
256,192,85374,1,0,0:0:0:0:
480,336,85488,2,0,L|288:336,1,191.999994140625,2|8,0:2|0:0,0:0:0:0:
384,304,85829,1,0,0:0:0:0:
160,88,85942,6,0,L|48:88,1,95.9999970703126,6|0,0:0|0:0,0:0:0:0:
160,56,86170,2,0,L|256:56,1,95.9999970703126,8|0,0:0|0:0,0:0:0:0:
32,56,86397,2,0,L|32:152,1,95.9999970703126,0|0,0:0|0:0,0:0:0:0:
256,144,86624,6,0,P|312:168|248:248,1,191.999994140625,14|0,0:0|0:0,0:0:0:0:
160,248,86965,1,0,0:0:0:0:
352,312,87079,2,0,L|472:312,1,95.9999970703126,8|0,0:0|0:0,0:0:0:0:
352,352,87306,2,0,L|256:352,1,95.9999970703126,0|0,0:0|0:0,0:0:0:0:
480,192,87533,5,8,0:0:0:0:
384,192,87647,1,2,0:0:0:0:
480,192,87761,1,0,0:0:0:0:
160,192,87875,1,0,0:0:0:0:
256,192,87988,1,12,0:2:0:0:
160,192,88102,1,2,0:2:0:0:
352,96,88215,2,0,L|456:96,1,95.9999970703126,2|0,0:2|0:0,0:0:0:0:
208,96,88442,2,0,L|104:96,1,95.9999970703126,10|8,0:2|0:0,0:0:0:0:
448,40,88670,37,6,0:0:0:0:
256,40,88783,1,8,0:0:0:0:
352,40,88897,1,8,0:0:0:0:
448,88,89011,1,10,0:0:0:0:
160,88,89124,5,8,3:0:0:0:
256,40,89238,1,2,3:2:0:0:
160,40,89351,1,8,3:0:0:0:
352,88,89465,1,2,3:2:0:0:
160,192,89579,6,0,L|64:192,1,95.9999970703126,6|0,0:0|2:0,0:0:0:0:
256,192,89806,2,0,L|360:192,1,95.9999970703126,8|0,0:0|2:0,0:0:0:0:
64,264,90033,1,2,0:2:0:0:
256,256,90147,2,0,L|368:256,2,95.9999970703126,0|8|2,0:0|0:0|2:1,0:0:0:0:
440,64,90488,6,0,L|488:64,2,47.9999985351563,2|0|2,0:0|2:0|2:0,0:0:0:0:
256,64,90715,2,0,L|256:176,1,95.9999970703126,8|2,0:0|2:2,0:0:0:0:
440,192,90942,1,0,0:0:0:0:
256,208,91056,1,0,0:0:0:0:
440,240,91170,2,0,L|328:240,1,95.9999970703126,10|0,0:2|2:0,0:0:0:0:
104,112,91397,6,0,L|304:112,1,191.999994140625,2|8,0:0|0:0,0:0:0:0:
384,112,91738,1,0,2:0:0:0:
200,40,91851,2,0,L|96:40,1,95.9999970703126,0|0,0:0|0:0,0:0:0:0:
320,312,92079,1,10,0:0:0:0:
379,297,92154,1,2,2:0:0:0:
396,238,92230,1,2,2:0:0:0:
354,194,92306,1,2,0:0:0:0:
112,192,92420,38,0,L|64:192,2,31.9999990234375,2|0|0,2:0|2:0|2:0,0:0:0:0:
144,192,92533,1,8,0:0:0:0:
248,192,92647,1,0,0:0:0:0:
432,64,92761,2,0,L|328:64,1,95.9999970703126,2|0,2:1|0:0,0:0:0:0:
144,56,92988,2,0,L|144:160,1,95.9999970703126,8|0,0:0|0:0,0:0:0:0:
352,272,93215,6,0,L|160:272,1,191.999994140625,6|8,0:0|0:0,0:0:0:0:
352,208,93556,2,0,L|352:88,1,95.9999970703126,2|0,2:1|0:0,0:0:0:0:
160,192,93783,2,0,L|96:192,2,47.9999985351563,0|2|8,0:0|2:1|0:0,0:0:0:0:
352,240,94011,1,2,2:0:0:0:
152,352,94124,6,0,P|96:320|160:240,1,191.999994140625,2|8,0:0|0:0,0:0:0:0:
256,240,94465,1,0,2:0:0:0:
488,72,94579,2,0,L|296:72,1,191.999994140625,2|8,0:0|0:0,0:0:0:0:
200,72,94920,1,2,2:0:0:0:
400,152,95033,6,0,L|288:152,2,95.9999970703126,2|0|8,0:0|2:0|0:0,0:0:0:0:
208,216,95374,2,0,L|104:216,1,95.9999970703126,2|0,2:1|0:0,0:0:0:0:
304,216,95601,1,0,0:0:0:0:
112,296,95715,2,0,L|232:296,1,95.9999970703126,12|0,2:0|0:0,0:0:0:0:
432,96,95942,37,2,0:0:0:0:
256,96,96056,1,8,0:0:0:0:
80,96,96170,2,0,L|32:96,2,47.9999985351563,8|0|0,0:0|3:0|3:0,0:0:0:0:
344,192,96397,5,2,3:2:0:0:
168,192,96511,1,10,0:2:0:0:
344,224,96624,1,8,0:0:0:0:
168,224,96738,1,10,0:2:0:0:
344,296,96851,6,0,L|448:296,1,95.9999970703126,4|0,0:0|2:0,0:0:0:0:
256,296,97079,2,0,L|256:200,1,95.9999970703126,8|0,0:0|2:0,0:0:0:0:
440,352,97306,2,0,L|336:352,1,95.9999970703126,2|0,0:2|0:0,0:0:0:0:
120,352,97533,2,0,L|224:352,1,95.9999970703126,8|2,0:0|2:2,0:0:0:0:
24,352,97761,5,2,0:2:0:0:
216,192,97874,2,0,L|248:192,2,31.9999990234375,2|0|0,2:2|2:2|2:2,0:0:0:0:
184,192,97988,1,10,1:2:0:0:
80,192,98101,1,2,0:2:0:0:
312,32,98215,1,2,0:2:0:0:
200,32,98329,1,0,0:0:0:0:
376,80,98442,1,10,0:2:0:0:
200,80,98556,1,2,0:2:0:0:
376,144,98670,6,0,L|480:144,1,95.9999970703126,2|0,0:2|2:0,0:0:0:0:
288,192,98897,2,0,L|176:192,1,95.9999970703126,8|2,0:2|2:0,0:0:0:0:
376,192,99124,1,2,0:2:0:0:
192,256,99238,2,0,L|296:256,2,95.9999970703126,2|8|2,0:2|0:0|2:0,0:0:0:0:
376,312,99579,5,2,0:2:0:0:
192,336,99692,2,0,L|144:336,2,31.9999990234375,2|0|0,2:2|2:2|2:2,0:0:0:0:
224,336,99805,1,0,0:0:0:0:
328,336,99919,1,2,0:2:0:0:
144,280,100033,2,0,L|32:280,1,95.9999970703126,2|0,0:2|0:0,0:0:0:0:
224,240,100261,1,10,0:2:0:0:
48,240,100374,1,2,0:2:0:0:
224,192,100488,6,0,L|320:192,1,95.9999970703126,6|0,0:0|2:0,0:0:0:0:
136,192,100715,2,0,L|136:96,1,95.9999970703126,8|2,0:0|2:2,0:0:0:0:
368,96,100942,2,0,L|264:96,2,95.9999970703126,0|2|10,0:0|0:2|0:0,0:0:0:0:
160,344,101283,6,0,P|96:304|184:248,1,191.999994140625,2|0,0:0|0:0,0:0:0:0:
384,272,101624,2,0,L|280:272,1,95.9999970703126,8|0,0:0|2:0,0:0:0:0:
88,192,101851,1,2,0:2:0:0:
304,192,101965,1,0,0:0:0:0:
208,192,102079,1,8,0:0:0:0:
408,192,102192,6,0,L|520:192,1,95.9999970703126,2|2,2:0|0:2,0:0:0:0:
312,112,102420,2,0,L|280:112,2,31.9999990234375,2|0|0,2:0|2:0|2:0,0:0:0:0:
344,112,102534,1,8,0:0:0:0:
448,112,102647,1,0,2:0:0:0:
256,32,102761,2,0,L|360:32,2,95.9999970703126,2|0|8,0:0|0:0|0:0,0:0:0:0:
80,32,103101,1,2,2:1:0:0:
256,88,103215,6,0,P|320:120|232:168,1,191.999994140625,4|10,0:0|0:0,0:0:0:0:
152,192,103556,1,0,2:0:0:0:
448,320,103670,2,0,L|240:320,1,191.999994140625,0|8,0:0|0:0,0:0:0:0:
352,288,104011,1,0,2:0:0:0:
160,344,104124,6,0,L|360:344,1,191.999994140625,2|8,0:2|0:0,0:0:0:0:
160,280,104465,2,0,L|64:280,1,95.9999970703126,0|2,2:0|0:0,0:0:0:0:
256,192,104692,2,0,L|160:192,2,95.9999970703126,2|8|2,0:0|0:0|2:0,0:0:0:0:
472,56,105033,6,0,L|480:160,1,95.9999970703126,6|0,3:1|3:0,0:0:0:0:
280,40,105261,2,0,L|376:40,1,95.9999970703126,0|0,3:0|3:0,0:0:0:0:
40,56,105488,2,0,L|32:160,1,95.9999970703126,0|0,3:0|3:0,0:0:0:0:
232,40,105716,2,0,L|136:40,1,95.9999970703126,4|0,3:2|3:0,0:0:0:0:
376,120,105942,6,0,L|272:120,1,95.9999970703126,2|8,1:2|0:0,0:0:0:0:
376,160,106170,2,0,L|480:160,1,95.9999970703126,0|8,1:0|0:0,0:0:0:0:
168,320,106397,1,8,0:3:0:0:
344,320,106511,1,2,3:1:0:0:
168,280,106624,1,8,3:1:0:0:
344,280,106738,1,0,3:1:0:0:
48,48,106851,6,0,L|248:48,1,191.999994140625,6|8,0:0|0:0,0:0:0:0:
144,88,107192,1,0,3:0:0:0:
464,48,107306,2,0,L|264:48,1,191.999994140625,2|8,0:0|0:0,0:0:0:0:
368,88,107647,1,0,3:0:0:0:
160,256,107761,6,0,L|272:256,1,95.9999970703126,2|0,0:0|3:0,0:0:0:0:
80,256,107988,1,8,0:0:0:0:
256,312,108101,2,0,L|152:312,1,95.9999970703126,2|0,0:0|3:0,0:0:0:0:
368,312,108329,2,0,L|480:312,1,95.9999970703126,2|8,0:0|0:0,0:0:0:0:
256,192,108556,6,0,L|56:192,1,191.999994140625,2|0,0:0|3:0,0:0:0:0:
256,80,108897,2,0,L|144:80,1,95.9999970703126,8|0,0:0|3:0,0:0:0:0:
400,48,109124,2,0,P|464:64|392:120,1,191.999994140625,2|8,0:0|0:0,0:0:0:0:
304,128,109465,1,0,3:0:0:0:
104,272,109579,6,0,L|208:272,1,95.9999970703126,2|0,0:0|3:0,0:0:0:0:
16,272,109806,1,8,0:0:0:0:
200,192,109920,2,0,L|200:88,1,95.9999970703126,2|0,0:0|3:0,0:0:0:0:
16,40,110147,2,0,L|128:40,1,95.9999970703126,2|8,0:0|0:0,0:0:0:0:
352,40,110374,6,0,L|248:40,2,95.9999970703126,2|0|2,0:0|0:0|0:0,0:0:0:0:
160,112,110715,2,0,L|368:112,1,191.999994140625,10|0,0:0|3:0,0:0:0:0:
256,152,111056,1,0,3:0:0:0:
80,192,111170,2,0,L|80:296,1,95.9999970703126,8|0,0:0|3:0,0:0:0:0:
352,256,111397,6,0,L|160:256,1,191.999994140625,0|8,3:0|0:0,0:0:0:0:
352,304,111738,1,2,0:0:0:0:
448,304,111851,1,2,0:0:0:0:
352,304,111965,1,0,3:0:0:0:
448,344,112079,1,10,0:0:0:0:
256,360,112192,6,0,L|160:360,2,95.9999970703126,2|0|2,0:0|3:0|0:0,0:0:0:0:
448,48,112533,2,0,L|248:48,1,191.999994140625,10|0,0:0|3:0,0:0:0:0:
168,48,112874,1,0,3:0:0:0:
352,120,112988,2,0,L|456:120,1,95.9999970703126,8|2,0:0|0:0,0:0:0:0:
160,280,113215,6,0,L|360:280,1,191.999994140625,2|8,0:0|0:0,0:0:0:0:
256,240,113556,1,2,0:0:0:0:
80,192,113670,2,0,L|16:192,2,47.9999985351563,0|0|0,3:0|3:0|3:0,0:0:0:0:
256,192,113897,2,0,L|256:88,1,95.9999970703126,8|0,0:0|3:0,0:0:0:0:
16,40,114124,6,0,L|224:40,2,191.999994140625,6|8|0,0:0|0:0|3:0,0:0:0:0:
112,72,114692,1,0,3:0:0:0:
208,72,114806,1,10,0:0:0:0:
408,72,114920,6,0,P|472:96|392:152,1,191.999994140625,2|0,0:0|3:0,0:0:0:0:
208,256,115261,2,0,L|112:256,1,95.9999970703126,8|0,0:0|3:0,0:0:0:0:
304,256,115488,2,0,L|408:256,1,95.9999970703126,0|2,3:0|0:0,0:0:0:0:
208,296,115715,1,8,0:0:0:0:
400,296,115829,1,2,0:0:0:0:
208,104,115942,6,0,L|112:104,1,95.9999970703126,2|0,0:0|3:0,0:0:0:0:
352,32,116170,2,0,L|128:32,1,191.999994140625,8|0,0:0|3:0,0:0:0:0:
352,104,116511,2,0,L|240:104,2,95.9999970703126,0|10|2,3:0|0:0|0:0,0:0:0:0:
160,192,116851,6,0,P|96:232|168:296,1,191.999994140625,2|8,0:0|0:0,0:0:0:0:
352,344,117192,2,0,L|152:344,1,191.999994140625,2|0,0:0|3:0,0:0:0:0:
352,248,117533,2,0,L|352:144,1,95.9999970703126,10|0,0:0|3:0,0:0:0:0:
160,48,117761,6,0,L|368:48,1,191.999994140625,6|8,0:0|0:0,0:0:0:0:
160,192,118101,2,0,L|64:192,1,95.9999970703126,0|0,3:0|3:0,0:0:0:0:
256,192,118329,1,2,0:0:0:0:
448,192,118442,1,10,0:0:0:0:
256,240,118556,6,0,P|208:256|264:352,1,191.999994140625,2|0,0:0|3:0,0:0:0:0:
352,352,118897,1,10,0:2:0:0:
64,128,119011,2,0,L|264:128,1,191.999994140625,2|0,0:2|3:0,0:0:0:0:
160,160,119351,1,8,0:0:0:0:
352,160,119465,1,2,3:2:0:0:
160,232,119579,6,0,L|64:232,1,95.9999970703126,2|0,0:2|3:0,0:0:0:0:
256,232,119806,2,0,L|256:328,1,95.9999970703126,10|0,0:2|3:0,0:0:0:0:
64,328,120033,2,0,L|168:328,2,95.9999970703126,2|0|12,0:2|3:0|0:2,0:0:0:0:
312,192,120374,2,0,L|216:192,1,95.9999970703126,2|0,0:2|0:0,0:0:0:0:
480,48,120601,21,10,0:0:0:0:
304,48,120715,1,10,0:0:0:0:
480,48,120829,1,8,0:0:0:0:
32,48,120942,5,10,0:2:0:0:
208,48,121056,1,8,3:0:0:0:
32,48,121170,1,8,3:0:0:0:
256,104,121283,1,2,0:2:0:0:
480,288,121397,6,0,L|288:288,1,191.999994140625,4|8,0:0|0:0,0:0:0:0:
384,312,121738,1,0,3:0:0:0:
200,240,121851,2,0,L|88:240,1,95.9999970703126,2|0,0:2|3:0,0:0:0:0:
312,240,122079,2,0,L|424:240,1,95.9999970703126,8|0,0:0|3:0,0:0:0:0:
200,136,122306,6,0,L|320:136,2,95.9999970703126,2|0|8,0:2|3:0|0:0,0:0:0:0:
400,136,122647,2,0,L|400:240,1,95.9999970703126,2|0,0:2|3:0,0:0:0:0:
200,312,122874,2,0,L|312:312,1,95.9999970703126,2|8,0:2|0:0,0:0:0:0:
88,80,123101,6,0,P|24:120|96:184,1,191.999994140625,2|0,0:2|3:0,0:0:0:0:
256,192,123442,2,0,L|144:192,1,95.9999970703126,8|0,0:0|3:0,0:0:0:0:
352,192,123670,2,0,L|448:192,1,95.9999970703126,2|0,0:2|3:0,0:0:0:0:
256,336,123897,2,0,L|256:240,1,95.9999970703126,8|0,0:2|3:0,0:0:0:0:
448,272,124124,6,0,L|352:272,2,95.9999970703126,2|0|8,0:2|3:0|0:0,0:0:0:0:
216,144,124465,2,0,L|112:144,1,95.9999970703126,2|0,0:2|3:0,0:0:0:0:
296,144,124692,2,0,L|400:144,1,95.9999970703126,2|8,0:2|0:0,0:0:0:0:
64,32,124920,6,0,L|272:32,1,191.999994140625,2|2,0:2|0:2,0:0:0:0:
448,32,125261,2,0,L|240:32,1,191.999994140625,8|0,0:0|3:0,0:0:0:0:
352,64,125601,1,0,3:0:0:0:
160,112,125715,2,0,L|56:112,1,95.9999970703126,10|2,0:2|0:2,0:0:0:0:
304,192,125942,6,0,L|192:192,2,95.9999970703126,2|0|8,0:2|3:0|0:0,0:0:0:0:
64,304,126283,2,0,L|176:304,1,95.9999970703126,2|0,0:2|3:0,0:0:0:0:
352,336,126511,2,0,L|248:336,1,95.9999970703126,2|8,0:2|0:0,0:0:0:0:
64,152,126738,6,0,L|264:152,1,191.999994140625,2|0,0:2|3:0,0:0:0:0:
160,104,127079,2,0,L|56:104,1,95.9999970703126,8|0,0:0|3:0,0:0:0:0:
256,40,127306,1,2,0:2:0:0:
448,40,127420,1,2,0:2:0:0:
256,40,127533,1,10,0:2:0:0:
64,328,127647,6,0,P|0:296|88:248,1,191.999994140625,2|0,0:2|3:0,0:0:0:0:
256,192,127988,2,0,L|160:192,1,95.9999970703126,8|0,0:0|3:0,0:0:0:0:
256,240,128215,2,0,L|376:240,1,95.9999970703126,0|0,3:0|3:0,0:0:0:0:
144,328,128442,2,0,L|144:232,1,95.9999970703126,10|2,0:0|0:0,0:0:0:0:
352,96,128670,6,0,L|160:96,1,191.999994140625,6|8,0:0|0:0,0:0:0:0:
72,96,129011,1,0,3:0:0:0:
256,192,129124,2,0,L|368:192,1,95.9999970703126,0|0,3:0|3:0,0:0:0:0:
160,192,129351,2,0,L|160:288,1,95.9999970703126,10|2,0:0|0:0,0:0:0:0:
352,312,129579,6,0,L|248:312,2,95.9999970703126,2|0|8,0:0|3:0|0:0,0:0:0:0:
112,104,129920,2,0,L|224:104,1,95.9999970703126,2|0,0:0|3:0,0:0:0:0:
400,104,130147,2,0,L|288:104,1,95.9999970703126,2|8,0:0|0:0,0:0:0:0:
64,304,130374,6,0,L|256:304,1,191.999994140625,2|0,0:0|3:0,0:0:0:0:
160,256,130715,2,0,L|64:256,1,95.9999970703126,8|0,0:0|3:0,0:0:0:0:
256,256,130942,2,0,L|360:256,1,95.9999970703126,0|0,3:0|3:0,0:0:0:0:
120,40,131170,2,0,L|16:40,1,95.9999970703126,10|2,0:0|0:0,0:0:0:0:
256,40,131397,5,6,0:0:0:0:
488,40,131511,2,0,L|488:152,1,95.9999970703126,0|0,3:0|3:0,0:0:0:0:
256,88,131738,1,14,0:0:0:0:
24,96,131852,2,0,L|24:208,1,95.9999970703126,0|0,3:0|3:0,0:0:0:0:
304,192,132079,2,0,L|192:192,1,95.9999970703126,6|0,0:0|3:0,0:0:0:0:
448,312,132306,6,0,L|248:312,2,191.999994140625,6|8|0,0:0|0:0|3:0,0:0:0:0:
256,272,132874,1,0,3:0:0:0:
64,256,132988,2,0,L|168:256,1,95.9999970703126,8|0,0:0|3:0,0:0:0:0:
400,112,133215,2,0,L|280:112,1,95.9999970703126,0|0,3:0|3:0,0:0:0:0:
400,80,133442,2,0,L|496:80,1,95.9999970703126,8|0,0:0|3:0,0:0:0:0:
256,80,133670,2,0,L|152:80,1,95.9999970703126,2|2,0:0|0:0,0:0:0:0:
344,80,133897,1,10,0:0:0:0:
160,192,134011,6,0,P|97:250|177:306,1,191.999994140625,2|0,0:0|3:0,0:0:0:0:
352,192,134351,2,0,L|464:192,1,95.9999970703126,8|0,0:0|3:0,0:0:0:0:
256,192,134579,1,8,0:0:0:0:
448,240,134692,1,8,0:0:0:0:
256,240,134806,2,0,L|160:240,1,95.9999970703126,12|0,0:0|0:0,0:0:0:0:
448,64,135033,1,0,3:0:0:0:
256,64,135147,1,8,0:0:0:0:
64,120,135261,1,8,0:0:0:0:
256,120,135375,1,8,0:0:0:0:
448,192,135488,6,0,L|352:192,2,95.9999970703126,8|0|8,3:0|3:0|3:0,0:0:0:0:
256,192,135829,2,0,L|192:192,1,47.9999985351563,8|0,3:0|3:0,0:0:0:0:
392,40,135942,6,0,P|448:64|368:136,1,191.999994140625,6|0,1:0|0:0,0:0:0:0:
336,144,136245,1,0,0:0:0:0:
280,144,136320,1,8,0:0:0:0:
104,48,136397,2,0,L|216:48,1,95.9999970703126,8|0,0:0|0:0,0:0:0:0:
104,88,136624,2,0,L|0:88,1,95.9999970703126,0|0,0:0|0:0,0:0:0:0:
296,272,136851,6,0,L|496:272,1,191.999994140625,4|0,3:0|2:0,0:0:0:0:
216,272,137192,2,0,L|24:272,1,191.999994140625,8|0,3:0|2:0,0:0:0:0:
256,192,137533,2,0,L|368:192,1,95.9999970703126,8|0,3:0|2:0,0:0:0:0:
160,48,137761,5,8,0:0:0:0:
98,47,137836,1,0,0:0:0:0:
55,92,137912,1,0,0:0:0:0:
56,154,137988,1,8,0:0:0:0:
102,197,138064,1,0,0:0:0:0:
164,194,138139,1,0,0:0:0:0:
312,304,138215,2,0,L|200:304,1,95.9999970703126,8|8,0:0|0:0,0:0:0:0:
424,240,138442,2,0,L|488:240,2,47.9999985351563,0|0|8,0:0|3:0|3:0,0:0:0:0:
160,32,138670,6,0,P|96:72|176:128,1,191.999994140625,4|0,3:0|2:0,0:0:0:0:
352,192,139011,2,0,L|152:192,1,191.999994140625,8|0,3:0|2:0,0:0:0:0:
352,32,139351,2,0,P|440:56|328:152,1,287.999991210938,8|0,3:0|0:0,0:0:0:0:
112,192,139806,6,0,L|112:288,1,95.9999970703126,0|0,0:0|2:0,0:0:0:0:
304,312,140033,2,0,L|184:312,1,95.9999970703126,0|0,0:0|2:0,0:0:0:0:
400,192,140261,2,0,L|400:288,1,95.9999970703126,0|0,0:0|2:0,0:0:0:0:
160,64,140488,1,2,0:2:0:0:
256,64,140601,1,0,2:0:0:0:
160,64,140715,1,0,0:0:0:0:
352,64,140829,1,2,2:0:0:0:
48,272,140942,5,2,0:0:0:0:
256,272,141094,1,2,2:1:0:0:
464,272,141245,1,2,2:1:0:0:
256,40,141397,6,0,L|64:40,1,191.999994140625,6|8,0:0|0:0,0:0:0:0:
160,96,141738,1,0,0:0:0:0:
64,96,141851,1,8,0:0:0:0:
256,96,141965,1,8,0:3:0:0:
64,152,142079,1,8,0:3:0:0:
256,344,142192,6,0,L|448:344,1,191.999994140625,6|0,0:0|2:0,0:0:0:0:
352,288,142533,1,8,0:0:0:0:
448,288,142646,1,8,0:0:0:0:
256,288,142760,1,8,0:0:0:0:
448,232,142874,1,8,0:0:0:0:
198,24,142988,2,0,L|150:24,1,47.9999985351563,8|0,0:0|2:0,0:0:0:0:
314,24,143101,2,0,L|378:24,1,47.9999985351563,8|0,0:0|2:0,0:0:0:0:
144,24,143215,5,6,0:0:0:0:
150,70,143271,1,0,2:0:0:0:
180,107,143328,1,2,2:0:0:0:
225,120,143385,1,0,2:0:0:0:
40,24,143442,1,10,0:2:0:0:
46,70,143498,1,0,2:0:0:0:
76,107,143555,1,2,2:0:0:0:
121,120,143612,1,2,2:0:0:0:
336,192,143670,6,0,L|400:192,2,63.9999980468751,0|0|2,0:0|2:0|2:0,0:0:0:0:
176,192,143897,2,0,L|112:192,2,63.9999980468751,8|0|2,0:0|2:0|2:0,0:0:0:0:
368,24,144124,5,2,0:2:0:0:
362,70,144180,1,0,2:0:0:0:
332,107,144237,1,2,2:0:0:0:
287,120,144294,1,2,2:0:0:0:
472,24,144351,1,10,0:2:0:0:
466,70,144407,1,0,2:0:0:0:
436,107,144464,1,0,2:0:0:0:
391,120,144521,1,0,2:0:0:0:
176,248,144579,6,0,L|104:248,1,47.9999985351563,2|0,0:2|2:0,0:0:0:0:
336,248,144692,2,0,L|408:248,1,47.9999985351563,2|0,0:2|2:0,0:0:0:0:
152,192,144806,1,10,0:2:0:0:
108,177,144862,1,0,2:0:0:0:
96,132,144919,1,0,2:0:0:0:
128,96,144976,1,0,2:0:0:0:
336,192,145033,6,0,L|400:192,2,63.9999980468751,2|0|0,0:2|2:0|2:0,0:0:0:0:
176,192,145261,2,0,L|112:192,2,63.9999980468751,10|0|0,0:2|2:0|2:0,0:0:0:0:
360,144,145488,5,2,0:2:0:0:
404,129,145544,1,0,2:0:0:0:
416,84,145601,1,2,2:0:0:0:
385,50,145658,1,2,2:0:0:0:
192,32,145715,1,10,0:2:0:0:
256,32,145790,1,0,2:0:0:0:
320,32,145866,1,0,2:0:0:0:
152,176,145942,2,0,L|88:176,1,47.9999985351563,2|0,0:2|2:0,0:0:0:0:
160,192,146056,2,0,L|216:192,1,47.9999985351563,2|0,0:2|2:0,0:0:0:0:
376,320,146170,6,0,P|448:288|352:200,1,240,14|0,0:0|0:0,0:0:0:0:
160,192,146624,2,0,L|272:192,1,95.9999970703126,8|0,0:0|3:0,0:0:0:0:
24,56,146851,6,0,L|224:56,1,191.999994140625,6|8,0:0|0:0,0:0:0:0:
104,96,147192,1,0,2:0:0:0:
304,128,147306,2,0,L|200:128,2,95.9999970703126,0|0|8,0:0|0:0|0:0,0:0:0:0:
480,128,147647,2,0,L|480:32,1,95.9999970703126,2|0,2:1|0:0,0:0:0:0:
304,160,147874,37,0,2:0:0:0:
480,192,147988,2,0,L|368:192,1,95.9999970703126,10|0,0:0|2:2,0:0:0:0:
208,264,148215,2,0,L|320:264,1,95.9999970703126,0|2,0:0|0:0,0:0:0:0:
32,248,148442,2,0,L|136:248,1,95.9999970703126,8|2,0:0|0:0,0:0:0:0:
216,192,148670,6,0,L|120:192,1,88.000002685547,0|0,0:0|2:0,0:0:0:0:
320,192,148897,2,0,L|432:192,2,88.000002685547,10|0|2,0:0|2:0|0:0,0:0:0:0:
104,128,149238,2,0,L|200:128,1,95.9999970703126,0|10,0:0|0:0,0:0:0:0:
408,128,149465,2,0,L|312:128,1,95.9999970703126,2|0,0:0|2:2,0:0:0:0:
128,192,149692,1,0,0:0:0:0:
312,80,149806,6,0,P|368:96|456:264,1,240,14|0,0:0|0:0,0:0:0:0:
256,192,150261,1,8,0:0:0:0:
160,192,150374,1,8,3:0:0:0:
256,24,150488,37,6,0:0:0:0:
448,96,150601,1,0,2:0:0:0:
352,96,150715,1,0,0:0:0:0:
256,96,150829,1,2,2:0:0:0:
448,152,150942,1,2,0:2:0:0:
256,152,151056,1,0,0:0:0:0:
448,192,151170,1,8,0:0:0:0:
352,192,151283,1,2,2:0:0:0:
160,248,151397,6,0,L|264:248,1,95.9999970703126,2|0,0:0|2:0,0:0:0:0:
32,312,151624,2,0,L|152:312,2,95.9999970703126,10|2|2,0:0|2:0|0:2,0:0:0:0:
224,192,151965,1,0,0:0:0:0:
128,192,152079,1,8,0:0:0:0:
32,192,152193,1,2,2:2:0:0:
224,80,152306,5,2,0:0:0:0:
408,80,152420,2,0,L|456:80,2,47.9999985351563,0|2|8,2:0|2:0|0:0,0:0:0:0:
224,112,152647,1,8,0:0:0:0:
408,152,152761,2,0,L|408:264,1,95.9999970703126,0|2,0:0|0:2,0:0:0:0:
192,232,152988,2,0,L|312:232,1,95.9999970703126,8|2,0:0|2:2,0:0:0:0:
464,80,153215,6,0,L|336:80,1,95.9999970703126,2|0,0:0|0:0,0:0:0:0:
136,344,153442,2,0,L|384:344,1,240,14|0,0:0|0:0,0:0:0:0:
192,280,153897,2,0,L|72:280,1,95.9999970703126,8|0,0:0|3:0,0:0:0:0:
352,192,154124,5,6,0:2:0:0:
440,192,154200,2,0,L|456:256,1,63.9999980468751,2|2,3:2|3:2,0:0:0:0:
256,280,154351,2,0,L|184:280,2,63.9999980468751,8|0|0,0:2|3:2|3:2,0:0:0:0:
400,280,154579,2,0,L|472:280,2,63.9999980468751,2|2|2,0:2|3:2|3:2,0:0:0:0:
160,192,154806,5,8,0:2:0:0:
72,192,154882,2,0,L|56:256,1,63.9999980468751,0|0,3:2|3:2,0:0:0:0:
256,280,155033,2,0,L|328:280,2,63.9999980468751,2|2|2,0:2|3:2|3:2,0:0:0:0:
112,280,155261,2,0,L|40:280,2,63.9999980468751,8|0|0,0:2|3:2|3:2,0:0:0:0:
352,192,155488,5,2,0:2:0:0:
432,192,155564,2,0,L|432:112,1,63.9999980468751,2|2,3:2|3:2,0:0:0:0:
192,40,155715,1,8,0:2:0:0:
256,40,155790,1,0,3:2:0:0:
320,40,155866,1,0,3:2:0:0:
160,192,155942,5,6,0:2:0:0:
80,192,156018,2,0,L|80:112,1,63.9999980468751,0|2,3:2|3:2,0:0:0:0:
320,104,156170,1,14,0:2:0:0:
256,104,156245,1,0,3:2:0:0:
192,104,156321,1,2,3:2:0:0:
352,192,156397,6,0,L|432:192,2,63.9999980468751,0|0|2,0:2|3:2|3:2,0:0:0:0:
160,192,156624,2,0,L|80:192,2,63.9999980468751,10|0|2,0:2|3:2|3:2,0:0:0:0:
416,48,156851,6,0,L|512:48,1,63.9999980468751,6|0,0:2|3:2,0:0:0:0:
288,48,157003,2,0,L|224:48,1,63.9999980468751,2|12,3:2|0:2,0:0:0:0:
416,88,157155,2,0,L|496:88,1,63.9999980468751,0|2,3:2|3:2,0:0:0:0:
96,48,157306,6,0,L|0:48,1,63.9999980468751,10|2,0:2|3:2,0:0:0:0:
224,96,157458,2,0,L|304:96,1,63.9999980468751,2|14,3:2|0:2,0:0:0:0:
96,88,157610,2,0,L|8:88,1,63.9999980468751,2|2,3:2|3:2,0:0:0:0:
440,240,157761,6,0,L|320:240,1,95.9999970703126,6|0,0:0|2:2,0:0:0:0:
72,240,157988,2,0,L|192:240,1,95.9999970703126,8|0,0:0|2:0,0:0:0:0:
344,304,158215,1,2,0:2:0:0:
160,304,158329,1,0,0:0:0:0:
256,304,158442,1,8,0:0:0:0:
160,304,158556,1,2,2:0:0:0:
488,48,158670,6,0,L|280:48,1,191.999994140625,2|8,0:2|0:0,0:0:0:0:
80,192,159011,1,0,2:0:0:0:
168,192,159124,1,2,0:2:0:0:
432,192,159238,1,2,0:2:0:0:
256,128,159465,5,0,0:0:0:0:
352,128,159579,2,0,L|480:128,1,95.9999970703126,2|0,0:2|2:0,0:0:0:0:
160,320,159806,2,0,L|272:320,1,95.9999970703126,8|2,0:0|2:0,0:0:0:0:
472,320,160033,2,0,L|360:320,1,95.9999970703126,0|0,0:0|0:0,0:0:0:0:
160,256,160261,2,0,L|160:160,1,95.9999970703126,8|2,0:0|2:2,0:0:0:0:
368,128,160488,2,0,L|272:128,1,95.9999970703126,2|0,0:2|2:2,0:0:0:0:
24,48,160715,6,0,L|272:48,1,240,14|0,0:0|0:0,0:0:0:0:
480,192,161170,2,0,L|368:192,1,95.9999970703126,8|0,0:0|0:0,0:0:0:0:
288,192,161397,6,0,L|392:192,1,95.9999970703126,6|0,0:0|2:0,0:0:0:0:
160,264,161624,2,0,L|152:168,1,95.9999970703126,8|2,0:0|2:0,0:0:0:0:
360,72,161851,2,0,L|256:72,1,95.9999970703126,2|0,0:2|0:0,0:0:0:0:
48,72,162079,2,0,L|160:72,1,95.9999970703126,8|2,0:0|2:0,0:0:0:0:
384,152,162306,6,0,L|496:152,1,95.9999970703126,2|0,0:2|2:0,0:0:0:0:
384,192,162533,2,0,L|280:192,1,95.9999970703126,8|2,0:0|2:0,0:0:0:0:
104,248,162761,2,0,L|208:248,2,95.9999970703126,0|2|8,0:0|0:2|0:2,0:0:0:0:
312,248,163101,1,2,2:0:0:0:
136,192,163215,5,2,0:2:0:0:
72,192,163291,1,0,2:0:0:0:
48,128,163367,1,0,2:0:0:0:
256,72,163442,37,10,0:2:0:0:
192,72,163518,1,2,2:2:0:0:
128,72,163594,1,0,2:2:0:0:
376,192,163670,5,2,0:2:0:0:
440,192,163746,1,0,2:0:0:0:
464,128,163822,1,0,2:0:0:0:
256,128,163897,37,10,0:2:0:0:
320,128,163973,1,2,2:2:0:0:
384,128,164049,1,0,2:2:0:0:
126,193,164124,5,2,0:2:0:0:
54,193,164200,1,0,2:0:0:0:
126,193,164276,1,0,2:0:0:0:
320,256,164351,37,14,0:0:0:0:
256,256,164427,1,0,2:2:0:0:
192,256,164503,1,2,2:2:0:0:
386,193,164579,5,2,0:2:0:0:
458,193,164655,1,0,2:0:0:0:
386,193,164731,1,0,2:0:0:0:
192,256,164806,37,10,0:2:0:0:
256,256,164882,1,2,2:2:0:0:
320,256,164958,1,2,2:2:0:0:
120,224,165033,6,0,L|56:224,2,53.3333333333333,6|0|0,0:0|2:0|2:0,0:0:0:0:
392,224,165261,6,0,L|456:224,2,53.3333333333333,10|0|0,0:2|2:0|2:0,0:0:0:0:
112,192,165488,38,0,L|26:191,2,63.9999980468751,2|0|0,0:2|2:0|2:0,0:0:0:0:
400,192,165716,6,0,L|488:192,2,63.9999980468751,10|0|0,0:2|2:0|2:0,0:0:0:0:
104,160,165942,6,0,L|24:160,2,74.6666643880209,2|0|0,0:2|2:0|2:0,0:0:0:0:
408,160,166170,6,0,L|496:160,2,74.6666643880209,10|0|0,0:2|2:0|2:0,0:0:0:0:
96,128,166397,38,0,L|8:128,2,85.3333333333333,2|0|0,0:2|2:0|2:0,0:0:0:0:
416,128,166625,6,0,L|512:128,2,85.3333333333333,10|0|0,0:2|2:0|2:0,0:0:0:0:
208,272,166851,5,2,0:2:0:0:
304,272,166965,1,2,2:2:0:0:
120,272,167079,1,8,0:2:0:0:
120,192,167192,1,2,0:2:0:0:
328,120,167306,5,0,0:2:0:0:
232,120,167420,1,0,2:2:0:0:
328,56,167533,1,10,0:2:0:0:
120,24,167647,2,0,P|72:48|136:112,1,160,2|0,0:0|0:0,0:0:0:0:
392,104,167988,6,0,P|456:120|384:224,1,240,14|0,0:0|0:0,0:0:0:0:
128,192,168442,2,0,L|232:192,1,95.9999970703126,8|0,0:0|3:0,0:0:0:0:
128,128,168670,6,0,L|16:128,1,95.9999970703126,6|0,0:0|2:0,0:0:0:0:
256,64,168897,2,0,L|136:64,2,95.9999970703126,8|0|2,0:0|0:0|0:2,0:0:0:0:
432,112,169238,1,0,0:0:0:0:
256,168,169351,2,0,L|151:168,1,95.9999970703126,8|0,0:0|2:0,0:0:0:0:
360,192,169579,6,0,P|424:256|336:296,1,191.999994140625,2|8,0:2|0:0,0:0:0:0:
256,304,169920,1,0,0:0:0:0:
40,264,170033,2,0,L|152:264,1,95.9999970703126,2|0,0:2|0:0,0:0:0:0:
352,360,170261,2,0,L|248:360,1,95.9999970703126,12|0,0:2|0:0,0:0:0:0:
456,328,170488,6,0,L|464:224,1,95.9999970703126,2|0,0:2|2:0,0:0:0:0:
160,248,170715,2,0,L|352:248,1,191.999994140625,12|0,0:2|0:0,0:0:0:0:
176,288,171056,1,0,0:0:0:0:
352,192,171170,2,0,L|448:192,1,95.9999970703126,10|0,0:2|0:0,0:0:0:0:
160,96,171397,6,0,L|352:96,2,191.999994140625,2|8|0,0:2|0:0|0:0,0:0:0:0:
352,32,171965,2,0,L|240:32,2,95.9999970703126,8|8|8,0:0|0:0|0:0,0:0:0:0:
128,192,172306,5,6,0:1:0:0:
224,192,172420,1,0,0:0:0:0:
112,232,172533,1,0,0:0:0:0:
208,232,172647,1,0,0:0:0:0:
96,272,172761,1,8,0:2:0:0:
192,272,172874,1,0,0:0:0:0:
80,312,172988,1,0,0:0:0:0:
176,312,173101,1,0,0:0:0:0:
400,96,173215,6,0,L|288:96,2,95.9999970703126,2|0|0,0:2|0:0|0:0,0:0:0:0:
112,96,173556,2,0,L|224:96,2,95.9999970703126,2|8|0,0:2|0:2|0:0,0:0:0:0:
400,32,173897,2,0,L|304:32,1,95.9999970703126,2|0,0:2|0:0,0:0:0:0:
128,192,174124,5,0,0:0:0:0:
224,192,174238,1,0,0:0:0:0:
112,232,174351,1,0,0:0:0:0:
208,232,174465,1,0,0:0:0:0:
96,272,174579,1,8,0:2:0:0:
192,272,174692,1,0,0:0:0:0:
80,312,174806,1,0,0:0:0:0:
176,312,174919,1,0,0:0:0:0:
392,312,175033,6,0,L|408:200,1,95.9999970703126,2|0,0:2|0:0,0:0:0:0:
200,144,175261,2,0,L|296:144,1,95.9999970703126,0|0,0:0|0:0,0:0:0:0:
80,136,175488,2,0,P|16:176|96:240,1,191.999994140625,8|0,0:2|0:0,0:0:0:0:
176,248,175829,1,0,0:0:0:0:
384,192,175942,5,2,0:2:0:0:
288,192,176056,1,0,0:0:0:0:
400,232,176169,1,0,0:0:0:0:
304,232,176283,1,0,0:0:0:0:
416,272,176397,1,8,0:2:0:0:
320,272,176510,1,0,0:0:0:0:
432,312,176624,1,0,0:0:0:0:
336,312,176737,1,0,0:0:0:0:
112,96,176851,6,0,L|224:96,2,95.9999970703126,2|0|0,0:2|0:0|0:0,0:0:0:0:
400,96,177192,2,0,L|288:96,2,95.9999970703126,2|8|0,0:2|0:2|0:0,0:0:0:0:
112,32,177533,2,0,L|208:32,1,95.9999970703126,2|0,0:2|0:0,0:0:0:0:
384,192,177761,5,0,0:0:0:0:
288,192,177875,1,0,0:0:0:0:
400,232,177988,1,0,0:0:0:0:
304,232,178102,1,0,0:0:0:0:
416,272,178216,1,8,0:2:0:0:
320,272,178329,1,0,0:0:0:0:
432,312,178443,1,0,0:0:0:0:
336,312,178556,1,0,0:0:0:0:
120,88,178670,6,0,L|104:208,1,95.9999970703126,2|0,0:2|0:0,0:0:0:0:
304,48,178898,2,0,L|208:48,1,95.9999970703126,0|0,0:0|0:0,0:0:0:0:
392,88,179124,2,0,L|408:208,1,95.9999970703126,8|8,0:1|0:1,0:0:0:0:
208,128,179351,2,0,L|304:128,1,95.9999970703126,8|8,0:0|0:0,0:0:0:0:
128,56,179579,6,0,L|32:56,7,95.9999970703126,6|0|0|0|8|0|0|0,0:1|0:0|0:0|0:0|0:2|0:0|0:0|0:0,0:0:0:0:
208,96,180488,6,0,L|320:96,2,95.9999970703126,2|0|0,0:1|0:0|0:0,0:0:0:0:
440,192,180829,2,0,L|328:192,2,95.9999970703126,2|8|0,0:1|0:2|0:0,0:0:0:0:
256,192,181170,2,0,L|144:192,1,95.9999970703126,2|0,0:1|0:0,0:0:0:0:
384,56,181397,6,0,L|480:56,7,95.9999970703126,4|0|0|0|8|0|0|0,0:1|0:0|0:0|0:0|0:2|0:0|0:0|0:0,0:0:0:0:
304,288,182306,6,0,L|192:288,2,95.9999970703126,2|0|0,0:1|0:0|0:0,0:0:0:0:
72,192,182647,2,0,L|184:192,2,95.9999970703126,2|8|0,0:1|0:2|0:0,0:0:0:0:
256,192,182988,2,0,L|368:192,1,95.9999970703126,2|0,0:1|0:0,0:0:0:0:
128,56,183215,6,0,L|32:56,3,95.9999970703126,4|0|0|0,0:1|0:0|0:0|0:0,0:0:0:0:
384,56,183670,2,0,L|480:56,3,95.9999970703126,10|0|0|0,0:1|0:0|0:0|0:0,0:0:0:0:
128,104,184124,6,0,L|32:104,3,95.9999970703126,2|0|0|0,0:1|0:0|0:0|0:0,0:0:0:0:
384,104,184579,2,0,L|480:104,3,95.9999970703126,10|0|0|0,0:1|0:0|0:0|0:0,0:0:0:0:
176,192,185033,6,0,L|48:192,1,95.9999970703126,6|0,0:1|0:0,0:0:0:0:
256,192,185261,1,0,0:0:0:0:
80,192,185374,1,0,0:0:0:0:
336,192,185488,2,0,L|464:192,1,95.9999970703126,8|0,0:1|0:0,0:0:0:0:
256,192,185716,1,0,0:0:0:0:
432,192,185829,1,0,0:0:0:0:
176,320,185942,6,0,L|48:320,1,95.9999970703126,0|0,0:0|0:0,0:0:0:0:
256,320,186170,1,0,0:0:0:0:
80,320,186283,1,0,0:0:0:0:
336,320,186397,2,0,L|464:320,1,95.9999970703126,8|0,0:1|0:0,0:0:0:0:
256,320,186625,1,2,0:1:0:0:
432,320,186738,1,2,0:1:0:0:
192,152,186851,6,0,L|88:152,1,95.9999970703126,6|0,0:1|0:0,0:0:0:0:
320,152,187079,1,0,0:0:0:0:
96,80,187192,2,0,L|208:80,2,95.9999970703126,2|8|0,0:1|0:2|0:0,0:0:0:0:
320,232,187533,6,0,L|424:232,1,95.9999970703126,2|0,0:1|0:0,0:0:0:0:
192,232,187761,1,8,0:2:0:0:
416,304,187874,2,0,L|304:304,2,95.9999970703126,8|8|8,0:2|0:0|0:0,0:0:0:0:
144,104,188215,2,0,P|64:136|168:264,1,287.999991210938,4|0,0:0|0:0,0:0:0:0:
480,296,188670,6,0,P|336:256|488:112,1,448,4|0,0:0|0:0,0:0:0:0:
480,192,189614,2,0,L|32:192,1,448,2|0,0:0|0:0,0:0:0:0:
32,296,190559,6,0,P|176:256|24:112,1,448,2|0,0:0|0:0,0:0:0:0:
120,48,191504,2,0,L|120:240,1,192,2|0,0:0|0:0,0:0:0:0:
216,48,191977,2,0,L|216:248,1,192,2|0,0:0|0:0,0:0:0:0:
304,48,192449,6,0,P|432:96|288:288,1,448,2|0,0:0|0:0,0:0:0:0:
208,48,193394,2,0,P|80:96|224:288,1,448,2|0,0:0|0:0,0:0:0:0:
304,56,194339,2,0,P|208:56|320:248,1,448,2|0,0:0|0:0,0:0:0:0:
384,32,195284,5,2,0:0:0:0:
437,37,195362,1,0,0:0:0:0:
477,71,195441,1,0,0:0:0:0:
493,121,195520,1,0,0:0:0:0:
478,172,195598,1,0,0:0:0:0:
438,206,195677,1,0,0:0:0:0:
376,216,195756,2,0,L|320:216,2,53.3333333333333,2|0|0,0:0|0:0|0:0,0:0:0:0:
440,272,195992,2,0,L|504:272,2,53.3333333333333,2|0|2,0:0|0:0|0:0,0:0:0:0:
216,280,196229,5,0,0:0:0:0:
209,173,196386,1,0,0:0:0:0:
312,192,196465,2,0,L|312:104,1,80,2|0,0:0|0:0,0:0:0:0:
440,136,196701,2,0,L|448:56,1,80,2|0,0:0|0:0,0:0:0:0:
352,32,196937,1,2,0:0:0:0:
448,32,197055,1,0,0:0:0:0:
344,16,197173,1,2,0:0:0:0:
456,16,197292,1,0,0:0:0:0:
344,16,197410,1,2,0:0:0:0:
456,16,197528,1,0,0:0:0:0:
256,192,197646,5,2,0:0:0:0:
205,182,197724,1,0,0:0:0:0:
169,144,197803,1,0,0:0:0:0:
163,92,197882,1,2,0:0:0:0:
189,47,197960,1,2,0:0:0:0:
237,26,198039,1,0,0:0:0:0:
424,104,198118,5,0,0:0:0:0:
432,210,198276,1,0,0:0:0:0:
328,208,198355,1,2,0:0:0:0:
328,248,198433,1,0,0:0:0:0:
328,288,198512,1,0,0:0:0:0:
208,152,198591,2,0,L|200:232,1,80,0|2,0:0|0:0,0:0:0:0:
304,120,198827,1,0,0:0:0:0:
208,120,198945,1,2,0:0:0:0:
312,104,199063,1,0,0:0:0:0:
200,104,199182,1,2,0:0:0:0:
312,104,199300,1,0,0:0:0:0:
200,104,199418,1,0,0:0:0:0:
456,56,199536,5,2,0:0:0:0:
464,108,199614,1,0,0:0:0:0:
452,159,199693,1,0,0:0:0:0:
420,201,199772,1,2,0:0:0:0:
373,227,199850,1,2,0:0:0:0:
320,232,199929,1,2,0:0:0:0:
96,280,200008,5,0,0:0:0:0:
89,173,200166,1,0,0:0:0:0:
192,192,200244,2,0,L|192:104,1,80,2|0,0:0|0:0,0:0:0:0:
320,136,200480,2,0,L|328:56,1,80,2|0,0:0|0:0,0:0:0:0:
232,32,200716,1,2,0:0:0:0:
328,32,200834,1,0,0:0:0:0:
224,16,200952,1,0,0:0:0:0:
336,16,201071,1,0,0:0:0:0:
224,16,201189,1,2,0:0:0:0:
336,16,201307,1,0,0:0:0:0:
224,80,201425,6,0,L|224:160,1,80,2|0,0:0|0:0,0:0:0:0:
104,192,201662,2,0,L|88:280,1,80,2|0,0:0|0:0,0:0:0:0:
408,192,201898,6,0,L|496:192,2,63.9999980468751,2|0|0,0:0|0:0|0:0,0:0:0:0:
256,288,202134,1,2,0:0:0:0:
312,288,202212,1,0,0:0:0:0:
368,288,202291,1,0,0:0:0:0:
104,192,202370,6,0,L|8:192,2,63.9999980468751,2|0|0,0:0|0:0|0:0,0:0:0:0:
256,352,202607,1,2,0:0:0:0:
200,352,202685,1,2,0:0:0:0:
144,352,202764,1,2,0:0:0:0:
288,40,202843,6,0,B|512:40|512:40|0:40|0:40|232:40,1,960,2|0,0:0|0:0,0:0:0:0:
448,192,204732,6,0,L|464:280,1,80,12|0,0:0|0:0,0:0:0:0:
256,240,204959,2,0,L|344:240,1,80,8|0,0:0|0:0,0:0:0:0:
64,192,205186,2,0,L|48:280,1,80,8|0,0:0|0:0,0:0:0:0:
256,304,205413,2,0,L|160:304,1,80,8|0,0:0|0:0,0:0:0:0:
352,192,205641,6,0,L|440:192,1,80,8|2,0:0|0:2,0:0:0:0:
256,192,205868,1,8,0:0:0:0:
432,192,205982,1,2,0:2:0:0:
160,128,206095,6,0,L|72:128,1,80,8|2,3:0|3:2,0:0:0:0:
256,128,206322,1,8,3:0:0:0:
80,128,206436,1,2,3:2:0:0:
344,336,206550,6,0,P|406:303|336:240,1,191.999994140625,4|0,0:0|0:0,0:0:0:0:
256,240,206891,1,0,2:2:0:0:
24,280,207004,2,0,L|136:280,1,95.9999970703126,2|0,0:2|0:0,0:0:0:0:
312,120,207232,2,0,L|200:120,1,95.9999970703126,8|0,0:0|0:0,0:0:0:0:
392,56,207459,6,0,L|488:56,2,95.9999970703126,2|0|8,0:2|2:2|0:0,0:0:0:0:
176,256,207800,2,0,L|168:160,1,95.9999970703126,2|0,0:2|2:0,0:0:0:0:
392,192,208027,2,0,L|288:192,2,95.9999970703126,2|8|2,0:2|0:0|0:2,0:0:0:0:
56,336,208368,6,0,L|272:336,1,191.999994140625,2|8,0:2|0:0,0:0:0:0:
152,296,208709,1,0,2:0:0:0:
376,232,208822,2,0,L|384:336,1,95.9999970703126,2|0,0:2|0:0,0:0:0:0:
160,192,209050,2,0,L|272:192,1,95.9999970703126,8|0,0:0|0:0,0:0:0:0:
448,80,209277,5,2,0:2:0:0:
352,80,209390,1,0,2:0:0:0:
256,80,209504,1,10,0:2:0:0:
40,40,209618,2,0,L|160:40,1,95.9999970703126,2|0,0:2|2:0,0:0:0:0:
352,192,209845,2,0,L|360:288,1,95.9999970703126,2|8,0:2|0:0,0:0:0:0:
160,272,210072,6,0,L|272:272,2,95.9999970703126,2|4|2,0:2|0:0|0:2,0:0:0:0:
448,96,210413,2,0,L|248:96,1,191.999994140625,8|0,0:0|0:0,0:0:0:0:
160,96,210754,1,0,0:0:0:0:
352,256,210868,2,0,L|456:256,1,95.9999970703126,8|0,0:0|2:2,0:0:0:0:
192,312,211095,6,0,P|120:264|200:192,1,191.999994140625,0|8,0:0|0:0,0:0:0:0:
280,160,211436,1,0,0:0:0:0:
168,160,211550,1,2,2:2:0:0:
344,128,211663,1,0,0:0:0:0:
168,128,211777,1,10,0:2:0:0:
344,216,211891,6,0,P|416:168|336:96,1,191.999994140625,2|2,0:2|2:2,0:0:0:0:
160,32,212232,2,0,L|352:32,1,191.999994140625,10|0,0:2|0:0,0:0:0:0:
256,72,212572,1,0,0:0:0:0:
48,168,212686,2,0,L|40:264,1,95.9999970703126,10|2,0:2|2:0,0:0:0:0:
230,324,212913,5,4,0:2:0:0:
134,324,213026,1,0,2:0:0:0:
38,324,213140,1,8,0:0:0:0:
256,256,213254,2,0,L|368:256,2,95.9999970703126,4|0|8,0:2|0:0|0:0,0:0:0:0:
80,192,213595,1,10,0:2:0:0:
256,192,213709,1,8,0:0:0:0:
464,40,213822,6,0,L|472:144,1,95.9999970703126,4|2,0:0|2:2,0:0:0:0:
296,280,214050,2,0,L|424:280,1,95.9999970703126,8|2,0:0|2:2,0:0:0:0:
48,40,214391,5,2,0:2:0:0:
152,40,214504,1,8,0:0:0:0:
48,40,214618,1,2,2:2:0:0:
360,120,214845,37,2,2:2:0:0:
256,120,214959,1,8,0:0:0:0:
152,120,215072,1,2,0:2:0:0:
464,40,215300,5,2,0:2:0:0:
360,40,215413,1,8,0:0:0:0:
464,40,215527,1,2,2:2:0:0:
152,192,215641,37,4,0:0:0:0:
256,192,215755,1,2,2:2:0:0:
360,192,215869,1,8,0:0:0:0:
152,248,215982,1,2,2:2:0:0:
360,304,216209,5,10,0:2:0:0:
256,304,216322,1,10,0:2:0:0:
152,304,216436,1,10,0:2:0:0:
360,248,216550,6,0,P|424:224|472:80,1,191.999994140625,6|8,0:0|0:0,0:0:0:0:
160,40,216891,2,0,L|368:40,1,191.999994140625,12|2,0:2|0:0,0:0:0:0:
152,128,217232,2,0,L|48:128,1,95.9999970703126,10|0,0:0|0:0,0:0:0:0:
360,296,217459,6,0,P|424:264|352:200,1,191.999994140625,4|8,0:0|0:0,0:0:0:0:
256,192,217800,1,0,2:0:0:0:
56,192,217913,2,0,L|160:192,2,95.9999970703126,2|0|10,0:2|0:0|0:2,0:0:0:0:
352,80,218254,6,0,L|152:80,1,191.999994140625,2|0,0:2|2:0,0:0:0:0:
256,120,218595,1,8,0:0:0:0:
432,136,218709,2,0,P|488:168|408:248,1,191.999994140625,2|0,0:2|0:0,0:0:0:0:
208,328,219050,2,0,L|312:328,1,95.9999970703126,8|0,0:0|0:0,0:0:0:0:
72,296,219277,6,0,L|64:200,1,95.9999970703126,2|0,0:2|2:0,0:0:0:0:
256,240,219504,2,0,L|264:128,1,95.9999970703126,8|2,0:0|2:2,0:0:0:0:
64,88,219731,2,0,L|176:88,2,95.9999970703126,2|0|8,0:2|0:0|0:0,0:0:0:0:
256,128,220072,2,0,L|384:128,1,95.9999970703126,2|0,0:2|0:0,0:0:0:0:
80,312,220300,21,10,0:0:0:0:
256,312,220413,1,10,0:0:0:0:
72,264,220527,1,10,0:0:0:0:
432,312,220641,21,8,0:3:0:0:
256,312,220754,1,10,0:2:0:0:
440,264,220868,1,8,0:0:0:0:
160,192,220981,1,10,0:2:0:0:
352,40,221095,6,0,P|416:80|336:144,1,191.999994140625,12|8,0:0|0:0,0:0:0:0:
256,152,221436,1,0,2:2:0:0:
48,288,221550,2,0,L|160:288,1,95.9999970703126,2|0,0:2|0:0,0:0:0:0:
352,288,221777,2,0,L|248:288,1,95.9999970703126,8|0,0:0|0:0,0:0:0:0:
448,192,222004,6,0,L|456:88,1,95.9999970703126,2|0,0:2|2:0,0:0:0:0:
272,72,222231,1,8,0:0:0:0:
456,96,222345,2,0,L|336:96,1,95.9999970703126,2|0,0:2|2:0,0:0:0:0:
160,192,222572,2,0,L|264:192,2,95.9999970703126,2|8|2,0:2|0:0|0:2,0:0:0:0:
368,192,222913,6,0,L|376:288,1,95.9999970703126,6|0,0:2|2:0,0:0:0:0:
160,280,223141,2,0,L|264:280,1,95.9999970703126,8|0,0:0|0:0,0:0:0:0:
48,240,223368,2,0,L|40:336,1,95.9999970703126,2|0,0:2|0:0,0:0:0:0:
256,232,223595,2,0,L|152:232,1,95.9999970703126,8|0,0:0|2:2,0:0:0:0:
360,192,223822,6,0,L|464:192,1,95.9999970703126,2|0,0:2|2:0,0:0:0:0:
272,144,224050,1,10,0:2:0:0:
456,248,224163,2,0,L|464:344,1,95.9999970703126,2|0,0:2|2:0,0:0:0:0:
272,352,224391,2,0,L|368:352,1,95.9999970703126,2|8,0:2|0:0,0:0:0:0:
176,352,224618,6,0,L|80:352,2,95.9999970703126,2|4|2,0:2|0:0|0:2,0:0:0:0:
400,64,224959,2,0,L|192:64,1,191.999994140625,8|0,0:0|0:0,0:0:0:0:
400,152,225300,1,0,0:0:0:0:
288,152,225413,1,10,0:2:0:0:
400,152,225527,1,0,2:0:0:0:
104,224,225641,6,0,L|216:224,1,95.9999970703126,2|0,0:2|2:0,0:0:0:0:
16,192,225868,1,8,0:0:0:0:
200,48,225981,2,0,L|208:144,1,95.9999970703126,2|0,0:2|0:0,0:0:0:0:
72,48,226209,2,0,L|64:152,1,95.9999970703126,0|8,0:0|0:0,0:0:0:0:
256,320,226436,6,0,P|320:280|232:224,1,191.999994140625,4|0,0:2|2:0,0:0:0:0:
56,80,226777,2,0,L|160:80,1,95.9999970703126,8|0,0:0|2:2,0:0:0:0:
352,32,227004,2,0,L|256:32,2,95.9999970703126,2|0|10,0:2|0:0|0:2,0:0:0:0:
160,32,227345,1,4,0:2:0:0:
392,112,227459,6,0,L|512:112,1,95.9999970703126,0|8,2:0|0:0,0:0:0:0:
256,152,227686,2,0,L|376:152,1,95.9999970703126,8|0,0:0|3:0,0:0:0:0:
120,112,227913,2,0,L|0:112,1,95.9999970703126,8|8,0:0|0:0,0:0:0:0:
256,152,228140,2,0,L|136:152,1,95.9999970703126,2|2,0:0|0:0,0:0:0:0:
416,304,228368,38,2,P|480:248|400:200,1,191.999994140625,6|8,0:0|0:0,0:0:0:0:
320,192,228709,1,0,2:0:0:0:
136,304,228822,2,0,L|256:304,1,95.9999970703126,0|0,0:0|0:0,0:0:0:0:
48,304,229050,2,0,L|48:208,1,95.9999970703126,10|0,0:0|2:0,0:0:0:0:
352,120,229277,6,0,L|144:120,1,191.999994140625,0|10,0:0|0:0,0:0:0:0:
352,192,229618,2,0,L|472:192,1,95.9999970703126,2|0,0:0|2:0,0:0:0:0:
160,192,229845,2,0,L|256:192,2,95.9999970703126,2|8|2,0:0|0:0|0:0,0:0:0:0:
352,328,230186,6,0,P|424:288|392:184,1,191.999994140625,4|10,0:2|0:0,0:0:0:0:
208,104,230527,2,0,L|96:104,2,95.9999970703126,0|0|8,0:0|0:0|0:0,0:0:0:0:
400,104,230868,1,10,0:0:0:0:
208,136,230981,1,8,0:0:0:0:
400,288,231095,6,0,P|472:256|456:136,1,191.999994140625,12|8,0:0|0:0,0:0:0:0:
256,40,231436,2,0,L|456:40,1,191.999994140625,12|0,0:0|3:3,0:0:0:0:
256,112,231777,2,0,L|144:112,1,95.9999970703126,12|0,0:0|3:3,0:0:0:0:
376,112,232004,6,0,L|376:216,1,95.9999970703126,6|0,0:0|2:0,0:0:0:0:
112,288,232231,2,0,L|224:288,1,95.9999970703126,8|0,0:0|0:0,0:0:0:0:
112,336,232459,2,0,L|-8:336,1,95.9999970703126,0|0,0:0|0:0,0:0:0:0:
208,240,232686,2,0,L|312:240,1,95.9999970703126,8|0,0:0|2:0,0:0:0:0:
24,40,232913,2,0,L|24:144,1,95.9999970703126,0|0,0:0|0:0,0:0:0:0:
208,128,233141,2,0,L|104:128,1,95.9999970703126,8|0,0:0|0:0,0:0:0:0:
344,40,233368,1,2,0:0:0:0:
256,40,233481,1,0,0:0:0:0:
168,40,233595,1,10,0:0:0:0:
384,120,233709,6,0,P|448:152|376:216,1,191.999994140625,6|0,0:0|2:2,0:0:0:0:
160,264,234050,1,8,0:0:0:0:
64,264,234163,1,0,0:0:0:0:
240,304,234277,1,8,0:0:0:0:
56,304,234391,1,8,0:0:0:0:
352,264,234504,1,0,3:3:0:0:
448,264,234617,1,8,0:0:0:0:
272,304,234731,1,0,3:0:0:0:
456,304,234845,1,8,0:0:0:0:
104,48,234959,6,0,L|104:144,1,95.9999970703126,8|0,3:0|3:0,0:0:0:0:
304,88,235186,2,0,L|200:88,1,95.9999970703126,8|0,3:0|3:0,0:0:0:0:
408,48,235413,2,0,L|408:144,1,95.9999970703126,8|0,3:0|3:0,0:0:0:0:
160,312,235641,6,0,L|376:312,1,191.999994140625,4|8,0:0|0:0,0:0:0:0:
256,272,235981,1,0,2:2:0:0:
56,128,236095,2,0,L|176:128,1,95.9999970703126,2|0,0:2|0:0,0:0:0:0:
352,40,236322,2,0,L|160:40,1,191.999994140625,10|0,0:2|0:0,0:0:0:0:
344,112,236663,5,0,2:2:0:0:
144,104,236777,2,0,L|24:104,2,95.9999970703126,10|0|0,0:2|0:0|2:2,0:0:0:0:
344,192,237118,2,0,L|456:192,1,95.9999970703126,2|8,0:2|0:0,0:0:0:0:
256,192,237345,1,0,2:0:0:0:
448,320,237459,6,0,L|256:320,2,191.999994140625,2|8|0,0:2|0:0|0:2,0:0:0:0:
256,272,238027,1,0,0:0:0:0:
64,240,238141,6,0,L|256:240,1,191.999994140625,10|0,0:0|0:0,0:0:0:0:
168,216,238481,1,0,2:0:0:0:
64,216,238595,1,8,0:0:0:0:
360,48,238709,2,0,P|416:72|352:152,1,191.999994140625,0|0,0:0|0:0,0:0:0:0:
152,96,239050,2,0,L|256:96,1,95.9999970703126,8|2,0:0|2:1,0:0:0:0:
152,152,239277,6,0,L|40:152,1,95.9999970703126
360,192,239504,2,0,L|472:192,2,95.9999970703126,10|0|0,0:0|2:0|0:0,0:0:0:0:
152,192,239845,2,0,L|40:192,2,95.9999970703126,2|8|2,0:0|0:0|2:1,0:0:0:0:
432,304,240186,5,0,0:0:0:0:
256,304,240300,1,2,2:1:0:0:
80,304,240413,1,8,0:0:0:0:
256,264,240527,2,0,L|448:264,1,191.999994140625,2|0,0:0|0:0,0:0:0:0:
256,216,240868,2,0,L|136:216,1,95.9999970703126,10|0,0:0|0:0,0:0:0:0:
384,144,241095,6,0,L|488:144,1,95.9999970703126,2|0,0:2|2:0,0:0:0:0:
384,96,241322,2,0,L|280:96,1,95.9999970703126,8|2,0:0|2:0,0:0:0:0:
80,72,241550,2,0,L|184:72,1,95.9999970703126,0|2,0:0|0:2,0:0:0:0:
384,40,241777,2,0,L|280:40,1,95.9999970703126,10|0,0:2|2:0,0:0:0:0:
80,152,242004,5,2,0:0:0:0:
256,152,242118,1,0,2:0:0:0:
80,192,242231,1,10,0:0:0:0:
256,264,242345,2,0,L|64:264,1,191.999994140625,2|0,0:0|0:0,0:0:0:0:
256,352,242686,2,0,L|256:248,1,95.9999970703126,8|0,0:0|2:0,0:0:0:0:
64,112,242913,6,0,L|176:112,1,95.9999970703126,4|0,0:0|2:2,0:0:0:0:
256,64,243141,2,0,L|152:64,1,95.9999970703126,8|2,0:0|2:0,0:0:0:0:
432,64,243368,2,0,L|432:160,1,95.9999970703126,2|2,0:2|0:2,0:0:0:0:
256,192,243595,2,0,L|360:192,1,95.9999970703126,8|2,0:0|0:2,0:0:0:0:
80,352,243822,5,2,0:0:0:0:
256,352,243936,1,0,2:0:0:0:
432,352,244050,1,10,0:0:0:0:
256,296,244163,2,0,L|192:296,1,47.9999985351563,2|0,0:2|2:0,0:0:0:0:
384,288,244277,2,0,P|440:272|360:208,1,191.999994140625,2|8,0:0|0:0,0:0:0:0:
288,192,244618,1,2,2:1:0:0:
392,96,244731,6,0,L|472:96,1,47.9999985351563,2|0,0:0|2:0,0:0:0:0:
384,64,244845,2,0,L|328:64,1,47.9999985351563,2|0,2:0|2:0,0:0:0:0:
176,104,244959,2,0,L|72:104,1,95.9999970703126,8|0,0:0|2:0,0:0:0:0:
256,64,245186,1,10,0:0:0:0:
80,64,245300,1,0,0:0:0:0:
357,192,245413,6,0,P|336:288|157:176,1,383.99998828125,10|8,0:0|0:0,0:0:0:0:
360,88,245981,1,0,0:0:0:0:
256,88,246095,1,2,2:0:0:0:
152,88,246209,1,0,0:0:0:0:
360,32,246322,2,0,L|464:32,1,95.9999970703126,10|0,0:0|0:0,0:0:0:0:
152,32,246550,6,0,L|80:32,1,63.9999980468751,2|0,1:1|3:0,0:0:0:0:
56,72,246701,1,0,3:0:0:0:
256,136,246777,2,0,L|336:136,2,63.9999980468751,10|0|0,1:2|3:0|3:0,0:0:0:0:
96,192,247004,5,0,1:0:0:0:
155,192,247079,1,0,3:0:0:0:
214,192,247155,1,0,3:0:0:0:
64,264,247231,2,0,L|-16:264,2,63.9999980468751,10|0|0,1:2|3:0|3:0,0:0:0:0:
216,344,247459,5,2,1:1:0:0:
157,344,247534,1,0,3:0:0:0:
98,344,247610,1,0,3:0:0:0:
360,32,247686,2,0,L|432:32,1,63.9999980468751,10|0,1:2|3:0,0:0:0:0:
456,72,247837,1,0,3:0:0:0:
256,136,247913,6,0,L|176:136,2,63.9999980468751,2|0|0,1:1|3:0|3:0,0:0:0:0:
416,192,248140,1,10,1:2:0:0:
357,192,248215,1,0,3:0:0:0:
298,192,248291,1,0,3:0:0:0:
448,288,248368,6,0,L|528:288,2,63.9999980468751,0|0|0,0:0|3:0|0:0,0:0:0:0:
296,344,248595,1,10,1:2:0:0:
355,344,248670,1,0,3:0:0:0:
414,344,248746,1,0,3:0:0:0:
184,104,248822,6,0,L|112:104,2,63.9999980468751,2|0|0,1:1|3:0|3:0,0:0:0:0:
328,104,249050,2,0,L|400:104,2,63.9999980468751,14|0|0,1:2|3:0|3:0,0:0:0:0:
176,192,249277,6,0,L|56:192,1,95.9999970703126,2|2,3:1|2:2,0:0:0:0:
256,192,249504,1,10,0:2:0:0:
432,192,249618,1,10,0:2:0:0:
208,288,249731,5,10,0:0:0:0:
304,288,249845,1,10,0:0:0:0:
128,328,249959,1,8,0:0:0:0:
384,328,250072,1,10,0:0:0:0:
128,56,250186,6,0,P|72:80|144:160,1,191.999994140625,6|8,0:0|0:0,0:0:0:0:
216,168,250527,1,0,2:0:0:0:
392,192,250641,2,0,L|288:192,1,95.9999970703126,2|0,0:2|0:0,0:0:0:0:
480,48,250868,2,0,L|480:144,1,95.9999970703126,8|0,0:0|0:0,0:0:0:0:
296,48,251095,2,0,L|400:48,2,95.9999970703126,2|0|8,0:2|2:0|0:0,0:0:0:0:
80,48,251436,2,0,L|176:48,1,95.9999970703126,2|0,0:2|2:0,0:0:0:0:
352,224,251663,1,2,0:2:0:0:
256,224,251776,1,8,0:0:0:0:
160,224,251890,1,2,0:2:0:0:
352,192,252004,6,0,P|408:168|344:88,1,191.999994140625,2|8,0:2|0:0,0:0:0:0:
256,80,252345,1,0,2:2:0:0:
472,296,252459,2,0,L|472:200,1,95.9999970703126,2|0,0:2|0:0,0:0:0:0:
256,304,252686,2,0,L|352:304,1,95.9999970703126,8|0,0:0|0:0,0:0:0:0:
144,304,252913,2,0,L|48:304,1,95.9999970703126,2|0,0:2|2:0,0:0:0:0:
256,256,253141,1,8,0:0:0:0:
48,248,253254,2,0,L|48:152,1,95.9999970703126,2|0,0:2|2:0,0:0:0:0:
256,80,253481,2,0,L|160:80,1,95.9999970703126,2|8,0:2|0:0,0:0:0:0:
368,80,253709,6,0,L|472:80,2,95.9999970703126,2|4|0,0:2|0:0|2:2,0:0:0:0:
160,192,254050,2,0,L|352:192,1,191.999994140625,8|0,0:0|0:0,0:0:0:0:
256,224,254391,1,0,0:0:0:0:
16,288,254504,2,0,L|120:288,1,95.9999970703126,10|2,0:2|0:2,0:0:0:0:
312,336,254731,2,0,L|208:336,2,95.9999970703126,2|0|8,0:2|0:0|0:0,0:0:0:0:
136,40,255072,2,0,L|40:40,1,95.9999970703126,2|0,0:2|2:0,0:0:0:0:
256,136,255300,2,0,L|352:136,1,95.9999970703126,2|8,0:2|0:0,0:0:0:0:
152,328,255527,6,0,P|88:304|32:176,1,191.999994140625,2|0,0:2|2:2,0:0:0:0:
112,192,255868,1,8,0:0:0:0:
192,192,255981,1,0,2:2:0:0:
400,112,256095,2,0,L|304:112,1,95.9999970703126,2|2,0:2|0:2,0:0:0:0:
496,112,256322,1,8,0:0:0:0:
304,48,256436,6,0,P|240:72|312:136,1,191.999994140625,2|0,0:2|2:2,0:0:0:0:
472,192,256777,1,8,0:0:0:0:
256,336,256891,2,0,L|56:336,1,191.999994140625
256,304,257231,1,10,0:0:0:0:
448,336,257345,1,2,2:1:0:0:
160,64,257459,6,0,L|376:64,2,191.999994140625,6|8|0,0:0|0:0|0:0,0:0:0:0:
352,128,258027,2,0,L|456:128,2,95.9999970703126,0|10|2,0:0|0:0|2:1,0:0:0:0:
160,192,258368,2,0,L|48:192,1,95.9999970703126,2|0,0:0|0:0,0:0:0:0:
256,192,258595,1,8,0:0:0:0:
48,112,258709,2,0,L|168:112,1,95.9999970703126,2|0,0:0|2:0,0:0:0:0:
328,56,258936,2,0,L|232:56,1,95.9999970703126,2|8,0:0|0:0,0:0:0:0:
416,264,259163,6,0,P|472:240|400:160,1,191.999994140625,2|0,0:0|2:0,0:0:0:0:
184,280,259504,2,0,L|288:280,1,95.9999970703126,8|0,0:0|2:2,0:0:0:0:
184,240,259731,2,0,L|88:240,1,95.9999970703126,0|0,0:0|0:0,0:0:0:0:
328,192,259959,2,0,L|432:192,1,95.9999970703126,10|2,0:0|0:0,0:0:0:0:
184,64,260186,6,0,P|104:80|104:208,1,191.999994140625,6|8,3:1|0:0,0:0:0:0:
328,64,260527,2,0,P|408:80|408:208,1,191.999994140625,6|0,3:1|3:0,0:0:0:0:
88,272,260868,2,0,L|208:272,1,95.9999970703126,14|0,1:0|3:0,0:0:0:0:
424,272,261095,6,0,L|304:272,1,95.9999970703126,6|0,0:0|3:0,0:0:0:0:
112,128,261322,2,0,L|216:128,1,95.9999970703126,8|0,0:0|3:0,0:0:0:0:
24,128,261550,1,0,3:0:0:0:
208,192,261663,1,0,3:0:0:0:
24,192,261777,6,0,L|24:304,1,95.9999970703126,8|0,0:0|3:0,0:0:0:0:
208,325,262004,2,0,L|104:325,1,95.9999970703126,0|0,3:0|3:0,0:0:0:0:
208,293,262231,2,0,L|304:293,1,95.9999970703126,8|0,0:0|3:0,0:0:0:0:
488,192,262459,2,0,L|384:192,2,95.9999970703126,2|2|8,3:1|3:1|0:0,0:0:0:0:
160,104,262800,6,0,L|368:104,1,191.999994140625,6|0,0:0|3:0,0:0:0:0:
256,144,263141,1,8,0:0:0:0:
160,144,263254,1,0,3:0:0:0:
352,232,263368,2,0,L|240:232,1,95.9999970703126,0|0,3:0|3:0,0:0:0:0:
464,96,263595,2,0,L|464:192,1,95.9999970703126,8|0,0:0|3:0,0:0:0:0:
256,80,263822,5,8,3:0:0:0:
352,80,263936,1,8,3:0:0:0:
160,80,264050,1,2,3:1:0:0:
352,152,264163,2,0,L|408:152,2,47.9999985351563,0|0|8,3:0|3:0|3:0,0:0:0:0:
72,256,264391,1,10,3:1:0:0:
256,256,264504,1,8,3:0:0:0:
440,256,264618,1,2,3:1:0:0:
256,192,264731,6,0,L|160:192,1,95.9999970703126,6|0,3:1|3:0,0:0:0:0:
376,88,264959,2,0,L|480:88,1,95.9999970703126,8|0,0:0|0:0,0:0:0:0:
376,48,265186,2,0,L|280:48,1,95.9999970703126,2|0,3:1|3:0,0:0:0:0:
72,128,265413,2,0,L|184:128,1,95.9999970703126,8|0,0:0|3:0,0:0:0:0:
352,240,265641,2,0,L|256:240,2,95.9999970703126,2|0|8,3:1|3:0|0:0,0:0:0:0:
160,192,265981,2,0,L|160:312,1,95.9999970703126,2|0,3:1|3:0,0:0:0:0:
352,312,266209,2,0,L|248:312,1,95.9999970703126,2|8,3:1|0:0,0:0:0:0:
440,312,266436,1,2,3:1:0:0:
256,32,266550,6,0,P|200:56|264:136,1,191.999994140625,4|8,3:2|0:0,0:0:0:0:
352,136,266891,1,0,3:0:0:0:
144,224,267004,2,0,L|40:224,1,95.9999970703126,2|0,3:1|3:0,0:0:0:0:
256,232,267231,2,0,L|256:328,1,95.9999970703126,0|0,0:0|0:0,0:0:0:0:
48,312,267459,2,0,L|152:312,2,95.9999970703126,2|0|8,3:1|3:0|0:0,0:0:0:0:
352,192,267800,2,0,L|248:192,1,95.9999970703126,2|0,3:1|3:0,0:0:0:0:
48,192,268027,2,0,L|152:192,1,95.9999970703126,2|8,3:1|0:0,0:0:0:0:
352,40,268254,6,0,L|152:40,1,191.999994140625,6|0,3:1|3:0,0:0:0:0:
344,104,268595,2,0,L|456:104,1,95.9999970703126,10|0,0:0|3:0,0:0:0:0:
208,192,268822,2,0,L|312:192,1,95.9999970703126,0|0,3:0|3:0,0:0:0:0:
208,144,269050,2,0,L|104:144,1,95.9999970703126,10|2,0:0|3:1,0:0:0:0:
352,32,269277,2,0,L|256:32,2,95.9999970703126,2|0|8,3:1|0:0|0:0,0:0:0:0:
112,216,269618,2,0,L|112:312,1,95.9999970703126,2|0,3:1|3:0,0:0:0:0:
352,336,269845,2,0,L|256:336,1,95.9999970703126,2|8,3:1|0:0,0:0:0:0:
472,32,270072,6,0,P|472:96|368:160,1,191.999994140625,4|0,3:2|3:0,0:0:0:0:
160,72,270413,2,0,L|264:72,1,95.9999970703126,8|0,0:0|3:0,0:0:0:0:
32,144,270641,2,0,L|144:144,2,95.9999970703126,2|0|10,3:1|3:0|0:0,0:0:0:0:
352,192,270981,6,0,L|160:192,1,191.999994140625,6|0,3:1|3:0,0:0:0:0:
352,320,271322,2,0,L|456:320,1,95.9999970703126,8|8,0:0|0:0,0:0:0:0:
160,320,271550,1,8,0:0:0:0:
352,320,271663,1,8,0:0:0:0:
160,320,271777,2,0,L|56:320,1,95.9999970703126,2|2,3:1|3:1,0:0:0:0:
256,192,272004,6,0,L|352:192,1,95.9999970703126,6|0,3:1|3:0,0:0:0:0:
256,160,272231,2,0,L|144:160,1,95.9999970703126,8|0,0:0|3:0,0:0:0:0:
352,240,272459,2,0,L|352:336,1,95.9999970703126,0|0,3:0|3:0,0:0:0:0:
160,336,272686,2,0,L|264:336,1,95.9999970703126,8|2,0:0|3:1,0:0:0:0:
448,192,272913,2,0,L|352:192,2,95.9999970703126,2|0|8,3:1|3:0|0:0,0:0:0:0:
208,128,273254,2,0,L|96:128,1,95.9999970703126,2|0,3:1|3:0,0:0:0:0:
304,128,273481,2,0,L|416:128,1,95.9999970703126,10|8,0:0|0:0,0:0:0:0:
208,96,273709,1,10,0:0:0:0:
392,48,273822,5,8,3:0:0:0:
453,63,273897,1,0,3:0:0:0:
491,113,273973,1,0,3:0:0:0:
490,176,274049,1,8,3:0:0:0:
449,224,274125,1,0,3:0:0:0:
388,236,274200,1,0,3:0:0:0:
192,192,274277,1,8,3:0:0:0:
256,192,274352,1,0,3:0:0:0:
320,192,274428,1,0,3:0:0:0:
144,296,274504,2,0,L|72:296,2,63.9999980468751,10|8|8,3:1|3:0|3:0,0:0:0:0:
352,112,274731,6,0,L|136:112,1,191.999994140625,6|0,0:0|3:0,0:0:0:0:
352,48,275072,2,0,L|464:48,2,95.9999970703126,14|0|0,0:0|3:0|3:0,0:0:0:0:
160,48,275413,2,0,L|56:48,1,95.9999970703126,14|0,0:0|3:0,0:0:0:0:
256,192,275641,6,0,L|456:192,1,191.999994140625,6|8,0:0|0:0,0:0:0:0:
464,280,275981,1,0,3:0:0:0:
256,104,276095,2,0,L|160:104,1,95.9999970703126,0|0,3:0|3:0,0:0:0:0:
256,72,276322,2,0,L|368:72,1,95.9999970703126,8|0,0:0|0:0,0:0:0:0:
88,192,276550,6,0,L|184:192,1,95.9999970703126,0|0,3:0|3:0,0:0:0:0:
424,192,276777,2,0,L|328:192,1,95.9999970703126,8|0,0:0|3:0,0:0:0:0:
152,264,277004,1,2,3:1:0:0:
256,264,277118,1,0,3:0:0:0:
360,264,277231,1,8,0:0:0:0:
152,320,277345,1,6,0:1:0:0:
360,192,277459,6,0,L|464:192,1,95.9999970703126,2|0,3:2|3:0,0:0:0:0:
256,192,277686,1,8,0:0:0:0:
456,128,277800,2,0,L|344:128,2,95.9999970703126,2|0|0,3:2|3:0|3:0,0:0:0:0:
200,64,278141,2,0,L|312:64,1,95.9999970703126,12|0,0:2|3:0,0:0:0:0:
56,64,278368,6,0,L|56:160,1,95.9999970703126,8|8,0:0|0:0,0:0:0:0:
232,192,278595,2,0,L|136:192,1,95.9999970703126,8|0,3:0|3:0,0:0:0:0:
456,64,278822,2,0,L|456:160,1,95.9999970703126,8|0,3:0|3:0,0:0:0:0:
280,192,279049,2,0,L|376:192,1,95.9999970703126,8|0,3:0|3:0,0:0:0:0:
160,64,279277,6,0,L|384:64,1,191.999994140625,4|0,0:0|0:0,0:0:0:0:
300,96,279580,1,0,0:0:0:0:
249,96,279655,1,8,0:0:0:0:
24,272,279731,2,0,L|136:272,1,95.9999970703126,8|0,0:0|0:0,0:0:0:0:
216,224,279959,2,0,L|120:224,1,95.9999970703126,0|0,0:0|0:0,0:0:0:0:
368,24,280186,6,0,P|432:80|360:128,1,191.999994140625,4|0,0:3|2:0,0:0:0:0:
160,72,280527,2,0,L|360:72,1,191.999994140625,8|0,0:3|2:0,0:0:0:0:
144,24,280868,6,0,P|80:80|152:128,1,191.999994140625,8|0,0:3|0:0,0:0:0:0:
200,128,281171,1,0,0:0:0:0:
256,128,281247,1,8,0:0:0:0:
480,224,281322,2,0,L|376:224,1,95.9999970703126,8|0,0:0|0:0,0:0:0:0:
208,320,281550,2,0,L|328:320,1,95.9999970703126,0|0,0:0|0:0,0:0:0:0:
72,224,281777,2,0,L|72:336,1,95.9999970703126,0|0,0:0|0:0,0:0:0:0:
256,192,282004,5,8,3:0:0:0:
352,192,282117,1,2,0:2:0:0:
256,192,282231,1,0,0:0:0:0:
448,192,282344,1,2,0:2:0:0:
256,128,282459,5,2,0:2:0:0:
160,128,282572,1,8,0:0:0:0:
256,128,282686,1,8,0:0:0:0:
64,128,282799,1,10,0:2:0:0:
256,240,282913,6,0,P|304:256|256:352,1,191.999994140625,4|0,0:0|0:0,0:0:0:0:
152,352,283254,1,8,0:0:0:0:
416,192,283368,2,0,L|304:192,1,95.9999970703126,8|0,0:0|0:0,0:0:0:0:
96,192,283595,2,0,L|208:192,1,95.9999970703126,0|8,0:0|0:0,0:0:0:0:
376,336,283822,6,0,P|432:320|360:248,1,191.999994140625,4|0,3:0|2:0,0:0:0:0:
160,40,284163,2,0,L|368:40,1,191.999994140625,8|0,3:0|2:0,0:0:0:0:
136,336,284504,2,0,P|38:256|135:174,1,287.999991210938,8|0,3:0|0:0,0:0:0:0:
360,72,284959,5,8,0:0:0:0:
256,72,285072,1,8,0:0:0:0:
152,72,285186,1,8,0:0:0:0:
360,144,285300,1,0,0:0:0:0:
256,144,285413,1,8,0:0:0:0:
360,144,285527,1,8,0:0:0:0:
120,48,285641,5,2,0:2:0:0:
59,63,285716,1,0,0:0:0:0:
21,113,285792,1,0,0:0:0:0:
22,176,285868,1,0,0:0:0:0:
63,224,285944,1,0,0:0:0:0:
124,236,286019,1,0,0:0:0:0:
320,192,286096,1,8,0:3:0:0:
256,192,286171,1,8,0:3:0:0:
192,192,286247,1,8,0:3:0:0:
368,296,286323,2,0,L|440:296,2,63.9999980468751,8|8|8,0:3|0:3|0:3,0:0:0:0:
160,80,286550,6,0,L|352:80,1,191.999994140625,6|8,0:0|0:0,0:0:0:0:
256,112,286891,1,0,0:0:0:0:
448,160,287004,2,0,L|448:256,1,95.9999970703126,8|0,0:0|0:0,0:0:0:0:
256,288,287231,2,0,L|360:288,1,95.9999970703126,0|0,0:0|0:0,0:0:0:0:
168,328,287459,6,0,P|104:304|48:176,1,191.999994140625,4|0,3:0|2:0,0:0:0:0:
344,328,287800,2,0,P|408:304|464:176,1,191.999994140625,8|0,3:0|2:0,0:0:0:0:
200,216,288141,2,0,L|312:216,1,95.9999970703126,8|0,3:0|2:0,0:0:0:0:
96,56,288368,5,0,0:0:0:0:
36,69,288443,1,0,0:0:0:0:
11,126,288519,1,0,0:0:0:0:
192,104,288595,2,0,L|264:104,2,63.9999980468751,8|0|0,0:0|0:0|0:0,0:0:0:0:
416,56,288822,5,8,3:0:0:0:
476,69,288897,1,0,0:0:0:0:
501,126,288973,1,0,3:0:0:0:
320,104,289050,2,0,L|248:104,2,63.9999980468751,8|8|8,3:0|3:0|3:0,0:0:0:0:
488,320,289277,6,0,L|288:320,1,191.999994140625,4|0,3:0|2:0,0:0:0:0:
24,320,289618,2,0,L|224:320,1,191.999994140625,8|0,3:0|2:0,0:0:0:0:
488,264,289959,2,0,L|376:264,1,95.9999970703126,8|0,3:0|0:0,0:0:0:0:
184,112,290186,6,0,P|136:144|192:192,1,143.999995605469,0|0,2:0|0:0,0:0:0:0:
432,24,290422,6,0,L|432:128,1,95.9999970703126,8|0,0:0|2:0,0:0:0:0:
256,192,290658,2,0,L|376:192,1,95.9999970703126,10|0,0:2|2:0,0:0:0:0:
80,24,290894,2,0,L|80:128,1,95.9999970703126,8|0,0:0|2:0,0:0:0:0:
256,240,291130,2,0,L|152:240,1,95.9999970703126,10|0,0:2|2:0,0:0:0:0:
344,48,291367,6,0,L|408:48,2,63.9999980468751,8|0|0,0:0|2:0|2:0,0:0:0:0:
192,120,291603,1,10,0:2:0:0:
256,120,291681,1,0,2:0:0:0:
320,120,291760,1,0,2:0:0:0:
168,48,291839,2,0,L|104:48,2,63.9999980468751,10|0|2,0:2|2:0|2:0,0:0:0:0:
392,328,292075,6,0,P|448:296|376:216,1,191.999994140625,6|8,0:0|0:0,0:0:0:0:
208,264,292430,1,0,0:0:0:0:
304,264,292548,1,8,0:0:0:0:
128,216,292666,1,8,0:3:0:0:
384,216,292784,1,8,0:3:0:0:
120,328,292902,6,0,P|64:296|136:216,1,191.999994140625,6|0,0:0|2:0,0:0:0:0:
304,72,293256,1,8,0:0:0:0:
208,72,293374,1,8,0:0:0:0:
384,120,293492,1,8,0:0:0:0:
128,120,293610,1,8,0:0:0:0:
304,160,293729,1,8,0:0:0:0:
208,160,293847,1,8,0:0:0:0:
384,192,293965,1,4,0:0:0:0:
128,192,294083,1,8,0:0:0:0:
384,256,294201,5,4,3:2:0:0:
256,192,294319,12,0,299398,0:0:0:0:
384,96,299634,6,0,B|128:96|128:96|384:96|384:96|128:96|128:96|192:96,1,832
256,96,301248,1,0,0:0:0:0:
320,96,301327,1,0,0:0:0:0:
256,96,301406,1,0,0:0:0:0:
56,144,301485,5,4,0:3:0:0:
