osu file format v14

[General]
AudioFilename: audio.mp3
AudioLeadIn: 0
PreviewTime: 489
Countdown: 0
SampleSet: None
StackLeniency: 0.7
Mode: 3
LetterboxInBreaks: 0
SpecialStyle: 1
WidescreenStoryboard: 1

[Editor]
Bookmarks: 13346,33942,47657,67799,81942,102514,116228,129085,142799,156514,176656,190799,230228,241264
DistanceSpacing: 0.8
BeatDivisor: 4
GridSize: 32
TimelineZoom: 1.8

[Metadata]
Title:Exceed!
TitleUnicode:Exceed!
Artist:Falcom Sound Team jdk
ArtistUnicode:Falcom Sound Team jdk
Creator:pikechu
Version:S
Source:The Legend of Heroes : Trails of Cold Steel
Tags:英雄伝说 闪の轨迹 英雄传说:闪之轨迹 Trails of Cold Steel MintApril
BeatmapID:1530457
BeatmapSetID:723995

[Difficulty]
HPDrainRate:8.5
CircleSize:4
OverallDifficulty:8.5
ApproachRate:5
SliderMultiplier:1.4
SliderTickRate:1

[Events]
//Background and Video events
0,0,"wp_sen32_l.jpg",0,0
//Break Periods
//Storyboard Layer 0 (Background)
//Storyboard Layer 1 (Fail)
//Storyboard Layer 2 (Pass)
//Storyboard Layer 3 (Foreground)
//Storyboard Sound Samples

[TimingPoints]
531,214.285714285714,4,3,0,20,1,0
20230,214.285714285714,4,3,0,20,1,0
20230,-100,4,3,0,20,0,0
27306,214.285714285714,4,3,0,20,1,0
27306,-100,4,3,0,20,0,0
27740,214.285714285714,4,3,0,20,1,0
27740,-100,4,3,0,20,0,0
29443,214.285714285714,4,3,0,20,1,0
29443,-100,4,3,0,20,0,0
47657,214.285714285714,4,3,0,20,1,0
47657,-100,4,3,0,20,0,0
81942,-100,4,2,1,20,0,0
101227,-100,4,3,0,10,0,0
102514,-100,4,3,0,20,0,0
116228,-100,4,2,1,20,0,1
126514,-100,4,3,0,20,0,1
135942,-100,4,3,0,20,0,0
204514,-100,4,2,1,20,0,1
216514,-100,4,3,0,20,0,0
230228,-100,4,3,0,20,0,0
231085,-100,4,3,0,19,0,0
231942,-100,4,3,0,18,0,0
232799,-100,4,3,0,17,0,0
233656,-100,4,3,0,16,0,0
234514,-100,4,3,0,15,0,0
235371,-100,4,3,0,14,0,0
236228,-100,4,3,0,12,0,0
237085,-100,4,3,0,10,0,0
237942,-100,4,3,0,8,0,0
238799,-100,4,3,0,6,0,0
239656,-100,4,3,0,5,0,0
240514,-100,4,3,0,5,0,0

[HitObjects]
64,192,531,128,0,2245:0:0:0:0:
448,192,531,1,0,0:0:0:0:
192,192,531,1,0,0:0:0:0:
320,192,745,1,0,0:0:0:0:
192,192,959,1,0,0:0:0:0:
448,192,1173,1,0,0:0:0:0:
192,192,1388,1,0,0:0:0:0:
448,192,1388,1,0,0:0:0:0:
320,192,1602,1,0,0:0:0:0:
448,192,1816,1,0,0:0:0:0:
192,192,2030,1,0,0:0:0:0:
192,192,2245,128,0,3102:0:0:0:0:
448,192,2245,1,0,0:0:0:0:
320,192,2245,1,0,0:0:0:0:
320,192,2566,1,0,0:0:0:0:
64,192,2566,1,0,0:0:0:0:
448,192,2888,1,0,0:0:0:0:
320,192,2888,1,0,0:0:0:0:
448,192,3102,128,0,3959:0:0:0:0:
64,192,3102,1,0,0:0:0:0:
320,192,3102,1,0,0:0:0:0:
192,192,3423,1,0,0:0:0:0:
320,192,3423,1,0,0:0:0:0:
64,192,3745,1,0,0:0:0:0:
192,192,3745,1,0,0:0:0:0:
320,192,3959,128,0,5030:0:0:0:0:
192,192,3959,1,0,0:0:0:0:
64,192,3959,1,0,0:0:0:0:
192,192,4173,1,0,0:0:0:0:
448,192,4173,1,0,0:0:0:0:
64,192,4280,1,0,0:0:0:0:
448,192,4388,1,0,0:0:0:0:
192,192,4388,1,0,0:0:0:0:
64,192,4495,1,0,0:0:0:0:
192,192,4602,1,0,0:0:0:0:
448,192,4602,1,0,0:0:0:0:
64,192,4709,1,0,0:0:0:0:
192,192,4816,1,0,0:0:0:0:
448,192,4816,1,0,0:0:0:0:
448,192,5030,1,0,0:0:0:0:
64,192,5030,1,0,0:0:0:0:
192,192,5030,128,0,5245:0:0:0:0:
320,192,5245,128,0,5459:0:0:0:0:
64,192,5245,1,0,0:0:0:0:
448,192,5245,1,0,0:0:0:0:
192,192,5459,128,0,5673:0:0:0:0:
448,192,5459,1,0,0:0:0:0:
64,192,5459,1,0,0:0:0:0:
64,192,5673,128,0,6530:0:0:0:0:
448,192,5673,1,0,0:0:0:0:
320,192,5673,1,0,0:0:0:0:
320,192,5888,1,0,0:0:0:0:
448,192,5995,1,0,0:0:0:0:
192,192,6102,1,0,0:0:0:0:
448,192,6316,1,0,0:0:0:0:
320,192,6316,1,0,0:0:0:0:
448,192,6530,128,0,6959:0:0:0:0:
320,192,6530,1,0,0:0:0:0:
192,192,6530,1,0,0:0:0:0:
320,192,6745,1,0,0:0:0:0:
192,192,6852,1,0,0:0:0:0:
320,192,6959,128,0,7388:0:0:0:0:
64,192,6959,1,0,0:0:0:0:
448,192,7173,1,0,0:0:0:0:
192,192,7173,1,0,0:0:0:0:
64,192,7388,128,0,8245:0:0:0:0:
192,192,7388,1,0,0:0:0:0:
448,192,7388,1,0,0:0:0:0:
320,192,7602,1,0,0:0:0:0:
448,192,7816,1,0,0:0:0:0:
192,192,8030,1,0,0:0:0:0:
320,192,8245,128,0,9102:0:0:0:0:
448,192,8245,1,0,0:0:0:0:
192,192,8245,1,0,0:0:0:0:
192,192,8459,1,0,0:0:0:0:
64,192,8673,1,0,0:0:0:0:
448,192,8888,1,0,0:0:0:0:
192,192,9102,128,0,9959:0:0:0:0:
64,192,9102,1,0,0:0:0:0:
448,192,9102,1,0,0:0:0:0:
448,192,9316,1,0,0:0:0:0:
320,192,9423,1,0,0:0:0:0:
448,192,9530,1,0,0:0:0:0:
64,192,9745,1,0,0:0:0:0:
448,192,9959,128,0,10816:0:0:0:0:
320,192,9959,1,0,0:0:0:0:
64,192,9959,1,0,0:0:0:0:
192,192,10173,1,0,0:0:0:0:
64,192,10388,1,0,0:0:0:0:
320,192,10602,1,0,0:0:0:0:
64,192,10816,128,0,11673:0:0:0:0:
192,192,10816,1,0,0:0:0:0:
320,192,10816,1,0,0:0:0:0:
448,192,11030,1,0,0:0:0:0:
320,192,11138,1,0,0:0:0:0:
448,192,11245,1,0,0:0:0:0:
320,192,11352,1,0,0:0:0:0:
448,192,11459,1,0,0:0:0:0:
320,192,11673,128,0,12530:0:0:0:0:
192,192,11673,1,0,0:0:0:0:
448,192,11673,1,0,0:0:0:0:
64,192,11888,1,0,0:0:0:0:
192,192,11995,1,0,0:0:0:0:
64,192,12102,1,0,0:0:0:0:
192,192,12316,1,0,0:0:0:0:
64,192,12530,128,0,13388:0:0:0:0:
448,192,12530,1,0,0:0:0:0:
192,192,12638,1,0,0:0:0:0:
448,192,12745,1,0,0:0:0:0:
192,192,12852,1,0,0:0:0:0:
448,192,12959,1,0,0:0:0:0:
192,192,13066,1,0,0:0:0:0:
448,192,13173,1,0,0:0:0:0:
192,192,13280,1,0,0:0:0:0:
448,192,13388,1,0,0:0:0:0:
320,192,13388,1,0,0:0:0:0:
192,192,13441,1,0,0:0:0:0:
64,192,13495,1,0,0:0:0:0:
320,192,13548,1,0,0:0:0:0:
448,192,13602,1,0,0:0:0:0:
192,192,13602,1,0,0:0:0:0:
64,192,13655,1,0,0:0:0:0:
448,192,13709,1,0,0:0:0:0:
320,192,13763,1,0,0:0:0:0:
64,192,13816,1,0,0:0:0:0:
192,192,13816,1,0,0:0:0:0:
320,192,13870,1,0,0:0:0:0:
448,192,13923,1,0,0:0:0:0:
64,192,13977,1,0,0:0:0:0:
448,192,14030,1,0,0:0:0:0:
192,192,14030,1,0,0:0:0:0:
320,192,14084,1,0,0:0:0:0:
192,192,14138,1,0,0:0:0:0:
64,192,14191,1,0,0:0:0:0:
448,192,14245,1,0,0:0:0:0:
320,192,14245,1,0,0:0:0:0:
192,192,14298,1,0,0:0:0:0:
64,192,14352,1,0,0:0:0:0:
448,192,14405,1,0,0:0:0:0:
192,192,14459,1,0,0:0:0:0:
320,192,14459,1,0,0:0:0:0:
64,192,14513,1,0,0:0:0:0:
448,192,14566,1,0,0:0:0:0:
320,192,14620,1,0,0:0:0:0:
192,192,14673,1,0,0:0:0:0:
64,192,14673,1,0,0:0:0:0:
320,192,14727,1,0,0:0:0:0:
448,192,14780,1,0,0:0:0:0:
64,192,14834,1,0,0:0:0:0:
192,192,14888,1,0,0:0:0:0:
64,192,14941,1,0,0:0:0:0:
320,192,14941,1,0,0:0:0:0:
448,192,14995,1,0,0:0:0:0:
64,192,15048,1,0,0:0:0:0:
448,192,15102,1,0,0:0:0:0:
192,192,15102,1,0,0:0:0:0:
320,192,15155,1,0,0:0:0:0:
448,192,15209,1,0,0:0:0:0:
64,192,15263,1,0,0:0:0:0:
448,192,15316,1,0,0:0:0:0:
192,192,15316,1,0,0:0:0:0:
320,192,15370,1,0,0:0:0:0:
192,192,15423,1,0,0:0:0:0:
64,192,15477,1,0,0:0:0:0:
448,192,15530,1,0,0:0:0:0:
320,192,15530,1,0,0:0:0:0:
192,192,15584,1,0,0:0:0:0:
64,192,15638,1,0,0:0:0:0:
192,192,15691,1,0,0:0:0:0:
448,192,15745,1,0,0:0:0:0:
320,192,15745,1,0,0:0:0:0:
192,192,15798,1,0,0:0:0:0:
64,192,15852,1,0,0:0:0:0:
448,192,15905,1,0,0:0:0:0:
64,192,15959,1,0,0:0:0:0:
320,192,15959,1,0,0:0:0:0:
192,192,16013,1,0,0:0:0:0:
448,192,16066,1,0,0:0:0:0:
320,192,16120,1,0,0:0:0:0:
192,192,16173,1,0,0:0:0:0:
64,192,16173,1,0,0:0:0:0:
448,192,16227,1,0,0:0:0:0:
320,192,16280,1,0,0:0:0:0:
64,192,16280,1,0,0:0:0:0:
192,192,16334,1,0,0:0:0:0:
448,192,16388,1,0,0:0:0:0:
64,192,16388,1,0,0:0:0:0:
320,192,16441,1,0,0:0:0:0:
192,192,16495,1,0,0:0:0:0:
64,192,16548,1,0,0:0:0:0:
320,192,16602,1,0,0:0:0:0:
448,192,16602,1,0,0:0:0:0:
64,192,16655,1,0,0:0:0:0:
192,192,16655,1,0,0:0:0:0:
448,192,16709,1,0,0:0:0:0:
320,192,16763,1,0,0:0:0:0:
64,192,16816,1,0,0:0:0:0:
192,192,16816,1,0,0:0:0:0:
320,192,16870,1,0,0:0:0:0:
448,192,16923,1,0,0:0:0:0:
64,192,16977,1,0,0:0:0:0:
448,192,17030,1,0,0:0:0:0:
192,192,17030,1,0,0:0:0:0:
320,192,17084,1,0,0:0:0:0:
64,192,17138,1,0,0:0:0:0:
192,192,17191,1,0,0:0:0:0:
320,192,17245,1,0,0:0:0:0:
448,192,17245,1,0,0:0:0:0:
64,192,17298,1,0,0:0:0:0:
192,192,17352,1,0,0:0:0:0:
320,192,17405,1,0,0:0:0:0:
448,192,17459,1,0,0:0:0:0:
192,192,17459,1,0,0:0:0:0:
64,192,17513,1,0,0:0:0:0:
448,192,17566,1,0,0:0:0:0:
320,192,17620,1,0,0:0:0:0:
64,192,17673,1,0,0:0:0:0:
192,192,17673,1,0,0:0:0:0:
320,192,17727,1,0,0:0:0:0:
448,192,17780,1,0,0:0:0:0:
64,192,17834,1,0,0:0:0:0:
192,192,17834,1,0,0:0:0:0:
320,192,17888,1,0,0:0:0:0:
448,192,17941,1,0,0:0:0:0:
64,192,17995,1,0,0:0:0:0:
192,192,18048,1,0,0:0:0:0:
448,192,18102,1,0,0:0:0:0:
320,192,18102,1,0,0:0:0:0:
192,192,18155,1,0,0:0:0:0:
64,192,18209,1,0,0:0:0:0:
448,192,18263,1,0,0:0:0:0:
64,192,18316,1,0,0:0:0:0:
320,192,18316,1,0,0:0:0:0:
192,192,18370,1,0,0:0:0:0:
448,192,18423,1,0,0:0:0:0:
320,192,18477,1,0,0:0:0:0:
192,192,18530,1,0,0:0:0:0:
64,192,18530,1,0,0:0:0:0:
448,192,18584,1,0,0:0:0:0:
320,192,18638,1,0,0:0:0:0:
192,192,18691,1,0,0:0:0:0:
320,192,18745,1,0,0:0:0:0:
64,192,18745,1,0,0:0:0:0:
448,192,18798,1,0,0:0:0:0:
192,192,18852,1,0,0:0:0:0:
320,192,18905,1,0,0:0:0:0:
192,192,18959,1,0,0:0:0:0:
448,192,18959,1,0,0:0:0:0:
64,192,19013,1,0,0:0:0:0:
320,192,19066,1,0,0:0:0:0:
192,192,19120,1,0,0:0:0:0:
448,192,19173,1,0,0:0:0:0:
64,192,19173,1,0,0:0:0:0:
192,192,19227,1,0,0:0:0:0:
320,192,19280,1,0,0:0:0:0:
448,192,19388,1,0,0:0:0:0:
320,192,19423,1,0,0:0:0:0:
192,192,19459,1,0,0:0:0:0:
64,192,19495,1,0,0:0:0:0:
448,192,19602,1,0,0:0:0:0:
192,192,19602,1,0,0:0:0:0:
320,192,19709,1,0,0:0:0:0:
448,192,19709,1,0,0:0:0:0:
320,192,19816,1,0,0:0:0:0:
192,192,19816,1,0,0:0:0:0:
64,192,19923,1,0,0:0:0:0:
192,192,19923,1,0,0:0:0:0:
320,192,20030,1,0,0:0:0:0:
64,192,20030,1,0,0:0:0:0:
448,192,20138,1,0,0:0:0:0:
320,192,20138,1,0,0:0:0:0:
64,192,20230,1,0,0:0:0:0:
192,192,20230,1,0,0:0:0:0:
320,192,20283,1,0,0:0:0:0:
448,192,20337,1,0,0:0:0:0:
320,192,20390,1,0,0:0:0:0:
192,192,20444,1,0,0:0:0:0:
64,192,20497,1,0,0:0:0:0:
320,192,20551,1,0,0:0:0:0:
192,192,20551,1,0,0:0:0:0:
448,192,20605,1,0,0:0:0:0:
64,192,20658,1,0,0:0:0:0:
192,192,20712,1,0,0:0:0:0:
320,192,20765,1,0,0:0:0:0:
448,192,20819,1,0,0:0:0:0:
192,192,20872,1,0,0:0:0:0:
64,192,20872,1,0,0:0:0:0:
320,192,20926,1,0,0:0:0:0:
448,192,20980,1,0,0:0:0:0:
192,192,21033,1,0,0:0:0:0:
320,192,21087,1,0,0:0:0:0:
64,192,21087,1,0,0:0:0:0:
448,192,21140,1,0,0:0:0:0:
192,192,21194,1,0,0:0:0:0:
320,192,21247,1,0,0:0:0:0:
64,192,21301,1,0,0:0:0:0:
192,192,21301,1,0,0:0:0:0:
320,192,21355,1,0,0:0:0:0:
448,192,21408,1,0,0:0:0:0:
64,192,21462,1,0,0:0:0:0:
320,192,21515,1,0,0:0:0:0:
192,192,21515,1,0,0:0:0:0:
192,192,21622,1,0,0:0:0:0:
320,192,21622,1,0,0:0:0:0:
448,192,21676,1,0,0:0:0:0:
320,192,21729,1,0,0:0:0:0:
64,192,21729,1,0,0:0:0:0:
192,192,21783,1,0,0:0:0:0:
64,192,21837,1,0,0:0:0:0:
448,192,21890,1,0,0:0:0:0:
320,192,21944,1,0,0:0:0:0:
64,192,21944,1,0,0:0:0:0:
192,192,21997,1,0,0:0:0:0:
320,192,22051,1,0,0:0:0:0:
64,192,22104,1,0,0:0:0:0:
192,192,22158,1,0,0:0:0:0:
320,192,22212,1,0,0:0:0:0:
448,192,22212,1,0,0:0:0:0:
64,192,22265,1,0,0:0:0:0:
192,192,22319,1,0,0:0:0:0:
448,192,22372,1,0,0:0:0:0:
320,192,22426,1,0,0:0:0:0:
192,192,22479,1,0,0:0:0:0:
64,192,22533,1,0,0:0:0:0:
320,192,22587,1,0,0:0:0:0:
448,192,22587,1,0,0:0:0:0:
192,192,22694,1,0,0:0:0:0:
320,192,22694,1,0,0:0:0:0:
192,192,22801,1,0,0:0:0:0:
64,192,22801,1,0,0:0:0:0:
448,192,22854,1,0,0:0:0:0:
320,192,22908,1,0,0:0:0:0:
192,192,22962,1,0,0:0:0:0:
64,192,23015,1,0,0:0:0:0:
320,192,23069,1,0,0:0:0:0:
448,192,23122,1,0,0:0:0:0:
192,192,23122,1,0,0:0:0:0:
64,192,23176,1,0,0:0:0:0:
320,192,23229,1,0,0:0:0:0:
448,192,23283,1,0,0:0:0:0:
64,192,23337,1,0,0:0:0:0:
192,192,23390,1,0,0:0:0:0:
320,192,23444,1,0,0:0:0:0:
448,192,23444,1,0,0:0:0:0:
64,192,23497,1,0,0:0:0:0:
192,192,23551,1,0,0:0:0:0:
320,192,23604,1,0,0:0:0:0:
64,192,23658,1,0,0:0:0:0:
192,192,23658,1,0,0:0:0:0:
448,192,23712,1,0,0:0:0:0:
320,192,23765,1,0,0:0:0:0:
192,192,23819,1,0,0:0:0:0:
448,192,23872,1,0,0:0:0:0:
320,192,23926,1,0,0:0:0:0:
192,192,23979,1,0,0:0:0:0:
64,192,23979,1,0,0:0:0:0:
320,192,24033,1,0,0:0:0:0:
448,192,24087,1,0,0:0:0:0:
64,192,24140,1,0,0:0:0:0:
192,192,24194,1,0,0:0:0:0:
448,192,24247,1,0,0:0:0:0:
320,192,24301,1,0,0:0:0:0:
192,192,24301,1,0,0:0:0:0:
448,192,24354,1,0,0:0:0:0:
192,192,24408,1,0,0:0:0:0:
64,192,24408,1,0,0:0:0:0:
320,192,24462,1,0,0:0:0:0:
448,192,24515,1,0,0:0:0:0:
192,192,24515,1,0,0:0:0:0:
64,192,24569,1,0,0:0:0:0:
320,192,24622,1,0,0:0:0:0:
192,192,24676,1,0,0:0:0:0:
64,192,24729,1,0,0:0:0:0:
320,192,24729,1,0,0:0:0:0:
448,192,24783,1,0,0:0:0:0:
192,192,24837,1,0,0:0:0:0:
320,192,24890,1,0,0:0:0:0:
192,192,24944,1,0,0:0:0:0:
448,192,24944,1,0,0:0:0:0:
320,192,25051,1,0,0:0:0:0:
448,192,25051,1,0,0:0:0:0:
192,192,25104,1,0,0:0:0:0:
64,192,25158,1,0,0:0:0:0:
448,192,25158,1,0,0:0:0:0:
320,192,25212,1,0,0:0:0:0:
64,192,25265,1,0,0:0:0:0:
192,192,25319,1,0,0:0:0:0:
448,192,25372,1,0,0:0:0:0:
320,192,25372,1,0,0:0:0:0:
192,192,25426,1,0,0:0:0:0:
64,192,25479,1,0,0:0:0:0:
448,192,25533,1,0,0:0:0:0:
320,192,25587,1,0,0:0:0:0:
192,192,25640,1,0,0:0:0:0:
64,192,25694,1,0,0:0:0:0:
320,192,25747,1,0,0:0:0:0:
192,192,25801,1,0,0:0:0:0:
64,192,25854,1,0,0:0:0:0:
448,192,25854,1,0,0:0:0:0:
320,192,25908,1,0,0:0:0:0:
448,192,25962,1,0,0:0:0:0:
64,192,26015,1,0,0:0:0:0:
192,192,26015,1,0,0:0:0:0:
192,192,26122,1,0,0:0:0:0:
320,192,26122,1,0,0:0:0:0:
320,192,26229,1,0,0:0:0:0:
448,192,26229,1,0,0:0:0:0:
192,192,26283,1,0,0:0:0:0:
64,192,26337,1,0,0:0:0:0:
448,192,26337,1,0,0:0:0:0:
320,192,26390,1,0,0:0:0:0:
192,192,26444,1,0,0:0:0:0:
320,192,26497,1,0,0:0:0:0:
64,192,26551,1,0,0:0:0:0:
448,192,26551,1,0,0:0:0:0:
192,192,26604,1,0,0:0:0:0:
320,192,26658,1,0,0:0:0:0:
64,192,26712,1,0,0:0:0:0:
192,192,26765,1,0,0:0:0:0:
320,192,26819,1,0,0:0:0:0:
448,192,26872,1,0,0:0:0:0:
192,192,26872,1,0,0:0:0:0:
64,192,26926,1,0,0:0:0:0:
320,192,26979,1,0,0:0:0:0:
448,192,26979,1,0,0:0:0:0:
64,192,27087,1,0,0:0:0:0:
192,192,27087,1,0,0:0:0:0:
448,192,27140,1,0,0:0:0:0:
320,192,27194,1,0,0:0:0:0:
192,192,27247,1,0,0:0:0:0:
64,192,27306,1,0,0:0:0:0:
192,192,27359,1,0,0:0:0:0:
320,192,27413,1,0,0:0:0:0:
64,192,27413,1,0,0:0:0:0:
448,192,27466,1,0,0:0:0:0:
192,192,27520,1,0,0:0:0:0:
320,192,27573,1,0,0:0:0:0:
448,192,27627,1,0,0:0:0:0:
64,192,27681,1,0,0:0:0:0:
192,192,27740,1,0,0:0:0:0:
448,192,27740,1,0,0:0:0:0:
320,192,27793,1,0,0:0:0:0:
64,192,27847,1,0,0:0:0:0:
192,192,27900,1,0,0:0:0:0:
320,192,27954,1,0,0:0:0:0:
448,192,28007,1,0,0:0:0:0:
320,192,28061,1,0,0:0:0:0:
192,192,28115,1,0,0:0:0:0:
320,192,28168,1,0,0:0:0:0:
64,192,28168,1,0,0:0:0:0:
192,192,28222,1,0,0:0:0:0:
448,192,28275,1,0,0:0:0:0:
192,192,28329,1,0,0:0:0:0:
320,192,28382,1,0,0:0:0:0:
64,192,28382,1,0,0:0:0:0:
448,192,28454,1,0,0:0:0:0:
192,192,28454,1,0,0:0:0:0:
64,192,28543,1,0,0:0:0:0:
192,192,28597,1,0,0:0:0:0:
320,192,28650,1,0,0:0:0:0:
448,192,28704,1,0,0:0:0:0:
192,192,28757,1,0,0:0:0:0:
448,192,28811,1,0,0:0:0:0:
64,192,28811,1,0,0:0:0:0:
320,192,28865,1,0,0:0:0:0:
192,192,28918,1,0,0:0:0:0:
64,192,28972,1,0,0:0:0:0:
320,192,29025,1,0,0:0:0:0:
64,192,29079,1,0,0:0:0:0:
320,192,29132,1,0,0:0:0:0:
64,192,29186,1,0,0:0:0:0:
192,192,29239,1,0,0:0:0:0:
448,192,29293,1,0,0:0:0:0:
192,192,29347,1,0,0:0:0:0:
64,192,29443,1,0,0:0:0:0:
320,192,29443,1,0,0:0:0:0:
192,192,29550,1,0,0:0:0:0:
448,192,29550,1,0,0:0:0:0:
320,192,29657,1,0,0:0:0:0:
448,192,29657,1,0,0:0:0:0:
64,192,29710,1,0,0:0:0:0:
192,192,29764,1,0,0:0:0:0:
320,192,29818,1,0,0:0:0:0:
448,192,29871,1,0,0:0:0:0:
64,192,29925,1,0,0:0:0:0:
192,192,29978,1,0,0:0:0:0:
448,192,29978,1,0,0:0:0:0:
320,192,30032,1,0,0:0:0:0:
448,192,30085,1,0,0:0:0:0:
320,192,30139,1,0,0:0:0:0:
64,192,30193,1,0,0:0:0:0:
192,192,30246,1,0,0:0:0:0:
320,192,30300,1,0,0:0:0:0:
64,192,30300,1,0,0:0:0:0:
448,192,30353,1,0,0:0:0:0:
192,192,30407,1,0,0:0:0:0:
64,192,30460,1,0,0:0:0:0:
320,192,30514,1,0,0:0:0:0:
448,192,30514,1,0,0:0:0:0:
192,192,30568,1,0,0:0:0:0:
64,192,30621,1,0,0:0:0:0:
320,192,30675,1,0,0:0:0:0:
192,192,30728,1,0,0:0:0:0:
64,192,30782,1,0,0:0:0:0:
448,192,30835,1,0,0:0:0:0:
192,192,30835,1,0,0:0:0:0:
320,192,30889,1,0,0:0:0:0:
64,192,30942,1,0,0:0:0:0:
192,192,30996,1,0,0:0:0:0:
320,192,31050,1,0,0:0:0:0:
192,192,31103,1,0,0:0:0:0:
320,192,31157,1,0,0:0:0:0:
448,192,31157,1,0,0:0:0:0:
64,192,31210,1,0,0:0:0:0:
192,192,31264,1,0,0:0:0:0:
448,192,31264,1,0,0:0:0:0:
320,192,31317,1,0,0:0:0:0:
64,192,31371,1,0,0:0:0:0:
192,192,31425,1,0,0:0:0:0:
448,192,31478,1,0,0:0:0:0:
320,192,31532,1,0,0:0:0:0:
448,192,31585,1,0,0:0:0:0:
192,192,31585,1,0,0:0:0:0:
64,192,31639,1,0,0:0:0:0:
320,192,31692,1,0,0:0:0:0:
192,192,31746,1,0,0:0:0:0:
320,192,31800,1,0,0:0:0:0:
64,192,31800,1,0,0:0:0:0:
320,192,31907,1,0,0:0:0:0:
64,192,31907,1,0,0:0:0:0:
192,192,31960,1,0,0:0:0:0:
64,192,32014,1,0,0:0:0:0:
320,192,32014,1,0,0:0:0:0:
448,192,32067,1,0,0:0:0:0:
320,192,32121,1,0,0:0:0:0:
192,192,32175,1,0,0:0:0:0:
448,192,32228,1,0,0:0:0:0:
64,192,32228,1,0,0:0:0:0:
320,192,32282,1,0,0:0:0:0:
192,192,32335,1,0,0:0:0:0:
320,192,32389,1,0,0:0:0:0:
448,192,32442,1,0,0:0:0:0:
64,192,32496,1,0,0:0:0:0:
192,192,32550,1,0,0:0:0:0:
448,192,32603,1,0,0:0:0:0:
320,192,32657,1,0,0:0:0:0:
192,192,32710,1,0,0:0:0:0:
64,192,32764,1,0,0:0:0:0:
448,192,32764,1,0,0:0:0:0:
320,192,32817,1,0,0:0:0:0:
448,192,32871,1,0,0:0:0:0:
64,192,32871,1,0,0:0:0:0:
192,192,32978,1,0,0:0:0:0:
320,192,32978,1,0,0:0:0:0:
64,192,33085,1,0,0:0:0:0:
448,192,33085,1,0,0:0:0:0:
320,192,33139,1,0,0:0:0:0:
192,192,33192,1,0,0:0:0:0:
320,192,33246,1,0,0:0:0:0:
192,192,33300,1,0,0:0:0:0:
64,192,33300,1,0,0:0:0:0:
448,192,33300,1,0,0:0:0:0:
320,192,33353,1,0,0:0:0:0:
192,192,33407,1,0,0:0:0:0:
64,192,33460,1,0,0:0:0:0:
320,192,33514,5,0,0:0:0:0:
448,192,33514,1,0,0:0:0:0:
192,192,33621,1,0,0:0:0:0:
320,192,33621,1,0,0:0:0:0:
64,192,33728,1,0,0:0:0:0:
448,192,33728,1,0,0:0:0:0:
320,192,33835,1,0,0:0:0:0:
192,192,33835,1,0,0:0:0:0:
192,192,33942,1,0,0:0:0:0:
448,192,33942,1,0,0:0:0:0:
320,192,33996,1,0,0:0:0:0:
64,192,34050,1,0,0:0:0:0:
192,192,34103,1,0,0:0:0:0:
320,192,34157,1,0,0:0:0:0:
448,192,34210,1,0,0:0:0:0:
192,192,34264,1,0,0:0:0:0:
320,192,34264,1,0,0:0:0:0:
64,192,34317,1,0,0:0:0:0:
448,192,34371,1,0,0:0:0:0:
320,192,34425,1,0,0:0:0:0:
192,192,34478,1,0,0:0:0:0:
64,192,34532,1,0,0:0:0:0:
320,192,34585,1,0,0:0:0:0:
448,192,34585,1,0,0:0:0:0:
192,192,34639,1,0,0:0:0:0:
64,192,34692,1,0,0:0:0:0:
320,192,34746,1,0,0:0:0:0:
192,192,34800,1,0,0:0:0:0:
448,192,34800,1,0,0:0:0:0:
64,192,34853,1,0,0:0:0:0:
320,192,34907,1,0,0:0:0:0:
192,192,34960,1,0,0:0:0:0:
448,192,35014,1,0,0:0:0:0:
320,192,35014,1,0,0:0:0:0:
192,192,35067,1,0,0:0:0:0:
64,192,35121,1,0,0:0:0:0:
320,192,35175,1,0,0:0:0:0:
448,192,35228,1,0,0:0:0:0:
192,192,35228,1,0,0:0:0:0:
192,192,35335,1,0,0:0:0:0:
448,192,35335,1,0,0:0:0:0:
320,192,35389,1,0,0:0:0:0:
64,192,35442,1,0,0:0:0:0:
192,192,35442,1,0,0:0:0:0:
320,192,35496,1,0,0:0:0:0:
448,192,35550,1,0,0:0:0:0:
64,192,35603,1,0,0:0:0:0:
192,192,35657,1,0,0:0:0:0:
448,192,35657,1,0,0:0:0:0:
320,192,35710,1,0,0:0:0:0:
192,192,35764,1,0,0:0:0:0:
448,192,35817,1,0,0:0:0:0:
320,192,35871,1,0,0:0:0:0:
192,192,35925,1,0,0:0:0:0:
64,192,35925,1,0,0:0:0:0:
448,192,35978,1,0,0:0:0:0:
320,192,36032,1,0,0:0:0:0:
192,192,36085,1,0,0:0:0:0:
448,192,36139,1,0,0:0:0:0:
320,192,36192,1,0,0:0:0:0:
192,192,36246,1,0,0:0:0:0:
448,192,36300,1,0,0:0:0:0:
64,192,36300,1,0,0:0:0:0:
320,192,36407,1,0,0:0:0:0:
192,192,36407,1,0,0:0:0:0:
64,192,36514,1,0,0:0:0:0:
448,192,36514,1,0,0:0:0:0:
320,192,36567,1,0,0:0:0:0:
192,192,36621,1,0,0:0:0:0:
64,192,36675,1,0,0:0:0:0:
320,192,36728,1,0,0:0:0:0:
192,192,36782,1,0,0:0:0:0:
64,192,36835,1,0,0:0:0:0:
320,192,36835,1,0,0:0:0:0:
448,192,36889,1,0,0:0:0:0:
192,192,36942,1,0,0:0:0:0:
64,192,36996,1,0,0:0:0:0:
448,192,37050,1,0,0:0:0:0:
320,192,37103,1,0,0:0:0:0:
192,192,37157,1,0,0:0:0:0:
64,192,37157,1,0,0:0:0:0:
448,192,37210,1,0,0:0:0:0:
320,192,37264,1,0,0:0:0:0:
192,192,37317,1,0,0:0:0:0:
448,192,37371,1,0,0:0:0:0:
320,192,37371,1,0,0:0:0:0:
64,192,37425,1,0,0:0:0:0:
192,192,37478,1,0,0:0:0:0:
320,192,37532,1,0,0:0:0:0:
64,192,37585,1,0,0:0:0:0:
192,192,37639,1,0,0:0:0:0:
320,192,37692,1,0,0:0:0:0:
448,192,37692,1,0,0:0:0:0:
192,192,37746,1,0,0:0:0:0:
64,192,37800,1,0,0:0:0:0:
448,192,37853,1,0,0:0:0:0:
320,192,37907,1,0,0:0:0:0:
64,192,37960,1,0,0:0:0:0:
192,192,38014,1,0,0:0:0:0:
320,192,38014,1,0,0:0:0:0:
64,192,38067,1,0,0:0:0:0:
320,192,38121,1,0,0:0:0:0:
448,192,38121,1,0,0:0:0:0:
192,192,38175,1,0,0:0:0:0:
448,192,38228,1,0,0:0:0:0:
64,192,38228,1,0,0:0:0:0:
192,192,38282,1,0,0:0:0:0:
64,192,38335,1,0,0:0:0:0:
448,192,38389,1,0,0:0:0:0:
192,192,38442,1,0,0:0:0:0:
320,192,38442,1,0,0:0:0:0:
64,192,38496,1,0,0:0:0:0:
448,192,38550,1,0,0:0:0:0:
320,192,38603,1,0,0:0:0:0:
192,192,38657,1,0,0:0:0:0:
64,192,38657,1,0,0:0:0:0:
192,192,38764,1,0,0:0:0:0:
64,192,38764,1,0,0:0:0:0:
320,192,38817,1,0,0:0:0:0:
448,192,38871,1,0,0:0:0:0:
64,192,38871,1,0,0:0:0:0:
192,192,38925,1,0,0:0:0:0:
448,192,38978,1,0,0:0:0:0:
320,192,39032,1,0,0:0:0:0:
64,192,39085,1,0,0:0:0:0:
192,192,39085,1,0,0:0:0:0:
320,192,39139,1,0,0:0:0:0:
448,192,39192,1,0,0:0:0:0:
64,192,39246,1,0,0:0:0:0:
192,192,39300,1,0,0:0:0:0:
320,192,39353,1,0,0:0:0:0:
448,192,39407,1,0,0:0:0:0:
192,192,39460,1,0,0:0:0:0:
320,192,39514,1,0,0:0:0:0:
448,192,39567,1,0,0:0:0:0:
64,192,39567,1,0,0:0:0:0:
192,192,39621,1,0,0:0:0:0:
64,192,39675,1,0,0:0:0:0:
448,192,39728,1,0,0:0:0:0:
320,192,39728,1,0,0:0:0:0:
320,192,39835,1,0,0:0:0:0:
192,192,39835,1,0,0:0:0:0:
192,192,39942,1,0,0:0:0:0:
64,192,39942,1,0,0:0:0:0:
320,192,39996,1,0,0:0:0:0:
448,192,40050,1,0,0:0:0:0:
64,192,40050,1,0,0:0:0:0:
192,192,40103,1,0,0:0:0:0:
320,192,40157,1,0,0:0:0:0:
192,192,40210,1,0,0:0:0:0:
448,192,40264,1,0,0:0:0:0:
64,192,40264,1,0,0:0:0:0:
320,192,40317,1,0,0:0:0:0:
192,192,40371,1,0,0:0:0:0:
64,192,40371,1,0,0:0:0:0:
448,192,40425,1,0,0:0:0:0:
320,192,40478,1,0,0:0:0:0:
192,192,40532,1,0,0:0:0:0:
64,192,40585,1,0,0:0:0:0:
448,192,40585,1,0,0:0:0:0:
320,192,40639,1,0,0:0:0:0:
192,192,40692,1,0,0:0:0:0:
320,192,40746,1,0,0:0:0:0:
192,192,40800,1,0,0:0:0:0:
448,192,40800,1,0,0:0:0:0:
64,192,40853,1,0,0:0:0:0:
192,192,40907,1,0,0:0:0:0:
320,192,40960,1,0,0:0:0:0:
448,192,41014,1,0,0:0:0:0:
320,192,41067,1,0,0:0:0:0:
192,192,41121,1,0,0:0:0:0:
448,192,41121,1,0,0:0:0:0:
64,192,41175,1,0,0:0:0:0:
320,192,41228,1,0,0:0:0:0:
448,192,41228,1,0,0:0:0:0:
192,192,41282,1,0,0:0:0:0:
64,192,41335,1,0,0:0:0:0:
320,192,41389,1,0,0:0:0:0:
192,192,41442,1,0,0:0:0:0:
64,192,41442,1,0,0:0:0:0:
448,192,41496,1,0,0:0:0:0:
192,192,41550,1,0,0:0:0:0:
320,192,41550,1,0,0:0:0:0:
64,192,41603,1,0,0:0:0:0:
320,192,41657,1,0,0:0:0:0:
448,192,41657,1,0,0:0:0:0:
192,192,41710,1,0,0:0:0:0:
64,192,41764,1,0,0:0:0:0:
192,192,41817,1,0,0:0:0:0:
320,192,41871,1,0,0:0:0:0:
448,192,41871,1,0,0:0:0:0:
64,192,41925,1,0,0:0:0:0:
192,192,41978,1,0,0:0:0:0:
320,192,42032,1,0,0:0:0:0:
64,192,42085,1,0,0:0:0:0:
192,192,42085,1,0,0:0:0:0:
192,192,42192,1,0,0:0:0:0:
64,192,42192,1,0,0:0:0:0:
448,192,42246,1,0,0:0:0:0:
320,192,42300,1,0,0:0:0:0:
192,192,42300,1,0,0:0:0:0:
64,192,42353,1,0,0:0:0:0:
448,192,42407,1,0,0:0:0:0:
320,192,42460,1,0,0:0:0:0:
448,192,42514,1,0,0:0:0:0:
192,192,42514,1,0,0:0:0:0:
64,192,42567,1,0,0:0:0:0:
320,192,42621,1,0,0:0:0:0:
448,192,42675,1,0,0:0:0:0:
192,192,42675,1,0,0:0:0:0:
64,192,42728,1,0,0:0:0:0:
320,192,42782,1,0,0:0:0:0:
192,192,42835,1,0,0:0:0:0:
64,192,42889,1,0,0:0:0:0:
448,192,42942,1,0,0:0:0:0:
320,192,42942,1,0,0:0:0:0:
192,192,42996,1,0,0:0:0:0:
64,192,43050,1,0,0:0:0:0:
320,192,43103,1,0,0:0:0:0:
64,192,43157,1,0,0:0:0:0:
192,192,43157,1,0,0:0:0:0:
192,192,43264,1,0,0:0:0:0:
320,192,43264,1,0,0:0:0:0:
320,192,43371,1,0,0:0:0:0:
448,192,43371,1,0,0:0:0:0:
192,192,43425,1,0,0:0:0:0:
64,192,43478,1,0,0:0:0:0:
448,192,43532,1,0,0:0:0:0:
320,192,43585,1,0,0:0:0:0:
192,192,43639,1,0,0:0:0:0:
320,192,43692,1,0,0:0:0:0:
64,192,43692,1,0,0:0:0:0:
448,192,43746,1,0,0:0:0:0:
192,192,43800,1,0,0:0:0:0:
320,192,43853,1,0,0:0:0:0:
448,192,43907,1,0,0:0:0:0:
64,192,43960,1,0,0:0:0:0:
192,192,44014,1,0,0:0:0:0:
320,192,44014,1,0,0:0:0:0:
448,192,44067,1,0,0:0:0:0:
64,192,44121,1,0,0:0:0:0:
192,192,44175,1,0,0:0:0:0:
64,192,44228,1,0,0:0:0:0:
320,192,44228,1,0,0:0:0:0:
448,192,44282,1,0,0:0:0:0:
192,192,44335,1,0,0:0:0:0:
320,192,44389,1,0,0:0:0:0:
448,192,44442,1,0,0:0:0:0:
64,192,44496,1,0,0:0:0:0:
192,192,44550,1,0,0:0:0:0:
320,192,44550,1,0,0:0:0:0:
448,192,44603,1,0,0:0:0:0:
320,192,44657,1,0,0:0:0:0:
192,192,44710,1,0,0:0:0:0:
320,192,44764,1,0,0:0:0:0:
448,192,44817,1,0,0:0:0:0:
192,192,44871,1,0,0:0:0:0:
64,192,44871,1,0,0:0:0:0:
320,192,44925,1,0,0:0:0:0:
448,192,44978,1,0,0:0:0:0:
64,192,44978,1,0,0:0:0:0:
192,192,45032,1,0,0:0:0:0:
320,192,45085,1,0,0:0:0:0:
448,192,45139,1,0,0:0:0:0:
64,192,45139,1,0,0:0:0:0:
192,192,45192,1,0,0:0:0:0:
320,192,45246,1,0,0:0:0:0:
64,192,45300,1,0,0:0:0:0:
192,192,45300,1,0,0:0:0:0:
448,192,45353,1,0,0:0:0:0:
320,192,45407,1,0,0:0:0:0:
64,192,45460,1,0,0:0:0:0:
192,192,45514,1,0,0:0:0:0:
448,192,45514,1,0,0:0:0:0:
448,192,45621,1,0,0:0:0:0:
192,192,45621,1,0,0:0:0:0:
64,192,45675,1,0,0:0:0:0:
320,192,45728,1,0,0:0:0:0:
192,192,45728,1,0,0:0:0:0:
448,192,45782,1,0,0:0:0:0:
320,192,45835,1,0,0:0:0:0:
192,192,45889,1,0,0:0:0:0:
64,192,45942,1,0,0:0:0:0:
320,192,45942,1,0,0:0:0:0:
448,192,45996,1,0,0:0:0:0:
64,192,46050,1,0,0:0:0:0:
192,192,46103,1,0,0:0:0:0:
320,192,46157,1,0,0:0:0:0:
448,192,46157,1,0,0:0:0:0:
64,192,46210,1,0,0:0:0:0:
192,192,46264,1,0,0:0:0:0:
320,192,46317,1,0,0:0:0:0:
64,192,46371,1,0,0:0:0:0:
448,192,46371,1,0,0:0:0:0:
192,192,46425,1,0,0:0:0:0:
320,192,46478,1,0,0:0:0:0:
448,192,46478,1,0,0:0:0:0:
192,192,46532,1,0,0:0:0:0:
320,192,46585,1,0,0:0:0:0:
64,192,46585,1,0,0:0:0:0:
448,192,46585,1,0,0:0:0:0:
192,192,46692,1,0,0:0:0:0:
64,192,46692,1,0,0:0:0:0:
448,192,46746,1,0,0:0:0:0:
320,192,46746,1,0,0:0:0:0:
192,192,46800,1,0,0:0:0:0:
64,192,46800,1,0,0:0:0:0:
448,192,46907,1,0,0:0:0:0:
320,192,46907,1,0,0:0:0:0:
64,192,47014,1,0,0:0:0:0:
192,192,47014,1,0,0:0:0:0:
448,192,47121,1,0,0:0:0:0:
192,192,47121,1,0,0:0:0:0:
64,192,47228,1,0,0:0:0:0:
320,192,47228,1,0,0:0:0:0:
320,192,47335,1,0,0:0:0:0:
448,192,47335,1,0,0:0:0:0:
64,192,47442,1,0,0:0:0:0:
192,192,47442,1,0,0:0:0:0:
448,192,47550,1,0,0:0:0:0:
192,192,47550,1,0,0:0:0:0:
64,192,47657,1,0,0:0:0:0:
320,192,47657,1,0,0:0:0:0:
448,192,47710,1,0,0:0:0:0:
320,192,47764,1,0,0:0:0:0:
64,192,47817,1,0,0:0:0:0:
448,192,47871,1,0,0:0:0:0:
192,192,47871,1,0,0:0:0:0:
64,192,47924,1,0,0:0:0:0:
448,192,47978,1,0,0:0:0:0:
192,192,47978,1,0,0:0:0:0:
320,192,48032,1,0,0:0:0:0:
192,192,48085,1,0,0:0:0:0:
64,192,48085,1,0,0:0:0:0:
320,192,48139,1,0,0:0:0:0:
192,192,48192,1,0,0:0:0:0:
64,192,48246,1,0,0:0:0:0:
320,192,48299,1,0,0:0:0:0:
448,192,48299,1,0,0:0:0:0:
192,192,48353,1,0,0:0:0:0:
64,192,48407,1,0,0:0:0:0:
192,192,48460,1,0,0:0:0:0:
320,192,48514,1,0,0:0:0:0:
448,192,48567,1,0,0:0:0:0:
320,192,48621,1,0,0:0:0:0:
64,192,48621,1,0,0:0:0:0:
448,192,48674,1,0,0:0:0:0:
192,192,48728,1,0,0:0:0:0:
320,192,48728,1,0,0:0:0:0:
64,192,48782,1,0,0:0:0:0:
448,192,48835,1,0,0:0:0:0:
320,192,48889,1,0,0:0:0:0:
192,192,48942,1,0,0:0:0:0:
64,192,48942,1,0,0:0:0:0:
64,192,49049,1,0,0:0:0:0:
192,192,49049,1,0,0:0:0:0:
320,192,49103,1,0,0:0:0:0:
448,192,49157,1,0,0:0:0:0:
320,192,49210,1,0,0:0:0:0:
192,192,49264,1,0,0:0:0:0:
320,192,49371,1,0,0:0:0:0:
448,192,49371,1,0,0:0:0:0:
64,192,49424,1,0,0:0:0:0:
192,192,49478,1,0,0:0:0:0:
320,192,49532,1,0,0:0:0:0:
448,192,49585,1,0,0:0:0:0:
64,192,49585,1,0,0:0:0:0:
192,192,49639,1,0,0:0:0:0:
320,192,49692,1,0,0:0:0:0:
64,192,49746,1,0,0:0:0:0:
192,192,49799,1,0,0:0:0:0:
320,192,49853,1,0,0:0:0:0:
448,192,49907,1,0,0:0:0:0:
64,192,49907,1,0,0:0:0:0:
192,192,49960,1,0,0:0:0:0:
448,192,50014,1,0,0:0:0:0:
320,192,50014,1,0,0:0:0:0:
320,192,50121,1,0,0:0:0:0:
64,192,50121,1,0,0:0:0:0:
192,192,50228,1,0,0:0:0:0:
448,192,50228,1,0,0:0:0:0:
320,192,50282,1,0,0:0:0:0:
192,192,50335,1,0,0:0:0:0:
64,192,50389,1,0,0:0:0:0:
448,192,50389,1,0,0:0:0:0:
320,192,50442,1,0,0:0:0:0:
192,192,50442,1,0,0:0:0:0:
448,192,50496,1,0,0:0:0:0:
320,192,50549,1,0,0:0:0:0:
192,192,50603,1,0,0:0:0:0:
64,192,50656,1,0,0:0:0:0:
448,192,50656,1,0,0:0:0:0:
320,192,50710,1,0,0:0:0:0:
192,192,50764,1,0,0:0:0:0:
64,192,50764,1,0,0:0:0:0:
320,192,50817,1,0,0:0:0:0:
192,192,50871,1,0,0:0:0:0:
448,192,50871,1,0,0:0:0:0:
64,192,50924,1,0,0:0:0:0:
448,192,50978,1,0,0:0:0:0:
320,192,50978,1,0,0:0:0:0:
64,192,51085,1,0,0:0:0:0:
192,192,51085,1,0,0:0:0:0:
320,192,51139,1,0,0:0:0:0:
448,192,51192,1,0,0:0:0:0:
192,192,51246,1,0,0:0:0:0:
64,192,51299,1,0,0:0:0:0:
320,192,51299,1,0,0:0:0:0:
320,192,51406,1,0,0:0:0:0:
64,192,51406,1,0,0:0:0:0:
192,192,51460,1,0,0:0:0:0:
448,192,51514,1,0,0:0:0:0:
320,192,51567,1,0,0:0:0:0:
192,192,51621,1,0,0:0:0:0:
64,192,51674,1,0,0:0:0:0:
320,192,51728,1,0,0:0:0:0:
448,192,51728,1,0,0:0:0:0:
192,192,51781,1,0,0:0:0:0:
64,192,51835,1,0,0:0:0:0:
320,192,51889,1,0,0:0:0:0:
448,192,51942,1,0,0:0:0:0:
192,192,51996,1,0,0:0:0:0:
320,192,52049,1,0,0:0:0:0:
448,192,52103,1,0,0:0:0:0:
64,192,52156,1,0,0:0:0:0:
192,192,52156,1,0,0:0:0:0:
320,192,52210,1,0,0:0:0:0:
192,192,52264,1,0,0:0:0:0:
64,192,52317,1,0,0:0:0:0:
192,192,52371,1,0,0:0:0:0:
320,192,52371,1,0,0:0:0:0:
448,192,52424,1,0,0:0:0:0:
64,192,52478,1,0,0:0:0:0:
192,192,52531,1,0,0:0:0:0:
320,192,52585,1,0,0:0:0:0:
448,192,52639,1,0,0:0:0:0:
64,192,52692,1,0,0:0:0:0:
192,192,52746,1,0,0:0:0:0:
320,192,52799,1,0,0:0:0:0:
448,192,52799,1,0,0:0:0:0:
64,192,52853,1,0,0:0:0:0:
192,192,52906,1,0,0:0:0:0:
320,192,52960,1,0,0:0:0:0:
448,192,53014,1,0,0:0:0:0:
64,192,53067,1,0,0:0:0:0:
192,192,53121,1,0,0:0:0:0:
64,192,53174,1,0,0:0:0:0:
192,192,53228,1,0,0:0:0:0:
320,192,53281,1,0,0:0:0:0:
448,192,53335,1,0,0:0:0:0:
192,192,53389,1,0,0:0:0:0:
448,192,53442,1,0,0:0:0:0:
320,192,53442,1,0,0:0:0:0:
320,192,53549,1,0,0:0:0:0:
192,192,53549,1,0,0:0:0:0:
192,192,53656,1,0,0:0:0:0:
64,192,53656,1,0,0:0:0:0:
448,192,53710,1,0,0:0:0:0:
320,192,53764,1,0,0:0:0:0:
192,192,53764,1,0,0:0:0:0:
448,192,53817,1,0,0:0:0:0:
64,192,53871,1,0,0:0:0:0:
320,192,53871,1,0,0:0:0:0:
192,192,53924,1,0,0:0:0:0:
448,192,53978,1,0,0:0:0:0:
64,192,53978,1,0,0:0:0:0:
320,192,54031,1,0,0:0:0:0:
192,192,54085,1,0,0:0:0:0:
64,192,54085,1,0,0:0:0:0:
448,192,54139,1,0,0:0:0:0:
64,192,54192,1,0,0:0:0:0:
320,192,54192,1,0,0:0:0:0:
192,192,54246,1,0,0:0:0:0:
320,192,54299,1,0,0:0:0:0:
448,192,54299,1,0,0:0:0:0:
192,192,54353,1,0,0:0:0:0:
64,192,54406,1,0,0:0:0:0:
320,192,54406,1,0,0:0:0:0:
64,192,54514,1,0,0:0:0:0:
192,192,54514,1,0,0:0:0:0:
320,192,54567,1,0,0:0:0:0:
448,192,54621,1,0,0:0:0:0:
64,192,54674,1,0,0:0:0:0:
320,192,54728,1,0,0:0:0:0:
192,192,54728,1,0,0:0:0:0:
320,192,54835,1,0,0:0:0:0:
192,192,54835,1,0,0:0:0:0:
448,192,54889,1,0,0:0:0:0:
64,192,54942,1,0,0:0:0:0:
192,192,54996,1,0,0:0:0:0:
320,192,55049,1,0,0:0:0:0:
448,192,55103,1,0,0:0:0:0:
192,192,55156,1,0,0:0:0:0:
320,192,55156,1,0,0:0:0:0:
64,192,55210,1,0,0:0:0:0:
448,192,55264,1,0,0:0:0:0:
320,192,55317,1,0,0:0:0:0:
192,192,55371,1,0,0:0:0:0:
64,192,55424,1,0,0:0:0:0:
192,192,55478,1,0,0:0:0:0:
320,192,55531,1,0,0:0:0:0:
64,192,55585,1,0,0:0:0:0:
448,192,55585,1,0,0:0:0:0:
192,192,55639,1,0,0:0:0:0:
320,192,55692,1,0,0:0:0:0:
448,192,55746,1,0,0:0:0:0:
192,192,55799,1,0,0:0:0:0:
320,192,55799,1,0,0:0:0:0:
192,192,55906,1,0,0:0:0:0:
320,192,55906,1,0,0:0:0:0:
448,192,55960,1,0,0:0:0:0:
320,192,56014,1,0,0:0:0:0:
192,192,56067,1,0,0:0:0:0:
64,192,56121,1,0,0:0:0:0:
192,192,56174,1,0,0:0:0:0:
448,192,56228,1,0,0:0:0:0:
320,192,56228,1,0,0:0:0:0:
64,192,56281,1,0,0:0:0:0:
192,192,56335,1,0,0:0:0:0:
448,192,56389,1,0,0:0:0:0:
320,192,56442,1,0,0:0:0:0:
64,192,56442,1,0,0:0:0:0:
192,192,56549,1,0,0:0:0:0:
448,192,56549,1,0,0:0:0:0:
64,192,56656,1,0,0:0:0:0:
192,192,56656,1,0,0:0:0:0:
448,192,56710,1,0,0:0:0:0:
320,192,56764,1,0,0:0:0:0:
192,192,56817,1,0,0:0:0:0:
320,192,56871,1,0,0:0:0:0:
448,192,56871,1,0,0:0:0:0:
64,192,56924,1,0,0:0:0:0:
192,192,56978,1,0,0:0:0:0:
320,192,57031,1,0,0:0:0:0:
448,192,57085,1,0,0:0:0:0:
64,192,57085,1,0,0:0:0:0:
192,192,57139,1,0,0:0:0:0:
320,192,57192,1,0,0:0:0:0:
448,192,57246,1,0,0:0:0:0:
64,192,57299,1,0,0:0:0:0:
320,192,57299,1,0,0:0:0:0:
192,192,57353,1,0,0:0:0:0:
320,192,57406,1,0,0:0:0:0:
448,192,57460,1,0,0:0:0:0:
192,192,57514,1,0,0:0:0:0:
64,192,57514,1,0,0:0:0:0:
320,192,57514,1,0,0:0:0:0:
64,192,57621,1,0,0:0:0:0:
320,192,57621,1,0,0:0:0:0:
192,192,57621,1,0,0:0:0:0:
64,192,57942,5,0,0:0:0:0:
192,192,57942,1,0,0:0:0:0:
320,192,57942,1,0,0:0:0:0:
64,192,58049,1,0,0:0:0:0:
320,192,58049,1,0,0:0:0:0:
448,192,58049,1,0,0:0:0:0:
448,192,58156,1,0,0:0:0:0:
320,192,58156,1,0,0:0:0:0:
192,192,58156,1,0,0:0:0:0:
64,192,58264,1,0,0:0:0:0:
192,192,58264,1,0,0:0:0:0:
448,192,58264,1,0,0:0:0:0:
192,192,58585,1,0,0:0:0:0:
320,192,58585,1,0,0:0:0:0:
448,192,58585,1,0,0:0:0:0:
192,192,58692,1,0,0:0:0:0:
64,192,58692,1,0,0:0:0:0:
448,192,58692,1,0,0:0:0:0:
320,192,58799,1,0,0:0:0:0:
192,192,58799,1,0,0:0:0:0:
64,192,58799,1,0,0:0:0:0:
448,192,58906,1,0,0:0:0:0:
320,192,58906,1,0,0:0:0:0:
64,192,58906,1,0,0:0:0:0:
192,192,59228,1,0,0:0:0:0:
320,192,59228,1,0,0:0:0:0:
448,192,59228,1,0,0:0:0:0:
64,192,59335,1,0,0:0:0:0:
448,192,59335,1,0,0:0:0:0:
320,192,59335,1,0,0:0:0:0:
448,192,59442,1,0,0:0:0:0:
192,192,59442,1,0,0:0:0:0:
64,192,59442,1,0,0:0:0:0:
192,192,59549,1,0,0:0:0:0:
64,192,59549,1,0,0:0:0:0:
320,192,59549,1,0,0:0:0:0:
320,192,59764,1,0,0:0:0:0:
192,192,59799,1,0,0:0:0:0:
64,192,59835,1,0,0:0:0:0:
448,192,59871,1,0,0:0:0:0:
320,192,59906,1,0,0:0:0:0:
192,192,59942,1,0,0:0:0:0:
448,192,59978,1,0,0:0:0:0:
64,192,60031,1,0,0:0:0:0:
320,192,60085,1,0,0:0:0:0:
192,192,60085,1,0,0:0:0:0:
448,192,60192,1,0,0:0:0:0:
64,192,60192,1,0,0:0:0:0:
192,192,60246,1,0,0:0:0:0:
64,192,60299,1,0,0:0:0:0:
320,192,60299,1,0,0:0:0:0:
448,192,60353,1,0,0:0:0:0:
192,192,60406,1,0,0:0:0:0:
320,192,60406,1,0,0:0:0:0:
64,192,60514,1,0,0:0:0:0:
448,192,60514,1,0,0:0:0:0:
192,192,60621,1,0,0:0:0:0:
320,192,60621,1,0,0:0:0:0:
64,192,60728,1,0,0:0:0:0:
448,192,60728,1,0,0:0:0:0:
320,192,60835,1,0,0:0:0:0:
192,192,60835,1,0,0:0:0:0:
64,192,60942,1,0,0:0:0:0:
192,192,60942,1,0,0:0:0:0:
320,192,61049,1,0,0:0:0:0:
448,192,61049,1,0,0:0:0:0:
64,192,61156,1,0,0:0:0:0:
192,192,61156,1,0,0:0:0:0:
320,192,61264,1,0,0:0:0:0:
448,192,61264,1,0,0:0:0:0:
64,192,61371,1,0,0:0:0:0:
192,192,61371,1,0,0:0:0:0:
448,192,61371,1,0,0:0:0:0:
320,192,61371,1,0,0:0:0:0:
192,192,61478,1,0,0:0:0:0:
64,192,61478,1,0,0:0:0:0:
448,192,61478,1,0,0:0:0:0:
64,192,61585,1,0,0:0:0:0:
320,192,61585,1,0,0:0:0:0:
448,192,61585,1,0,0:0:0:0:
320,192,61692,1,0,0:0:0:0:
192,192,61692,1,0,0:0:0:0:
64,192,61692,1,0,0:0:0:0:
448,192,62014,1,0,0:0:0:0:
320,192,62014,1,0,0:0:0:0:
64,192,62014,1,0,0:0:0:0:
64,192,62121,1,0,0:0:0:0:
192,192,62121,1,0,0:0:0:0:
448,192,62121,1,0,0:0:0:0:
320,192,62228,1,0,0:0:0:0:
192,192,62228,1,0,0:0:0:0:
64,192,62228,1,0,0:0:0:0:
192,192,62335,1,0,0:0:0:0:
320,192,62335,1,0,0:0:0:0:
448,192,62335,1,0,0:0:0:0:
320,192,62656,1,0,0:0:0:0:
192,192,62656,1,0,0:0:0:0:
64,192,62656,1,0,0:0:0:0:
192,192,62764,1,0,0:0:0:0:
64,192,62764,1,0,0:0:0:0:
448,192,62764,1,0,0:0:0:0:
64,192,62871,1,0,0:0:0:0:
320,192,62871,1,0,0:0:0:0:
448,192,62871,1,0,0:0:0:0:
192,192,62978,128,0,63406:0:0:0:0:
320,192,62978,128,0,63406:0:0:0:0:
448,192,62978,128,0,63406:0:0:0:0:
64,192,63514,1,0,0:0:0:0:
320,192,63514,1,0,0:0:0:0:
64,192,63621,1,0,0:0:0:0:
320,192,63621,1,0,0:0:0:0:
192,192,63728,1,0,0:0:0:0:
448,192,63728,1,0,0:0:0:0:
192,192,63835,1,0,0:0:0:0:
448,192,63835,1,0,0:0:0:0:
320,192,63942,1,0,0:0:0:0:
448,192,63942,1,0,0:0:0:0:
320,192,64049,1,0,0:0:0:0:
448,192,64049,1,0,0:0:0:0:
320,192,64156,1,0,0:0:0:0:
64,192,64156,1,0,0:0:0:0:
320,192,64264,1,0,0:0:0:0:
64,192,64264,1,0,0:0:0:0:
192,192,64371,1,0,0:0:0:0:
64,192,64371,1,0,0:0:0:0:
192,192,64478,1,0,0:0:0:0:
64,192,64478,1,0,0:0:0:0:
192,192,64585,1,0,0:0:0:0:
448,192,64585,1,0,0:0:0:0:
192,192,64692,1,0,0:0:0:0:
448,192,64692,1,0,0:0:0:0:
448,192,64799,1,0,0:0:0:0:
320,192,64799,1,0,0:0:0:0:
64,192,64799,1,0,0:0:0:0:
192,192,64906,1,0,0:0:0:0:
448,192,64906,1,0,0:0:0:0:
64,192,64906,1,0,0:0:0:0:
320,192,65014,1,0,0:0:0:0:
192,192,65014,1,0,0:0:0:0:
64,192,65014,1,0,0:0:0:0:
192,192,65121,1,0,0:0:0:0:
320,192,65121,1,0,0:0:0:0:
448,192,65121,1,0,0:0:0:0:
64,192,65442,1,0,0:0:0:0:
192,192,65442,1,0,0:0:0:0:
448,192,65442,1,0,0:0:0:0:
448,192,65549,1,0,0:0:0:0:
320,192,65549,1,0,0:0:0:0:
64,192,65549,1,0,0:0:0:0:
192,192,65656,1,0,0:0:0:0:
320,192,65656,1,0,0:0:0:0:
448,192,65656,1,0,0:0:0:0:
320,192,65764,1,0,0:0:0:0:
192,192,65764,1,0,0:0:0:0:
64,192,65764,1,0,0:0:0:0:
192,192,66085,1,0,0:0:0:0:
320,192,66085,1,0,0:0:0:0:
448,192,66085,1,0,0:0:0:0:
320,192,66192,1,0,0:0:0:0:
448,192,66192,1,0,0:0:0:0:
64,192,66192,1,0,0:0:0:0:
448,192,66299,1,0,0:0:0:0:
192,192,66299,1,0,0:0:0:0:
64,192,66299,1,0,0:0:0:0:
64,192,66406,128,0,66835:0:0:0:0:
192,192,66406,128,0,66835:0:0:0:0:
320,192,66406,128,0,66835:0:0:0:0:
448,192,66942,1,0,0:0:0:0:
192,192,66942,1,0,0:0:0:0:
448,192,67049,1,0,0:0:0:0:
192,192,67049,1,0,0:0:0:0:
320,192,67156,1,0,0:0:0:0:
64,192,67156,1,0,0:0:0:0:
320,192,67264,1,0,0:0:0:0:
64,192,67264,1,0,0:0:0:0:
192,192,67317,1,0,0:0:0:0:
448,192,67371,1,0,0:0:0:0:
320,192,67371,1,0,0:0:0:0:
64,192,67424,1,0,0:0:0:0:
192,192,67478,1,0,0:0:0:0:
448,192,67478,1,0,0:0:0:0:
320,192,67531,1,0,0:0:0:0:
192,192,67585,1,0,0:0:0:0:
64,192,67585,1,0,0:0:0:0:
448,192,67692,1,0,0:0:0:0:
320,192,67692,1,0,0:0:0:0:
192,192,67799,1,0,0:0:0:0:
448,192,67799,1,0,0:0:0:0:
64,192,67799,1,0,0:0:0:0:
192,192,67906,1,0,0:0:0:0:
448,192,67906,1,0,0:0:0:0:
320,192,67906,1,0,0:0:0:0:
192,192,68014,1,0,0:0:0:0:
448,192,68014,1,0,0:0:0:0:
64,192,68014,1,0,0:0:0:0:
320,192,68121,1,0,0:0:0:0:
192,192,68121,1,0,0:0:0:0:
448,192,68121,1,0,0:0:0:0:
192,192,68228,1,0,0:0:0:0:
64,192,68228,1,0,0:0:0:0:
320,192,68228,1,0,0:0:0:0:
448,192,68281,1,0,0:0:0:0:
320,192,68335,1,0,0:0:0:0:
192,192,68389,1,0,0:0:0:0:
64,192,68389,1,0,0:0:0:0:
320,192,68442,1,0,0:0:0:0:
448,192,68442,1,0,0:0:0:0:
192,192,68549,1,0,0:0:0:0:
64,192,68549,1,0,0:0:0:0:
448,192,68603,1,0,0:0:0:0:
320,192,68656,1,0,0:0:0:0:
192,192,68710,1,0,0:0:0:0:
64,192,68764,1,0,0:0:0:0:
320,192,68764,1,0,0:0:0:0:
448,192,68817,1,0,0:0:0:0:
64,192,68871,1,0,0:0:0:0:
192,192,68924,1,0,0:0:0:0:
320,192,68978,1,0,0:0:0:0:
448,192,69031,1,0,0:0:0:0:
320,192,69085,1,0,0:0:0:0:
64,192,69085,1,0,0:0:0:0:
192,192,69139,1,0,0:0:0:0:
64,192,69192,1,0,0:0:0:0:
448,192,69246,1,0,0:0:0:0:
320,192,69299,1,0,0:0:0:0:
192,192,69353,1,0,0:0:0:0:
64,192,69406,1,0,0:0:0:0:
448,192,69460,1,0,0:0:0:0:
320,192,69514,1,0,0:0:0:0:
192,192,69567,1,0,0:0:0:0:
64,192,69621,1,0,0:0:0:0:
448,192,69674,1,0,0:0:0:0:
320,192,69728,1,0,0:0:0:0:
192,192,69781,1,0,0:0:0:0:
64,192,69835,1,0,0:0:0:0:
448,192,69889,1,0,0:0:0:0:
64,192,69942,1,0,0:0:0:0:
320,192,69942,1,0,0:0:0:0:
192,192,69996,1,0,0:0:0:0:
320,192,70049,1,0,0:0:0:0:
448,192,70103,1,0,0:0:0:0:
64,192,70103,1,0,0:0:0:0:
192,192,70156,1,0,0:0:0:0:
320,192,70156,1,0,0:0:0:0:
64,192,70264,1,0,0:0:0:0:
192,192,70264,1,0,0:0:0:0:
320,192,70317,1,0,0:0:0:0:
448,192,70371,1,0,0:0:0:0:
64,192,70424,1,0,0:0:0:0:
448,192,70478,1,0,0:0:0:0:
192,192,70478,1,0,0:0:0:0:
320,192,70531,1,0,0:0:0:0:
192,192,70585,1,0,0:0:0:0:
64,192,70639,1,0,0:0:0:0:
448,192,70692,1,0,0:0:0:0:
320,192,70692,1,0,0:0:0:0:
320,192,70799,1,0,0:0:0:0:
192,192,70799,1,0,0:0:0:0:
448,192,70853,1,0,0:0:0:0:
64,192,70906,1,0,0:0:0:0:
192,192,70960,1,0,0:0:0:0:
320,192,71014,1,0,0:0:0:0:
448,192,71014,1,0,0:0:0:0:
192,192,71067,1,0,0:0:0:0:
64,192,71121,1,0,0:0:0:0:
448,192,71174,1,0,0:0:0:0:
320,192,71228,1,0,0:0:0:0:
192,192,71228,1,0,0:0:0:0:
192,192,71335,1,0,0:0:0:0:
320,192,71335,1,0,0:0:0:0:
64,192,71389,1,0,0:0:0:0:
192,192,71442,1,0,0:0:0:0:
320,192,71496,1,0,0:0:0:0:
448,192,71549,1,0,0:0:0:0:
320,192,71603,1,0,0:0:0:0:
192,192,71656,1,0,0:0:0:0:
64,192,71656,1,0,0:0:0:0:
448,192,71710,1,0,0:0:0:0:
320,192,71764,1,0,0:0:0:0:
192,192,71817,1,0,0:0:0:0:
320,192,71871,1,0,0:0:0:0:
64,192,71871,1,0,0:0:0:0:
64,192,71978,1,0,0:0:0:0:
320,192,71978,1,0,0:0:0:0:
192,192,72031,1,0,0:0:0:0:
320,192,72085,1,0,0:0:0:0:
192,192,72139,1,0,0:0:0:0:
448,192,72192,1,0,0:0:0:0:
64,192,72192,1,0,0:0:0:0:
320,192,72246,1,0,0:0:0:0:
64,192,72299,1,0,0:0:0:0:
192,192,72353,1,0,0:0:0:0:
320,192,72406,1,0,0:0:0:0:
448,192,72460,1,0,0:0:0:0:
320,192,72514,1,0,0:0:0:0:
64,192,72514,1,0,0:0:0:0:
192,192,72567,1,0,0:0:0:0:
448,192,72621,1,0,0:0:0:0:
320,192,72674,1,0,0:0:0:0:
192,192,72728,1,0,0:0:0:0:
64,192,72728,1,0,0:0:0:0:
64,192,72835,1,0,0:0:0:0:
192,192,72835,1,0,0:0:0:0:
320,192,72889,1,0,0:0:0:0:
448,192,72942,1,0,0:0:0:0:
64,192,72996,1,0,0:0:0:0:
192,192,73049,1,0,0:0:0:0:
320,192,73049,1,0,0:0:0:0:
448,192,73103,1,0,0:0:0:0:
64,192,73156,1,0,0:0:0:0:
192,192,73210,1,0,0:0:0:0:
320,192,73264,1,0,0:0:0:0:
448,192,73317,1,0,0:0:0:0:
320,192,73371,1,0,0:0:0:0:
64,192,73371,1,0,0:0:0:0:
192,192,73424,1,0,0:0:0:0:
320,192,73478,1,0,0:0:0:0:
64,192,73531,1,0,0:0:0:0:
192,192,73585,1,0,0:0:0:0:
448,192,73585,1,0,0:0:0:0:
448,192,73692,1,0,0:0:0:0:
192,192,73692,1,0,0:0:0:0:
64,192,73746,1,0,0:0:0:0:
320,192,73799,1,0,0:0:0:0:
192,192,73853,1,0,0:0:0:0:
448,192,73906,1,0,0:0:0:0:
320,192,73906,1,0,0:0:0:0:
64,192,73960,1,0,0:0:0:0:
192,192,74014,1,0,0:0:0:0:
320,192,74067,1,0,0:0:0:0:
448,192,74121,1,0,0:0:0:0:
64,192,74174,1,0,0:0:0:0:
320,192,74228,1,0,0:0:0:0:
192,192,74228,1,0,0:0:0:0:
448,192,74281,1,0,0:0:0:0:
320,192,74335,1,0,0:0:0:0:
192,192,74389,1,0,0:0:0:0:
448,192,74442,1,0,0:0:0:0:
64,192,74496,1,0,0:0:0:0:
448,192,74549,1,0,0:0:0:0:
64,192,74603,1,0,0:0:0:0:
448,192,74656,1,0,0:0:0:0:
192,192,74710,1,0,0:0:0:0:
320,192,74764,1,0,0:0:0:0:
192,192,74817,1,0,0:0:0:0:
320,192,74871,1,0,0:0:0:0:
192,192,74924,1,0,0:0:0:0:
320,192,74978,1,0,0:0:0:0:
192,192,75085,1,0,0:0:0:0:
64,192,75085,1,0,0:0:0:0:
448,192,75139,1,0,0:0:0:0:
320,192,75192,1,0,0:0:0:0:
64,192,75246,1,0,0:0:0:0:
192,192,75299,1,0,0:0:0:0:
320,192,75299,1,0,0:0:0:0:
320,192,75406,1,0,0:0:0:0:
192,192,75406,1,0,0:0:0:0:
64,192,75460,1,0,0:0:0:0:
448,192,75514,1,0,0:0:0:0:
320,192,75567,1,0,0:0:0:0:
448,192,75621,1,0,0:0:0:0:
192,192,75621,1,0,0:0:0:0:
64,192,75674,1,0,0:0:0:0:
448,192,75728,1,0,0:0:0:0:
320,192,75781,1,0,0:0:0:0:
64,192,75835,1,0,0:0:0:0:
192,192,75889,1,0,0:0:0:0:
448,192,75942,1,0,0:0:0:0:
320,192,75942,1,0,0:0:0:0:
64,192,75996,1,0,0:0:0:0:
192,192,76049,1,0,0:0:0:0:
320,192,76103,1,0,0:0:0:0:
448,192,76156,1,0,0:0:0:0:
64,192,76210,1,0,0:0:0:0:
192,192,76264,1,0,0:0:0:0:
320,192,76317,1,0,0:0:0:0:
64,192,76371,1,0,0:0:0:0:
192,192,76424,1,0,0:0:0:0:
320,192,76478,1,0,0:0:0:0:
448,192,76531,1,0,0:0:0:0:
64,192,76585,1,0,0:0:0:0:
192,192,76639,1,0,0:0:0:0:
320,192,76692,1,0,0:0:0:0:
192,192,76746,1,0,0:0:0:0:
64,192,76799,1,0,0:0:0:0:
448,192,76799,1,0,0:0:0:0:
320,192,76853,1,0,0:0:0:0:
192,192,76906,1,0,0:0:0:0:
64,192,76960,1,0,0:0:0:0:
320,192,77014,1,0,0:0:0:0:
448,192,77014,1,0,0:0:0:0:
448,192,77121,1,0,0:0:0:0:
320,192,77121,1,0,0:0:0:0:
192,192,77174,1,0,0:0:0:0:
64,192,77228,1,0,0:0:0:0:
192,192,77281,1,0,0:0:0:0:
448,192,77335,1,0,0:0:0:0:
320,192,77335,1,0,0:0:0:0:
64,192,77389,1,0,0:0:0:0:
192,192,77442,1,0,0:0:0:0:
320,192,77496,1,0,0:0:0:0:
192,192,77549,1,0,0:0:0:0:
448,192,77549,1,0,0:0:0:0:
320,192,77603,1,0,0:0:0:0:
64,192,77656,1,0,0:0:0:0:
192,192,77656,1,0,0:0:0:0:
448,192,77710,1,0,0:0:0:0:
320,192,77764,1,0,0:0:0:0:
192,192,77817,1,0,0:0:0:0:
320,192,77871,1,0,0:0:0:0:
64,192,77871,1,0,0:0:0:0:
64,192,77978,1,0,0:0:0:0:
320,192,77978,1,0,0:0:0:0:
192,192,78031,1,0,0:0:0:0:
448,192,78085,1,0,0:0:0:0:
320,192,78139,1,0,0:0:0:0:
64,192,78192,1,0,0:0:0:0:
192,192,78192,1,0,0:0:0:0:
448,192,78246,1,0,0:0:0:0:
320,192,78299,1,0,0:0:0:0:
192,192,78353,1,0,0:0:0:0:
64,192,78406,1,0,0:0:0:0:
448,192,78460,1,0,0:0:0:0:
320,192,78514,1,0,0:0:0:0:
192,192,78514,1,0,0:0:0:0:
64,192,78567,1,0,0:0:0:0:
192,192,78621,1,0,0:0:0:0:
320,192,78674,1,0,0:0:0:0:
192,192,78728,1,0,0:0:0:0:
64,192,78728,1,0,0:0:0:0:
64,192,78835,1,0,0:0:0:0:
192,192,78835,1,0,0:0:0:0:
320,192,78889,1,0,0:0:0:0:
64,192,78942,1,0,0:0:0:0:
192,192,78996,1,0,0:0:0:0:
448,192,79049,1,0,0:0:0:0:
320,192,79049,1,0,0:0:0:0:
64,192,79103,1,0,0:0:0:0:
192,192,79156,1,0,0:0:0:0:
448,192,79210,1,0,0:0:0:0:
192,192,79264,1,0,0:0:0:0:
320,192,79264,1,0,0:0:0:0:
320,192,79371,1,0,0:0:0:0:
448,192,79371,1,0,0:0:0:0:
64,192,79424,1,0,0:0:0:0:
192,192,79478,1,0,0:0:0:0:
64,192,79531,1,0,0:0:0:0:
320,192,79585,1,0,0:0:0:0:
448,192,79585,1,0,0:0:0:0:
320,192,79692,1,0,0:0:0:0:
448,192,79692,1,0,0:0:0:0:
192,192,79746,1,0,0:0:0:0:
320,192,79799,1,0,0:0:0:0:
448,192,79853,1,0,0:0:0:0:
192,192,79906,1,0,0:0:0:0:
64,192,79906,1,0,0:0:0:0:
320,192,79960,1,0,0:0:0:0:
448,192,80014,1,0,0:0:0:0:
64,192,80067,1,0,0:0:0:0:
192,192,80121,1,0,0:0:0:0:
320,192,80174,1,0,0:0:0:0:
448,192,80228,1,0,0:0:0:0:
192,192,80228,1,0,0:0:0:0:
64,192,80281,1,0,0:0:0:0:
448,192,80335,1,0,0:0:0:0:
320,192,80389,1,0,0:0:0:0:
192,192,80442,1,0,0:0:0:0:
64,192,80496,1,0,0:0:0:0:
448,192,80549,1,0,0:0:0:0:
320,192,80603,1,0,0:0:0:0:
192,192,80656,1,0,0:0:0:0:
448,192,80710,1,0,0:0:0:0:
320,192,80764,1,0,0:0:0:0:
192,192,80817,1,0,0:0:0:0:
64,192,80871,1,0,0:0:0:0:
320,192,80871,1,0,0:0:0:0:
192,192,80978,1,0,0:0:0:0:
448,192,80978,1,0,0:0:0:0:
320,192,81085,1,0,0:0:0:0:
64,192,81085,1,0,0:0:0:0:
192,192,81139,1,0,0:0:0:0:
320,192,81192,1,0,0:0:0:0:
448,192,81246,1,0,0:0:0:0:
64,192,81246,1,0,0:0:0:0:
192,192,81299,1,0,0:0:0:0:
64,192,81353,1,0,0:0:0:0:
320,192,81406,1,0,0:0:0:0:
448,192,81460,1,0,0:0:0:0:
192,192,81514,1,0,0:0:0:0:
64,192,81567,1,0,0:0:0:0:
448,192,81621,1,0,0:0:0:0:
320,192,81674,1,0,0:0:0:0:
192,192,81728,1,0,0:0:0:0:
64,192,81781,1,0,0:0:0:0:
448,192,81835,1,0,0:0:0:0:
320,192,81889,1,0,0:0:0:0:
448,192,81942,1,0,0:0:0:0:
64,192,81942,1,0,0:0:0:0:
192,192,81942,1,0,0:0:0:0:
64,192,82049,1,0,0:0:0:0:
320,192,82049,1,0,0:0:0:0:
448,192,82156,1,0,0:0:0:0:
320,192,82156,1,0,0:0:0:0:
192,192,82156,1,0,0:0:0:0:
192,192,82264,1,0,0:0:0:0:
320,192,82264,1,0,0:0:0:0:
448,192,82264,1,0,0:0:0:0:
64,192,82371,1,0,0:0:0:0:
192,192,82371,1,0,0:0:0:0:
192,192,82478,1,0,0:0:0:0:
320,192,82478,1,0,0:0:0:0:
448,192,82478,1,0,0:0:0:0:
64,192,82585,1,0,0:0:0:0:
448,192,82585,1,0,0:0:0:0:
64,192,82692,1,0,0:0:0:0:
192,192,82692,1,0,0:0:0:0:
448,192,82799,1,0,0:0:0:0:
192,192,82799,1,0,0:0:0:0:
320,192,82799,1,0,0:0:0:0:
320,192,82906,1,0,0:0:0:0:
448,192,82906,1,0,0:0:0:0:
64,192,83014,1,0,0:0:0:0:
192,192,83014,1,0,0:0:0:0:
64,192,83121,1,0,0:0:0:0:
320,192,83121,1,0,0:0:0:0:
448,192,83228,1,0,0:0:0:0:
320,192,83228,1,0,0:0:0:0:
64,192,83335,1,0,0:0:0:0:
192,192,83335,1,0,0:0:0:0:
448,192,83442,1,0,0:0:0:0:
64,192,83442,1,0,0:0:0:0:
320,192,83496,1,0,0:0:0:0:
192,192,83549,1,0,0:0:0:0:
64,192,83603,1,0,0:0:0:0:
448,192,83656,1,0,0:0:0:0:
64,192,83764,1,0,0:0:0:0:
192,192,83764,1,0,0:0:0:0:
320,192,83871,1,0,0:0:0:0:
448,192,83871,1,0,0:0:0:0:
64,192,83978,1,0,0:0:0:0:
448,192,83978,1,0,0:0:0:0:
320,192,83978,1,0,0:0:0:0:
192,192,84085,1,0,0:0:0:0:
320,192,84085,1,0,0:0:0:0:
448,192,84192,1,0,0:0:0:0:
64,192,84192,1,0,0:0:0:0:
192,192,84192,1,0,0:0:0:0:
64,192,84299,1,0,0:0:0:0:
320,192,84299,1,0,0:0:0:0:
192,192,84406,1,0,0:0:0:0:
448,192,84406,1,0,0:0:0:0:
64,192,84514,1,0,0:0:0:0:
320,192,84514,1,0,0:0:0:0:
320,192,84621,1,0,0:0:0:0:
192,192,84621,1,0,0:0:0:0:
192,192,84728,1,0,0:0:0:0:
64,192,84728,1,0,0:0:0:0:
448,192,84728,1,0,0:0:0:0:
320,192,84835,1,0,0:0:0:0:
192,192,84835,1,0,0:0:0:0:
64,192,84942,1,0,0:0:0:0:
448,192,84942,1,0,0:0:0:0:
320,192,84942,1,0,0:0:0:0:
64,192,85049,1,0,0:0:0:0:
448,192,85049,1,0,0:0:0:0:
320,192,85156,1,0,0:0:0:0:
192,192,85156,1,0,0:0:0:0:
192,192,85264,1,0,0:0:0:0:
64,192,85264,1,0,0:0:0:0:
448,192,85371,1,0,0:0:0:0:
192,192,85371,1,0,0:0:0:0:
320,192,85371,1,0,0:0:0:0:
64,192,85478,1,0,0:0:0:0:
320,192,85478,1,0,0:0:0:0:
64,192,85585,1,0,0:0:0:0:
320,192,85585,1,0,0:0:0:0:
192,192,85585,1,0,0:0:0:0:
64,192,85692,1,0,0:0:0:0:
320,192,85692,1,0,0:0:0:0:
192,192,85692,1,0,0:0:0:0:
192,192,85799,1,0,0:0:0:0:
448,192,85799,1,0,0:0:0:0:
448,192,85906,1,0,0:0:0:0:
320,192,85906,1,0,0:0:0:0:
64,192,85906,1,0,0:0:0:0:
448,192,86014,1,0,0:0:0:0:
64,192,86014,1,0,0:0:0:0:
192,192,86121,1,0,0:0:0:0:
320,192,86121,1,0,0:0:0:0:
64,192,86228,1,0,0:0:0:0:
448,192,86228,1,0,0:0:0:0:
320,192,86228,1,0,0:0:0:0:
192,192,86335,1,0,0:0:0:0:
320,192,86335,1,0,0:0:0:0:
64,192,86442,1,0,0:0:0:0:
192,192,86442,1,0,0:0:0:0:
448,192,86442,1,0,0:0:0:0:
64,192,86549,1,0,0:0:0:0:
448,192,86549,1,0,0:0:0:0:
192,192,86549,1,0,0:0:0:0:
320,192,86656,1,0,0:0:0:0:
192,192,86656,1,0,0:0:0:0:
448,192,86764,1,0,0:0:0:0:
320,192,86764,1,0,0:0:0:0:
64,192,86764,1,0,0:0:0:0:
320,192,86871,1,0,0:0:0:0:
192,192,86871,1,0,0:0:0:0:
64,192,86978,1,0,0:0:0:0:
448,192,86978,1,0,0:0:0:0:
192,192,87085,1,0,0:0:0:0:
320,192,87085,1,0,0:0:0:0:
448,192,87085,1,0,0:0:0:0:
320,192,87192,1,0,0:0:0:0:
64,192,87192,1,0,0:0:0:0:
448,192,87299,1,0,0:0:0:0:
320,192,87299,1,0,0:0:0:0:
192,192,87299,1,0,0:0:0:0:
448,192,87406,1,0,0:0:0:0:
320,192,87406,1,0,0:0:0:0:
192,192,87406,1,0,0:0:0:0:
64,192,87514,1,0,0:0:0:0:
192,192,87514,1,0,0:0:0:0:
64,192,87621,1,0,0:0:0:0:
320,192,87621,1,0,0:0:0:0:
448,192,87621,1,0,0:0:0:0:
192,192,87728,1,0,0:0:0:0:
448,192,87728,1,0,0:0:0:0:
320,192,87835,1,0,0:0:0:0:
192,192,87835,1,0,0:0:0:0:
64,192,87942,1,0,0:0:0:0:
448,192,87942,1,0,0:0:0:0:
320,192,87942,1,0,0:0:0:0:
448,192,88049,1,0,0:0:0:0:
192,192,88049,1,0,0:0:0:0:
64,192,88156,1,0,0:0:0:0:
320,192,88156,1,0,0:0:0:0:
192,192,88264,1,0,0:0:0:0:
448,192,88264,1,0,0:0:0:0:
64,192,88371,1,0,0:0:0:0:
320,192,88371,1,0,0:0:0:0:
64,192,88478,1,0,0:0:0:0:
448,192,88478,1,0,0:0:0:0:
320,192,88531,1,0,0:0:0:0:
192,192,88585,1,0,0:0:0:0:
64,192,88639,1,0,0:0:0:0:
320,192,88692,1,0,0:0:0:0:
192,192,88746,1,0,0:0:0:0:
64,192,88799,1,0,0:0:0:0:
320,192,88799,1,0,0:0:0:0:
448,192,88799,1,0,0:0:0:0:
192,192,88906,1,0,0:0:0:0:
320,192,88906,1,0,0:0:0:0:
64,192,89014,1,0,0:0:0:0:
320,192,89014,1,0,0:0:0:0:
448,192,89014,1,0,0:0:0:0:
64,192,89121,1,0,0:0:0:0:
320,192,89121,1,0,0:0:0:0:
448,192,89121,1,0,0:0:0:0:
320,192,89228,1,0,0:0:0:0:
192,192,89228,1,0,0:0:0:0:
64,192,89335,1,0,0:0:0:0:
320,192,89335,1,0,0:0:0:0:
448,192,89335,1,0,0:0:0:0:
320,192,89442,1,0,0:0:0:0:
192,192,89442,1,0,0:0:0:0:
448,192,89549,1,0,0:0:0:0:
64,192,89549,1,0,0:0:0:0:
192,192,89656,1,0,0:0:0:0:
448,192,89656,1,0,0:0:0:0:
320,192,89656,1,0,0:0:0:0:
64,192,89764,1,0,0:0:0:0:
448,192,89764,1,0,0:0:0:0:
320,192,89871,1,0,0:0:0:0:
192,192,89871,1,0,0:0:0:0:
64,192,89978,1,0,0:0:0:0:
448,192,89978,1,0,0:0:0:0:
192,192,90085,1,0,0:0:0:0:
448,192,90085,1,0,0:0:0:0:
64,192,90192,1,0,0:0:0:0:
192,192,90192,1,0,0:0:0:0:
448,192,90299,1,0,0:0:0:0:
320,192,90299,1,0,0:0:0:0:
192,192,90406,1,0,0:0:0:0:
320,192,90406,1,0,0:0:0:0:
192,192,90514,1,0,0:0:0:0:
64,192,90514,1,0,0:0:0:0:
448,192,90514,1,0,0:0:0:0:
192,192,90621,1,0,0:0:0:0:
320,192,90621,1,0,0:0:0:0:
64,192,90728,1,0,0:0:0:0:
448,192,90728,1,0,0:0:0:0:
320,192,90728,1,0,0:0:0:0:
64,192,90835,1,0,0:0:0:0:
448,192,90835,1,0,0:0:0:0:
320,192,90835,1,0,0:0:0:0:
448,192,90942,1,0,0:0:0:0:
192,192,90942,1,0,0:0:0:0:
64,192,91049,1,0,0:0:0:0:
320,192,91049,1,0,0:0:0:0:
448,192,91049,1,0,0:0:0:0:
192,192,91156,1,0,0:0:0:0:
320,192,91156,1,0,0:0:0:0:
64,192,91264,1,0,0:0:0:0:
192,192,91264,1,0,0:0:0:0:
448,192,91264,1,0,0:0:0:0:
64,192,91371,1,0,0:0:0:0:
448,192,91371,1,0,0:0:0:0:
192,192,91371,1,0,0:0:0:0:
320,192,91478,1,0,0:0:0:0:
448,192,91478,1,0,0:0:0:0:
64,192,91585,1,0,0:0:0:0:
320,192,91585,1,0,0:0:0:0:
192,192,91585,1,0,0:0:0:0:
64,192,91692,1,0,0:0:0:0:
320,192,91692,1,0,0:0:0:0:
192,192,91692,1,0,0:0:0:0:
448,192,91799,1,0,0:0:0:0:
192,192,91799,1,0,0:0:0:0:
64,192,91906,1,0,0:0:0:0:
448,192,91906,1,0,0:0:0:0:
320,192,91906,1,0,0:0:0:0:
448,192,92014,1,0,0:0:0:0:
192,192,92014,1,0,0:0:0:0:
64,192,92121,1,0,0:0:0:0:
320,192,92121,1,0,0:0:0:0:
192,192,92228,1,0,0:0:0:0:
448,192,92228,1,0,0:0:0:0:
320,192,92228,1,0,0:0:0:0:
64,192,92335,1,0,0:0:0:0:
192,192,92335,1,0,0:0:0:0:
192,192,92442,1,0,0:0:0:0:
448,192,92442,1,0,0:0:0:0:
320,192,92442,1,0,0:0:0:0:
192,192,92549,1,0,0:0:0:0:
448,192,92549,1,0,0:0:0:0:
320,192,92549,1,0,0:0:0:0:
64,192,92656,1,0,0:0:0:0:
448,192,92656,1,0,0:0:0:0:
192,192,92764,1,0,0:0:0:0:
320,192,92764,1,0,0:0:0:0:
192,192,92871,1,0,0:0:0:0:
448,192,92871,1,0,0:0:0:0:
320,192,92871,1,0,0:0:0:0:
64,192,92978,1,0,0:0:0:0:
448,192,92978,1,0,0:0:0:0:
320,192,93085,1,0,0:0:0:0:
448,192,93085,1,0,0:0:0:0:
64,192,93085,1,0,0:0:0:0:
320,192,93192,1,0,0:0:0:0:
192,192,93192,1,0,0:0:0:0:
64,192,93299,1,0,0:0:0:0:
320,192,93299,1,0,0:0:0:0:
192,192,93299,1,0,0:0:0:0:
320,192,93406,1,0,0:0:0:0:
64,192,93406,1,0,0:0:0:0:
192,192,93406,1,0,0:0:0:0:
448,192,93514,1,0,0:0:0:0:
64,192,93514,1,0,0:0:0:0:
64,192,93621,1,0,0:0:0:0:
320,192,93621,1,0,0:0:0:0:
192,192,93621,1,0,0:0:0:0:
448,192,93728,1,0,0:0:0:0:
320,192,93728,1,0,0:0:0:0:
192,192,93835,1,0,0:0:0:0:
320,192,93835,1,0,0:0:0:0:
320,192,93942,1,0,0:0:0:0:
448,192,93942,1,0,0:0:0:0:
64,192,93942,1,0,0:0:0:0:
192,192,94156,1,0,0:0:0:0:
448,192,94156,1,0,0:0:0:0:
320,192,94371,1,0,0:0:0:0:
64,192,94371,1,0,0:0:0:0:
64,192,94478,1,0,0:0:0:0:
448,192,94585,1,0,0:0:0:0:
64,192,94585,1,0,0:0:0:0:
448,192,94799,1,0,0:0:0:0:
64,192,94799,1,0,0:0:0:0:
448,192,95014,1,0,0:0:0:0:
320,192,95014,1,0,0:0:0:0:
320,192,95228,1,0,0:0:0:0:
192,192,95228,1,0,0:0:0:0:
320,192,95335,1,0,0:0:0:0:
64,192,95442,1,0,0:0:0:0:
320,192,95442,1,0,0:0:0:0:
448,192,95656,1,0,0:0:0:0:
64,192,95656,1,0,0:0:0:0:
448,192,95871,1,0,0:0:0:0:
192,192,95871,1,0,0:0:0:0:
192,192,96085,1,0,0:0:0:0:
320,192,96085,1,0,0:0:0:0:
192,192,96192,1,0,0:0:0:0:
448,192,96299,1,0,0:0:0:0:
192,192,96299,1,0,0:0:0:0:
448,192,96514,1,0,0:0:0:0:
64,192,96514,1,0,0:0:0:0:
448,192,96728,1,0,0:0:0:0:
320,192,96728,1,0,0:0:0:0:
448,192,96942,1,0,0:0:0:0:
192,192,96942,1,0,0:0:0:0:
448,192,97049,1,0,0:0:0:0:
448,192,97156,1,0,0:0:0:0:
64,192,97156,1,0,0:0:0:0:
448,192,97371,1,0,0:0:0:0:
64,192,97371,1,0,0:0:0:0:
192,192,97585,1,0,0:0:0:0:
448,192,97585,1,0,0:0:0:0:
320,192,97799,1,0,0:0:0:0:
64,192,97799,1,0,0:0:0:0:
64,192,97906,1,0,0:0:0:0:
448,192,98014,1,0,0:0:0:0:
64,192,98014,1,0,0:0:0:0:
448,192,98228,1,0,0:0:0:0:
64,192,98228,1,0,0:0:0:0:
448,192,98442,1,0,0:0:0:0:
320,192,98442,1,0,0:0:0:0:
320,192,98656,1,0,0:0:0:0:
192,192,98656,1,0,0:0:0:0:
320,192,98764,1,0,0:0:0:0:
64,192,98871,1,0,0:0:0:0:
320,192,98871,1,0,0:0:0:0:
448,192,99085,1,0,0:0:0:0:
64,192,99085,1,0,0:0:0:0:
448,192,99299,1,0,0:0:0:0:
192,192,99299,1,0,0:0:0:0:
192,192,99514,1,0,0:0:0:0:
320,192,99514,1,0,0:0:0:0:
192,192,99621,1,0,0:0:0:0:
448,192,99728,1,0,0:0:0:0:
192,192,99728,1,0,0:0:0:0:
448,192,99942,1,0,0:0:0:0:
320,192,99942,1,0,0:0:0:0:
448,192,100049,1,0,0:0:0:0:
448,192,100156,1,0,0:0:0:0:
192,192,100156,1,0,0:0:0:0:
320,192,100264,1,0,0:0:0:0:
192,192,100371,1,0,0:0:0:0:
64,192,100371,1,0,0:0:0:0:
192,192,100478,1,0,0:0:0:0:
192,192,100585,1,0,0:0:0:0:
320,192,100585,1,0,0:0:0:0:
448,192,100692,1,0,0:0:0:0:
64,192,100799,5,0,0:0:0:0:
192,192,100799,1,0,0:0:0:0:
320,192,100799,1,0,0:0:0:0:
448,192,100799,1,0,0:0:0:0:
64,192,100906,1,0,0:0:0:0:
320,192,100906,1,0,0:0:0:0:
448,192,100906,1,0,0:0:0:0:
192,192,100906,1,0,0:0:0:0:
64,192,101014,1,0,0:0:0:0:
192,192,101014,1,0,0:0:0:0:
320,192,101014,1,0,0:0:0:0:
448,192,101014,1,0,0:0:0:0:
64,192,101121,1,0,0:0:0:0:
192,192,101121,1,0,0:0:0:0:
448,192,101121,1,0,0:0:0:0:
320,192,101121,1,0,0:0:0:0:
448,192,101442,1,0,0:0:0:0:
320,192,101478,1,0,0:0:0:0:
64,192,101514,1,0,0:0:0:0:
192,192,101549,1,0,0:0:0:0:
320,192,101585,1,0,0:0:0:0:
64,192,101621,1,0,0:0:0:0:
448,192,101656,1,0,0:0:0:0:
320,192,101692,1,0,0:0:0:0:
192,192,101728,1,0,0:0:0:0:
64,192,101764,1,0,0:0:0:0:
448,192,101799,1,0,0:0:0:0:
320,192,101835,1,0,0:0:0:0:
64,192,101871,1,0,0:0:0:0:
192,192,101906,1,0,0:0:0:0:
320,192,101942,1,0,0:0:0:0:
448,192,101978,1,0,0:0:0:0:
64,192,102014,1,0,0:0:0:0:
192,192,102049,1,0,0:0:0:0:
320,192,102085,1,0,0:0:0:0:
64,192,102121,1,0,0:0:0:0:
448,192,102156,1,0,0:0:0:0:
320,192,102192,1,0,0:0:0:0:
192,192,102228,1,0,0:0:0:0:
64,192,102264,1,0,0:0:0:0:
448,192,102299,1,0,0:0:0:0:
320,192,102335,1,0,0:0:0:0:
448,192,102371,1,0,0:0:0:0:
64,192,102406,1,0,0:0:0:0:
192,192,102442,1,0,0:0:0:0:
320,192,102478,1,0,0:0:0:0:
448,192,102514,1,0,0:0:0:0:
64,192,102514,128,0,102835:0:0:0:0:
192,192,102728,1,0,0:0:0:0:
320,192,102835,128,0,103156:0:0:0:0:
448,192,102942,1,0,0:0:0:0:
192,192,103049,1,0,0:0:0:0:
64,192,103156,1,0,0:0:0:0:
448,192,103156,128,0,103371:0:0:0:0:
320,192,103371,1,0,0:0:0:0:
64,192,103371,128,0,103692:0:0:0:0:
192,192,103585,1,0,0:0:0:0:
64,192,103799,1,0,0:0:0:0:
192,192,103799,128,0,104014:0:0:0:0:
320,192,103906,1,0,0:0:0:0:
448,192,104014,1,0,0:0:0:0:
320,192,104014,128,0,104228:0:0:0:0:
448,192,104228,1,0,0:0:0:0:
192,192,104228,128,0,104549:0:0:0:0:
320,192,104442,1,0,0:0:0:0:
320,192,104549,128,0,104871:0:0:0:0:
448,192,104656,1,0,0:0:0:0:
192,192,104764,1,0,0:0:0:0:
64,192,104871,1,0,0:0:0:0:
192,192,104871,128,0,105085:0:0:0:0:
64,192,105085,1,0,0:0:0:0:
320,192,105085,128,0,105406:0:0:0:0:
192,192,105299,1,0,0:0:0:0:
448,192,105406,128,0,105514:0:0:0:0:
192,192,105514,128,0,105728:0:0:0:0:
320,192,105621,1,0,0:0:0:0:
448,192,105728,1,0,0:0:0:0:
64,192,105728,128,0,105942:0:0:0:0:
320,192,105835,1,0,0:0:0:0:
192,192,105942,1,0,0:0:0:0:
448,192,105942,128,0,106531:0:0:0:0:
320,192,106156,1,0,0:0:0:0:
320,192,106371,1,0,0:0:0:0:
192,192,106478,1,0,0:0:0:0:
320,192,106531,128,0,106585:0:0:0:0:
64,192,106585,1,0,0:0:0:0:
192,192,106585,128,0,106639:0:0:0:0:
448,192,106639,128,0,107014:0:0:0:0:
192,192,106799,1,0,0:0:0:0:
64,192,107014,1,0,0:0:0:0:
320,192,107014,128,0,107264:0:0:0:0:
64,192,107228,1,0,0:0:0:0:
448,192,107264,128,0,107371:0:0:0:0:
192,192,107335,1,0,0:0:0:0:
320,192,107371,128,0,107478:0:0:0:0:
64,192,107442,1,0,0:0:0:0:
192,192,107478,128,0,107656:0:0:0:0:
64,192,107656,1,0,0:0:0:0:
448,192,107656,128,0,107764:0:0:0:0:
320,192,107764,128,0,107817:0:0:0:0:
192,192,107817,128,0,107924:0:0:0:0:
448,192,107871,1,0,0:0:0:0:
64,192,107924,128,0,107978:0:0:0:0:
192,192,107978,128,0,108085:0:0:0:0:
64,192,108085,1,0,0:0:0:0:
320,192,108085,128,0,108139:0:0:0:0:
192,192,108139,128,0,108246:0:0:0:0:
448,192,108192,1,0,0:0:0:0:
64,192,108246,128,0,108299:0:0:0:0:
448,192,108299,1,0,0:0:0:0:
192,192,108299,128,0,108406:0:0:0:0:
320,192,108406,128,0,108514:0:0:0:0:
64,192,108514,1,0,0:0:0:0:
192,192,108514,128,0,108674:0:0:0:0:
320,192,108674,128,0,108781:0:0:0:0:
64,192,108728,1,0,0:0:0:0:
448,192,108781,128,0,109156:0:0:0:0:
192,192,108835,1,0,0:0:0:0:
192,192,109049,1,0,0:0:0:0:
192,192,109156,128,0,109299:0:0:0:0:
320,192,109156,1,0,0:0:0:0:
64,192,109264,1,0,0:0:0:0:
320,192,109299,128,0,109371:0:0:0:0:
64,192,109371,1,0,0:0:0:0:
448,192,109371,128,0,109478:0:0:0:0:
320,192,109478,128,0,109585:0:0:0:0:
448,192,109585,1,0,0:0:0:0:
192,192,109585,128,0,109692:0:0:0:0:
320,192,109692,128,0,109799:0:0:0:0:
64,192,109799,1,0,0:0:0:0:
448,192,109799,128,0,109906:0:0:0:0:
192,192,109906,1,0,0:0:0:0:
320,192,109906,128,0,110014:0:0:0:0:
64,192,110014,1,0,0:0:0:0:
448,192,110014,128,0,110121:0:0:0:0:
320,192,110121,128,0,110228:0:0:0:0:
64,192,110228,1,0,0:0:0:0:
448,192,110228,128,0,110335:0:0:0:0:
320,192,110335,128,0,110442:0:0:0:0:
448,192,110442,1,0,0:0:0:0:
192,192,110442,128,0,110514:0:0:0:0:
64,192,110514,128,0,110656:0:0:0:0:
192,192,110656,1,0,0:0:0:0:
448,192,110656,128,0,110764:0:0:0:0:
64,192,110764,1,0,0:0:0:0:
320,192,110764,128,0,110871:0:0:0:0:
192,192,110871,1,0,0:0:0:0:
448,192,110871,128,0,110978:0:0:0:0:
320,192,110978,128,0,111085:0:0:0:0:
64,192,111085,1,0,0:0:0:0:
448,192,111085,128,0,111299:0:0:0:0:
192,192,111299,1,0,0:0:0:0:
320,192,111299,128,0,111406:0:0:0:0:
192,192,111406,128,0,111514:0:0:0:0:
448,192,111514,1,0,0:0:0:0:
320,192,111621,1,0,0:0:0:0:
448,192,111621,128,0,111728:0:0:0:0:
192,192,111728,1,0,0:0:0:0:
320,192,111728,128,0,111942:0:0:0:0:
64,192,111942,1,0,0:0:0:0:
448,192,111942,128,0,112799:0:0:0:0:
192,192,112156,1,0,0:0:0:0:
64,192,112478,1,0,0:0:0:0:
192,192,112585,1,0,0:0:0:0:
320,192,112692,1,0,0:0:0:0:
64,192,112799,1,0,0:0:0:0:
192,192,112835,1,0,0:0:0:0:
64,192,113014,1,0,0:0:0:0:
448,192,113014,1,0,0:0:0:0:
320,192,113049,1,0,0:0:0:0:
64,192,113228,1,0,0:0:0:0:
448,192,113228,1,0,0:0:0:0:
192,192,113264,1,0,0:0:0:0:
448,192,113389,1,0,0:0:0:0:
64,192,113389,1,0,0:0:0:0:
320,192,113442,1,0,0:0:0:0:
64,192,113656,1,0,0:0:0:0:
448,192,113656,1,0,0:0:0:0:
192,192,113692,1,0,0:0:0:0:
64,192,113871,1,0,0:0:0:0:
448,192,113871,1,0,0:0:0:0:
320,192,113906,1,0,0:0:0:0:
64,192,114085,1,0,0:0:0:0:
192,192,114121,1,0,0:0:0:0:
448,192,114192,1,0,0:0:0:0:
320,192,114228,1,0,0:0:0:0:
64,192,114299,1,0,0:0:0:0:
192,192,114335,1,0,0:0:0:0:
448,192,114406,1,0,0:0:0:0:
320,192,114442,1,0,0:0:0:0:
64,192,114514,1,0,0:0:0:0:
192,192,114567,1,0,0:0:0:0:
320,192,114621,1,0,0:0:0:0:
448,192,114621,1,0,0:0:0:0:
64,192,114674,1,0,0:0:0:0:
192,192,114728,1,0,0:0:0:0:
320,192,114781,1,0,0:0:0:0:
64,192,114835,1,0,0:0:0:0:
448,192,114835,1,0,0:0:0:0:
192,192,114889,1,0,0:0:0:0:
320,192,114942,1,0,0:0:0:0:
448,192,114942,1,0,0:0:0:0:
64,192,114996,1,0,0:0:0:0:
192,192,115049,1,0,0:0:0:0:
320,192,115049,1,0,0:0:0:0:
448,192,115103,1,0,0:0:0:0:
192,192,115156,1,0,0:0:0:0:
320,192,115156,1,0,0:0:0:0:
64,192,115210,1,0,0:0:0:0:
320,192,115264,1,0,0:0:0:0:
448,192,115264,1,0,0:0:0:0:
192,192,115317,1,0,0:0:0:0:
64,192,115371,1,0,0:0:0:0:
320,192,115371,1,0,0:0:0:0:
448,192,115424,1,0,0:0:0:0:
64,192,115478,1,0,0:0:0:0:
192,192,115478,1,0,0:0:0:0:
320,192,115531,1,0,0:0:0:0:
448,192,115585,1,0,0:0:0:0:
64,192,115585,1,0,0:0:0:0:
192,192,115639,1,0,0:0:0:0:
448,192,115692,1,0,0:0:0:0:
320,192,115692,1,0,0:0:0:0:
64,192,115746,1,0,0:0:0:0:
192,192,115799,1,0,0:0:0:0:
320,192,115799,1,0,0:0:0:0:
448,192,115853,1,0,0:0:0:0:
192,192,115906,1,0,0:0:0:0:
64,192,115906,1,0,0:0:0:0:
320,192,115960,1,0,0:0:0:0:
64,192,116014,1,0,0:0:0:0:
448,192,116014,1,0,0:0:0:0:
192,192,116067,1,0,0:0:0:0:
448,192,116121,1,0,0:0:0:0:
320,192,116121,1,0,0:0:0:0:
64,192,116228,1,0,0:0:0:0:
192,192,116228,1,0,0:0:0:0:
448,192,116228,1,0,0:0:0:0:
320,192,116281,1,0,0:0:0:0:
192,192,116335,1,0,0:0:0:0:
64,192,116389,1,0,0:0:0:0:
448,192,116442,1,0,0:0:0:0:
320,192,116442,1,0,0:0:0:0:
192,192,116496,1,0,0:0:0:0:
64,192,116549,1,0,0:0:0:0:
448,192,116549,1,0,0:0:0:0:
320,192,116603,1,0,0:0:0:0:
192,192,116656,1,0,0:0:0:0:
64,192,116656,1,0,0:0:0:0:
448,192,116710,1,0,0:0:0:0:
192,192,116764,1,0,0:0:0:0:
320,192,116764,1,0,0:0:0:0:
64,192,116817,1,0,0:0:0:0:
448,192,116871,1,0,0:0:0:0:
320,192,116871,1,0,0:0:0:0:
192,192,116924,1,0,0:0:0:0:
64,192,116978,1,0,0:0:0:0:
448,192,117031,1,0,0:0:0:0:
192,192,117085,1,0,0:0:0:0:
64,192,117085,1,0,0:0:0:0:
320,192,117085,1,0,0:0:0:0:
448,192,117139,1,0,0:0:0:0:
320,192,117192,1,0,0:0:0:0:
192,192,117246,1,0,0:0:0:0:
64,192,117299,1,0,0:0:0:0:
320,192,117299,1,0,0:0:0:0:
448,192,117353,1,0,0:0:0:0:
64,192,117406,1,0,0:0:0:0:
320,192,117406,1,0,0:0:0:0:
192,192,117460,1,0,0:0:0:0:
320,192,117514,1,0,0:0:0:0:
448,192,117514,1,0,0:0:0:0:
64,192,117567,1,0,0:0:0:0:
192,192,117621,1,0,0:0:0:0:
448,192,117621,1,0,0:0:0:0:
320,192,117674,1,0,0:0:0:0:
64,192,117728,1,0,0:0:0:0:
192,192,117728,1,0,0:0:0:0:
448,192,117781,1,0,0:0:0:0:
64,192,117835,1,0,0:0:0:0:
192,192,117889,1,0,0:0:0:0:
320,192,117942,1,0,0:0:0:0:
64,192,117942,1,0,0:0:0:0:
448,192,117942,1,0,0:0:0:0:
192,192,117996,1,0,0:0:0:0:
320,192,118049,1,0,0:0:0:0:
448,192,118103,1,0,0:0:0:0:
64,192,118156,1,0,0:0:0:0:
192,192,118156,1,0,0:0:0:0:
320,192,118210,1,0,0:0:0:0:
64,192,118264,1,0,0:0:0:0:
448,192,118264,1,0,0:0:0:0:
192,192,118317,1,0,0:0:0:0:
448,192,118371,1,0,0:0:0:0:
320,192,118371,1,0,0:0:0:0:
64,192,118424,1,0,0:0:0:0:
448,192,118478,1,0,0:0:0:0:
192,192,118478,1,0,0:0:0:0:
320,192,118531,1,0,0:0:0:0:
192,192,118585,1,0,0:0:0:0:
64,192,118585,1,0,0:0:0:0:
448,192,118639,1,0,0:0:0:0:
320,192,118692,1,0,0:0:0:0:
192,192,118746,1,0,0:0:0:0:
448,192,118799,1,0,0:0:0:0:
64,192,118799,1,0,0:0:0:0:
320,192,118799,1,0,0:0:0:0:
192,192,118853,1,0,0:0:0:0:
448,192,118906,1,0,0:0:0:0:
320,192,118960,1,0,0:0:0:0:
192,192,119014,1,0,0:0:0:0:
448,192,119014,1,0,0:0:0:0:
64,192,119067,1,0,0:0:0:0:
320,192,119121,1,0,0:0:0:0:
192,192,119174,1,0,0:0:0:0:
64,192,119228,1,0,0:0:0:0:
320,192,119228,1,0,0:0:0:0:
448,192,119228,1,0,0:0:0:0:
192,192,119281,1,0,0:0:0:0:
64,192,119335,1,0,0:0:0:0:
448,192,119389,1,0,0:0:0:0:
64,192,119442,1,0,0:0:0:0:
320,192,119442,1,0,0:0:0:0:
192,192,119496,1,0,0:0:0:0:
320,192,119549,1,0,0:0:0:0:
448,192,119603,1,0,0:0:0:0:
64,192,119656,1,0,0:0:0:0:
192,192,119656,1,0,0:0:0:0:
320,192,119656,1,0,0:0:0:0:
448,192,119710,1,0,0:0:0:0:
192,192,119764,1,0,0:0:0:0:
64,192,119817,1,0,0:0:0:0:
192,192,119871,1,0,0:0:0:0:
448,192,119871,1,0,0:0:0:0:
320,192,119924,1,0,0:0:0:0:
192,192,119978,1,0,0:0:0:0:
64,192,119978,1,0,0:0:0:0:
448,192,120031,1,0,0:0:0:0:
192,192,120085,1,0,0:0:0:0:
320,192,120085,1,0,0:0:0:0:
64,192,120139,1,0,0:0:0:0:
192,192,120192,1,0,0:0:0:0:
448,192,120192,1,0,0:0:0:0:
320,192,120246,1,0,0:0:0:0:
64,192,120299,1,0,0:0:0:0:
192,192,120299,1,0,0:0:0:0:
448,192,120353,1,0,0:0:0:0:
64,192,120406,1,0,0:0:0:0:
320,192,120406,1,0,0:0:0:0:
192,192,120460,1,0,0:0:0:0:
64,192,120514,1,0,0:0:0:0:
448,192,120514,1,0,0:0:0:0:
320,192,120567,1,0,0:0:0:0:
64,192,120621,1,0,0:0:0:0:
192,192,120621,1,0,0:0:0:0:
448,192,120674,1,0,0:0:0:0:
192,192,120728,1,0,0:0:0:0:
320,192,120728,1,0,0:0:0:0:
64,192,120781,1,0,0:0:0:0:
448,192,120835,1,0,0:0:0:0:
320,192,120889,1,0,0:0:0:0:
64,192,120942,1,0,0:0:0:0:
192,192,120942,1,0,0:0:0:0:
448,192,120942,1,0,0:0:0:0:
320,192,120996,1,0,0:0:0:0:
64,192,121049,1,0,0:0:0:0:
192,192,121103,1,0,0:0:0:0:
64,192,121156,1,0,0:0:0:0:
448,192,121156,1,0,0:0:0:0:
320,192,121156,1,0,0:0:0:0:
192,192,121210,1,0,0:0:0:0:
448,192,121264,1,0,0:0:0:0:
320,192,121317,1,0,0:0:0:0:
64,192,121371,1,0,0:0:0:0:
192,192,121371,1,0,0:0:0:0:
448,192,121371,1,0,0:0:0:0:
320,192,121424,1,0,0:0:0:0:
64,192,121478,1,0,0:0:0:0:
192,192,121531,1,0,0:0:0:0:
64,192,121585,1,0,0:0:0:0:
320,192,121585,1,0,0:0:0:0:
448,192,121639,1,0,0:0:0:0:
64,192,121692,1,0,0:0:0:0:
320,192,121692,1,0,0:0:0:0:
192,192,121746,1,0,0:0:0:0:
448,192,121799,1,0,0:0:0:0:
320,192,121799,1,0,0:0:0:0:
64,192,121853,1,0,0:0:0:0:
192,192,121906,1,0,0:0:0:0:
448,192,121906,1,0,0:0:0:0:
320,192,121960,1,0,0:0:0:0:
64,192,122014,1,0,0:0:0:0:
192,192,122014,1,0,0:0:0:0:
320,192,122067,1,0,0:0:0:0:
448,192,122121,1,0,0:0:0:0:
64,192,122174,1,0,0:0:0:0:
192,192,122228,1,0,0:0:0:0:
448,192,122228,1,0,0:0:0:0:
320,192,122228,1,0,0:0:0:0:
64,192,122281,1,0,0:0:0:0:
192,192,122335,1,0,0:0:0:0:
320,192,122389,1,0,0:0:0:0:
448,192,122442,1,0,0:0:0:0:
192,192,122442,1,0,0:0:0:0:
64,192,122496,1,0,0:0:0:0:
448,192,122549,1,0,0:0:0:0:
320,192,122603,1,0,0:0:0:0:
64,192,122656,1,0,0:0:0:0:
192,192,122656,1,0,0:0:0:0:
448,192,122656,1,0,0:0:0:0:
320,192,122710,1,0,0:0:0:0:
192,192,122764,1,0,0:0:0:0:
64,192,122817,1,0,0:0:0:0:
192,192,122871,1,0,0:0:0:0:
448,192,122871,1,0,0:0:0:0:
320,192,122924,1,0,0:0:0:0:
448,192,122978,1,0,0:0:0:0:
64,192,123031,1,0,0:0:0:0:
192,192,123085,1,0,0:0:0:0:
448,192,123085,1,0,0:0:0:0:
320,192,123085,1,0,0:0:0:0:
64,192,123139,1,0,0:0:0:0:
448,192,123192,1,0,0:0:0:0:
320,192,123246,1,0,0:0:0:0:
64,192,123299,1,0,0:0:0:0:
192,192,123299,1,0,0:0:0:0:
320,192,123353,1,0,0:0:0:0:
64,192,123406,1,0,0:0:0:0:
448,192,123406,1,0,0:0:0:0:
192,192,123460,1,0,0:0:0:0:
320,192,123514,1,0,0:0:0:0:
448,192,123514,1,0,0:0:0:0:
64,192,123567,1,0,0:0:0:0:
192,192,123621,1,0,0:0:0:0:
448,192,123621,1,0,0:0:0:0:
320,192,123674,1,0,0:0:0:0:
64,192,123728,1,0,0:0:0:0:
192,192,123728,1,0,0:0:0:0:
320,192,123781,1,0,0:0:0:0:
64,192,123835,1,0,0:0:0:0:
192,192,123889,1,0,0:0:0:0:
64,192,123942,1,0,0:0:0:0:
320,192,123942,1,0,0:0:0:0:
448,192,123942,1,0,0:0:0:0:
192,192,123996,1,0,0:0:0:0:
320,192,124049,1,0,0:0:0:0:
64,192,124103,1,0,0:0:0:0:
448,192,124156,1,0,0:0:0:0:
192,192,124156,1,0,0:0:0:0:
320,192,124210,1,0,0:0:0:0:
64,192,124264,1,0,0:0:0:0:
448,192,124264,1,0,0:0:0:0:
192,192,124317,1,0,0:0:0:0:
64,192,124371,1,0,0:0:0:0:
320,192,124371,1,0,0:0:0:0:
448,192,124424,1,0,0:0:0:0:
64,192,124478,1,0,0:0:0:0:
320,192,124478,1,0,0:0:0:0:
192,192,124531,1,0,0:0:0:0:
64,192,124585,1,0,0:0:0:0:
320,192,124585,1,0,0:0:0:0:
448,192,124639,1,0,0:0:0:0:
320,192,124692,1,0,0:0:0:0:
64,192,124746,1,0,0:0:0:0:
192,192,124799,1,0,0:0:0:0:
320,192,124799,1,0,0:0:0:0:
448,192,124799,1,0,0:0:0:0:
64,192,124853,1,0,0:0:0:0:
448,192,124906,1,0,0:0:0:0:
320,192,124960,1,0,0:0:0:0:
192,192,125014,1,0,0:0:0:0:
64,192,125014,1,0,0:0:0:0:
320,192,125067,1,0,0:0:0:0:
192,192,125121,1,0,0:0:0:0:
448,192,125121,1,0,0:0:0:0:
64,192,125174,1,0,0:0:0:0:
448,192,125228,1,0,0:0:0:0:
320,192,125228,1,0,0:0:0:0:
192,192,125281,1,0,0:0:0:0:
64,192,125335,1,0,0:0:0:0:
448,192,125335,1,0,0:0:0:0:
320,192,125389,1,0,0:0:0:0:
64,192,125442,1,0,0:0:0:0:
192,192,125442,1,0,0:0:0:0:
448,192,125496,1,0,0:0:0:0:
320,192,125549,1,0,0:0:0:0:
192,192,125603,1,0,0:0:0:0:
64,192,125656,1,0,0:0:0:0:
320,192,125656,1,0,0:0:0:0:
448,192,125656,1,0,0:0:0:0:
192,192,125710,1,0,0:0:0:0:
448,192,125764,1,0,0:0:0:0:
320,192,125817,1,0,0:0:0:0:
192,192,125871,1,0,0:0:0:0:
64,192,125871,1,0,0:0:0:0:
448,192,125924,1,0,0:0:0:0:
64,192,125978,1,0,0:0:0:0:
320,192,125978,1,0,0:0:0:0:
192,192,126031,1,0,0:0:0:0:
320,192,126085,1,0,0:0:0:0:
448,192,126085,1,0,0:0:0:0:
64,192,126192,1,0,0:0:0:0:
192,192,126228,1,0,0:0:0:0:
320,192,126264,1,0,0:0:0:0:
448,192,126299,1,0,0:0:0:0:
64,192,126335,1,0,0:0:0:0:
192,192,126371,1,0,0:0:0:0:
320,192,126406,1,0,0:0:0:0:
448,192,126442,1,0,0:0:0:0:
192,192,126514,1,0,0:0:0:0:
64,192,126514,1,0,0:0:0:0:
320,192,126567,1,0,0:0:0:0:
448,192,126621,1,0,0:0:0:0:
320,192,126674,1,0,0:0:0:0:
192,192,126728,1,0,0:0:0:0:
64,192,126781,1,0,0:0:0:0:
192,192,126835,1,0,0:0:0:0:
320,192,126889,1,0,0:0:0:0:
64,192,126942,1,0,0:0:0:0:
192,192,126996,1,0,0:0:0:0:
320,192,127049,1,0,0:0:0:0:
448,192,127103,1,0,0:0:0:0:
320,192,127156,1,0,0:0:0:0:
192,192,127210,1,0,0:0:0:0:
64,192,127264,1,0,0:0:0:0:
192,192,127317,1,0,0:0:0:0:
448,192,127371,1,0,0:0:0:0:
320,192,127371,1,0,0:0:0:0:
192,192,127424,1,0,0:0:0:0:
64,192,127478,1,0,0:0:0:0:
192,192,127531,1,0,0:0:0:0:
320,192,127585,1,0,0:0:0:0:
448,192,127639,1,0,0:0:0:0:
320,192,127692,1,0,0:0:0:0:
192,192,127746,1,0,0:0:0:0:
448,192,127799,1,0,0:0:0:0:
320,192,127853,1,0,0:0:0:0:
192,192,127906,1,0,0:0:0:0:
320,192,127960,1,0,0:0:0:0:
448,192,128014,1,0,0:0:0:0:
320,192,128067,1,0,0:0:0:0:
192,192,128121,1,0,0:0:0:0:
64,192,128174,1,0,0:0:0:0:
448,192,128228,1,0,0:0:0:0:
320,192,128228,1,0,0:0:0:0:
192,192,128299,1,0,0:0:0:0:
448,192,128371,1,0,0:0:0:0:
320,192,128442,1,0,0:0:0:0:
64,192,128514,1,0,0:0:0:0:
192,192,128585,1,0,0:0:0:0:
64,192,128656,1,0,0:0:0:0:
448,192,128728,1,0,0:0:0:0:
320,192,128799,1,0,0:0:0:0:
448,192,128871,1,0,0:0:0:0:
64,192,128871,1,0,0:0:0:0:
192,192,128942,1,0,0:0:0:0:
64,192,129014,1,0,0:0:0:0:
448,192,129085,1,0,0:0:0:0:
320,192,129085,1,0,0:0:0:0:
192,192,129085,1,0,0:0:0:0:
64,192,129139,1,0,0:0:0:0:
192,192,129192,1,0,0:0:0:0:
320,192,129246,1,0,0:0:0:0:
64,192,129299,1,0,0:0:0:0:
448,192,129299,1,0,0:0:0:0:
192,192,129353,1,0,0:0:0:0:
320,192,129406,1,0,0:0:0:0:
448,192,129460,1,0,0:0:0:0:
192,192,129514,1,0,0:0:0:0:
64,192,129514,1,0,0:0:0:0:
448,192,129567,1,0,0:0:0:0:
320,192,129621,1,0,0:0:0:0:
64,192,129674,1,0,0:0:0:0:
192,192,129728,1,0,0:0:0:0:
448,192,129728,1,0,0:0:0:0:
320,192,129781,1,0,0:0:0:0:
448,192,129835,1,0,0:0:0:0:
64,192,129889,1,0,0:0:0:0:
192,192,129942,1,0,0:0:0:0:
320,192,129942,1,0,0:0:0:0:
448,192,129996,1,0,0:0:0:0:
64,192,130049,1,0,0:0:0:0:
192,192,130103,1,0,0:0:0:0:
320,192,130156,1,0,0:0:0:0:
448,192,130156,1,0,0:0:0:0:
64,192,130210,1,0,0:0:0:0:
192,192,130264,1,0,0:0:0:0:
448,192,130317,1,0,0:0:0:0:
192,192,130371,1,0,0:0:0:0:
320,192,130371,1,0,0:0:0:0:
448,192,130424,1,0,0:0:0:0:
64,192,130478,1,0,0:0:0:0:
192,192,130531,1,0,0:0:0:0:
320,192,130585,1,0,0:0:0:0:
448,192,130585,1,0,0:0:0:0:
64,192,130639,1,0,0:0:0:0:
192,192,130692,1,0,0:0:0:0:
448,192,130746,1,0,0:0:0:0:
64,192,130799,1,0,0:0:0:0:
320,192,130799,1,0,0:0:0:0:
192,192,130871,1,0,0:0:0:0:
320,192,130942,1,0,0:0:0:0:
64,192,131014,1,0,0:0:0:0:
448,192,131014,1,0,0:0:0:0:
192,192,131085,1,0,0:0:0:0:
320,192,131156,1,0,0:0:0:0:
192,192,131228,1,0,0:0:0:0:
64,192,131228,1,0,0:0:0:0:
320,192,131299,1,0,0:0:0:0:
448,192,131371,1,0,0:0:0:0:
64,192,131442,1,0,0:0:0:0:
192,192,131442,1,0,0:0:0:0:
448,192,131656,1,0,0:0:0:0:
320,192,131656,1,0,0:0:0:0:
192,192,131710,1,0,0:0:0:0:
64,192,131764,1,0,0:0:0:0:
320,192,131817,1,0,0:0:0:0:
448,192,131871,1,0,0:0:0:0:
192,192,131871,1,0,0:0:0:0:
64,192,131924,1,0,0:0:0:0:
448,192,131978,1,0,0:0:0:0:
320,192,132031,1,0,0:0:0:0:
192,192,132085,1,0,0:0:0:0:
64,192,132085,1,0,0:0:0:0:
320,192,132139,1,0,0:0:0:0:
448,192,132192,1,0,0:0:0:0:
192,192,132246,1,0,0:0:0:0:
320,192,132299,1,0,0:0:0:0:
448,192,132299,1,0,0:0:0:0:
192,192,132353,1,0,0:0:0:0:
64,192,132406,1,0,0:0:0:0:
448,192,132514,1,0,0:0:0:0:
320,192,132514,1,0,0:0:0:0:
192,192,132567,1,0,0:0:0:0:
64,192,132621,1,0,0:0:0:0:
448,192,132674,1,0,0:0:0:0:
320,192,132728,1,0,0:0:0:0:
192,192,132728,1,0,0:0:0:0:
64,192,132781,1,0,0:0:0:0:
448,192,132835,1,0,0:0:0:0:
320,192,132889,1,0,0:0:0:0:
192,192,132942,1,0,0:0:0:0:
64,192,132942,1,0,0:0:0:0:
448,192,132996,1,0,0:0:0:0:
320,192,133049,1,0,0:0:0:0:
64,192,133103,1,0,0:0:0:0:
192,192,133156,1,0,0:0:0:0:
448,192,133156,1,0,0:0:0:0:
320,192,133210,1,0,0:0:0:0:
192,192,133264,1,0,0:0:0:0:
64,192,133317,1,0,0:0:0:0:
448,192,133371,1,0,0:0:0:0:
320,192,133371,1,0,0:0:0:0:
192,192,133424,1,0,0:0:0:0:
64,192,133478,1,0,0:0:0:0:
448,192,133531,1,0,0:0:0:0:
320,192,133585,1,0,0:0:0:0:
64,192,133585,1,0,0:0:0:0:
192,192,133639,1,0,0:0:0:0:
448,192,133692,1,0,0:0:0:0:
320,192,133746,1,0,0:0:0:0:
192,192,133799,1,0,0:0:0:0:
64,192,133799,1,0,0:0:0:0:
448,192,133853,1,0,0:0:0:0:
320,192,133906,1,0,0:0:0:0:
192,192,133960,1,0,0:0:0:0:
448,192,134014,1,0,0:0:0:0:
64,192,134014,1,0,0:0:0:0:
320,192,134085,1,0,0:0:0:0:
192,192,134156,1,0,0:0:0:0:
320,192,134228,1,0,0:0:0:0:
64,192,134228,1,0,0:0:0:0:
192,192,134299,1,0,0:0:0:0:
64,192,134389,1,0,0:0:0:0:
320,192,134442,1,0,0:0:0:0:
448,192,134514,1,0,0:0:0:0:
64,192,134549,1,0,0:0:0:0:
192,192,134603,1,0,0:0:0:0:
64,192,134656,1,0,0:0:0:0:
320,192,134656,1,0,0:0:0:0:
448,192,134710,1,0,0:0:0:0:
64,192,134764,1,0,0:0:0:0:
192,192,134817,1,0,0:0:0:0:
320,192,134871,1,0,0:0:0:0:
448,192,134871,1,0,0:0:0:0:
64,192,134924,1,0,0:0:0:0:
192,192,134978,1,0,0:0:0:0:
320,192,135031,1,0,0:0:0:0:
448,192,135085,1,0,0:0:0:0:
64,192,135085,1,0,0:0:0:0:
192,192,135139,1,0,0:0:0:0:
320,192,135192,1,0,0:0:0:0:
64,192,135246,1,0,0:0:0:0:
192,192,135299,1,0,0:0:0:0:
320,192,135299,1,0,0:0:0:0:
448,192,135353,1,0,0:0:0:0:
320,192,135406,1,0,0:0:0:0:
192,192,135460,1,0,0:0:0:0:
320,192,135514,1,0,0:0:0:0:
448,192,135514,1,0,0:0:0:0:
64,192,135514,1,0,0:0:0:0:
192,192,135621,1,0,0:0:0:0:
448,192,135621,1,0,0:0:0:0:
192,192,135728,1,0,0:0:0:0:
448,192,135728,1,0,0:0:0:0:
64,192,135728,1,0,0:0:0:0:
320,192,135835,1,0,0:0:0:0:
64,192,135835,1,0,0:0:0:0:
448,192,135942,1,0,0:0:0:0:
192,192,135942,1,0,0:0:0:0:
64,192,135942,1,0,0:0:0:0:
320,192,136156,1,0,0:0:0:0:
64,192,136156,1,0,0:0:0:0:
192,192,136371,1,0,0:0:0:0:
448,192,136371,1,0,0:0:0:0:
448,192,136478,1,0,0:0:0:0:
64,192,136585,1,0,0:0:0:0:
448,192,136585,1,0,0:0:0:0:
64,192,136799,1,0,0:0:0:0:
320,192,136799,1,0,0:0:0:0:
192,192,137014,1,0,0:0:0:0:
448,192,137014,1,0,0:0:0:0:
320,192,137228,1,0,0:0:0:0:
64,192,137228,1,0,0:0:0:0:
64,192,137335,1,0,0:0:0:0:
448,192,137442,1,0,0:0:0:0:
64,192,137442,1,0,0:0:0:0:
64,192,137656,1,0,0:0:0:0:
320,192,137656,1,0,0:0:0:0:
448,192,137656,1,0,0:0:0:0:
192,192,137871,1,0,0:0:0:0:
320,192,137871,1,0,0:0:0:0:
320,192,138085,1,0,0:0:0:0:
192,192,138085,1,0,0:0:0:0:
192,192,138192,1,0,0:0:0:0:
448,192,138299,1,0,0:0:0:0:
192,192,138299,1,0,0:0:0:0:
448,192,138514,1,0,0:0:0:0:
192,192,138514,1,0,0:0:0:0:
320,192,138728,1,0,0:0:0:0:
64,192,138728,1,0,0:0:0:0:
192,192,138942,1,0,0:0:0:0:
320,192,138942,1,0,0:0:0:0:
320,192,139049,1,0,0:0:0:0:
64,192,139156,1,0,0:0:0:0:
320,192,139156,1,0,0:0:0:0:
64,192,139371,1,0,0:0:0:0:
320,192,139371,1,0,0:0:0:0:
448,192,139371,1,0,0:0:0:0:
192,192,139585,1,0,0:0:0:0:
320,192,139585,1,0,0:0:0:0:
320,192,139799,1,0,0:0:0:0:
64,192,139799,1,0,0:0:0:0:
64,192,139906,1,0,0:0:0:0:
448,192,140014,1,0,0:0:0:0:
64,192,140014,1,0,0:0:0:0:
448,192,140228,1,0,0:0:0:0:
192,192,140228,1,0,0:0:0:0:
320,192,140442,1,0,0:0:0:0:
64,192,140442,1,0,0:0:0:0:
192,192,140656,1,0,0:0:0:0:
448,192,140656,1,0,0:0:0:0:
448,192,140764,1,0,0:0:0:0:
64,192,140871,1,0,0:0:0:0:
448,192,140871,1,0,0:0:0:0:
64,192,141085,1,0,0:0:0:0:
320,192,141085,1,0,0:0:0:0:
192,192,141085,1,0,0:0:0:0:
192,192,141299,1,0,0:0:0:0:
320,192,141299,1,0,0:0:0:0:
320,192,141514,1,0,0:0:0:0:
192,192,141514,1,0,0:0:0:0:
192,192,141621,1,0,0:0:0:0:
448,192,141728,1,0,0:0:0:0:
192,192,141728,1,0,0:0:0:0:
64,192,141942,1,0,0:0:0:0:
448,192,141942,1,0,0:0:0:0:
320,192,141942,1,0,0:0:0:0:
320,192,142049,1,0,0:0:0:0:
64,192,142049,1,0,0:0:0:0:
192,192,142156,1,0,0:0:0:0:
448,192,142156,1,0,0:0:0:0:
320,192,142156,1,0,0:0:0:0:
64,192,142264,1,0,0:0:0:0:
192,192,142264,1,0,0:0:0:0:
320,192,142371,1,0,0:0:0:0:
64,192,142371,1,0,0:0:0:0:
448,192,142371,1,0,0:0:0:0:
320,192,142478,1,0,0:0:0:0:
192,192,142478,1,0,0:0:0:0:
448,192,142585,1,0,0:0:0:0:
64,192,142585,1,0,0:0:0:0:
192,192,142585,1,0,0:0:0:0:
448,192,142799,1,0,0:0:0:0:
192,192,142799,1,0,0:0:0:0:
320,192,142853,1,0,0:0:0:0:
448,192,142906,1,0,0:0:0:0:
320,192,142960,1,0,0:0:0:0:
192,192,143014,1,0,0:0:0:0:
64,192,143067,1,0,0:0:0:0:
320,192,143121,1,0,0:0:0:0:
192,192,143121,1,0,0:0:0:0:
448,192,143174,1,0,0:0:0:0:
64,192,143228,1,0,0:0:0:0:
192,192,143281,1,0,0:0:0:0:
320,192,143335,1,0,0:0:0:0:
448,192,143389,1,0,0:0:0:0:
192,192,143442,1,0,0:0:0:0:
64,192,143442,1,0,0:0:0:0:
320,192,143496,1,0,0:0:0:0:
448,192,143549,1,0,0:0:0:0:
192,192,143603,1,0,0:0:0:0:
320,192,143656,1,0,0:0:0:0:
64,192,143656,1,0,0:0:0:0:
448,192,143710,1,0,0:0:0:0:
192,192,143764,1,0,0:0:0:0:
320,192,143817,1,0,0:0:0:0:
64,192,143871,1,0,0:0:0:0:
192,192,143871,1,0,0:0:0:0:
320,192,143924,1,0,0:0:0:0:
448,192,143978,1,0,0:0:0:0:
192,192,144031,1,0,0:0:0:0:
64,192,144085,1,0,0:0:0:0:
320,192,144085,1,0,0:0:0:0:
320,192,144192,1,0,0:0:0:0:
64,192,144192,1,0,0:0:0:0:
192,192,144246,1,0,0:0:0:0:
448,192,144299,1,0,0:0:0:0:
320,192,144299,1,0,0:0:0:0:
192,192,144353,1,0,0:0:0:0:
64,192,144406,1,0,0:0:0:0:
448,192,144460,1,0,0:0:0:0:
320,192,144514,1,0,0:0:0:0:
64,192,144514,1,0,0:0:0:0:
192,192,144567,1,0,0:0:0:0:
320,192,144621,1,0,0:0:0:0:
64,192,144674,1,0,0:0:0:0:
192,192,144728,1,0,0:0:0:0:
320,192,144781,1,0,0:0:0:0:
448,192,144781,1,0,0:0:0:0:
64,192,144835,1,0,0:0:0:0:
192,192,144889,1,0,0:0:0:0:
320,192,144942,1,0,0:0:0:0:
64,192,144996,1,0,0:0:0:0:
192,192,145049,1,0,0:0:0:0:
320,192,145103,1,0,0:0:0:0:
64,192,145156,1,0,0:0:0:0:
448,192,145156,1,0,0:0:0:0:
192,192,145264,1,0,0:0:0:0:
320,192,145264,1,0,0:0:0:0:
448,192,145371,1,0,0:0:0:0:
64,192,145371,1,0,0:0:0:0:
192,192,145424,1,0,0:0:0:0:
320,192,145478,1,0,0:0:0:0:
448,192,145531,1,0,0:0:0:0:
192,192,145585,1,0,0:0:0:0:
320,192,145639,1,0,0:0:0:0:
448,192,145692,1,0,0:0:0:0:
192,192,145692,1,0,0:0:0:0:
64,192,145746,1,0,0:0:0:0:
320,192,145799,1,0,0:0:0:0:
448,192,145853,1,0,0:0:0:0:
64,192,145906,1,0,0:0:0:0:
192,192,145960,1,0,0:0:0:0:
320,192,146014,1,0,0:0:0:0:
448,192,146014,1,0,0:0:0:0:
64,192,146067,1,0,0:0:0:0:
192,192,146121,1,0,0:0:0:0:
320,192,146174,1,0,0:0:0:0:
64,192,146228,1,0,0:0:0:0:
192,192,146228,1,0,0:0:0:0:
448,192,146281,1,0,0:0:0:0:
320,192,146335,1,0,0:0:0:0:
192,192,146389,1,0,0:0:0:0:
448,192,146442,1,0,0:0:0:0:
320,192,146496,1,0,0:0:0:0:
192,192,146549,1,0,0:0:0:0:
64,192,146549,1,0,0:0:0:0:
320,192,146603,1,0,0:0:0:0:
448,192,146656,1,0,0:0:0:0:
64,192,146710,1,0,0:0:0:0:
192,192,146764,1,0,0:0:0:0:
448,192,146817,1,0,0:0:0:0:
320,192,146871,1,0,0:0:0:0:
192,192,146871,1,0,0:0:0:0:
448,192,146924,1,0,0:0:0:0:
192,192,146978,1,0,0:0:0:0:
64,192,146978,1,0,0:0:0:0:
320,192,147031,1,0,0:0:0:0:
64,192,147085,1,0,0:0:0:0:
448,192,147085,1,0,0:0:0:0:
320,192,147139,1,0,0:0:0:0:
448,192,147192,1,0,0:0:0:0:
64,192,147246,1,0,0:0:0:0:
320,192,147299,1,0,0:0:0:0:
192,192,147299,1,0,0:0:0:0:
448,192,147353,1,0,0:0:0:0:
64,192,147406,1,0,0:0:0:0:
192,192,147460,1,0,0:0:0:0:
320,192,147514,1,0,0:0:0:0:
448,192,147514,1,0,0:0:0:0:
320,192,147621,1,0,0:0:0:0:
448,192,147621,1,0,0:0:0:0:
192,192,147674,1,0,0:0:0:0:
64,192,147728,1,0,0:0:0:0:
448,192,147728,1,0,0:0:0:0:
320,192,147781,1,0,0:0:0:0:
64,192,147835,1,0,0:0:0:0:
192,192,147889,1,0,0:0:0:0:
448,192,147942,1,0,0:0:0:0:
320,192,147942,1,0,0:0:0:0:
192,192,147996,1,0,0:0:0:0:
64,192,148049,1,0,0:0:0:0:
448,192,148103,1,0,0:0:0:0:
320,192,148156,1,0,0:0:0:0:
192,192,148210,1,0,0:0:0:0:
64,192,148264,1,0,0:0:0:0:
320,192,148317,1,0,0:0:0:0:
192,192,148371,1,0,0:0:0:0:
64,192,148424,1,0,0:0:0:0:
448,192,148424,1,0,0:0:0:0:
320,192,148478,1,0,0:0:0:0:
448,192,148531,1,0,0:0:0:0:
64,192,148585,1,0,0:0:0:0:
192,192,148585,1,0,0:0:0:0:
192,192,148692,1,0,0:0:0:0:
320,192,148692,1,0,0:0:0:0:
320,192,148799,1,0,0:0:0:0:
448,192,148799,1,0,0:0:0:0:
192,192,148853,1,0,0:0:0:0:
64,192,148906,1,0,0:0:0:0:
448,192,148906,1,0,0:0:0:0:
320,192,148960,1,0,0:0:0:0:
192,192,149014,1,0,0:0:0:0:
320,192,149067,1,0,0:0:0:0:
64,192,149121,1,0,0:0:0:0:
448,192,149121,1,0,0:0:0:0:
192,192,149174,1,0,0:0:0:0:
320,192,149228,1,0,0:0:0:0:
448,192,149228,1,0,0:0:0:0:
64,192,149281,1,0,0:0:0:0:
192,192,149335,1,0,0:0:0:0:
320,192,149389,1,0,0:0:0:0:
448,192,149442,1,0,0:0:0:0:
64,192,149442,1,0,0:0:0:0:
192,192,149496,1,0,0:0:0:0:
320,192,149549,1,0,0:0:0:0:
192,192,149603,1,0,0:0:0:0:
320,192,149656,1,0,0:0:0:0:
64,192,149656,1,0,0:0:0:0:
448,192,149710,1,0,0:0:0:0:
320,192,149764,1,0,0:0:0:0:
192,192,149817,1,0,0:0:0:0:
64,192,149871,1,0,0:0:0:0:
192,192,149924,1,0,0:0:0:0:
320,192,149978,1,0,0:0:0:0:
64,192,149978,1,0,0:0:0:0:
448,192,150031,1,0,0:0:0:0:
192,192,150085,1,0,0:0:0:0:
64,192,150085,1,0,0:0:0:0:
320,192,150139,1,0,0:0:0:0:
448,192,150192,1,0,0:0:0:0:
192,192,150246,1,0,0:0:0:0:
320,192,150299,1,0,0:0:0:0:
448,192,150299,1,0,0:0:0:0:
64,192,150353,1,0,0:0:0:0:
320,192,150406,1,0,0:0:0:0:
192,192,150406,1,0,0:0:0:0:
448,192,150460,1,0,0:0:0:0:
192,192,150514,1,0,0:0:0:0:
64,192,150514,1,0,0:0:0:0:
320,192,150567,1,0,0:0:0:0:
448,192,150621,1,0,0:0:0:0:
320,192,150674,1,0,0:0:0:0:
192,192,150728,1,0,0:0:0:0:
64,192,150728,1,0,0:0:0:0:
448,192,150781,1,0,0:0:0:0:
320,192,150835,1,0,0:0:0:0:
192,192,150889,1,0,0:0:0:0:
448,192,150942,1,0,0:0:0:0:
320,192,150942,1,0,0:0:0:0:
320,192,151049,1,0,0:0:0:0:
448,192,151049,1,0,0:0:0:0:
64,192,151103,1,0,0:0:0:0:
192,192,151156,1,0,0:0:0:0:
320,192,151156,1,0,0:0:0:0:
448,192,151210,1,0,0:0:0:0:
64,192,151264,1,0,0:0:0:0:
192,192,151317,1,0,0:0:0:0:
64,192,151371,1,0,0:0:0:0:
320,192,151371,1,0,0:0:0:0:
448,192,151424,1,0,0:0:0:0:
192,192,151478,1,0,0:0:0:0:
64,192,151531,1,0,0:0:0:0:
320,192,151531,1,0,0:0:0:0:
448,192,151585,1,0,0:0:0:0:
192,192,151639,1,0,0:0:0:0:
320,192,151692,1,0,0:0:0:0:
448,192,151746,1,0,0:0:0:0:
64,192,151799,1,0,0:0:0:0:
192,192,151799,1,0,0:0:0:0:
320,192,151853,1,0,0:0:0:0:
448,192,151906,1,0,0:0:0:0:
192,192,151960,1,0,0:0:0:0:
448,192,152014,1,0,0:0:0:0:
320,192,152014,1,0,0:0:0:0:
320,192,152121,1,0,0:0:0:0:
192,192,152121,1,0,0:0:0:0:
192,192,152228,1,0,0:0:0:0:
64,192,152228,1,0,0:0:0:0:
320,192,152281,1,0,0:0:0:0:
448,192,152335,1,0,0:0:0:0:
64,192,152389,1,0,0:0:0:0:
192,192,152442,1,0,0:0:0:0:
320,192,152496,1,0,0:0:0:0:
192,192,152549,1,0,0:0:0:0:
448,192,152549,1,0,0:0:0:0:
64,192,152603,1,0,0:0:0:0:
320,192,152656,1,0,0:0:0:0:
192,192,152710,1,0,0:0:0:0:
64,192,152764,1,0,0:0:0:0:
448,192,152817,1,0,0:0:0:0:
320,192,152871,1,0,0:0:0:0:
192,192,152871,1,0,0:0:0:0:
64,192,152924,1,0,0:0:0:0:
448,192,152978,1,0,0:0:0:0:
320,192,153031,1,0,0:0:0:0:
448,192,153085,1,0,0:0:0:0:
192,192,153085,1,0,0:0:0:0:
64,192,153139,1,0,0:0:0:0:
320,192,153192,1,0,0:0:0:0:
192,192,153246,1,0,0:0:0:0:
64,192,153299,1,0,0:0:0:0:
448,192,153353,1,0,0:0:0:0:
320,192,153406,1,0,0:0:0:0:
192,192,153406,1,0,0:0:0:0:
64,192,153460,1,0,0:0:0:0:
192,192,153514,1,0,0:0:0:0:
320,192,153567,1,0,0:0:0:0:
192,192,153621,1,0,0:0:0:0:
64,192,153674,1,0,0:0:0:0:
320,192,153728,1,0,0:0:0:0:
448,192,153728,1,0,0:0:0:0:
192,192,153781,1,0,0:0:0:0:
64,192,153835,1,0,0:0:0:0:
448,192,153835,1,0,0:0:0:0:
320,192,153889,1,0,0:0:0:0:
192,192,153942,1,0,0:0:0:0:
64,192,153996,1,0,0:0:0:0:
448,192,153996,1,0,0:0:0:0:
320,192,154049,1,0,0:0:0:0:
192,192,154103,1,0,0:0:0:0:
448,192,154156,1,0,0:0:0:0:
320,192,154156,1,0,0:0:0:0:
64,192,154210,1,0,0:0:0:0:
192,192,154264,1,0,0:0:0:0:
448,192,154317,1,0,0:0:0:0:
320,192,154371,1,0,0:0:0:0:
64,192,154371,1,0,0:0:0:0:
64,192,154478,1,0,0:0:0:0:
320,192,154478,1,0,0:0:0:0:
448,192,154531,1,0,0:0:0:0:
192,192,154585,1,0,0:0:0:0:
320,192,154585,1,0,0:0:0:0:
64,192,154639,1,0,0:0:0:0:
192,192,154692,1,0,0:0:0:0:
320,192,154746,1,0,0:0:0:0:
448,192,154799,1,0,0:0:0:0:
192,192,154799,1,0,0:0:0:0:
64,192,154853,1,0,0:0:0:0:
448,192,154906,1,0,0:0:0:0:
320,192,154960,1,0,0:0:0:0:
192,192,155014,1,0,0:0:0:0:
64,192,155014,1,0,0:0:0:0:
448,192,155067,1,0,0:0:0:0:
320,192,155121,1,0,0:0:0:0:
192,192,155174,1,0,0:0:0:0:
448,192,155228,1,0,0:0:0:0:
64,192,155228,1,0,0:0:0:0:
320,192,155281,1,0,0:0:0:0:
192,192,155335,1,0,0:0:0:0:
64,192,155335,1,0,0:0:0:0:
320,192,155389,1,0,0:0:0:0:
192,192,155442,1,0,0:0:0:0:
448,192,155442,1,0,0:0:0:0:
64,192,155442,1,0,0:0:0:0:
320,192,155549,1,0,0:0:0:0:
448,192,155549,1,0,0:0:0:0:
64,192,155603,1,0,0:0:0:0:
192,192,155603,1,0,0:0:0:0:
320,192,155656,1,0,0:0:0:0:
448,192,155656,1,0,0:0:0:0:
64,192,155764,1,0,0:0:0:0:
192,192,155764,1,0,0:0:0:0:
448,192,155871,1,0,0:0:0:0:
320,192,155871,1,0,0:0:0:0:
64,192,155978,1,0,0:0:0:0:
320,192,155978,1,0,0:0:0:0:
448,192,156085,1,0,0:0:0:0:
192,192,156085,1,0,0:0:0:0:
192,192,156192,1,0,0:0:0:0:
64,192,156192,1,0,0:0:0:0:
448,192,156299,1,0,0:0:0:0:
320,192,156299,1,0,0:0:0:0:
64,192,156406,1,0,0:0:0:0:
320,192,156406,1,0,0:0:0:0:
448,192,156514,1,0,0:0:0:0:
192,192,156514,1,0,0:0:0:0:
64,192,156567,1,0,0:0:0:0:
192,192,156621,1,0,0:0:0:0:
448,192,156674,1,0,0:0:0:0:
64,192,156728,1,0,0:0:0:0:
320,192,156728,1,0,0:0:0:0:
64,192,156835,1,0,0:0:0:0:
320,192,156835,1,0,0:0:0:0:
192,192,156889,1,0,0:0:0:0:
320,192,156942,1,0,0:0:0:0:
448,192,156942,1,0,0:0:0:0:
192,192,156996,1,0,0:0:0:0:
320,192,157049,1,0,0:0:0:0:
448,192,157103,1,0,0:0:0:0:
192,192,157156,1,0,0:0:0:0:
64,192,157156,1,0,0:0:0:0:
320,192,157210,1,0,0:0:0:0:
448,192,157264,1,0,0:0:0:0:
320,192,157317,1,0,0:0:0:0:
192,192,157371,1,0,0:0:0:0:
64,192,157424,1,0,0:0:0:0:
320,192,157478,1,0,0:0:0:0:
448,192,157478,1,0,0:0:0:0:
192,192,157531,1,0,0:0:0:0:
320,192,157585,1,0,0:0:0:0:
64,192,157585,1,0,0:0:0:0:
448,192,157639,1,0,0:0:0:0:
64,192,157692,1,0,0:0:0:0:
192,192,157746,1,0,0:0:0:0:
320,192,157799,1,0,0:0:0:0:
448,192,157799,1,0,0:0:0:0:
448,192,157906,1,0,0:0:0:0:
320,192,157906,1,0,0:0:0:0:
64,192,157960,1,0,0:0:0:0:
192,192,158014,1,0,0:0:0:0:
320,192,158067,1,0,0:0:0:0:
448,192,158121,1,0,0:0:0:0:
192,192,158228,1,0,0:0:0:0:
64,192,158228,1,0,0:0:0:0:
448,192,158281,1,0,0:0:0:0:
320,192,158335,1,0,0:0:0:0:
192,192,158389,1,0,0:0:0:0:
64,192,158442,1,0,0:0:0:0:
448,192,158442,1,0,0:0:0:0:
320,192,158496,1,0,0:0:0:0:
192,192,158549,1,0,0:0:0:0:
448,192,158603,1,0,0:0:0:0:
320,192,158656,1,0,0:0:0:0:
192,192,158710,1,0,0:0:0:0:
64,192,158764,1,0,0:0:0:0:
448,192,158764,1,0,0:0:0:0:
320,192,158817,1,0,0:0:0:0:
64,192,158871,1,0,0:0:0:0:
192,192,158871,1,0,0:0:0:0:
192,192,158978,1,0,0:0:0:0:
448,192,158978,1,0,0:0:0:0:
320,192,159085,1,0,0:0:0:0:
64,192,159085,1,0,0:0:0:0:
192,192,159139,1,0,0:0:0:0:
320,192,159192,1,0,0:0:0:0:
448,192,159246,1,0,0:0:0:0:
64,192,159246,1,0,0:0:0:0:
192,192,159299,1,0,0:0:0:0:
320,192,159299,1,0,0:0:0:0:
64,192,159353,1,0,0:0:0:0:
192,192,159406,1,0,0:0:0:0:
320,192,159460,1,0,0:0:0:0:
448,192,159514,1,0,0:0:0:0:
64,192,159514,1,0,0:0:0:0:
192,192,159567,1,0,0:0:0:0:
320,192,159621,1,0,0:0:0:0:
448,192,159621,1,0,0:0:0:0:
192,192,159674,1,0,0:0:0:0:
320,192,159728,1,0,0:0:0:0:
64,192,159728,1,0,0:0:0:0:
448,192,159781,1,0,0:0:0:0:
64,192,159835,1,0,0:0:0:0:
192,192,159835,1,0,0:0:0:0:
448,192,159942,1,0,0:0:0:0:
320,192,159942,1,0,0:0:0:0:
192,192,159996,1,0,0:0:0:0:
64,192,160049,1,0,0:0:0:0:
320,192,160103,1,0,0:0:0:0:
448,192,160156,1,0,0:0:0:0:
192,192,160156,1,0,0:0:0:0:
192,192,160264,1,0,0:0:0:0:
448,192,160264,1,0,0:0:0:0:
320,192,160317,1,0,0:0:0:0:
64,192,160371,1,0,0:0:0:0:
192,192,160424,1,0,0:0:0:0:
320,192,160478,1,0,0:0:0:0:
448,192,160531,1,0,0:0:0:0:
192,192,160585,1,0,0:0:0:0:
64,192,160585,1,0,0:0:0:0:
320,192,160639,1,0,0:0:0:0:
448,192,160692,1,0,0:0:0:0:
192,192,160746,1,0,0:0:0:0:
64,192,160799,1,0,0:0:0:0:
320,192,160853,1,0,0:0:0:0:
192,192,160906,1,0,0:0:0:0:
64,192,160960,1,0,0:0:0:0:
448,192,161014,1,0,0:0:0:0:
320,192,161014,1,0,0:0:0:0:
192,192,161067,1,0,0:0:0:0:
320,192,161121,1,0,0:0:0:0:
448,192,161174,1,0,0:0:0:0:
320,192,161228,1,0,0:0:0:0:
192,192,161228,1,0,0:0:0:0:
64,192,161281,1,0,0:0:0:0:
448,192,161335,1,0,0:0:0:0:
320,192,161389,1,0,0:0:0:0:
192,192,161442,1,0,0:0:0:0:
64,192,161496,1,0,0:0:0:0:
448,192,161549,1,0,0:0:0:0:
320,192,161603,1,0,0:0:0:0:
192,192,161656,1,0,0:0:0:0:
64,192,161656,1,0,0:0:0:0:
448,192,161710,1,0,0:0:0:0:
320,192,161764,1,0,0:0:0:0:
192,192,161817,1,0,0:0:0:0:
64,192,161871,1,0,0:0:0:0:
448,192,161924,1,0,0:0:0:0:
320,192,161978,1,0,0:0:0:0:
448,192,162031,1,0,0:0:0:0:
320,192,162085,1,0,0:0:0:0:
192,192,162139,1,0,0:0:0:0:
64,192,162192,1,0,0:0:0:0:
320,192,162246,1,0,0:0:0:0:
64,192,162299,1,0,0:0:0:0:
192,192,162299,1,0,0:0:0:0:
192,192,162406,1,0,0:0:0:0:
320,192,162406,1,0,0:0:0:0:
320,192,162514,1,0,0:0:0:0:
448,192,162514,1,0,0:0:0:0:
64,192,162567,1,0,0:0:0:0:
192,192,162621,1,0,0:0:0:0:
320,192,162621,1,0,0:0:0:0:
64,192,162674,1,0,0:0:0:0:
448,192,162728,1,0,0:0:0:0:
192,192,162728,1,0,0:0:0:0:
320,192,162781,1,0,0:0:0:0:
64,192,162835,1,0,0:0:0:0:
448,192,162835,1,0,0:0:0:0:
192,192,162889,1,0,0:0:0:0:
320,192,162942,1,0,0:0:0:0:
448,192,162942,1,0,0:0:0:0:
64,192,162996,1,0,0:0:0:0:
448,192,163049,1,0,0:0:0:0:
192,192,163049,1,0,0:0:0:0:
320,192,163103,1,0,0:0:0:0:
192,192,163156,1,0,0:0:0:0:
64,192,163156,1,0,0:0:0:0:
320,192,163210,1,0,0:0:0:0:
448,192,163264,1,0,0:0:0:0:
192,192,163264,1,0,0:0:0:0:
448,192,163371,1,0,0:0:0:0:
320,192,163371,1,0,0:0:0:0:
192,192,163424,1,0,0:0:0:0:
64,192,163478,1,0,0:0:0:0:
448,192,163531,1,0,0:0:0:0:
192,192,163585,1,0,0:0:0:0:
320,192,163585,1,0,0:0:0:0:
192,192,163692,1,0,0:0:0:0:
320,192,163692,1,0,0:0:0:0:
64,192,163746,1,0,0:0:0:0:
448,192,163799,1,0,0:0:0:0:
320,192,163853,1,0,0:0:0:0:
192,192,163906,1,0,0:0:0:0:
64,192,163960,1,0,0:0:0:0:
320,192,164014,1,0,0:0:0:0:
192,192,164014,1,0,0:0:0:0:
448,192,164067,1,0,0:0:0:0:
64,192,164121,1,0,0:0:0:0:
192,192,164174,1,0,0:0:0:0:
320,192,164228,1,0,0:0:0:0:
448,192,164281,1,0,0:0:0:0:
320,192,164335,1,0,0:0:0:0:
192,192,164389,1,0,0:0:0:0:
448,192,164442,1,0,0:0:0:0:
64,192,164442,1,0,0:0:0:0:
320,192,164496,1,0,0:0:0:0:
192,192,164549,1,0,0:0:0:0:
64,192,164603,1,0,0:0:0:0:
320,192,164656,1,0,0:0:0:0:
192,192,164656,1,0,0:0:0:0:
320,192,164764,1,0,0:0:0:0:
192,192,164764,1,0,0:0:0:0:
64,192,164817,1,0,0:0:0:0:
192,192,164871,1,0,0:0:0:0:
320,192,164924,1,0,0:0:0:0:
448,192,164978,1,0,0:0:0:0:
320,192,165031,1,0,0:0:0:0:
64,192,165085,1,0,0:0:0:0:
192,192,165085,1,0,0:0:0:0:
448,192,165139,1,0,0:0:0:0:
320,192,165192,1,0,0:0:0:0:
64,192,165246,1,0,0:0:0:0:
192,192,165299,1,0,0:0:0:0:
448,192,165299,1,0,0:0:0:0:
320,192,165406,1,0,0:0:0:0:
64,192,165406,1,0,0:0:0:0:
448,192,165514,1,0,0:0:0:0:
320,192,165514,1,0,0:0:0:0:
64,192,165567,1,0,0:0:0:0:
192,192,165621,1,0,0:0:0:0:
320,192,165674,1,0,0:0:0:0:
192,192,165728,1,0,0:0:0:0:
64,192,165728,1,0,0:0:0:0:
448,192,165781,1,0,0:0:0:0:
320,192,165835,1,0,0:0:0:0:
192,192,165889,1,0,0:0:0:0:
64,192,165942,1,0,0:0:0:0:
448,192,165942,1,0,0:0:0:0:
320,192,165996,1,0,0:0:0:0:
192,192,166049,1,0,0:0:0:0:
64,192,166103,1,0,0:0:0:0:
448,192,166156,1,0,0:0:0:0:
192,192,166156,1,0,0:0:0:0:
320,192,166210,1,0,0:0:0:0:
448,192,166264,1,0,0:0:0:0:
64,192,166317,1,0,0:0:0:0:
320,192,166371,1,0,0:0:0:0:
448,192,166371,1,0,0:0:0:0:
192,192,166371,1,0,0:0:0:0:
448,192,166478,1,0,0:0:0:0:
192,192,166478,1,0,0:0:0:0:
320,192,166478,1,0,0:0:0:0:
448,192,166799,5,0,0:0:0:0:
320,192,166799,1,0,0:0:0:0:
192,192,166799,1,0,0:0:0:0:
448,192,166906,1,0,0:0:0:0:
192,192,166906,1,0,0:0:0:0:
64,192,166906,1,0,0:0:0:0:
64,192,167014,1,0,0:0:0:0:
192,192,167014,1,0,0:0:0:0:
320,192,167014,1,0,0:0:0:0:
448,192,167121,1,0,0:0:0:0:
320,192,167121,1,0,0:0:0:0:
64,192,167121,1,0,0:0:0:0:
320,192,167442,1,0,0:0:0:0:
192,192,167442,1,0,0:0:0:0:
64,192,167442,1,0,0:0:0:0:
320,192,167549,1,0,0:0:0:0:
448,192,167549,1,0,0:0:0:0:
64,192,167549,1,0,0:0:0:0:
192,192,167656,1,0,0:0:0:0:
320,192,167656,1,0,0:0:0:0:
448,192,167656,1,0,0:0:0:0:
64,192,167764,1,0,0:0:0:0:
192,192,167764,1,0,0:0:0:0:
448,192,167764,1,0,0:0:0:0:
320,192,168085,1,0,0:0:0:0:
192,192,168085,1,0,0:0:0:0:
64,192,168085,1,0,0:0:0:0:
448,192,168192,1,0,0:0:0:0:
64,192,168192,1,0,0:0:0:0:
192,192,168192,1,0,0:0:0:0:
64,192,168299,1,0,0:0:0:0:
320,192,168299,1,0,0:0:0:0:
448,192,168299,1,0,0:0:0:0:
320,192,168406,1,0,0:0:0:0:
448,192,168406,1,0,0:0:0:0:
192,192,168406,1,0,0:0:0:0:
64,192,168728,1,0,0:0:0:0:
320,192,168728,1,0,0:0:0:0:
192,192,168942,1,0,0:0:0:0:
448,192,168942,1,0,0:0:0:0:
320,192,169049,1,0,0:0:0:0:
64,192,169049,1,0,0:0:0:0:
192,192,169156,1,0,0:0:0:0:
448,192,169156,1,0,0:0:0:0:
192,192,169264,1,0,0:0:0:0:
448,192,169264,1,0,0:0:0:0:
448,192,169371,1,0,0:0:0:0:
64,192,169371,1,0,0:0:0:0:
320,192,169478,1,0,0:0:0:0:
192,192,169478,1,0,0:0:0:0:
448,192,169585,1,0,0:0:0:0:
64,192,169585,1,0,0:0:0:0:
192,192,169692,1,0,0:0:0:0:
320,192,169692,1,0,0:0:0:0:
448,192,169799,1,0,0:0:0:0:
320,192,169799,1,0,0:0:0:0:
192,192,169906,1,0,0:0:0:0:
64,192,169906,1,0,0:0:0:0:
448,192,170014,1,0,0:0:0:0:
320,192,170014,1,0,0:0:0:0:
192,192,170121,1,0,0:0:0:0:
64,192,170121,1,0,0:0:0:0:
448,192,170228,1,0,0:0:0:0:
320,192,170228,1,0,0:0:0:0:
64,192,170228,1,0,0:0:0:0:
192,192,170228,1,0,0:0:0:0:
192,192,170335,1,0,0:0:0:0:
448,192,170335,1,0,0:0:0:0:
64,192,170335,1,0,0:0:0:0:
320,192,170442,1,0,0:0:0:0:
192,192,170442,1,0,0:0:0:0:
64,192,170442,1,0,0:0:0:0:
192,192,170549,1,0,0:0:0:0:
320,192,170549,1,0,0:0:0:0:
448,192,170549,1,0,0:0:0:0:
64,192,170871,1,0,0:0:0:0:
192,192,170871,1,0,0:0:0:0:
448,192,170871,1,0,0:0:0:0:
448,192,170978,1,0,0:0:0:0:
320,192,170978,1,0,0:0:0:0:
64,192,170978,1,0,0:0:0:0:
192,192,171085,1,0,0:0:0:0:
320,192,171085,1,0,0:0:0:0:
448,192,171085,1,0,0:0:0:0:
320,192,171192,1,0,0:0:0:0:
192,192,171192,1,0,0:0:0:0:
64,192,171192,1,0,0:0:0:0:
192,192,171514,1,0,0:0:0:0:
320,192,171514,1,0,0:0:0:0:
448,192,171514,1,0,0:0:0:0:
320,192,171621,1,0,0:0:0:0:
448,192,171621,1,0,0:0:0:0:
64,192,171621,1,0,0:0:0:0:
448,192,171728,1,0,0:0:0:0:
192,192,171728,1,0,0:0:0:0:
64,192,171728,1,0,0:0:0:0:
320,192,171835,128,0,172264:0:0:0:0:
192,192,171835,128,0,172264:0:0:0:0:
64,192,171835,128,0,172264:0:0:0:0:
448,192,172371,1,0,0:0:0:0:
192,192,172371,1,0,0:0:0:0:
448,192,172478,1,0,0:0:0:0:
192,192,172478,1,0,0:0:0:0:
320,192,172585,1,0,0:0:0:0:
64,192,172585,1,0,0:0:0:0:
320,192,172692,1,0,0:0:0:0:
64,192,172692,1,0,0:0:0:0:
192,192,172799,1,0,0:0:0:0:
64,192,172799,1,0,0:0:0:0:
192,192,172906,1,0,0:0:0:0:
64,192,172906,1,0,0:0:0:0:
192,192,173014,1,0,0:0:0:0:
448,192,173014,1,0,0:0:0:0:
192,192,173121,1,0,0:0:0:0:
448,192,173121,1,0,0:0:0:0:
320,192,173228,1,0,0:0:0:0:
448,192,173228,1,0,0:0:0:0:
320,192,173335,1,0,0:0:0:0:
448,192,173335,1,0,0:0:0:0:
320,192,173442,1,0,0:0:0:0:
64,192,173442,1,0,0:0:0:0:
320,192,173549,1,0,0:0:0:0:
64,192,173549,1,0,0:0:0:0:
64,192,173656,1,0,0:0:0:0:
192,192,173656,1,0,0:0:0:0:
448,192,173656,1,0,0:0:0:0:
320,192,173764,1,0,0:0:0:0:
64,192,173764,1,0,0:0:0:0:
448,192,173764,1,0,0:0:0:0:
192,192,173871,1,0,0:0:0:0:
320,192,173871,1,0,0:0:0:0:
448,192,173871,1,0,0:0:0:0:
320,192,173978,1,0,0:0:0:0:
192,192,173978,1,0,0:0:0:0:
64,192,173978,1,0,0:0:0:0:
448,192,174299,1,0,0:0:0:0:
320,192,174299,1,0,0:0:0:0:
64,192,174299,1,0,0:0:0:0:
64,192,174406,1,0,0:0:0:0:
192,192,174406,1,0,0:0:0:0:
448,192,174406,1,0,0:0:0:0:
320,192,174514,1,0,0:0:0:0:
192,192,174514,1,0,0:0:0:0:
64,192,174514,1,0,0:0:0:0:
192,192,174621,1,0,0:0:0:0:
320,192,174621,1,0,0:0:0:0:
448,192,174621,1,0,0:0:0:0:
320,192,174942,1,0,0:0:0:0:
192,192,174942,1,0,0:0:0:0:
64,192,174942,1,0,0:0:0:0:
192,192,175049,1,0,0:0:0:0:
64,192,175049,1,0,0:0:0:0:
448,192,175049,1,0,0:0:0:0:
64,192,175156,1,0,0:0:0:0:
320,192,175156,1,0,0:0:0:0:
448,192,175156,1,0,0:0:0:0:
448,192,175264,128,0,175692:0:0:0:0:
320,192,175264,128,0,175692:0:0:0:0:
192,192,175264,128,0,175692:0:0:0:0:
64,192,175799,1,0,0:0:0:0:
320,192,175799,1,0,0:0:0:0:
64,192,175906,1,0,0:0:0:0:
320,192,175906,1,0,0:0:0:0:
192,192,176014,1,0,0:0:0:0:
448,192,176014,1,0,0:0:0:0:
192,192,176121,1,0,0:0:0:0:
448,192,176121,1,0,0:0:0:0:
320,192,176174,1,0,0:0:0:0:
64,192,176228,1,0,0:0:0:0:
192,192,176228,1,0,0:0:0:0:
448,192,176281,1,0,0:0:0:0:
320,192,176335,1,0,0:0:0:0:
64,192,176335,1,0,0:0:0:0:
192,192,176389,1,0,0:0:0:0:
320,192,176442,1,0,0:0:0:0:
448,192,176442,1,0,0:0:0:0:
320,192,176549,1,0,0:0:0:0:
64,192,176549,1,0,0:0:0:0:
192,192,176656,1,0,0:0:0:0:
448,192,176656,1,0,0:0:0:0:
64,192,176656,128,0,176764:0:0:0:0:
320,192,176764,1,0,0:0:0:0:
192,192,176764,128,0,176871:0:0:0:0:
448,192,176764,1,0,0:0:0:0:
448,192,176871,1,0,0:0:0:0:
64,192,176871,1,0,0:0:0:0:
320,192,176871,128,0,176978:0:0:0:0:
192,192,176978,1,0,0:0:0:0:
64,192,176978,1,0,0:0:0:0:
448,192,176978,128,0,177085:0:0:0:0:
320,192,177085,128,0,177299:0:0:0:0:
192,192,177085,1,0,0:0:0:0:
64,192,177299,128,0,177406:0:0:0:0:
448,192,177299,1,0,0:0:0:0:
192,192,177406,128,0,177621:0:0:0:0:
320,192,177514,1,0,0:0:0:0:
448,192,177621,128,0,177942:0:0:0:0:
64,192,177621,1,0,0:0:0:0:
320,192,177728,1,0,0:0:0:0:
320,192,177942,128,0,178692:0:0:0:0:
64,192,177942,1,0,0:0:0:0:
448,192,178156,1,0,0:0:0:0:
64,192,178371,1,0,0:0:0:0:
192,192,178478,1,0,0:0:0:0:
448,192,178585,1,0,0:0:0:0:
64,192,178799,128,0,179121:0:0:0:0:
448,192,178799,1,0,0:0:0:0:
320,192,179014,1,0,0:0:0:0:
192,192,179121,128,0,179442:0:0:0:0:
448,192,179228,1,0,0:0:0:0:
320,192,179335,1,0,0:0:0:0:
448,192,179442,128,0,179656:0:0:0:0:
64,192,179442,1,0,0:0:0:0:
320,192,179656,128,0,180299:0:0:0:0:
64,192,179656,1,0,0:0:0:0:
192,192,179871,1,0,0:0:0:0:
448,192,180085,1,0,0:0:0:0:
192,192,180192,1,0,0:0:0:0:
64,192,180299,128,0,180406:0:0:0:0:
448,192,180299,1,0,0:0:0:0:
192,192,180406,128,0,180514:0:0:0:0:
320,192,180406,1,0,0:0:0:0:
320,192,180514,128,0,181156:0:0:0:0:
64,192,180514,1,0,0:0:0:0:
448,192,180728,1,0,0:0:0:0:
64,192,180942,1,0,0:0:0:0:
192,192,181049,1,0,0:0:0:0:
448,192,181156,128,0,181371:0:0:0:0:
64,192,181156,1,0,0:0:0:0:
320,192,181371,128,0,182121:0:0:0:0:
64,192,181371,1,0,0:0:0:0:
448,192,181585,1,0,0:0:0:0:
64,192,181799,1,0,0:0:0:0:
192,192,181906,1,0,0:0:0:0:
448,192,182014,1,0,0:0:0:0:
64,192,182228,128,0,182549:0:0:0:0:
448,192,182228,1,0,0:0:0:0:
320,192,182442,1,0,0:0:0:0:
192,192,182549,128,0,182871:0:0:0:0:
448,192,182656,1,0,0:0:0:0:
320,192,182764,1,0,0:0:0:0:
320,192,182871,128,0,183085:0:0:0:0:
64,192,182871,1,0,0:0:0:0:
448,192,183085,128,0,183835:0:0:0:0:
64,192,183085,1,0,0:0:0:0:
192,192,183192,1,0,0:0:0:0:
320,192,183299,1,0,0:0:0:0:
192,192,183406,1,0,0:0:0:0:
64,192,183514,1,0,0:0:0:0:
320,192,183621,1,0,0:0:0:0:
192,192,183728,1,0,0:0:0:0:
64,192,183835,1,0,0:0:0:0:
192,192,183942,128,0,184156:0:0:0:0:
448,192,183942,1,0,0:0:0:0:
448,192,184156,128,0,184264:0:0:0:0:
64,192,184156,1,0,0:0:0:0:
320,192,184264,128,0,184478:0:0:0:0:
192,192,184371,1,0,0:0:0:0:
64,192,184478,128,0,184799:0:0:0:0:
448,192,184478,1,0,0:0:0:0:
192,192,184585,1,0,0:0:0:0:
192,192,184799,128,0,185549:0:0:0:0:
448,192,184799,1,0,0:0:0:0:
64,192,185014,1,0,0:0:0:0:
448,192,185228,1,0,0:0:0:0:
320,192,185335,1,0,0:0:0:0:
64,192,185442,1,0,0:0:0:0:
448,192,185656,128,0,185978:0:0:0:0:
320,192,185656,1,0,0:0:0:0:
192,192,185871,1,0,0:0:0:0:
320,192,185978,128,0,186299:0:0:0:0:
64,192,186085,1,0,0:0:0:0:
192,192,186192,1,0,0:0:0:0:
64,192,186299,128,0,186514:0:0:0:0:
448,192,186299,1,0,0:0:0:0:
192,192,186514,128,0,187156:0:0:0:0:
448,192,186514,1,0,0:0:0:0:
320,192,186728,1,0,0:0:0:0:
448,192,186942,1,0,0:0:0:0:
320,192,187049,1,0,0:0:0:0:
448,192,187156,128,0,187264:0:0:0:0:
64,192,187156,1,0,0:0:0:0:
320,192,187264,128,0,187371:0:0:0:0:
192,192,187264,1,0,0:0:0:0:
192,192,187371,128,0,188014:0:0:0:0:
64,192,187371,1,0,0:0:0:0:
448,192,187585,1,0,0:0:0:0:
64,192,187799,1,0,0:0:0:0:
320,192,187906,1,0,0:0:0:0:
64,192,188014,128,0,188228:0:0:0:0:
448,192,188014,1,0,0:0:0:0:
192,192,188228,128,0,188978:0:0:0:0:
448,192,188228,1,0,0:0:0:0:
320,192,188442,1,0,0:0:0:0:
64,192,188656,1,0,0:0:0:0:
320,192,188764,1,0,0:0:0:0:
448,192,188871,1,0,0:0:0:0:
448,192,189085,128,0,189406:0:0:0:0:
64,192,189085,1,0,0:0:0:0:
320,192,189299,1,0,0:0:0:0:
320,192,189406,128,0,189728:0:0:0:0:
64,192,189514,1,0,0:0:0:0:
192,192,189621,1,0,0:0:0:0:
192,192,189728,128,0,189942:0:0:0:0:
448,192,189728,1,0,0:0:0:0:
320,192,189835,1,0,0:0:0:0:
64,192,189942,128,0,190692:0:0:0:0:
448,192,189942,1,0,0:0:0:0:
320,192,190049,1,0,0:0:0:0:
192,192,190156,1,0,0:0:0:0:
320,192,190264,1,0,0:0:0:0:
448,192,190371,1,0,0:0:0:0:
192,192,190371,1,0,0:0:0:0:
192,192,190478,1,0,0:0:0:0:
320,192,190478,1,0,0:0:0:0:
320,192,190585,1,0,0:0:0:0:
448,192,190585,1,0,0:0:0:0:
448,192,190692,1,0,0:0:0:0:
192,192,190692,1,0,0:0:0:0:
192,192,190799,1,0,0:0:0:0:
448,192,190799,1,0,0:0:0:0:
320,192,190853,1,0,0:0:0:0:
192,192,190906,1,0,0:0:0:0:
64,192,190960,1,0,0:0:0:0:
192,192,191014,1,0,0:0:0:0:
320,192,191014,1,0,0:0:0:0:
192,192,191121,1,0,0:0:0:0:
320,192,191121,1,0,0:0:0:0:
64,192,191174,1,0,0:0:0:0:
192,192,191228,1,0,0:0:0:0:
320,192,191281,1,0,0:0:0:0:
64,192,191335,1,0,0:0:0:0:
448,192,191335,1,0,0:0:0:0:
192,192,191389,1,0,0:0:0:0:
320,192,191442,1,0,0:0:0:0:
448,192,191442,1,0,0:0:0:0:
192,192,191496,1,0,0:0:0:0:
64,192,191549,1,0,0:0:0:0:
448,192,191603,1,0,0:0:0:0:
64,192,191656,1,0,0:0:0:0:
320,192,191656,1,0,0:0:0:0:
192,192,191710,1,0,0:0:0:0:
320,192,191764,1,0,0:0:0:0:
448,192,191817,1,0,0:0:0:0:
192,192,191871,1,0,0:0:0:0:
64,192,191871,1,0,0:0:0:0:
320,192,191924,1,0,0:0:0:0:
448,192,191978,1,0,0:0:0:0:
64,192,192031,1,0,0:0:0:0:
192,192,192085,1,0,0:0:0:0:
320,192,192139,1,0,0:0:0:0:
448,192,192192,1,0,0:0:0:0:
64,192,192246,1,0,0:0:0:0:
192,192,192299,1,0,0:0:0:0:
320,192,192299,1,0,0:0:0:0:
448,192,192353,1,0,0:0:0:0:
64,192,192406,1,0,0:0:0:0:
192,192,192460,1,0,0:0:0:0:
320,192,192514,1,0,0:0:0:0:
448,192,192514,1,0,0:0:0:0:
192,192,192567,1,0,0:0:0:0:
64,192,192621,1,0,0:0:0:0:
448,192,192674,1,0,0:0:0:0:
320,192,192728,1,0,0:0:0:0:
192,192,192728,1,0,0:0:0:0:
320,192,192835,1,0,0:0:0:0:
192,192,192835,1,0,0:0:0:0:
448,192,192889,1,0,0:0:0:0:
64,192,192942,1,0,0:0:0:0:
192,192,192996,1,0,0:0:0:0:
320,192,193049,1,0,0:0:0:0:
448,192,193049,1,0,0:0:0:0:
64,192,193103,1,0,0:0:0:0:
192,192,193156,1,0,0:0:0:0:
320,192,193156,1,0,0:0:0:0:
448,192,193210,1,0,0:0:0:0:
64,192,193264,1,0,0:0:0:0:
320,192,193264,1,0,0:0:0:0:
192,192,193317,1,0,0:0:0:0:
64,192,193371,1,0,0:0:0:0:
448,192,193371,1,0,0:0:0:0:
192,192,193424,1,0,0:0:0:0:
320,192,193478,1,0,0:0:0:0:
448,192,193531,1,0,0:0:0:0:
320,192,193585,1,0,0:0:0:0:
64,192,193585,1,0,0:0:0:0:
192,192,193639,1,0,0:0:0:0:
320,192,193692,1,0,0:0:0:0:
448,192,193746,1,0,0:0:0:0:
64,192,193799,1,0,0:0:0:0:
192,192,193799,1,0,0:0:0:0:
64,192,193906,1,0,0:0:0:0:
192,192,193906,1,0,0:0:0:0:
320,192,193960,1,0,0:0:0:0:
448,192,194014,1,0,0:0:0:0:
64,192,194014,1,0,0:0:0:0:
192,192,194067,1,0,0:0:0:0:
320,192,194121,1,0,0:0:0:0:
448,192,194174,1,0,0:0:0:0:
64,192,194228,1,0,0:0:0:0:
192,192,194228,1,0,0:0:0:0:
320,192,194281,1,0,0:0:0:0:
448,192,194335,1,0,0:0:0:0:
192,192,194389,1,0,0:0:0:0:
64,192,194442,1,0,0:0:0:0:
320,192,194442,1,0,0:0:0:0:
448,192,194496,1,0,0:0:0:0:
320,192,194549,1,0,0:0:0:0:
64,192,194549,1,0,0:0:0:0:
192,192,194603,1,0,0:0:0:0:
320,192,194656,1,0,0:0:0:0:
448,192,194710,1,0,0:0:0:0:
64,192,194764,1,0,0:0:0:0:
192,192,194764,1,0,0:0:0:0:
320,192,194817,1,0,0:0:0:0:
192,192,194871,1,0,0:0:0:0:
448,192,194871,1,0,0:0:0:0:
64,192,194924,1,0,0:0:0:0:
320,192,194924,1,0,0:0:0:0:
192,192,194978,1,0,0:0:0:0:
64,192,195031,1,0,0:0:0:0:
192,192,195085,1,0,0:0:0:0:
320,192,195085,1,0,0:0:0:0:
448,192,195139,1,0,0:0:0:0:
64,192,195192,1,0,0:0:0:0:
192,192,195246,1,0,0:0:0:0:
64,192,195299,1,0,0:0:0:0:
320,192,195299,1,0,0:0:0:0:
64,192,195406,1,0,0:0:0:0:
320,192,195406,1,0,0:0:0:0:
192,192,195460,1,0,0:0:0:0:
320,192,195514,1,0,0:0:0:0:
448,192,195514,1,0,0:0:0:0:
192,192,195567,1,0,0:0:0:0:
64,192,195621,1,0,0:0:0:0:
320,192,195621,1,0,0:0:0:0:
448,192,195674,1,0,0:0:0:0:
192,192,195728,1,0,0:0:0:0:
64,192,195728,1,0,0:0:0:0:
320,192,195781,1,0,0:0:0:0:
448,192,195835,1,0,0:0:0:0:
64,192,195889,1,0,0:0:0:0:
192,192,195942,1,0,0:0:0:0:
448,192,195942,1,0,0:0:0:0:
320,192,195996,1,0,0:0:0:0:
448,192,196049,1,0,0:0:0:0:
320,192,196103,1,0,0:0:0:0:
64,192,196156,1,0,0:0:0:0:
192,192,196156,1,0,0:0:0:0:
64,192,196264,1,0,0:0:0:0:
192,192,196264,1,0,0:0:0:0:
320,192,196317,1,0,0:0:0:0:
448,192,196371,1,0,0:0:0:0:
64,192,196424,1,0,0:0:0:0:
192,192,196478,1,0,0:0:0:0:
448,192,196478,1,0,0:0:0:0:
320,192,196531,1,0,0:0:0:0:
192,192,196585,1,0,0:0:0:0:
64,192,196585,1,0,0:0:0:0:
320,192,196639,1,0,0:0:0:0:
448,192,196692,1,0,0:0:0:0:
64,192,196746,1,0,0:0:0:0:
448,192,196799,1,0,0:0:0:0:
192,192,196799,1,0,0:0:0:0:
320,192,196853,1,0,0:0:0:0:
192,192,196906,1,0,0:0:0:0:
64,192,196960,1,0,0:0:0:0:
448,192,197014,1,0,0:0:0:0:
320,192,197014,1,0,0:0:0:0:
192,192,197067,1,0,0:0:0:0:
64,192,197121,1,0,0:0:0:0:
448,192,197174,1,0,0:0:0:0:
320,192,197228,1,0,0:0:0:0:
192,192,197281,1,0,0:0:0:0:
64,192,197335,1,0,0:0:0:0:
448,192,197389,1,0,0:0:0:0:
320,192,197442,1,0,0:0:0:0:
64,192,197442,1,0,0:0:0:0:
192,192,197496,1,0,0:0:0:0:
64,192,197549,1,0,0:0:0:0:
448,192,197549,1,0,0:0:0:0:
320,192,197603,1,0,0:0:0:0:
64,192,197656,1,0,0:0:0:0:
192,192,197656,1,0,0:0:0:0:
320,192,197710,1,0,0:0:0:0:
448,192,197764,1,0,0:0:0:0:
320,192,197817,1,0,0:0:0:0:
64,192,197871,1,0,0:0:0:0:
192,192,197871,1,0,0:0:0:0:
64,192,197978,1,0,0:0:0:0:
192,192,197978,1,0,0:0:0:0:
448,192,197978,1,0,0:0:0:0:
320,192,198031,1,0,0:0:0:0:
192,192,198085,1,0,0:0:0:0:
64,192,198139,1,0,0:0:0:0:
448,192,198192,1,0,0:0:0:0:
320,192,198192,1,0,0:0:0:0:
192,192,198246,1,0,0:0:0:0:
64,192,198299,1,0,0:0:0:0:
448,192,198299,1,0,0:0:0:0:
320,192,198353,1,0,0:0:0:0:
192,192,198406,1,0,0:0:0:0:
448,192,198460,1,0,0:0:0:0:
64,192,198514,1,0,0:0:0:0:
320,192,198514,1,0,0:0:0:0:
192,192,198567,1,0,0:0:0:0:
320,192,198621,1,0,0:0:0:0:
448,192,198674,1,0,0:0:0:0:
192,192,198728,1,0,0:0:0:0:
64,192,198728,1,0,0:0:0:0:
320,192,198781,1,0,0:0:0:0:
448,192,198835,1,0,0:0:0:0:
64,192,198889,1,0,0:0:0:0:
192,192,198942,1,0,0:0:0:0:
320,192,198996,1,0,0:0:0:0:
448,192,199049,1,0,0:0:0:0:
64,192,199103,1,0,0:0:0:0:
192,192,199156,1,0,0:0:0:0:
320,192,199156,1,0,0:0:0:0:
448,192,199210,1,0,0:0:0:0:
64,192,199264,1,0,0:0:0:0:
192,192,199317,1,0,0:0:0:0:
320,192,199371,1,0,0:0:0:0:
448,192,199371,1,0,0:0:0:0:
192,192,199424,1,0,0:0:0:0:
64,192,199478,1,0,0:0:0:0:
320,192,199531,1,0,0:0:0:0:
448,192,199585,1,0,0:0:0:0:
192,192,199585,1,0,0:0:0:0:
448,192,199692,1,0,0:0:0:0:
192,192,199692,1,0,0:0:0:0:
320,192,199746,1,0,0:0:0:0:
192,192,199799,1,0,0:0:0:0:
64,192,199853,1,0,0:0:0:0:
448,192,199906,1,0,0:0:0:0:
320,192,199906,1,0,0:0:0:0:
192,192,199960,1,0,0:0:0:0:
64,192,200014,1,0,0:0:0:0:
448,192,200014,1,0,0:0:0:0:
320,192,200067,1,0,0:0:0:0:
64,192,200121,1,0,0:0:0:0:
192,192,200121,1,0,0:0:0:0:
320,192,200174,1,0,0:0:0:0:
64,192,200228,1,0,0:0:0:0:
448,192,200228,1,0,0:0:0:0:
192,192,200281,1,0,0:0:0:0:
320,192,200335,1,0,0:0:0:0:
448,192,200389,1,0,0:0:0:0:
192,192,200442,1,0,0:0:0:0:
320,192,200442,1,0,0:0:0:0:
192,192,200549,1,0,0:0:0:0:
320,192,200549,1,0,0:0:0:0:
448,192,200603,1,0,0:0:0:0:
320,192,200656,1,0,0:0:0:0:
192,192,200710,1,0,0:0:0:0:
64,192,200764,1,0,0:0:0:0:
448,192,200764,1,0,0:0:0:0:
320,192,200817,1,0,0:0:0:0:
192,192,200871,1,0,0:0:0:0:
64,192,200871,1,0,0:0:0:0:
448,192,200924,1,0,0:0:0:0:
320,192,200978,1,0,0:0:0:0:
192,192,201031,1,0,0:0:0:0:
64,192,201085,1,0,0:0:0:0:
320,192,201085,1,0,0:0:0:0:
192,192,201139,1,0,0:0:0:0:
320,192,201192,1,0,0:0:0:0:
448,192,201246,1,0,0:0:0:0:
64,192,201299,1,0,0:0:0:0:
192,192,201299,1,0,0:0:0:0:
64,192,201406,1,0,0:0:0:0:
192,192,201406,1,0,0:0:0:0:
320,192,201460,1,0,0:0:0:0:
448,192,201514,1,0,0:0:0:0:
192,192,201567,1,0,0:0:0:0:
320,192,201621,1,0,0:0:0:0:
64,192,201621,1,0,0:0:0:0:
448,192,201674,1,0,0:0:0:0:
320,192,201728,1,0,0:0:0:0:
192,192,201728,1,0,0:0:0:0:
64,192,201781,1,0,0:0:0:0:
448,192,201835,1,0,0:0:0:0:
320,192,201889,1,0,0:0:0:0:
64,192,201942,1,0,0:0:0:0:
192,192,201942,1,0,0:0:0:0:
448,192,201996,1,0,0:0:0:0:
320,192,202049,1,0,0:0:0:0:
192,192,202103,1,0,0:0:0:0:
320,192,202156,1,0,0:0:0:0:
448,192,202156,1,0,0:0:0:0:
320,192,202264,1,0,0:0:0:0:
448,192,202264,1,0,0:0:0:0:
64,192,202317,1,0,0:0:0:0:
192,192,202371,1,0,0:0:0:0:
320,192,202424,1,0,0:0:0:0:
64,192,202478,1,0,0:0:0:0:
448,192,202478,1,0,0:0:0:0:
192,192,202531,1,0,0:0:0:0:
320,192,202585,1,0,0:0:0:0:
448,192,202585,1,0,0:0:0:0:
192,192,202639,1,0,0:0:0:0:
64,192,202692,1,0,0:0:0:0:
448,192,202746,1,0,0:0:0:0:
64,192,202799,1,0,0:0:0:0:
320,192,202799,1,0,0:0:0:0:
192,192,202853,1,0,0:0:0:0:
320,192,202906,1,0,0:0:0:0:
448,192,202960,1,0,0:0:0:0:
192,192,203014,1,0,0:0:0:0:
64,192,203014,1,0,0:0:0:0:
320,192,203067,1,0,0:0:0:0:
448,192,203121,1,0,0:0:0:0:
64,192,203174,1,0,0:0:0:0:
192,192,203228,1,0,0:0:0:0:
320,192,203281,1,0,0:0:0:0:
448,192,203335,1,0,0:0:0:0:
64,192,203389,1,0,0:0:0:0:
192,192,203442,1,0,0:0:0:0:
320,192,203442,1,0,0:0:0:0:
320,192,203549,1,0,0:0:0:0:
448,192,203549,1,0,0:0:0:0:
192,192,203603,1,0,0:0:0:0:
64,192,203656,1,0,0:0:0:0:
448,192,203656,1,0,0:0:0:0:
320,192,203710,1,0,0:0:0:0:
192,192,203764,1,0,0:0:0:0:
64,192,203817,1,0,0:0:0:0:
448,192,203817,1,0,0:0:0:0:
320,192,203871,1,0,0:0:0:0:
192,192,203924,1,0,0:0:0:0:
320,192,203978,1,0,0:0:0:0:
64,192,203978,1,0,0:0:0:0:
448,192,204085,1,0,0:0:0:0:
192,192,204085,1,0,0:0:0:0:
64,192,204192,1,0,0:0:0:0:
320,192,204192,1,0,0:0:0:0:
320,192,204299,1,0,0:0:0:0:
192,192,204299,1,0,0:0:0:0:
64,192,204406,1,0,0:0:0:0:
448,192,204406,1,0,0:0:0:0:
320,192,204514,1,0,0:0:0:0:
64,192,204514,1,0,0:0:0:0:
192,192,204514,1,0,0:0:0:0:
192,192,204621,1,0,0:0:0:0:
448,192,204621,1,0,0:0:0:0:
64,192,204728,1,0,0:0:0:0:
448,192,204728,1,0,0:0:0:0:
320,192,204728,1,0,0:0:0:0:
64,192,204835,1,0,0:0:0:0:
448,192,204835,1,0,0:0:0:0:
320,192,204835,1,0,0:0:0:0:
192,192,204942,1,0,0:0:0:0:
320,192,204942,1,0,0:0:0:0:
64,192,205049,1,0,0:0:0:0:
192,192,205049,1,0,0:0:0:0:
448,192,205049,1,0,0:0:0:0:
64,192,205156,1,0,0:0:0:0:
320,192,205156,1,0,0:0:0:0:
192,192,205264,1,0,0:0:0:0:
448,192,205264,1,0,0:0:0:0:
64,192,205371,1,0,0:0:0:0:
192,192,205371,1,0,0:0:0:0:
320,192,205371,1,0,0:0:0:0:
448,192,205478,1,0,0:0:0:0:
320,192,205478,1,0,0:0:0:0:
64,192,205585,1,0,0:0:0:0:
320,192,205585,1,0,0:0:0:0:
192,192,205692,1,0,0:0:0:0:
448,192,205692,1,0,0:0:0:0:
64,192,205799,1,0,0:0:0:0:
320,192,205799,1,0,0:0:0:0:
192,192,205906,1,0,0:0:0:0:
448,192,205906,1,0,0:0:0:0:
64,192,206014,1,0,0:0:0:0:
192,192,206049,1,0,0:0:0:0:
320,192,206085,1,0,0:0:0:0:
448,192,206121,1,0,0:0:0:0:
64,192,206156,1,0,0:0:0:0:
192,192,206192,1,0,0:0:0:0:
320,192,206228,1,0,0:0:0:0:
448,192,206228,1,0,0:0:0:0:
64,192,206335,1,0,0:0:0:0:
192,192,206335,1,0,0:0:0:0:
448,192,206442,1,0,0:0:0:0:
192,192,206442,1,0,0:0:0:0:
320,192,206442,1,0,0:0:0:0:
448,192,206549,1,0,0:0:0:0:
192,192,206549,1,0,0:0:0:0:
320,192,206549,1,0,0:0:0:0:
64,192,206656,1,0,0:0:0:0:
320,192,206656,1,0,0:0:0:0:
192,192,206764,1,0,0:0:0:0:
320,192,206764,1,0,0:0:0:0:
448,192,206764,1,0,0:0:0:0:
64,192,206871,1,0,0:0:0:0:
448,192,206871,1,0,0:0:0:0:
192,192,206978,1,0,0:0:0:0:
320,192,206978,1,0,0:0:0:0:
64,192,207085,1,0,0:0:0:0:
192,192,207085,1,0,0:0:0:0:
448,192,207085,1,0,0:0:0:0:
64,192,207192,1,0,0:0:0:0:
320,192,207192,1,0,0:0:0:0:
448,192,207299,1,0,0:0:0:0:
192,192,207299,1,0,0:0:0:0:
320,192,207299,1,0,0:0:0:0:
448,192,207406,1,0,0:0:0:0:
192,192,207406,1,0,0:0:0:0:
64,192,207514,1,0,0:0:0:0:
192,192,207514,1,0,0:0:0:0:
320,192,207514,1,0,0:0:0:0:
64,192,207621,1,0,0:0:0:0:
192,192,207621,1,0,0:0:0:0:
320,192,207621,1,0,0:0:0:0:
448,192,207728,1,0,0:0:0:0:
320,192,207728,1,0,0:0:0:0:
64,192,207835,1,0,0:0:0:0:
192,192,207835,1,0,0:0:0:0:
448,192,207942,1,0,0:0:0:0:
64,192,207942,1,0,0:0:0:0:
192,192,207942,1,0,0:0:0:0:
320,192,207942,1,0,0:0:0:0:
448,192,208049,1,0,0:0:0:0:
320,192,208049,1,0,0:0:0:0:
64,192,208156,1,0,0:0:0:0:
192,192,208156,1,0,0:0:0:0:
320,192,208156,1,0,0:0:0:0:
64,192,208264,1,0,0:0:0:0:
192,192,208264,1,0,0:0:0:0:
320,192,208264,1,0,0:0:0:0:
192,192,208371,1,0,0:0:0:0:
448,192,208371,1,0,0:0:0:0:
64,192,208478,1,0,0:0:0:0:
192,192,208478,1,0,0:0:0:0:
320,192,208478,1,0,0:0:0:0:
64,192,208585,1,0,0:0:0:0:
448,192,208585,1,0,0:0:0:0:
192,192,208692,1,0,0:0:0:0:
320,192,208692,1,0,0:0:0:0:
64,192,208799,1,0,0:0:0:0:
192,192,208799,1,0,0:0:0:0:
448,192,208799,1,0,0:0:0:0:
320,192,208906,1,0,0:0:0:0:
64,192,208906,1,0,0:0:0:0:
448,192,209014,1,0,0:0:0:0:
192,192,209014,1,0,0:0:0:0:
320,192,209014,1,0,0:0:0:0:
448,192,209121,1,0,0:0:0:0:
192,192,209121,1,0,0:0:0:0:
320,192,209121,1,0,0:0:0:0:
64,192,209228,1,0,0:0:0:0:
192,192,209228,1,0,0:0:0:0:
64,192,209335,1,0,0:0:0:0:
192,192,209335,1,0,0:0:0:0:
320,192,209335,1,0,0:0:0:0:
448,192,209442,1,0,0:0:0:0:
320,192,209442,1,0,0:0:0:0:
192,192,209549,1,0,0:0:0:0:
64,192,209549,1,0,0:0:0:0:
64,192,209656,1,0,0:0:0:0:
192,192,209656,1,0,0:0:0:0:
320,192,209656,1,0,0:0:0:0:
448,192,209764,1,0,0:0:0:0:
192,192,209764,1,0,0:0:0:0:
64,192,209871,1,0,0:0:0:0:
448,192,209871,1,0,0:0:0:0:
320,192,209871,1,0,0:0:0:0:
64,192,209978,1,0,0:0:0:0:
448,192,209978,1,0,0:0:0:0:
320,192,209978,1,0,0:0:0:0:
192,192,210085,1,0,0:0:0:0:
320,192,210085,1,0,0:0:0:0:
64,192,210192,1,0,0:0:0:0:
448,192,210192,1,0,0:0:0:0:
192,192,210192,1,0,0:0:0:0:
320,192,210299,1,0,0:0:0:0:
448,192,210299,1,0,0:0:0:0:
64,192,210406,1,0,0:0:0:0:
192,192,210406,1,0,0:0:0:0:
448,192,210514,1,0,0:0:0:0:
64,192,210514,1,0,0:0:0:0:
192,192,210514,1,0,0:0:0:0:
320,192,210514,1,0,0:0:0:0:
64,192,210621,1,0,0:0:0:0:
448,192,210621,1,0,0:0:0:0:
192,192,210728,1,0,0:0:0:0:
320,192,210728,1,0,0:0:0:0:
448,192,210835,1,0,0:0:0:0:
64,192,210835,1,0,0:0:0:0:
320,192,210889,1,0,0:0:0:0:
192,192,210942,1,0,0:0:0:0:
64,192,210996,1,0,0:0:0:0:
448,192,211049,1,0,0:0:0:0:
320,192,211103,1,0,0:0:0:0:
192,192,211156,1,0,0:0:0:0:
64,192,211210,1,0,0:0:0:0:
448,192,211264,1,0,0:0:0:0:
320,192,211264,1,0,0:0:0:0:
448,192,211371,1,0,0:0:0:0:
64,192,211371,1,0,0:0:0:0:
192,192,211371,1,0,0:0:0:0:
320,192,211371,1,0,0:0:0:0:
64,192,211478,1,0,0:0:0:0:
192,192,211478,1,0,0:0:0:0:
448,192,211585,1,0,0:0:0:0:
192,192,211585,1,0,0:0:0:0:
320,192,211585,1,0,0:0:0:0:
64,192,211692,1,0,0:0:0:0:
320,192,211692,1,0,0:0:0:0:
448,192,211692,1,0,0:0:0:0:
64,192,211799,1,0,0:0:0:0:
192,192,211799,1,0,0:0:0:0:
448,192,211906,1,0,0:0:0:0:
192,192,211906,1,0,0:0:0:0:
320,192,211906,1,0,0:0:0:0:
64,192,212014,1,0,0:0:0:0:
320,192,212014,1,0,0:0:0:0:
192,192,212121,1,0,0:0:0:0:
448,192,212121,1,0,0:0:0:0:
64,192,212228,1,0,0:0:0:0:
192,192,212228,1,0,0:0:0:0:
320,192,212228,1,0,0:0:0:0:
320,192,212335,1,0,0:0:0:0:
448,192,212335,1,0,0:0:0:0:
64,192,212442,1,0,0:0:0:0:
192,192,212442,1,0,0:0:0:0:
64,192,212549,1,0,0:0:0:0:
448,192,212549,1,0,0:0:0:0:
192,192,212656,1,0,0:0:0:0:
320,192,212656,1,0,0:0:0:0:
64,192,212764,1,0,0:0:0:0:
448,192,212764,1,0,0:0:0:0:
64,192,212871,1,0,0:0:0:0:
320,192,212871,1,0,0:0:0:0:
192,192,212978,1,0,0:0:0:0:
448,192,212978,1,0,0:0:0:0:
64,192,213085,1,0,0:0:0:0:
320,192,213085,1,0,0:0:0:0:
448,192,213085,1,0,0:0:0:0:
192,192,213192,1,0,0:0:0:0:
320,192,213192,1,0,0:0:0:0:
64,192,213299,1,0,0:0:0:0:
192,192,213299,1,0,0:0:0:0:
448,192,213299,1,0,0:0:0:0:
64,192,213406,1,0,0:0:0:0:
192,192,213406,1,0,0:0:0:0:
448,192,213406,1,0,0:0:0:0:
320,192,213514,1,0,0:0:0:0:
448,192,213514,1,0,0:0:0:0:
64,192,213621,1,0,0:0:0:0:
192,192,213621,1,0,0:0:0:0:
320,192,213621,1,0,0:0:0:0:
320,192,213728,1,0,0:0:0:0:
448,192,213728,1,0,0:0:0:0:
64,192,213835,1,0,0:0:0:0:
192,192,213835,1,0,0:0:0:0:
448,192,213835,1,0,0:0:0:0:
64,192,213942,1,0,0:0:0:0:
192,192,213942,1,0,0:0:0:0:
448,192,213942,1,0,0:0:0:0:
320,192,214049,1,0,0:0:0:0:
192,192,214049,1,0,0:0:0:0:
64,192,214156,1,0,0:0:0:0:
320,192,214156,1,0,0:0:0:0:
448,192,214156,1,0,0:0:0:0:
64,192,214264,1,0,0:0:0:0:
320,192,214264,1,0,0:0:0:0:
448,192,214264,1,0,0:0:0:0:
192,192,214371,1,0,0:0:0:0:
448,192,214371,1,0,0:0:0:0:
64,192,214478,1,0,0:0:0:0:
192,192,214478,1,0,0:0:0:0:
320,192,214478,1,0,0:0:0:0:
64,192,214585,1,0,0:0:0:0:
448,192,214585,1,0,0:0:0:0:
192,192,214692,1,0,0:0:0:0:
320,192,214692,1,0,0:0:0:0:
448,192,214799,1,0,0:0:0:0:
64,192,214799,1,0,0:0:0:0:
192,192,214799,1,0,0:0:0:0:
320,192,214799,1,0,0:0:0:0:
64,192,214906,1,0,0:0:0:0:
448,192,214906,1,0,0:0:0:0:
448,192,215014,1,0,0:0:0:0:
192,192,215014,1,0,0:0:0:0:
320,192,215014,1,0,0:0:0:0:
448,192,215121,1,0,0:0:0:0:
192,192,215121,1,0,0:0:0:0:
320,192,215121,1,0,0:0:0:0:
64,192,215228,1,0,0:0:0:0:
320,192,215228,1,0,0:0:0:0:
448,192,215335,1,0,0:0:0:0:
192,192,215335,1,0,0:0:0:0:
64,192,215335,1,0,0:0:0:0:
192,192,215442,1,0,0:0:0:0:
448,192,215442,1,0,0:0:0:0:
64,192,215549,1,0,0:0:0:0:
320,192,215549,1,0,0:0:0:0:
448,192,215656,1,0,0:0:0:0:
64,192,215656,1,0,0:0:0:0:
192,192,215656,1,0,0:0:0:0:
320,192,215656,1,0,0:0:0:0:
448,192,215764,1,0,0:0:0:0:
192,192,215764,1,0,0:0:0:0:
64,192,215871,1,0,0:0:0:0:
192,192,215871,1,0,0:0:0:0:
320,192,215871,1,0,0:0:0:0:
64,192,215978,1,0,0:0:0:0:
192,192,215978,1,0,0:0:0:0:
320,192,215978,1,0,0:0:0:0:
448,192,216085,1,0,0:0:0:0:
320,192,216085,1,0,0:0:0:0:
64,192,216192,1,0,0:0:0:0:
192,192,216192,1,0,0:0:0:0:
448,192,216192,1,0,0:0:0:0:
192,192,216299,1,0,0:0:0:0:
320,192,216299,1,0,0:0:0:0:
64,192,216406,1,0,0:0:0:0:
320,192,216406,1,0,0:0:0:0:
448,192,216514,128,0,218228:0:0:0:0:
320,192,216514,128,0,219942:0:0:0:0:
192,192,216514,128,0,221656:0:0:0:0:
64,192,216514,128,0,222514:0:0:0:0:
320,192,222514,1,0,0:0:0:0:
192,192,222514,1,0,0:0:0:0:
320,192,222621,1,0,0:0:0:0:
448,192,222621,1,0,0:0:0:0:
64,192,222728,1,0,0:0:0:0:
192,192,222764,1,0,0:0:0:0:
320,192,222799,1,0,0:0:0:0:
448,192,222835,1,0,0:0:0:0:
64,192,222835,1,0,0:0:0:0:
192,192,222871,1,0,0:0:0:0:
320,192,222906,1,0,0:0:0:0:
64,192,222942,1,0,0:0:0:0:
448,192,222942,1,0,0:0:0:0:
192,192,223049,1,0,0:0:0:0:
448,192,223049,1,0,0:0:0:0:
64,192,223156,1,0,0:0:0:0:
192,192,223156,1,0,0:0:0:0:
320,192,223264,1,0,0:0:0:0:
448,192,223264,1,0,0:0:0:0:
64,192,223371,1,0,0:0:0:0:
192,192,223371,1,0,0:0:0:0:
320,192,223424,1,0,0:0:0:0:
448,192,223478,1,0,0:0:0:0:
64,192,223531,1,0,0:0:0:0:
320,192,223585,1,0,0:0:0:0:
192,192,223585,1,0,0:0:0:0:
448,192,223639,1,0,0:0:0:0:
64,192,223692,1,0,0:0:0:0:
192,192,223746,1,0,0:0:0:0:
320,192,223799,1,0,0:0:0:0:
448,192,223799,1,0,0:0:0:0:
192,192,223853,1,0,0:0:0:0:
64,192,223906,1,0,0:0:0:0:
448,192,223960,1,0,0:0:0:0:
320,192,224014,1,0,0:0:0:0:
192,192,224014,1,0,0:0:0:0:
64,192,224067,1,0,0:0:0:0:
448,192,224121,1,0,0:0:0:0:
320,192,224174,1,0,0:0:0:0:
64,192,224228,1,0,0:0:0:0:
192,192,224228,1,0,0:0:0:0:
320,192,224281,1,0,0:0:0:0:
448,192,224335,1,0,0:0:0:0:
64,192,224389,1,0,0:0:0:0:
320,192,224442,1,0,0:0:0:0:
192,192,224442,1,0,0:0:0:0:
448,192,224496,1,0,0:0:0:0:
64,192,224549,1,0,0:0:0:0:
192,192,224603,1,0,0:0:0:0:
320,192,224656,1,0,0:0:0:0:
448,192,224656,1,0,0:0:0:0:
192,192,224710,1,0,0:0:0:0:
64,192,224764,1,0,0:0:0:0:
448,192,224817,1,0,0:0:0:0:
320,192,224871,1,0,0:0:0:0:
192,192,224871,1,0,0:0:0:0:
64,192,224924,1,0,0:0:0:0:
448,192,224978,1,0,0:0:0:0:
320,192,225031,1,0,0:0:0:0:
192,192,225085,1,0,0:0:0:0:
64,192,225085,1,0,0:0:0:0:
320,192,225139,1,0,0:0:0:0:
448,192,225192,1,0,0:0:0:0:
64,192,225246,1,0,0:0:0:0:
320,192,225299,1,0,0:0:0:0:
192,192,225299,1,0,0:0:0:0:
448,192,225353,1,0,0:0:0:0:
320,192,225406,1,0,0:0:0:0:
192,192,225460,1,0,0:0:0:0:
64,192,225514,1,0,0:0:0:0:
448,192,225514,1,0,0:0:0:0:
320,192,225567,1,0,0:0:0:0:
64,192,225621,1,0,0:0:0:0:
192,192,225674,1,0,0:0:0:0:
448,192,225728,1,0,0:0:0:0:
320,192,225728,1,0,0:0:0:0:
192,192,225781,1,0,0:0:0:0:
64,192,225835,1,0,0:0:0:0:
448,192,225889,1,0,0:0:0:0:
320,192,225942,1,0,0:0:0:0:
192,192,225942,1,0,0:0:0:0:
64,192,225996,1,0,0:0:0:0:
448,192,226049,1,0,0:0:0:0:
320,192,226103,1,0,0:0:0:0:
192,192,226156,1,0,0:0:0:0:
64,192,226156,1,0,0:0:0:0:
320,192,226210,1,0,0:0:0:0:
448,192,226264,1,0,0:0:0:0:
64,192,226317,1,0,0:0:0:0:
320,192,226371,1,0,0:0:0:0:
192,192,226371,1,0,0:0:0:0:
448,192,226424,1,0,0:0:0:0:
64,192,226478,1,0,0:0:0:0:
192,192,226531,1,0,0:0:0:0:
320,192,226585,1,0,0:0:0:0:
448,192,226585,1,0,0:0:0:0:
192,192,226639,1,0,0:0:0:0:
64,192,226692,1,0,0:0:0:0:
448,192,226746,1,0,0:0:0:0:
320,192,226799,1,0,0:0:0:0:
192,192,226799,1,0,0:0:0:0:
64,192,226853,1,0,0:0:0:0:
192,192,226906,1,0,0:0:0:0:
320,192,226960,1,0,0:0:0:0:
448,192,227014,1,0,0:0:0:0:
64,192,227014,1,0,0:0:0:0:
192,192,227067,1,0,0:0:0:0:
448,192,227121,1,0,0:0:0:0:
320,192,227174,1,0,0:0:0:0:
192,192,227228,1,0,0:0:0:0:
64,192,227228,1,0,0:0:0:0:
320,192,227281,1,0,0:0:0:0:
448,192,227335,1,0,0:0:0:0:
64,192,227389,1,0,0:0:0:0:
192,192,227442,1,0,0:0:0:0:
448,192,227442,1,0,0:0:0:0:
320,192,227496,1,0,0:0:0:0:
192,192,227549,1,0,0:0:0:0:
64,192,227603,1,0,0:0:0:0:
448,192,227603,1,0,0:0:0:0:
320,192,227656,1,0,0:0:0:0:
192,192,227656,1,0,0:0:0:0:
448,192,227710,1,0,0:0:0:0:
64,192,227764,1,0,0:0:0:0:
192,192,227817,1,0,0:0:0:0:
320,192,227871,1,0,0:0:0:0:
448,192,227871,1,0,0:0:0:0:
192,192,227924,1,0,0:0:0:0:
64,192,227978,1,0,0:0:0:0:
448,192,228031,1,0,0:0:0:0:
320,192,228085,1,0,0:0:0:0:
192,192,228085,1,0,0:0:0:0:
64,192,228139,1,0,0:0:0:0:
448,192,228192,1,0,0:0:0:0:
320,192,228246,1,0,0:0:0:0:
192,192,228299,1,0,0:0:0:0:
64,192,228299,1,0,0:0:0:0:
320,192,228353,1,0,0:0:0:0:
448,192,228406,1,0,0:0:0:0:
64,192,228460,1,0,0:0:0:0:
320,192,228514,1,0,0:0:0:0:
192,192,228514,1,0,0:0:0:0:
448,192,228567,1,0,0:0:0:0:
64,192,228621,1,0,0:0:0:0:
192,192,228674,1,0,0:0:0:0:
320,192,228728,1,0,0:0:0:0:
448,192,228728,1,0,0:0:0:0:
192,192,228781,1,0,0:0:0:0:
64,192,228835,1,0,0:0:0:0:
448,192,228889,1,0,0:0:0:0:
320,192,228942,1,0,0:0:0:0:
192,192,228942,1,0,0:0:0:0:
64,192,228996,1,0,0:0:0:0:
192,192,229049,1,0,0:0:0:0:
320,192,229103,1,0,0:0:0:0:
64,192,229156,1,0,0:0:0:0:
192,192,229156,1,0,0:0:0:0:
320,192,229210,1,0,0:0:0:0:
448,192,229264,1,0,0:0:0:0:
320,192,229317,1,0,0:0:0:0:
192,192,229371,1,0,0:0:0:0:
64,192,229371,1,0,0:0:0:0:
448,192,229424,1,0,0:0:0:0:
320,192,229478,1,0,0:0:0:0:
192,192,229531,1,0,0:0:0:0:
64,192,229585,1,0,0:0:0:0:
448,192,229585,1,0,0:0:0:0:
320,192,229639,1,0,0:0:0:0:
192,192,229692,1,0,0:0:0:0:
64,192,229746,1,0,0:0:0:0:
448,192,229799,1,0,0:0:0:0:
320,192,229799,1,0,0:0:0:0:
192,192,229853,1,0,0:0:0:0:
64,192,229906,1,0,0:0:0:0:
448,192,229960,1,0,0:0:0:0:
320,192,230014,1,0,0:0:0:0:
192,192,230014,1,0,0:0:0:0:
64,192,230067,1,0,0:0:0:0:
448,192,230121,1,0,0:0:0:0:
320,192,230174,1,0,0:0:0:0:
192,192,230228,1,0,0:0:0:0:
64,192,230228,128,0,230549:0:0:0:0:
448,192,230228,1,0,0:0:0:0:
448,192,230442,1,0,0:0:0:0:
192,192,230549,128,0,230871:0:0:0:0:
320,192,230656,1,0,0:0:0:0:
64,192,230764,1,0,0:0:0:0:
320,192,230871,128,0,231299:0:0:0:0:
448,192,230871,1,0,0:0:0:0:
192,192,231085,1,0,0:0:0:0:
64,192,231299,128,0,231514:0:0:0:0:
448,192,231299,1,0,0:0:0:0:
192,192,231514,128,0,231621:0:0:0:0:
448,192,231514,1,0,0:0:0:0:
320,192,231621,128,0,231942:0:0:0:0:
64,192,231621,1,0,0:0:0:0:
192,192,231728,1,0,0:0:0:0:
448,192,231942,128,0,232585:0:0:0:0:
64,192,231942,1,0,0:0:0:0:
320,192,232156,1,0,0:0:0:0:
320,192,232371,1,0,0:0:0:0:
192,192,232478,1,0,0:0:0:0:
192,192,232585,128,0,232692:0:0:0:0:
64,192,232585,1,0,0:0:0:0:
320,192,232692,128,0,232799:0:0:0:0:
448,192,232799,128,0,233121:0:0:0:0:
64,192,232799,1,0,0:0:0:0:
320,192,233014,1,0,0:0:0:0:
192,192,233121,128,0,233442:0:0:0:0:
64,192,233228,1,0,0:0:0:0:
320,192,233335,1,0,0:0:0:0:
64,192,233442,128,0,233656:0:0:0:0:
448,192,233442,1,0,0:0:0:0:
320,192,233549,1,0,0:0:0:0:
192,192,233656,128,0,233978:0:0:0:0:
448,192,233656,1,0,0:0:0:0:
64,192,233871,1,0,0:0:0:0:
320,192,233978,128,0,234299:0:0:0:0:
64,192,234085,1,0,0:0:0:0:
192,192,234192,1,0,0:0:0:0:
448,192,234299,128,0,234728:0:0:0:0:
64,192,234299,1,0,0:0:0:0:
320,192,234514,1,0,0:0:0:0:
64,192,234728,128,0,234942:0:0:0:0:
192,192,234728,1,0,0:0:0:0:
192,192,234942,128,0,235049:0:0:0:0:
448,192,234942,1,0,0:0:0:0:
320,192,235049,128,0,235371:0:0:0:0:
64,192,235049,1,0,0:0:0:0:
448,192,235156,1,0,0:0:0:0:
448,192,235371,128,0,236014:0:0:0:0:
64,192,235371,1,0,0:0:0:0:
320,192,235585,1,0,0:0:0:0:
64,192,235799,1,0,0:0:0:0:
192,192,235906,1,0,0:0:0:0:
192,192,236014,128,0,236121:0:0:0:0:
320,192,236014,1,0,0:0:0:0:
64,192,236121,128,0,236228:0:0:0:0:
192,192,236228,128,0,236549:0:0:0:0:
448,192,236228,1,0,0:0:0:0:
64,192,236442,1,0,0:0:0:0:
320,192,236549,128,0,236871:0:0:0:0:
448,192,236656,1,0,0:0:0:0:
192,192,236764,1,0,0:0:0:0:
448,192,236871,128,0,237085:0:0:0:0:
64,192,236871,1,0,0:0:0:0:
192,192,236978,1,0,0:0:0:0:
64,192,237085,128,0,237406:0:0:0:0:
320,192,237085,1,0,0:0:0:0:
448,192,237299,1,0,0:0:0:0:
192,192,237406,128,0,237514:0:0:0:0:
448,192,237514,128,0,237728:0:0:0:0:
320,192,237514,1,0,0:0:0:0:
192,192,237621,1,0,0:0:0:0:
320,192,237728,128,0,238156:0:0:0:0:
64,192,237728,1,0,0:0:0:0:
448,192,237942,1,0,0:0:0:0:
64,192,238156,128,0,238371:0:0:0:0:
192,192,238156,1,0,0:0:0:0:
192,192,238371,128,0,238478:0:0:0:0:
448,192,238371,1,0,0:0:0:0:
320,192,238478,128,0,238799:0:0:0:0:
64,192,238478,1,0,0:0:0:0:
448,192,238585,1,0,0:0:0:0:
448,192,238799,128,0,239442:0:0:0:0:
64,192,238799,1,0,0:0:0:0:
320,192,239014,1,0,0:0:0:0:
64,192,239228,1,0,0:0:0:0:
192,192,239335,1,0,0:0:0:0:
64,192,239442,128,0,239549:0:0:0:0:
320,192,239442,1,0,0:0:0:0:
192,192,239549,128,0,239656:0:0:0:0:
320,192,239656,128,0,239978:0:0:0:0:
448,192,239656,1,0,0:0:0:0:
192,192,239764,1,0,0:0:0:0:
64,192,239871,1,0,0:0:0:0:
192,192,239978,128,0,240299:0:0:0:0:
448,192,239978,1,0,0:0:0:0:
64,192,240085,1,0,0:0:0:0:
320,192,240192,1,0,0:0:0:0:
64,192,240299,128,0,240514:0:0:0:0:
448,192,240299,1,0,0:0:0:0:
320,192,240406,1,0,0:0:0:0:
320,192,240514,128,0,240835:0:0:0:0:
192,192,240514,1,0,0:0:0:0:
448,192,240728,1,0,0:0:0:0:
192,192,240835,128,0,241156:0:0:0:0:
64,192,240942,1,0,0:0:0:0:
320,192,241049,1,0,0:0:0:0:
64,192,241156,128,0,241264:0:0:0:0:
448,192,241156,1,0,0:0:0:0:
