osu file format v14

[General]
AudioFilename: alisantrdoujin.mp3
AudioLeadIn: 0
PreviewTime: 179920
Countdown: 0
SampleSet: Soft
StackLeniency: 0.7
Mode: 0
LetterboxInBreaks: 0
WidescreenStoryboard: 1

[Editor]
Bookmarks: 99920,119612,158997,179920,180228,180535,180843,181151,181458,181766,182074,182381,182689,182997,183304,183612,183920,184228,184535,209458,238997,265304
DistanceSpacing: 0.5
BeatDivisor: 4
GridSize: 32
TimelineZoom: 1.8

[Metadata]
Title:Don't be Defeated by a Friend!
TitleUnicode:Don't be Defeated by a Friend!
Artist:Falcom Sound Team jdk
ArtistUnicode:Falcom Sound Team jdk
Creator:Deca
Version:cocowari's Abyss feat. Moete
Source:英雄伝説 閃の軌跡
Tags:yogurtt kowari coco cococolaco moete nm1 co2021 ro16 corsace open 2021 no mod one 萩生田 朋克 tomokatsu hagiuda 神藤 由東大 yukihiro jindo 長野 昭子 akiko nagano 寺前 甲 masaru teramae demetori 榎本 敦 atsushi enomoto eiyuu densetsu sen no kiseki the legend of heroes trails of cold steel 1 2 i ii cs1 cs2 super arrange version sav j.d.k BAND dont nihon dbdbaf coldsteel instrumental metal rock
BeatmapID:3534472
BeatmapSetID:1557286

[Difficulty]
HPDrainRate:6
CircleSize:4
OverallDifficulty:8.5
ApproachRate:9.3
SliderMultiplier:1.92
SliderTickRate:1

[Events]
//Background and Video events
0,0,"coom_waifu2x_art_scale_tta_1.png",0,0
//Break Periods
2,179920,184090
//Storyboard Layer 0 (Background)
//Storyboard Layer 1 (Fail)
//Storyboard Layer 2 (Pass)
//Storyboard Layer 3 (Foreground)
//Storyboard Layer 4 (Overlay)
//Storyboard Sound Samples
Sample,178535,0,"normal-hitwhistle69.mp3",70

[TimingPoints]
228,307.692307692308,4,2,4,60,1,0
535,-100,4,2,1,60,0,0
8843,-100,4,2,4,60,0,0
10074,-100,4,2,4,72,0,0
29766,-111.111111111111,4,2,4,60,0,0
44535,-111.111111111111,4,2,4,72,0,0
49458,-111.111111111111,4,2,4,60,0,0
59304,-111.111111111111,4,2,7,72,0,0
64227,-111.111111111111,4,2,7,85,0,0
68996,-111.111111111111,4,2,69,85,0,0
70381,-99.9999999999999,4,2,8,85,0,1
70689,-99.9999999999999,4,2,7,85,0,1
80228,-99.9999999999999,4,2,8,85,0,1
80535,-99.9999999999999,4,2,7,85,0,1
99920,-99.9999999999999,4,2,4,72,0,0
119612,-133.333333333333,4,2,1,40,0,0
134381,-100,4,2,4,60,0,0
134997,-133.333333333333,4,2,4,60,0,0
135304,-133.333333333333,4,2,1,72,0,0
135612,-133.333333333333,4,2,4,72,0,0
136074,-133.333333333333,4,2,4,65,0,0
136228,-100,4,2,4,65,0,0
136535,-100,4,2,4,80,0,0
136843,-100,4,2,7,80,0,0
149151,-66.6666666666667,4,2,7,80,0,0
149612,-100,4,2,7,80,0,0
150228,-66.6666666666667,4,2,7,80,0,0
150689,-100,4,2,7,80,0,0
154074,-100,4,2,7,85,0,0
155458,-100,4,2,7,80,0,0
156535,-100,4,2,7,88,0,0
157766,-100,4,2,7,78,0,0
158689,-100,4,2,7,80,0,0
158997,-100,4,2,4,58,0,0
168843,-100,4,2,7,72,0,0
173766,-100,4,2,7,85,0,0
178535,-100,4,2,69,85,0,0
184689,-100,4,2,4,65,0,0
187151,-100,4,2,4,72,0,0
189766,-100,4,2,7,78,0,0
190381,-100,4,2,4,78,0,0
198228,-100,4,2,7,85,0,0
199304,-71.4285714285714,4,2,7,85,0,0
199612,-100,4,2,9,85,0,1
199920,-100,4,2,7,85,0,1
209458,-100,4,2,8,85,0,0
209766,-100,4,2,7,85,0,1
229151,-100,4,2,7,85,0,0
229612,-100,4,2,7,72,0,0
234074,-100,4,2,7,72,0,1
239304,-100,4,2,4,72,0,0
256228,-100,4,2,7,72,0,0
264689,-125,4,2,7,72,0,0

[Colours]
Combo1 : 134,143,227
Combo2 : 216,75,75

[HitObjects]
117,155,228,5,4,1:0:0:0:
94,286,381,1,0,0:0:0:0:
22,210,535,2,0,P|76:198|117:186,1,96,2|0,0:2|0:0,0:0:0:0:
261,313,843,6,0,P|178:338|84:269,1,192,2|2,3:0|3:1,0:0:0:0:
259,213,1304,2,0,P|362:221|464:245,1,192,4|0,1:3|3:0,0:0:0:0:
468,371,1766,1,2,0:3:0:0:
363,260,1920,1,0,3:0:0:0:
263,336,2074,6,0,B|202:351|202:351|63:324,1,192,2|2,0:3|0:1,0:0:0:0:
241,206,2535,1,4,0:3:0:0:
131,152,2689,2,0,P|117:88|112:41,1,96
8,252,2997,6,0,P|74:234|109:229,1,96,2|0,0:2|3:0,0:0:0:0:
302,152,3304,2,0,P|186:147|135:65,1,192,2|2,0:3|0:1,0:0:0:0:
278,22,3766,5,4,1:3:0:0:
278,22,3843,1,0,0:0:0:0:
278,22,3920,1,0,0:0:0:0:
417,111,4074,1,0,3:0:0:0:
297,141,4228,1,2,0:3:0:0:
461,194,4381,1,0,3:0:0:0:
330,326,4535,5,2,0:1:0:0:
395,135,4689,1,0,3:0:0:0:
454,270,4843,1,10,0:0:0:0:
262,229,4997,1,2,3:2:0:0:
353,360,5151,6,0,P|370:297|373:259,1,96,4|0,1:3|0:0,0:0:0:0:
164,302,5458,2,0,P|228:311|269:328,1,96,0|0,0:0|3:0,0:0:0:0:
461,209,5766,2,0,P|391:238|267:206,1,192,2|2,0:0|0:1,0:0:0:0:
203,97,6228,1,4,1:3:0:0:
353,122,6381,6,0,P|420:101|450:92,1,96,0|0,0:0|3:0,0:0:0:0:
285,29,6689,1,2,0:3:0:0:
266,198,6843,1,0,3:0:0:0:
182,108,6997,2,0,P|112:77|-9:103,1,192,2|4,0:1|0:3,0:0:0:0:
163,237,7458,6,0,B|208:245|208:245|363:203,1,192
226,53,7920,2,0,B|231:107|231:107|213:171,1,96,4|2,3:0|0:0,0:0:0:0:
103,311,8227,2,0,B|80:271|80:271|70:207,1,96,2|0,1:2|0:0,0:0:0:0:
119,122,8535,1,4,3:0:0:0:
262,286,8689,5,0,0:0:0:0:
262,286,8766,1,0,0:0:0:0:
262,286,8843,1,0,1:0:0:0:
103,330,8997,1,8,0:0:0:0:
230,168,9151,1,0,3:0:0:0:
113,145,9304,1,0,3:0:0:0:
326,197,9458,5,10,0:2:0:0:
205,361,9612,1,8,0:3:0:0:
403,302,9766,2,0,B|452:312|452:312|494:338,1,96,14|0,0:2|1:0,0:0:0:0:
235,223,10074,6,0,P|174:235|110:241,1,96,4|0,1:2|0:0,0:0:0:0:
305,65,10381,2,0,B|339:103|339:103|325:268,1,192,10|2,0:0|1:2,0:0:0:0:
195,121,10843,2,0,P|185:59|167:4,1,96,0|10,3:0|0:0,0:0:0:0:
426,154,11151,6,0,P|456:223|381:318,1,192,2|0,1:2|3:0,0:0:0:0:
249,239,11612,2,0,P|321:226|357:215,1,96,10|0,0:0|0:0,0:0:0:0:
254,347,11920,1,2,1:2:0:0:
156,306,12074,1,0,3:0:0:0:
152,207,12228,1,10,0:0:0:0:
308,137,12381,6,0,B|359:152|359:152|506:127,1,192,6|2,1:2|3:0,0:0:0:0:
316,242,12843,2,0,P|294:316|281:364,1,96,10|0,0:0|0:0,0:0:0:0:
209,158,13151,2,0,P|197:110|188:46,1,96,2|0,1:2|3:0,0:0:0:0:
17,172,13458,1,10,0:0:0:0:
153,276,13612,5,2,3:2:0:0:
153,276,13689,1,2,0:2:0:0:
153,276,13766,1,2,0:2:0:0:
40,337,13920,1,2,3:2:0:0:
232,364,14074,1,10,0:0:0:0:
41,220,14228,1,2,0:0:0:0:
220,159,14381,5,0,1:0:0:0:
147,303,14535,1,2,3:2:0:0:
84,86,14689,1,10,0:0:0:0:
84,86,14766,1,8,0:0:0:0:
84,86,14843,1,2,3:2:0:0:
231,207,14997,6,0,B|277:222|277:222|360:217,1,96,4|0,1:2|0:0,0:0:0:0:
491,44,15304,2,0,B|438:34|438:34|394:35,1,96,10|0,0:0|0:0,0:0:0:0:
234,116,15612,2,0,B|286:139|286:139|433:128,1,192,2|8,1:2|0:0,0:0:0:0:
270,261,16074,6,0,P|260:328|259:380,1,96,2|0,1:2|0:0,0:0:0:0:
378,267,16381,1,0,3:0:0:0:
253,149,16535,2,0,B|209:139|209:139|149:141,1,96,10|0,0:0|0:0,0:0:0:0:
26,269,16843,2,0,P|75:304|195:229,1,192,2|10,1:2|0:0,0:0:0:0:
71,24,17304,6,0,P|96:188|103:237,1,192,6|0,1:2|3:0,0:0:0:0:
256,313,17766,2,0,B|272:266|272:266|263:199,1,96,10|0,0:0|0:0,0:0:0:0:
201,101,18074,1,2,1:2:0:0:
131,209,18228,1,0,3:0:0:0:
325,141,18381,1,8,0:0:0:0:
252,313,18535,5,6,1:2:0:0:
252,313,18612,1,2,0:2:0:0:
252,313,18689,1,2,0:2:0:0:
165,164,18843,1,2,3:2:0:0:
129,370,18997,1,10,0:0:0:0:
284,220,19151,2,0,B|328:198|328:198|477:228,1,192,6|2,1:2|3:2,0:0:0:0:
271,320,19612,1,10,0:0:0:0:
230,313,19689,1,8,0:0:0:0:
198,293,19766,1,10,3:2:0:0:
315,70,19920,6,0,P|332:126|339:169,1,96,4|0,1:2|0:0,0:0:0:0:
173,302,20228,2,0,P|156:246|149:203,1,96,10|0,0:0|0:0,0:0:0:0:
414,223,20535,2,0,B|395:248|389:269|389:269|305:298|253:218,1,192,2|10,1:2|0:0,0:0:0:0:
44,133,20997,6,0,P|151:126|245:90,1,192,2|0,1:2|3:0,0:0:0:0:
370,5,21459,2,0,B|357:54|357:54|362:107,1,96,10|0,0:0|0:0,0:0:0:0:
473,253,21766,1,2,1:2:0:0:
502,120,21920,1,0,3:0:0:0:
464,297,22074,1,10,0:0:0:0:
325,184,22228,6,0,P|233:191|214:306,1,192,6|2,1:2|3:0,0:0:0:0:
372,316,22689,2,0,P|412:326|470:349,1,96,10|0,0:0|0:0,0:0:0:0:
247,366,22997,2,0,P|178:382|125:383,1,96,2|0,1:2|3:0,0:0:0:0:
56,282,23304,1,10,0:0:0:0:
253,201,23458,5,2,3:2:0:0:
253,201,23535,1,2,0:2:0:0:
253,201,23612,1,2,0:2:0:0:
78,127,23766,1,2,3:2:0:0:
260,72,23920,2,0,B|309:60|309:60|369:33,1,96,14|2,0:0|0:0,0:0:0:0:
82,36,24228,1,10,0:0:0:0:
82,36,24304,1,8,0:0:0:0:
82,36,24381,1,10,0:3:0:0:
82,36,24458,1,8,0:3:0:0:
82,36,24535,2,0,L|94:102,1,48,10|8,3:3|3:3,0:0:0:0:
130,188,24689,5,10,1:3:0:0:
130,188,24766,1,8,1:3:0:0:
130,188,24843,2,0,B|77:184|77:184|23:166,1,96,0|0,1:0|0:0,0:0:0:0:
182,330,25151,2,0,B|245:312|245:312|308:320|308:320|398:289,1,192,10|2,0:0|1:2,0:0:0:0:
494,229,25612,1,0,3:0:0:0:
459,371,25766,1,10,0:0:0:0:
284,215,25920,6,0,P|311:136|424:134,1,192,6|0,1:2|3:0,0:0:0:0:
497,246,26381,2,0,P|437:232|380:233,1,96,10|0,0:0|0:0,0:0:0:0:
294,93,26689,1,2,1:2:0:0:
444,137,26843,2,0,P|457:93|471:28,1,96,0|10,3:0|0:0,0:0:0:0:
272,198,27151,6,0,B|229:215|229:215|62:179,1,192,6|2,1:2|3:0,0:0:0:0:
201,20,27612,2,0,P|209:84|213:129,1,96,10|0,0:0|0:0,0:0:0:0:
97,302,27920,2,0,P|101:254|107:206,1,96,2|0,1:2|3:0,0:0:0:0:
326,133,28228,1,10,0:0:0:0:
226,272,28381,5,6,3:2:0:0:
226,272,28458,1,2,0:2:0:0:
226,272,28535,1,2,0:2:0:0:
447,328,28689,1,2,3:2:0:0:
353,188,28843,1,10,0:0:0:0:
257,366,28997,1,2,0:0:0:0:
213,145,29151,5,0,1:0:0:0:
468,182,29304,1,0,3:0:0:0:
481,171,29381,1,0,3:0:0:0:
489,155,29458,1,8,0:0:0:0:
490,116,29535,1,8,0:0:0:0:
475,80,29612,1,8,3:2:0:0:
446,54,29689,1,8,0:0:0:0:
405,42,29766,6,0,B|299:22|329:84|220:56,1,172.799994726563,6|8,1:2|0:0,0:0:0:0:
106,0,30228,2,0,P|119:71|123:102,1,86.3999973632813,2|0,0:0|1:0,0:0:0:0:
62,216,30535,2,0,P|113:201|148:196,1,86.3999973632813,2|8,0:0|0:0,0:0:0:0:
285,356,30843,6,0,P|212:367|143:296,1,172.799994726563,2|0,1:2|3:0,0:0:0:0:
342,271,31304,2,0,P|403:284|433:294,1,86.3999973632813,8|0,0:2|0:0,0:0:0:0:
216,185,31612,2,0,P|222:235|237:282,1,86.3999973632813,0|2,3:0|0:0,0:0:0:0:
347,170,31920,1,8,0:0:0:0:
252,67,32074,6,0,B|181:43|125:91|125:91|80:64,1,172.799994726563,2|0,1:2|3:0,0:0:0:0:
216,174,32535,2,0,P|266:188|314:191,1,86.3999973632813,10|0,0:0|0:0,0:0:0:0:
90,218,32843,2,0,P|32:234|-18:252,1,86.3999973632813,2|0,1:3|0:0,0:0:0:0:
21,136,33151,1,8,0:0:0:0:
74,319,33304,6,0,P|166:348|226:303,1,172.799994726563,2|0,1:3|3:0,0:0:0:0:
404,190,33766,2,0,P|412:243|417:288,1,86.3999973632813,10|0,0:0|0:0,0:0:0:0:
381,368,34074,1,2,3:0:0:0:
319,255,34228,2,0,P|313:212|307:169,1,86.3999973632813,2|8,1:2|0:0,0:0:0:0:
441,55,34535,5,2,0:0:0:0:
441,55,34612,1,2,0:0:0:0:
441,55,34689,2,0,B|406:84|406:84|273:61,1,172.799994726563,2|8,1:2|0:0,0:0:0:0:
130,1,35151,2,0,P|94:73|151:147,1,172.799994726563,2|0,1:2|3:0,0:0:0:0:
261,249,35612,2,0,P|278:184|294:145,1,86.3999973632813,10|0,0:0|1:0,0:0:0:0:
165,324,35920,5,2,0:3:0:0:
341,315,36074,2,0,P|288:291|261:269,1,86.3999973632813,0|8,3:0|0:0,0:0:0:0:
171,179,36381,1,2,0:3:0:0:
51,336,36536,2,0,P|86:310|125:294,1,86.3999973632813,2|0,1:2|0:0,0:0:0:0:
198,100,36843,2,0,P|212:147|154:197,1,129.599996044922,10|0,0:0|0:0,0:0:0:0:
158,196,37151,5,2,1:2:0:0:
79,149,37304,1,0,0:0:0:0:
64,242,37458,1,10,0:2:0:0:
21,60,37612,2,0,P|125:45|202:27,1,172.799994726563,2|0,1:2|3:0,0:0:0:0:
325,124,38074,2,0,P|262:134|216:147,1,86.3999973632813,8|0,0:0|0:0,0:0:0:0:
409,44,38381,5,0,0:0:0:0:
294,236,38535,1,0,1:2:0:0:
482,133,38689,1,10,0:2:0:0:
302,101,38843,1,0,3:0:0:0:
450,341,38997,5,10,0:0:0:0:
443,323,39150,1,8,3:0:0:0:
436,305,39304,1,8,0:3:0:0:
429,287,39458,1,8,0:3:0:0:
305,341,39612,6,0,B|245:328|245:328|200:340|200:340|127:325,1,172.799994726563,6|8,1:2|0:0,0:0:0:0:
0,245,40074,2,0,P|58:233|90:224,1,86.3999973632813,2|0,0:0|3:0,0:0:0:0:
269,139,40381,2,0,P|227:128|184:119,1,86.3999973632813,2|8,0:0|0:0,0:0:0:0:
32,0,40689,6,0,P|-13:48|41:135,1,172.799994726563,2|0,1:2|3:0,0:0:0:0:
182,224,41151,2,0,P|230:153|157:84,1,172.799994726563,8|2,0:0|0:3,0:0:0:0:
79,254,41612,2,0,B|78:297|78:297|99:344,1,86.3999973632813,2|10,0:0|0:0,0:0:0:0:
301,215,41920,6,0,P|230:198|130:153,1,172.799994726563,6|0,1:2|3:0,0:0:0:0:
212,290,42381,1,10,0:0:0:0:
275,119,42535,2,0,P|346:136|446:181,1,172.799994726563,2|0,0:0|0:0,0:0:0:0:
481,304,42997,1,8,0:0:0:0:
512,132,43151,6,0,P|526:200|439:261,1,172.799994726563,2|0,1:3|0:0,0:0:0:0:
346,353,43612,2,0,B|394:356|394:356|446:379,1,86.3999973632813,10|0,0:0|0:0,0:0:0:0:
279,259,43920,1,4,1:3:0:0:
233,358,44074,1,0,3:0:0:0:
164,282,44228,1,8,0:0:0:0:
336,357,44381,5,2,0:0:0:0:
336,357,44458,1,2,0:0:0:0:
336,357,44535,2,0,B|358:298|358:298|335:166,1,172.799994726563,6|8,1:2|0:0,0:0:0:0:
339,189,45151,1,0,1:0:0:0:
339,189,45304,1,0,3:0:0:0:
227,278,45458,2,0,P|170:292|121:304,1,86.3999973632813,8|2,0:0|0:0,0:0:0:0:
147,147,45766,5,6,1:2:0:0:
44,248,45920,2,0,P|31:295|21:342,1,86.3999973632813,2|8,3:2|0:0,0:0:0:0:
7,99,46228,2,0,P|53:154|120:117,1,129.599996044922,2|0,1:2|0:0,0:0:0:0:
102,141,46535,2,0,B|148:125|148:125|198:124,1,86.3999973632813,10|0,0:0|0:0,0:0:0:0:
298,12,46843,6,0,B|321:58|321:58|301:193,1,172.799994726563,6|2,1:2|3:2,0:0:0:0:
158,281,47304,1,10,0:0:0:0:
367,353,47458,1,8,0:3:0:0:
267,187,47612,1,0,3:0:0:0:
388,377,47766,1,2,1:2:0:0:
508,223,47920,5,8,0:0:0:0:
335,274,48074,1,0,0:0:0:0:
397,86,48228,1,2,1:2:0:0:
508,182,48381,1,0,3:0:0:0:
268,139,48535,5,10,0:2:0:0:
268,139,48689,1,0,0:0:0:0:
390,76,48843,5,10,0:0:0:0:
323,286,48997,1,8,0:3:0:0:
138,139,49151,5,10,0:0:0:0:
197,354,49304,1,2,3:2:0:0:
37,212,49458,6,0,P|11:150|84:52,1,172.799994726563,6|8,1:2|0:0,0:0:0:0:
186,0,49920,2,0,P|193:52|197:95,1,86.3999973632813,2|0,0:0|3:0,0:0:0:0:
150,228,50228,1,0,3:0:0:0:
298,99,50381,5,10,0:0:0:0:
114,129,50535,2,0,P|222:155|289:191,1,172.799994726563,2|0,1:2|3:0,0:0:0:0:
422,281,50997,2,0,P|471:256|417:145,1,172.799994726563,8|0,0:0|1:0,0:0:0:0:
357,123,51458,1,0,3:0:0:0:
303,290,51612,2,0,P|310:336|327:378,1,86.3999973632813,8|2,0:0|3:2,0:0:0:0:
324,372,51843,1,2,3:2:0:0:
324,372,51920,6,0,P|276:357|136:323,1,172.799994726563,2|10,1:2|0:0,0:0:0:0:
3,251,52381,2,0,P|55:237|99:233,1,86.3999973632813,2|0,0:0|1:0,0:0:0:0:
238,147,52689,2,0,P|220:204|209:235,1,86.3999973632813,2|8,3:2|0:0,0:0:0:0:
8,104,52997,6,0,P|38:161|134:137,1,172.799994726563,2|0,1:2|3:0,0:0:0:0:
210,9,53458,1,10,0:0:0:0:
320,149,53612,5,2,1:2:0:0:
330,165,53766,1,0,0:0:0:0:
342,182,53920,1,0,3:0:0:0:
370,84,54074,5,8,0:0:0:0:
319,287,54228,1,0,3:0:0:0:
426,158,54381,6,0,P|485:154|511:250,1,172.799994726563,4|8,1:2|0:0,0:0:0:0:
316,227,54843,1,0,0:0:0:0:
380,349,54997,1,2,1:2:0:0:
226,300,55151,1,0,0:0:0:0:
421,264,55304,1,10,0:0:0:0:
308,135,55458,6,0,P|243:127|172:158,1,129.599996044922,2|0,1:2|0:0,0:0:0:0:
184,148,55766,2,0,P|134:133|99:109,1,86.3999973632813,2|8,3:2|0:0,0:0:0:0:
5,244,56074,2,0,B|49:222|49:222|181:253,1,172.799994726563,2|0,1:2|3:0,0:0:0:0:
310,358,56535,1,10,0:0:0:0:
271,165,56689,1,0,3:0:0:0:
427,275,56843,6,0,P|388:324|276:310,1,172.799994726563,2|10,1:2|0:0,0:0:0:0:
160,225,57304,2,0,P|221:207|273:186,1,86.3999973632813,2|0,0:0|1:0,0:0:0:0:
334,68,57612,2,0,P|278:84|239:99,1,86.3999973632813,2|8,3:2|0:0,0:0:0:0:
454,178,57920,6,0,B|480:129|480:129|445:2,1,172.799994726563,2|0,1:2|0:0,0:0:0:0:
349,158,58381,2,0,P|294:154|241:145,1,86.3999973632813,8|0,0:0|0:0,0:0:0:0:
120,57,58689,2,0,P|178:16|288:57,1,172.799994726563,0|8,1:0|0:0,0:0:0:0:
373,290,59304,6,2,P|390:155|397:105,2,172.799994726563,6|8|2,1:2|0:0|1:0,0:1:0:0:
492,201,60074,2,0,B|502:157|502:157|496:92,1,86.3999973632813,0|10,3:0|0:0,0:0:0:0:
283,215,60381,6,2,P|216:235|143:160,1,172.799994726563,6|0,1:2|3:0,0:1:0:0:
137,69,60843,1,10,0:0:0:0:
293,124,60997,2,0,P|353:115|401:103,1,86.3999973632813,2|0,1:0|3:0,0:0:0:0:
326,297,61304,1,2,3:2:0:0:
232,247,61458,2,0,P|189:238|146:232,1,86.3999973632813,8|0,0:0|3:0,0:0:0:0:
325,380,61766,6,0,B|353:344|353:344|343:201,2,172.799994726563,2|8|2,1:0|0:0|1:0,0:0:0:0:
242,174,62535,1,0,3:0:0:0:
158,340,62689,1,2,3:2:0:0:
21,248,62843,6,2,B|63:236|63:236|121:242,1,86.3999973632813,6|0,1:2|0:0,0:1:0:0:
295,142,63152,2,2,B|252:146|252:146|210:134,1,86.3999973632813,2|8,3:2|0:0,0:1:0:0:
45,85,63458,2,0,P|92:121|116:147,1,86.3999973632813,2|0,0:1|3:0,0:0:0:0:
272,293,63766,2,0,P|225:257|201:231,1,86.3999973632813,2|10,3:1|0:0,0:0:0:0:
194,82,64074,1,0,3:0:0:0:
341,186,64228,5,10,1:1:0:0:
377,66,64381,1,8,3:0:0:0:
236,193,64535,1,12,0:0:0:0:
432,166,64689,1,0,0:0:0:0:
462,340,64843,5,10,0:1:0:0:
316,270,64997,1,10,3:0:0:0:
434,189,65151,1,2,1:0:0:0:
361,361,65304,2,2,P|294:376|225:315,1,129.599996044922,6|0,1:1|0:0,0:1:0:0:
219,309,65612,6,0,P|166:320|121:332,1,86.3999973632813,2|8,3:2|0:0,0:0:0:0:
298,226,65921,2,2,P|339:236|382:245,1,86.3999973632813,2|0,1:0|0:0,0:1:0:0:
178,106,66228,2,0,P|186:148|197:190,1,86.3999973632813,2|8,3:2|0:0,0:0:0:0:
415,87,66535,6,2,P|309:89|281:27,1,172.799994726563,6|2,1:0|0:2,0:1:0:0:
66,205,66998,2,0,P|172:207|200:145,1,172.799994726563,10|0,0:0|1:0,0:0:0:0:
343,233,67458,1,2,3:1:0:0:
272,74,67612,1,10,0:0:0:0:
201,245,67766,2,2,P|215:308|228:339,1,86.3999973632813,6|0,1:2|0:0,0:1:0:0:
423,283,68074,5,0,3:0:0:0:
423,283,68151,1,0,0:0:0:0:
423,283,68228,1,8,0:0:0:0:
297,222,68381,1,0,3:0:0:0:
471,127,68535,1,8,3:0:0:0:
271,185,68689,1,0,1:0:0:0:
372,36,68843,5,8,0:0:0:0:
437,322,68997,1,12,1:1:0:0:
437,322,70381,6,2,B|418:349|388:365|388:365|332:328|237:328,1,192,14|8,1:1|0:0,0:1:0:0:
34,203,70843,2,0,P|30:276|110:295,1,144,2|0,3:1|0:0,0:0:0:0:
86,302,71151,2,0,P|152:278|205:265,1,96,2|8,3:1|0:0,0:0:0:0:
141,74,71458,6,2,P|129:142|114:195,1,96,2|0,1:2|0:0,0:1:0:0:
265,321,71766,2,0,P|276:252|291:199,1,96,2|8,3:1|0:0,0:0:0:0:
450,96,72074,2,0,P|400:129|315:100,1,144,2|0,3:1|0:0,0:0:0:0:
323,108,72381,2,0,B|284:87|284:87|223:77,1,96,10|8,3:3|0:0,0:0:0:0:
50,189,72689,6,2,B|122:179|122:179|167:199|167:199|257:182,1,192,6|0,1:1|3:0,0:1:0:0:
203,93,73151,1,8,0:0:0:0:
193,300,73304,2,0,B|140:294|140:294|92:270,1,96,2|0,0:1|1:0,0:0:0:0:
279,373,73612,2,0,P|297:299|309:269,1,96,2|8,3:1|0:0,0:0:0:0:
483,157,73920,6,2,P|497:257|495:318,1,144,2|0,1:2|0:0,0:1:0:0:
496,299,74228,2,2,L|394:272,1,96,2|8,3:2|0:0,0:1:0:0:
220,192,74535,1,2,3:1:0:0:
413,130,74689,1,0,0:0:0:0:
272,50,74843,1,10,3:0:0:0:
329,260,74997,1,10,3:0:0:0:
138,218,75151,6,2,P|117:132|186:59,1,192,6|0,1:2|3:0,0:1:0:0:
314,226,75612,1,8,0:0:0:0:
377,114,75766,1,2,3:2:0:0:
377,114,75843,1,2,3:2:0:0:
377,114,75920,1,2,1:1:0:0:
218,171,76074,1,2,3:2:0:0:
430,247,76228,1,10,0:0:0:0:
291,318,76381,6,2,B|180:310|219:373|97:357,1,192,6|2,1:2|3:1,0:1:0:0:
192,233,76843,1,8,0:0:0:0:
372,373,76997,2,0,B|392:328|392:328|392:270,1,96,2|0,0:1|3:0,0:0:0:0:
249,130,77304,2,0,B|240:181|240:181|253:229,1,96,2|8,3:2|0:0,0:0:0:0:
512,242,77612,6,2,P|451:257|378:144,1,192,6|0,1:2|3:0,0:1:0:0:
259,24,78073,1,10,0:0:0:0:
204,197,78228,2,0,P|134:207|100:217,1,96,2|0,3:1|1:0,0:0:0:0:
350,85,78535,2,0,P|413:83|468:65,1,96,2|8,3:1|0:0,0:0:0:0:
274,284,78843,6,2,P|261:338|259:385,1,96,6|0,1:2|0:0,0:1:0:0:
243,102,79151,2,2,P|256:48|258:1,1,96,6|10,1:2|0:0,0:1:0:0:
258,7,79381,1,8,0:0:0:0:
258,7,79458,1,6,1:2:0:0:
147,162,79612,5,0,3:0:0:0:
391,206,79766,1,6,3:1:0:0:
237,261,79920,1,8,0:0:0:0:
295,112,80074,1,8,3:3:0:0:
164,340,80228,6,2,B|213:366|213:366|378:338,1,192,14|8,1:1|0:0,0:1:0:0:
489,241,80689,2,0,P|432:227|381:225,1,96,2|0,3:1|1:0,0:0:0:0:
154,159,80997,2,0,P|202:155|249:143,1,96,2|8,3:1|0:0,0:0:0:0:
502,64,81304,6,2,P|409:75|357:-15,1,192,2|2,1:2|3:1,0:1:0:0:
450,6,81766,1,8,0:0:0:0:
248,198,81920,2,0,P|344:176|411:162,1,144,2|0,3:1|0:0,0:0:0:0:
388,166,82228,2,0,P|379:241|362:289,1,96,10|8,3:3|0:0,0:0:0:0:
161,301,82535,6,2,B|125:256|125:256|147:104,1,192,6|0,1:1|3:0,0:1:0:0:
242,243,82997,1,8,0:0:0:0:
46,192,83151,2,0,P|34:260|33:300,1,96,2|0,0:1|0:0,0:0:0:0:
163,95,83458,2,0,P|221:86|286:61,1,96,2|8,3:1|0:0,0:0:0:0:
151,242,83765,6,2,P|223:282|299:248,1,144,2|0,1:2|0:0,0:1:0:0:
278,266,84074,2,2,P|329:280|387:305,1,96,2|8,3:2|0:0,0:1:0:0:
486,136,84381,1,2,3:1:0:0:
303,180,84535,1,0,0:0:0:0:
382,47,84689,1,10,3:0:0:0:
481,259,84843,1,10,3:0:0:0:
292,342,84997,6,2,B|230:349|177:386|177:386|139:362|100:360,1,192,6|0,1:2|3:0,0:1:0:0:
15,258,85458,2,0,P|86:245|149:239,1,96,8|2,0:0|3:2,0:0:0:0:
109,242,85689,1,2,3:2:0:0:
109,242,85766,1,2,1:1:0:0:
280,246,85920,1,2,3:2:0:0:
102,126,86074,1,10,0:0:0:0:
323,82,86228,6,2,P|382:68|436:49,1,96,6|0,1:2|0:0,0:1:0:0:
195,152,86536,2,0,P|136:138|82:119,1,96,2|8,3:1|0:0,0:0:0:0:
381,233,86843,2,0,P|405:297|417:334,1,96,2|0,0:1|3:0,0:0:0:0:
203,294,87151,2,0,P|179:358|167:395,1,96,2|8,3:2|0:0,0:0:0:0:
306,146,87458,6,2,P|376:202|454:157,1,192,6|0,1:2|3:0,0:1:0:0:
238,11,87920,1,10,0:0:0:0:
197,236,88074,2,0,P|151:270|57:234,1,144,2|0,3:1|0:0,0:0:0:0:
71,251,88381,2,0,P|60:187|58:144,1,96,2|8,3:1|0:0,0:0:0:0:
283,275,88690,6,0,P|278:322|270:369,1,96,2|0,1:2|0:0,0:0:0:0:
164,198,88997,2,2,P|225:188|278:171,1,96,2|10,1:2|0:0,0:1:0:0:
337,38,89304,2,2,P|276:48|223:65,1,96,2|0,1:2|0:0,0:1:0:0:
128,212,89612,1,0,3:1:0:0:
313,316,89766,1,8,0:0:0:0:
313,316,89843,1,8,3:0:0:0:
313,316,89920,1,0,3:0:0:0:
313,316,89997,1,0,1:0:0:0:
313,316,90074,6,0,B|364:334|364:334|511:307,1,192,6|8,1:0|0:0,0:0:0:0:
286,202,90535,2,0,P|227:221|194:239,1,96,2|0,3:1|1:0,0:0:0:0:
405,204,90843,2,0,P|417:144|428:107,1,96,2|8,3:2|0:0,0:0:0:0:
272,0,91151,6,2,P|223:51|279:164,1,192,2|2,1:2|3:2,0:1:0:0:
500,228,91612,1,8,0:0:0:0:
343,337,91766,1,2,3:1:0:0:
368,134,91920,1,0,1:0:0:0:
263,227,92074,1,2,1:2:0:0:
479,338,92228,1,8,0:0:0:0:
231,222,92381,6,0,B|170:210|170:210|107:228|107:228|42:210,1,192,2|2,1:1|3:2,0:0:0:0:
182,318,92843,2,0,P|236:335|275:350,1,96,12|0,0:0|0:0,0:0:0:0:
100,119,93151,2,0,P|86:59|88:5,1,96,2|0,1:2|3:0,0:0:0:0:
12,227,93458,1,8,0:0:0:0:
186,68,93611,6,0,P|240:51|355:143,1,192,2|0,3:2|3:0,0:0:0:0:
464,256,94074,2,0,B|415:260|415:260|357:246,1,96,10|0,0:0|0:0,0:0:0:0:
208,163,94381,1,2,3:2:0:0:
284,357,94535,1,2,1:2:0:0:
416,170,94689,2,0,L|364:182,1,48,10|0,0:0|0:0,0:0:0:0:
238,282,94843,2,0,L|191:292,1,48,10|0,3:3|0:0,0:0:0:0:
404,311,94997,6,2,P|319:275|217:255,1,192,6|8,1:2|0:0,0:1:0:0:
73,357,95458,2,0,P|29:305|55:233,1,144,2|0,3:1|0:0,0:0:0:0:
49,237,95766,2,0,P|67:187|68:134,1,96,2|10,3:2|0:0,0:0:0:0:
242,0,96074,6,2,B|211:45|211:45|241:200,1,192,6|2,1:2|3:2,0:1:0:0:
112,50,96535,1,8,0:0:0:0:
318,83,96689,2,0,B|366:86|366:86|423:68,1,96,2|0,3:1|1:0,0:0:0:0:
145,198,96997,2,2,B|97:195|97:195|40:213,1,96,2|8,1:2|0:0,0:1:0:0:
262,382,97304,6,2,P|307:296|283:196,1,192,6|10,1:2|0:1,0:1:0:0:
191,87,97766,2,0,P|176:151|160:198,1,96,0|0,1:0|0:0,0:0:0:0:
72,353,98074,5,0,3:0:0:0:
261,274,98228,1,8,0:0:0:0:
83,189,98381,1,0,3:0:0:0:
334,191,98535,1,0,1:0:0:0:
232,84,98689,5,0,3:0:0:0:
288,354,98843,1,8,0:2:0:0:
413,225,98997,1,0,3:0:0:0:
158,185,99151,2,0,L|169:241,1,48,8|0,1:3|0:0,0:0:0:0:
187,335,99304,5,8,1:3:0:0:
192,350,99458,1,8,3:3:0:0:
196,365,99612,1,8,1:3:0:0:
200,378,99766,1,0,0:0:0:0:
334,265,99920,6,0,P|388:272|437:288,1,96,4|0,1:2|0:0,0:0:0:0:
200,378,100228,2,0,P|124:329|143:241,1,192,10|2,0:0|1:2,0:0:0:0:
286,111,100689,2,0,P|272:156|263:204,1,96,0|10,3:0|0:0,0:0:0:0:
68,122,100997,6,0,L|161:99,1,96,2|0,1:2|0:0,0:0:0:0:
355,187,101304,1,0,3:0:0:0:
265,299,101458,2,0,B|240:255|240:255|248:207,1,96,10|0,0:0|0:0,0:0:0:0:
402,84,101766,2,0,P|471:90|497:205,1,192,2|10,1:2|0:0,0:0:0:0:
391,328,102228,6,0,B|374:341|365:368|365:368|276:391|241:300,1,192,6|2,1:2|3:0,0:0:0:0:
81,270,102689,2,0,P|127:257|184:239,1,96,10|0,0:0|0:0,0:0:0:0:
355,187,102997,2,0,P|309:174|252:156,1,96,2|0,1:2|3:0,0:0:0:0:
124,84,103304,1,10,0:0:0:0:
268,13,103458,5,2,3:2:0:0:
268,13,103535,1,2,0:2:0:0:
268,13,103612,1,2,0:2:0:0:
119,187,103766,1,2,3:2:0:0:
315,123,103920,1,10,0:0:0:0:
108,51,104074,1,2,0:0:0:0:
146,278,104228,5,0,1:0:0:0:
222,125,104381,1,2,3:2:0:0:
36,211,104535,1,10,0:0:0:0:
225,341,104689,5,2,3:2:0:0:
225,341,104766,1,0,0:0:0:0:
225,341,104843,2,0,P|227:294|237:241,1,96,4|0,1:2|0:0,0:0:0:0:
68,351,105151,2,0,B|102:389|102:389|245:358,1,192,10|2,0:0|1:2,0:0:0:0:
422,249,105612,1,0,3:0:0:0:
364,384,105766,1,8,0:0:0:0:
252,231,105920,6,0,P|266:134|352:132,1,192,2|0,1:2|3:0,0:0:0:0:
511,73,106381,2,0,P|462:65|414:48,1,96,10|0,0:0|0:0,0:0:0:0:
238,104,106689,1,2,1:2:0:0:
348,180,106843,1,0,3:0:0:0:
316,18,106997,1,10,0:0:0:0:
162,41,107151,6,0,B|137:85|137:85|148:147,1,96,6|0,1:2|0:0,0:0:0:0:
29,269,107458,1,0,3:0:0:0:
0,170,107612,2,0,P|44:188|90:202,1,96,10|0,0:0|0:0,0:0:0:0:
236,319,107920,2,0,B|215:363|215:363|168:299|226:218,1,192,2|8,1:2|0:0,0:0:0:0:
300,95,108381,5,2,1:2:0:0:
300,95,108458,1,2,0:2:0:0:
300,95,108535,1,2,0:2:0:0:
352,271,108689,1,2,3:2:0:0:
196,216,108843,1,10,0:0:0:0:
420,152,108997,2,0,L|517:177,1,96,6|0,1:2|0:0,0:0:0:0:
446,305,109304,1,2,3:2:0:0:
449,315,109381,1,0,0:0:0:0:
452,324,109458,1,10,0:0:0:0:
454,332,109535,1,8,0:0:0:0:
457,341,109612,1,10,3:2:0:0:
460,349,109689,1,0,0:0:0:0:
463,358,109766,6,0,B|486:313|486:313|465:265,1,96,0|0,1:0|0:0,0:0:0:0:
326,343,110074,2,0,B|290:381|290:381|127:340,1,192,10|2,0:0|1:2,0:0:0:0:
16,274,110535,2,0,P|48:250|117:250,1,96,0|10,3:0|0:0,0:0:0:0:
256,156,110843,6,0,P|269:50|193:10,1,192,6|0,1:2|3:0,0:0:0:0:
119,143,111304,2,0,B|100:191|100:191|118:238,1,96,10|0,0:0|0:0,0:0:0:0:
243,310,111612,1,2,1:2:0:0:
310,259,111766,2,0,B|329:212|329:212|311:164,1,96,0|10,3:0|0:0,0:0:0:0:
143,350,112074,6,0,B|198:323|238:359|238:359|273:390|332:372,1,192,6|2,1:2|3:0,0:0:0:0:
439,232,112535,1,10,0:0:0:0:
310,259,112689,1,0,0:0:0:0:
463,357,112843,6,0,P|467:294|495:161,1,192,6|10,1:2|0:0,0:0:0:0:
430,36,113304,5,2,3:2:0:0:
424,47,113381,1,2,3:2:0:0:
421,55,113458,2,8,P|427:89|431:116,1,48,10|8,0:0|0:3,0:0:0:0:
355,166,113612,5,2,1:2:0:0:
345,158,113689,1,0,3:0:0:0:
339,151,113766,2,0,P|331:117|325:90,1,48,10|8,0:0|0:3,0:0:0:0:
253,28,113920,5,2,1:2:0:0:
232,60,113996,1,0,3:0:0:0:
203,84,114073,1,8,0:0:0:0:
167,98,114150,1,8,0:3:0:0:
129,100,114227,1,2,1:2:0:0:
92,89,114304,1,0,3:0:0:0:
64,61,114381,2,0,P|70:36|81:8,1,48,10|8,1:3|0:3,0:0:0:0:
153,199,114535,2,0,P|128:193|100:182,1,48,10|8,1:3|0:3,0:0:0:0:
0,126,114689,6,0,P|16:171|31:228,1,96,0|0,1:0|0:0,0:0:0:0:
128,381,114997,6,0,B|126:332|126:332|150:282,1,96,14|0,0:0|0:0,0:0:0:0:
276,200,115304,1,2,1:2:0:0:
321,373,115458,1,0,3:0:0:0:
228,318,115612,1,10,0:0:0:0:
434,263,115766,6,0,P|448:185|358:128,1,192,6|0,1:2|3:0,0:0:0:0:
194,87,116228,2,0,P|260:68|296:56,1,96,10|0,0:0|0:0,0:0:0:0:
181,183,116535,1,2,1:2:0:0:
98,135,116689,1,0,3:0:0:0:
113,42,116843,1,10,0:0:0:0:
284,151,116997,6,0,B|311:195|311:195|274:333,1,192,6|2,1:2|3:0,0:0:0:0:
413,384,117458,2,0,P|407:336|397:266,1,96,10|0,0:0|0:0,0:0:0:0:
512,199,117766,2,0,P|463:190|419:173,1,96,6|0,1:2|0:0,0:0:0:0:
315,75,118074,1,10,0:0:0:0:
445,35,118228,5,2,3:2:0:0:
445,35,118304,1,2,0:2:0:0:
445,35,118381,1,2,0:2:0:0:
302,195,118535,1,0,3:2:0:0:
487,114,118689,1,8,0:2:0:0:
287,11,118843,2,0,P|296:57|308:107,1,96,2|0,0:0|1:0,0:0:0:0:
156,247,119151,5,2,3:2:0:0:
172,169,119304,1,2,3:2:0:0:
184,95,119458,1,2,3:2:0:0:
37,60,119612,6,0,P|51:123|65:206,1,144.000005493164,6|0,1:2|0:0,0:0:0:0:
144,318,120074,2,0,P|150:273|161:233,1,72.0000027465821,2|0,3:2|0:0,0:0:0:0:
369,123,120381,2,0,P|373:158|381:193,1,72.0000027465821,2|2,3:2|0:3,0:0:0:0:
245,321,120689,2,0,B|241:236|293:273|282:180,1,144.000005493164,2|0,0:2|0:0,0:0:0:0:
465,10,121151,2,0,P|491:58|463:151,1,144.000005493164,2|0,0:3|0:0,0:0:0:0:
471,141,121612,2,0,P|480:180|493:226,1,72.0000027465821,0|4,0:0|0:3,0:0:0:0:
380,81,121920,1,0,0:0:0:0:
380,81,122074,6,0,P|337:85|296:87,1,72.0000027465821,2|0,1:2|0:0,0:0:0:0:
240,160,122381,1,0,0:0:0:0:
240,160,122535,2,0,P|173:154|74:147,1,144.000005493164,2|0,1:2|0:0,0:0:0:0:
29,230,122997,2,0,B|53:311|53:311|30:329|12:372,2,144.000005493164,2|2|2,0:1|0:3|0:1,0:0:0:0:
29,230,123920,1,2,3:0:0:0:
137,284,124074,2,0,L|224:276,1,72.0000027465821,0|2,1:0|0:1,0:0:0:0:
431,317,124381,1,2,0:2:0:0:
431,317,124458,1,2,0:2:0:0:
431,317,124535,6,0,P|447:263|434:163,1,144.000005493164,2|2,1:2|0:3,0:0:0:0:
214,41,124997,2,0,P|198:95|211:195,1,144.000005493164,2|0,1:2|0:0,0:0:0:0:
298,312,125458,1,2,3:2:0:0:
219,370,125612,2,0,P|182:377|138:387,1,72.0000027465821,0|0,1:0|0:0,0:0:0:0:
357,235,125920,2,0,P|320:228|276:218,1,72.0000027465821,0|2,0:0|0:1,0:0:0:0:
57,75,126381,2,0,B|85:139|85:139|73:161|67:221,1,144.000005493164,2|4,0:0|0:3,0:0:0:0:
389,62,126997,5,2,1:2:0:0:
325,121,127151,1,0,0:0:0:0:
422,197,127304,1,2,0:1:0:0:
357,376,127458,2,0,B|328:313|328:313|333:283|345:225,1,144.000005493164,2|0,1:2|0:0,0:0:0:0:
496,140,127920,2,0,P|510:189|514:223,1,72.0000027465821,2|0,0:3|0:0,0:0:0:0:
430,291,128381,5,2,0:0:0:0:
248,221,128535,1,2,0:1:0:0:
430,291,128689,1,2,0:0:0:0:
263,305,128843,5,2,0:0:0:0:
338,240,128997,1,2,0:1:0:0:
263,305,129151,1,2,0:3:0:0:
338,240,129304,1,2,0:3:0:0:
167,270,129458,6,0,P|153:199|161:128,1,144.000005493164,2|2,1:2|0:3,0:0:0:0:
77,309,129920,2,0,P|72:273|67:237,1,72.0000027465821,2|0,1:0|0:0,0:0:0:0:
256,142,130228,2,0,P|250:177|246:213,1,72.0000027465821,0|2,3:0|0:1,0:0:0:0:
31,84,130535,2,0,P|107:127|183:125,1,144.000005493164,6|0,0:3|0:0,0:0:0:0:
374,33,130997,2,0,P|313:71|242:78,1,144.000005493164,2|0,0:1|0:0,0:0:0:0:
242,78,131458,2,0,P|237:37|245:-3,1,72.0000027465821
418,129,131766,1,0,0:0:0:0:
418,129,131920,6,0,L|427:212,1,72.0000027465821,2|0,1:2|0:0,0:0:0:0:
501,258,132228,1,0,0:0:0:0:
321,384,132381,2,0,L|339:229,1,144.000005493164,2|0,1:2|0:0,0:0:0:0:
158,195,132843,2,0,B|70:208|70:208|56:241|30:259,2,144.000005493164,2|2|2,0:1|0:3|0:1,0:0:0:0:
158,195,133766,1,2,3:0:0:0:
218,341,133920,1,0,1:0:0:0:
256,192,134074,1,2,0:1:0:0:
294,43,134228,1,0,0:0:0:0:
294,43,134304,1,0,0:0:0:0:
294,43,134381,6,0,B|151:14|151:14|176:39|191:71,1,192,6|0,1:2|0:0,0:0:0:0:
338,130,134843,1,2,3:2:0:0:
423,82,134997,2,0,P|422:44|415:3,1,72.0000027465821,0|2,0:0|0:0,0:0:0:0:
445,291,135304,2,0,P|446:253|453:212,1,72.0000027465821,2|0,0:1|0:0,0:0:0:0:
512,345,135612,1,0,1:0:0:0:
353,236,135766,1,0,3:0:0:0:
501,137,135920,1,8,0:0:0:0:
349,242,136074,1,10,0:2:0:0:
345,248,136151,1,8,0:2:0:0:
341,254,136228,2,0,L|293:257,1,48,8|8,1:2|3:2,0:0:0:0:
95,347,136381,1,10,1:2:0:0:
91,340,136458,1,8,3:2:0:0:
88,334,136535,2,0,L|109:290,1,48,8|8,1:2|3:2,0:0:0:0:
122,88,136689,1,10,1:2:0:0:
130,88,136766,1,8,3:2:0:0:
136,88,136843,6,0,B|169:147|169:147|150:192,1,96,12|0,1:0|0:0,0:0:0:0:
44,303,137151,2,0,B|41:232|41:232|36:222|36:222|60:162,1,144,8|0,0:2|0:0,0:0:0:0:
58,164,137458,1,0,1:2:0:0:
28,76,137612,1,2,1:2:0:0:
228,78,137766,2,0,B|269:69|269:69|278:73|278:73|335:61,1,96,2|0,0:1|3:2,0:0:0:0:
411,43,138074,1,2,1:2:0:0:
361,269,138228,2,0,B|319:260|319:260|311:264|311:264|254:252,2,96,2|8|2,0:1|0:2|1:2,0:0:0:0:
473,128,138689,2,0,B|464:169|464:169|468:178|468:178|456:235,1,96,2|0,0:1|3:0,0:0:0:0:
497,321,138997,1,8,0:0:0:0:
234,344,139151,5,2,3:1:0:0:
234,344,139304,2,2,B|277:298|276:243|237:204|237:204|187:226,2,192,2|8|0,1:3|0:0|1:0,0:1:0:0:
36,319,140074,2,0,L|131:306,1,96,0|8,3:0|0:0,0:0:0:0:
79,134,140381,1,2,0:0:0:0:
79,134,140458,1,2,0:0:0:0:
79,134,140535,2,2,B|73:192|59:224|59:224|88:227|147:201,1,144,2|0,1:2|0:0,0:1:0:0:
121,205,140843,1,10,0:2:0:0:
196,57,140997,1,2,3:2:0:0:
432,161,141151,2,2,P|383:151|291:123,1,144,2|2,0:1|0:2,0:1:0:0:
293,123,141458,1,8,0:0:0:0:
56,52,141612,1,2,3:2:0:0:
196,57,141766,6,2,B|214:167|214:167|184:199|178:250,1,192,2|8,1:2|0:0,0:1:0:0:
360,306,142228,1,0,0:0:0:0:
360,306,142304,1,0,0:0:0:0:
360,306,142381,2,0,L|376:199,1,96,0|0,1:0|0:0,0:0:0:0:
276,240,142689,1,8,0:0:0:0:
449,269,142843,5,2,0:0:0:0:
457,273,142920,1,0,0:0:0:0:
465,277,142997,2,0,L|473:340,1,48,2|2,1:2|0:2,0:0:0:0:
257,381,143151,2,0,L|263:333,1,48,2|2,3:2|0:2,0:0:0:0:
253,229,143304,1,10,0:2:0:0:
270,184,143381,1,2,0:2:0:0:
287,139,143458,1,2,3:2:0:0:
265,95,143535,1,2,0:2:0:0:
237,50,143612,2,0,L|295:54,1,48,2|2,1:1|0:0,0:0:0:0:
389,175,143766,2,0,L|447:179,1,48,2|0,3:2|0:0,0:0:0:0:
489,90,143920,1,10,0:1:0:0:
450,62,143997,1,2,0:0:0:0:
405,76,144074,1,2,3:2:0:0:
360,90,144151,1,0,0:0:0:0:
318,68,144228,6,2,B|256:50|206:25|206:25|182:57|153:81,1,192,0|8,1:0|0:0,0:1:0:0:
220,366,144689,2,0,P|227:300|160:194,1,192,0|0,0:0|3:0,0:0:0:0:
68,325,145151,1,8,0:0:0:0:
149,208,145304,2,2,B|102:204|102:204|90:210|90:210|11:208,2,96,2|0|2,1:0|0:0|3:0,0:1:0:0:
488,133,145766,2,0,P|477:182|467:238,1,96,14|0,0:0|1:0,0:0:0:0:
356,323,146074,1,2,0:0:0:0:
382,168,146228,1,2,3:1:0:0:
512,308,146381,1,12,0:2:0:0:
276,367,146535,5,0,3:0:0:0:
276,367,146612,1,0,0:0:0:0:
276,367,146689,2,0,B|265:317|265:317|280:269,1,96,2|0,1:0|3:0,0:0:0:0:
251,58,146997,2,0,L|158:81,1,96,10|0,0:1|0:0,0:0:0:0:
24,260,147304,1,2,1:0:0:0:
229,160,147458,1,0,3:0:0:0:
67,42,147612,1,10,0:2:0:0:
165,233,147766,6,2,P|155:308|149:398,1,144,6|0,1:1|0:0,0:1:0:0:
149,376,148074,1,0,3:0:0:0:
24,260,148228,2,0,P|28:212|35:164,1,96,10|0,0:0|0:0,0:0:0:0:
261,249,148535,2,0,P|253:296|249:344,1,96,2|0,1:1|3:0,0:0:0:0:
369,215,148843,2,0,P|361:262|357:310,1,96,8|0,0:0|0:0,0:0:0:0:
159,154,149151,6,2,B|262:164|322:106|322:106|272:95,1,216.000008239746,6|0,1:2|0:0,0:1:0:0:
282,97,149458,1,10,0:1:0:0:
127,241,149612,2,2,L|94:331,1,96,2|2,3:1|1:2,0:1:0:0:
97,89,149920,2,0,L|37:15,1,96,2|10,1:0|0:0,0:0:0:0:
334,194,150228,2,2,B|413:191|492:163|492:163|454:240,1,216.000008239746,6|0,1:1|0:0,0:1:0:0:
467,211,150535,1,0,3:0:0:0:
398,371,150689,2,0,B|385:323|385:323|401:270,1,96,8|0,0:0|3:0,0:0:0:0:
398,278,150920,1,0,3:0:0:0:
398,278,150997,1,0,1:0:0:0:
486,330,151151,1,0,3:0:0:0:
295,318,151304,1,8,0:0:0:0:
486,330,151458,1,0,0:0:0:0:
234,239,151612,5,2,1:2:0:0:
223,253,151688,1,0,0:0:0:0:
215,269,151765,1,2,3:2:0:0:
209,286,151842,1,0,0:0:0:0:
206,304,151919,1,10,0:0:0:0:
205,322,151996,1,0,0:0:0:0:
206,340,152073,1,2,3:0:0:0:
210,358,152150,1,0,0:0:0:0:
214,377,152227,5,2,1:2:0:0:
159,364,152304,1,0,0:0:0:0:
105,351,152381,1,2,3:2:0:0:
111,349,152458,1,0,0:0:0:0:
117,347,152535,2,0,L|131:281,1,48,10|0,0:0|0:0,0:0:0:0:
157,114,152689,5,6,1:2:0:0:
143,105,152765,1,0,0:0:0:0:
130,96,152842,1,0,0:0:0:0:
116,87,152919,1,0,0:0:0:0:
101,89,152996,1,2,3:2:0:0:
85,93,153073,1,0,0:0:0:0:
70,96,153151,2,0,L|19:109,3,48,10|0|2|0,0:0|0:0|3:2|0:0,0:0:0:0:
58,203,153458,5,2,1:2:0:0:
101,183,153535,1,0,0:0:0:0:
146,199,153612,1,2,3:2:0:0:
191,215,153689,1,0,0:0:0:0:
235,196,153766,1,10,0:0:0:0:
233,205,153843,1,0,0:0:0:0:
231,214,153920,1,0,3:0:0:0:
229,223,153997,1,0,3:0:0:0:
227,232,154074,6,2,B|209:279|209:279|231:338,1,96,12|0,0:2|3:0,0:1:0:0:
307,376,154381,1,0,1:0:0:0:
475,133,154535,2,0,L|456:21,1,96,14|0,0:0|3:0,0:0:0:0:
376,107,154843,1,0,1:0:0:0:
403,353,154997,6,2,B|392:238|334:297|327:183,1,192,14|0,0:1|3:0,0:1:0:0:
486,226,155458,2,0,L|432:216,1,48,2|0,1:2|0:0,0:0:0:0:
273,343,155612,1,10,0:0:0:0:
263,345,155689,1,0,0:0:0:0:
253,347,155766,1,2,0:0:0:0:
243,349,155843,1,0,0:0:0:0:
233,352,155920,1,2,1:2:0:0:
202,315,155997,1,0,0:0:0:0:
218,269,156074,1,2,3:2:0:0:
234,223,156151,1,0,0:0:0:0:
203,186,156227,1,10,0:0:0:0:
219,140,156304,1,2,0:0:0:0:
235,94,156381,1,2,3:2:0:0:
211,52,156458,1,2,0:0:0:0:
226,6,156535,6,0,P|174:14|119:22,1,96,14|0,0:1|3:0,0:0:0:0:
94,116,156843,1,0,1:0:0:0:
338,50,156997,2,0,P|389:58|445:66,1,96,2|0,1:1|3:0,0:0:0:0:
404,177,157304,1,0,1:0:0:0:
150,304,157458,2,0,P|76:316|-9:331,1,144,14|0,0:1|0:0,0:0:0:0:
8,327,157766,1,0,1:0:0:0:
234,346,157920,2,0,B|245:300|245:300|225:251,1,96,8|2,3:0|3:2,0:0:0:0:
131,98,158228,2,0,B|78:125|43:128|43:128|32:183|27:240,1,192,0|0,1:0|3:0,0:0:0:0:
128,242,158689,2,0,L|137:190,3,48,10|0|0|0,0:0|0:0|0:0|0:0,0:0:0:0:
222,152,158997,6,0,P|292:147|388:217,1,192,6|8,1:2|0:0,0:0:0:0:
195,365,159458,2,0,P|188:298|188:252,1,96,2|0,0:0|1:0,0:0:0:0:
222,152,159766,1,0,3:0:0:0:
310,311,159920,1,10,0:0:0:0:
79,334,160074,6,0,P|89:230|102:131,1,192,2|0,1:2|3:0,0:0:0:0:
236,14,160535,1,8,0:0:0:0:
305,175,160689,1,0,0:0:0:0:
132,123,160843,1,0,1:0:0:0:
132,123,160996,1,0,0:0:0:0:
354,7,161151,1,8,0:0:0:0:
386,260,161304,1,2,0:0:0:0:
386,260,161381,1,2,0:0:0:0:
386,260,161458,6,0,B|342:296|342:296|186:273,1,192,2|8,1:2|0:0,0:0:0:0:
7,169,161920,2,0,P|68:155|120:147,1,96,2|0,0:0|3:0,0:0:0:0:
327,45,162228,2,0,P|279:36|233:25,1,96,2|8,3:2|0:0,0:0:0:0:
64,271,162535,6,0,B|75:374,1,96,2|0,1:2|0:0,0:0:0:0:
313,229,162843,1,2,3:2:0:0:
131,152,162997,1,8,0:0:0:0:
204,313,163151,2,0,P|234:163|244:104,1,192,2|0,0:0|3:0,0:0:0:0:
126,4,163612,1,8,0:0:0:0:
3,116,163766,1,0,3:0:0:0:
116,232,163920,6,0,P|186:247|296:159,2,192,6|8|2,1:2|0:0|1:2,0:0:0:0:
243,92,164689,1,0,3:0:0:0:
314,283,164842,1,10,0:0:0:0:
404,173,164997,6,0,P|417:116|426:66,1,96,2|0,1:2|0:0,0:0:0:0:
208,277,165304,2,0,P|216:324|227:370,1,96,2|8,3:2|0:0,0:0:0:0:
462,317,165612,6,0,L|357:302,1,96,2|0,1:2|0:0,0:0:0:0:
157,177,165920,1,2,3:2:0:0:
365,126,166074,1,10,0:0:0:0:
264,272,166228,1,0,0:0:0:0:
173,55,166381,6,0,P|115:17|-29:68,1,192,2|10,1:2|0:0,0:0:0:0:
302,120,166843,2,0,P|369:109|422:93,1,96,2|0,1:2|3:0,0:0:0:0:
152,236,167151,2,0,P|105:224|57:217,1,96,2|8,3:2|0:0,0:0:0:0:
242,383,167458,6,0,B|278:326|278:326|257:179,1,192,2|0,1:2|3:0,0:0:0:0:
135,5,167920,2,0,P|119:93|109:155,1,144,10|0,0:0|0:0,0:0:0:0:
104,176,168228,1,0,1:0:0:0:
176,302,168381,1,0,3:0:0:0:
240,177,168535,1,8,0:0:0:0:
47,318,168689,1,0,0:0:0:0:
317,371,168843,6,2,P|465:380|537:383,2,192,6|8|2,1:2|0:0|1:0,0:1:0:0:
209,123,169612,1,0,3:0:0:0:
364,274,169766,1,10,0:0:0:0:
446,45,169920,6,2,B|481:90|481:90|459:248,1,192,6|0,1:2|3:0,0:1:0:0:
317,371,170381,1,10,0:0:0:0:
232,170,170535,2,0,P|307:155|356:148,1,96,2|0,1:0|3:0,0:0:0:0:
294,262,170843,1,2,3:2:0:0:
131,186,170997,1,8,0:0:0:0:
271,72,171151,1,0,3:0:0:0:
172,299,171304,6,0,P|92:318|-7:244,2,192,2|8|2,1:0|0:0|1:0,0:0:0:0:
310,97,172074,1,0,3:0:0:0:
108,212,172228,1,2,3:2:0:0:
330,363,172380,6,2,P|402:353|473:341,1,144,6|0,1:2|0:0,0:1:0:0:
509,318,172688,2,2,P|501:270|493:223,1,96,2|8,3:2|0:0,0:1:0:0:
347,23,172997,2,0,B|324:66|324:66|322:117,1,96,2|0,0:1|3:0,0:0:0:0:
187,303,173304,2,0,B|181:255|181:255|154:205,1,96,2|10,3:1|0:0,0:0:0:0:
19,82,173612,1,0,3:0:0:0:
43,289,173766,5,10,1:1:0:0:
88,162,173920,1,8,3:0:0:0:
131,27,174074,2,0,B|181:25|181:25|235:47,1,96,12|0,0:0|0:0,0:0:0:0:
343,206,174381,5,10,0:1:0:0:
148,244,174535,1,10,3:0:0:0:
251,127,174689,1,2,1:0:0:0:
293,375,174843,2,2,P|263:271|253:223,1,144,6|0,1:1|0:0,0:1:0:0:
255,236,175151,2,0,P|194:263|146:289,1,96,2|8,3:2|0:0,0:0:0:0:
3,138,175458,2,2,P|59:153|123:162,1,96,2|0,1:0|0:0,0:1:0:0:
78,362,175766,2,0,B|56:317|56:317|50:254,1,96,2|8,3:2|0:0,0:0:0:0:
125,40,176074,6,2,P|213:20|304:76,1,192,6|2,1:0|0:2,0:1:0:0:
400,204,176534,2,2,P|475:187|502:178,1,96,10|8,0:0|0:3,0:1:0:0:
408,74,176843,1,0,1:0:0:0:
300,298,176997,1,2,3:1:0:0:
215,161,177151,1,10,0:0:0:0:
392,384,177304,6,2,B|426:332|426:332|397:185,1,192,6|0,1:2|3:0,0:1:0:0:
205,358,177766,2,0,P|125:347|86:337,1,96,8|0,0:0|3:0,0:0:0:0:
0,110,178074,5,8,3:0:0:0:
167,249,178228,1,0,1:0:0:0:
308,26,178381,5,8,0:0:0:0:
79,180,178535,1,12,1:1:0:0:
178,112,184690,5,2,1:2:0:0:
212,310,184997,1,0,3:0:0:0:
212,310,185151,1,0,1:0:0:0:
353,73,185920,5,2,1:2:0:0:
310,361,186227,1,0,3:0:0:0:
310,361,186381,1,0,1:0:0:0:
44,316,187151,6,0,P|81:211|152:225,1,192,6|0,1:2|0:0,0:0:0:0:
219,334,187612,1,8,3:0:0:0:
388,245,187766,2,0,P|351:140|280:154,1,192,6|8,1:2|0:3,0:0:0:0:
111,42,188228,5,8,3:0:0:0:
80,141,188381,2,0,P|130:120|187:108,1,96,2|0,1:2|0:0,0:0:0:0:
240,280,188689,2,0,P|201:251|168:216,1,96,2|0,3:2|0:0,0:0:0:0:
280,65,188997,2,0,P|274:112|261:158,1,96,2|0,1:2|0:0,0:0:0:0:
62,281,189304,6,0,B|133:263|133:263|178:295|178:295|251:277,1,192,2|0,1:2|3:0,0:0:0:0:
401,188,189766,6,2,P|381:281|372:377,1,192,6|0,1:1|3:0,0:1:0:0:
507,265,190228,2,0,B|489:219|489:219|489:161,1,96,2|8,1:2|1:2,0:0:0:0:
336,95,190535,2,0,P|385:83|431:65,1,96,2|0,3:2|0:0,0:0:0:0:
300,210,190843,6,2,P|215:185|111:159,1,192,10|2,1:2|3:2,0:0:0:0:
58,98,191304,1,0,0:0:0:0:
202,1,191458,2,0,L|219:103,1,96,2|8,3:2|0:0,0:0:0:0:
129,254,191766,2,0,P|124:206|112:152,1,96,2|0,3:2|1:0,0:0:0:0:
17,286,192074,6,2,P|58:361|172:334,1,192,14|0,1:2|3:0,0:1:0:0:
330,219,192535,1,8,3:0:0:0:
350,311,192689,2,0,P|294:293|243:276,1,96,4|8,3:2|0:0,0:0:0:0:
136,156,192997,2,0,P|150:219|156:253,1,96,2|0,1:2|3:0,0:0:0:0:
432,222,193304,6,0,P|337:205|243:175,2,192,2|2|0,1:2|3:2|3:0,0:0:0:0:
356,122,194074,1,14,0:2:0:0:
281,293,194228,2,0,B|237:316|237:316|179:314,1,96,0|2,0:0|3:2,0:0:0:0:
151,204,194535,5,14,1:2:0:0:
304,384,194689,2,0,P|308:292|335:185,1,192,0|0,0:0|3:0,0:0:0:0:
461,44,195151,1,0,3:0:0:0:
461,44,195228,1,0,3:0:0:0:
461,44,195304,1,14,0:0:0:0:
281,20,195458,1,2,0:0:0:0:
472,157,195612,1,2,3:2:0:0:
472,157,195765,6,0,P|425:181|341:125,1,144,10|0,1:2|0:0,0:0:0:0:
348,143,196073,2,0,P|290:152|241:167,1,96,2|0,1:2|0:0,0:0:0:0:
139,24,196380,2,0,P|125:82|118:121,1,96,2|12,3:2|0:0,0:0:0:0:
97,291,196689,1,2,0:0:0:0:
213,223,196843,1,0,0:0:0:0:
14,148,196997,5,8,1:2:0:0:
51,243,197151,1,0,0:0:0:0:
86,346,197304,1,0,3:0:0:0:
186,202,197457,2,0,B|137:205|137:205|91:226,1,96,12|2,0:0|3:2,0:0:0:0:
279,353,197766,5,0,0:0:0:0:
300,253,197920,1,2,3:2:0:0:
320,149,198074,1,12,0:0:0:0:
320,149,198228,2,0,B|371:153|371:153|413:178,1,96,2|0,1:1|0:0,0:0:0:0:
237,194,198534,5,2,1:1:0:0:
350,244,198689,5,8,0:0:0:0:
140,140,198843,1,2,3:1:0:0:
407,162,198997,5,8,1:2:0:0:
74,222,199151,1,2,3:1:0:0:
249,353,199304,6,0,L|243:273,1,67.1999979492188,12|0,3:1|0:0,0:0:0:0:
268,30,199458,2,0,L|274:110,1,67.1999979492188,0|0,3:0|3:0,0:0:0:0:
330,199,199612,6,2,B|300:194|264:189|264:189|210:213|210:213|130:202,1,192,14|8,1:1|0:0,0:1:0:0:
381,357,200074,2,0,P|406:296|417:254,1,96,2|0,3:1|1:0,0:0:0:0:
479,65,200382,2,0,P|492:110|512:154,1,96,2|8,3:1|0:0,0:0:0:0:
311,273,200689,6,2,P|250:284|182:223,1,144,2|0,1:2|0:0,0:1:0:0:
187,237,200997,2,0,B|134:246|134:246|85:270,1,96,2|8,3:1|0:0,0:0:0:0:
273,150,201304,1,2,3:1:0:0:
65,92,201458,1,0,1:0:0:0:
217,1,201612,1,10,3:3:0:0:
173,142,201766,1,8,0:0:0:0:
131,287,201920,6,2,B|171:335|171:335|310:308,1,192,6|0,1:2|3:0,0:1:0:0:
484,209,202381,1,8,0:0:0:0:
322,162,202535,1,2,0:1:0:0:
432,108,202689,1,0,1:0:0:0:
418,350,202843,2,0,P|396:283|381:248,1,96,2|8,3:1|0:0,0:0:0:0:
304,40,203151,6,2,P|265:89|282:174,1,144,2|0,1:2|0:0,0:1:0:0:
285,174,203458,2,2,P|340:155|388:147,1,96,2|8,3:2|0:0,0:1:0:0:
147,101,203766,2,0,P|83:90|31:70,1,96,2|0,3:1|0:0,0:0:0:0:
185,287,204074,1,10,3:0:0:0:
256,56,204228,1,10,3:0:0:0:
37,211,204381,6,2,P|83:264|207:237,1,192,6|0,1:2|3:0,0:1:0:0:
388,365,204843,1,8,0:0:0:0:
469,170,204997,1,2,3:2:0:0:
469,170,205074,1,2,3:2:0:0:
469,170,205151,1,2,1:1:0:0:
311,262,205304,1,2,3:2:0:0:
219,77,205458,5,10,0:0:0:0:
330,157,205612,2,2,P|390:171|444:172,1,96,6|0,1:2|0:0,0:1:0:0:
194,246,205921,2,0,P|134:232|80:231,1,96,2|8,3:1|0:0,0:0:0:0:
322,368,206228,2,0,B|307:320|307:320|318:263,1,96,2|0,0:1|3:0,0:0:0:0:
242,53,206535,2,0,B|250:97|250:97|235:145,1,96,2|8,3:2|0:0,0:0:0:0:
21,273,206843,6,2,B|123:238|121:297|225:254,1,192,6|0,1:2|3:0,0:1:0:0:
346,93,207304,1,10,0:0:0:0:
163,155,207458,2,0,P|103:138|50:126,1,96,2|0,3:1|1:0,0:0:0:0:
297,321,207766,2,0,P|322:248|337:214,1,96,2|8,3:1|0:0,0:0:0:0:
485,72,208074,6,2,P|426:91|356:39,1,144,6|0,1:2|0:0,0:1:0:0:
352,28,208381,2,2,L|300:41,1,48,6|0,1:2|0:0,0:1:0:0:
216,68,208535,1,10,0:0:0:0:
216,68,208612,1,8,0:0:0:0:
216,68,208689,1,6,1:2:0:0:
380,203,208843,5,0,3:0:0:0:
145,163,208997,1,6,3:1:0:0:
256,267,209151,1,8,0:0:0:0:
306,77,209304,1,8,3:3:0:0:
280,296,209458,6,2,B|315:327|315:327|465:311,1,192,14|8,1:1|0:0,0:1:0:0:
293,197,209920,2,0,P|217:204|165:246,1,144,2|0,3:1|0:0,0:0:0:0:
165,245,210228,2,0,P|107:241|61:227,1,96,2|8,3:1|0:0,0:0:0:0:
210,12,210535,6,2,P|225:79|233:118,1,96,6|0,1:2|0:0,0:1:0:0:
398,263,210843,2,0,P|383:196|375:157,1,96,2|8,3:1|0:0,0:0:0:0:
127,116,211151,2,0,P|112:185|148:247,1,144,2|0,3:1|0:0,0:0:0:0:
146,245,211458,2,0,B|199:229|199:229|257:222,1,96,10|8,3:3|0:0,0:0:0:0:
499,70,211766,6,2,B|457:45|457:45|283:70,1,192,6|0,1:2|1:0,0:1:0:0:
194,208,212228,1,8,0:0:0:0:
392,246,212381,1,2,1:1:0:0:
273,323,212535,1,10,0:0:0:0:
360,125,212689,1,2,3:1:0:0:
201,61,212843,1,10,0:0:0:0:
219,244,212997,6,0,P|166:257|120:272,1,96,2|10,1:1|0:0,0:0:0:0:
359,317,213304,2,0,B|402:334|402:334|457:338,1,96,2|10,1:2|0:0,0:0:0:0:
264,142,213612,2,0,B|221:125|221:125|166:121,1,96,2|8,3:1|0:3,0:0:0:0:
171,121,213843,1,8,0:3:0:0:
171,121,213920,1,10,3:0:0:0:
243,302,214074,1,10,3:0:0:0:
370,107,214228,6,2,P|376:178|416:314,1,192,6|0,1:2|3:0,0:1:0:0:
279,226,214689,2,0,P|234:230|164:241,1,96,8|2,0:0|3:2,0:0:0:0:
183,237,214920,1,2,3:2:0:0:
183,237,214997,1,2,1:1:0:0:
382,129,215151,1,2,3:2:0:0:
248,47,215304,1,10,0:0:0:0:
374,259,215458,6,2,P|312:333|215:314,1,192,6|2,1:2|3:1,0:1:0:0:
126,107,215921,1,8,0:0:0:0:
3,188,216074,2,0,P|66:244|124:236,1,144,2|0,0:1|0:0,0:0:0:0:
120,237,216381,2,0,P|174:219|226:218,1,96,2|8,3:2|0:0,0:0:0:0:
483,328,216689,6,2,B|445:354|445:354|290:340,1,192,6|0,1:2|3:0,0:1:0:0:
160,189,217151,1,10,0:0:0:0:
398,243,217304,2,0,P|414:179|428:140,1,96,2|0,3:1|1:0,0:0:0:0:
192,0,217612,2,0,P|176:64|162:103,1,96,2|8,3:1|0:0,0:0:0:0:
378,61,217920,6,2,B|425:46|425:46|483:47,1,96,6|0,1:2|0:0,0:1:0:0:
216,198,218228,2,0,B|169:213|169:213|111:212,1,96,2|10,1:2|0:0,0:0:0:0:
401,153,218535,2,2,B|448:172|448:172|487:312,1,192,2|0,1:2|3:1,0:1:0:0:
320,244,218997,5,8,0:0:0:0:
278,230,219075,1,8,3:0:0:0:
233,229,219152,1,0,3:0:0:0:
188,249,219228,1,0,1:0:0:0:
155,284,219304,2,0,B|134:314|132:332|132:332|45:363|9:272,1,192,6|8,1:0|0:0,0:0:0:0:
229,347,219766,2,0,P|278:356|342:374,1,96,2|0,3:1|1:0,0:0:0:0:
91,185,220074,2,0,P|78:138|68:72,1,96,2|8,3:2|0:0,0:0:0:0:
285,224,220381,6,2,P|370:218|423:116,1,192,2|2,1:2|3:2,0:1:0:0:
357,30,220843,1,8,0:0:0:0:
215,126,220997,2,0,P|166:134|101:57,1,144,2|0,3:1|0:0,0:1:0:0:
102,73,221304,2,0,P|47:85|-10:116,1,96,2|8,1:2|0:0,0:0:0:0:
238,269,221612,6,0,P|262:181|247:72,1,192,2|2,1:1|3:2,0:0:0:0:
130,242,222074,2,0,B|133:297|133:297|162:342,1,96,12|0,0:0|0:0,0:0:0:0:
391,372,222381,1,2,1:2:0:0:
266,255,222535,1,0,3:0:0:0:
473,207,222689,1,8,0:0:0:0:
337,122,222843,5,2,3:2:0:0:
337,122,222920,1,0,0:0:0:0:
337,122,222997,1,0,1:0:0:0:
395,290,223151,1,0,3:0:0:0:
215,188,223304,1,10,0:0:0:0:
437,69,223458,2,0,B|397:98|397:98|248:82,1,192,0|2,0:0|1:2,0:0:0:0:
9,9,223920,2,0,L|22:70,1,48,10|0,0:0|0:0,0:0:0:0:
185,185,224074,2,0,L|172:124,1,48,10|0,3:3|0:0,0:0:0:0:
109,24,224227,6,2,P|97:101|94:226,1,192,6|8,1:2|0:0,0:1:0:0:
270,330,224689,2,0,P|314:302|284:216,1,144,2|0,3:1|0:0,0:0:0:0:
296,222,224997,2,0,P|233:212|181:197,1,96,2|10,3:2|0:0,0:0:0:0:
421,327,225304,6,2,B|452:230|368:246|393:132,1,192,2|2,1:2|3:2,0:1:0:0:
435,25,225766,1,8,0:0:0:0:
508,176,225920,2,0,B|460:190|460:190|403:191,1,96,2|0,3:1|1:0,0:0:0:0:
207,50,226228,2,2,B|252:50|252:50|300:64,1,96,2|8,1:2|0:0,0:1:0:0:
512,275,226535,6,2,B|468:289|468:289|312:274,1,192,2|2,1:2|3:2,0:1:0:0:
80,159,226997,2,0,P|141:151|203:140,1,96,14|0,0:0|3:0,0:0:0:0:
366,72,227304,1,2,1:2:0:0:
179,20,227458,1,0,3:0:0:0:
318,164,227612,1,10,0:2:0:0:
197,224,227766,5,0,3:0:0:0:
197,224,227843,1,0,0:0:0:0:
197,224,227920,1,2,1:2:0:0:
305,302,228074,1,0,3:0:0:0:
305,302,228151,1,0,0:0:0:0:
305,302,228228,1,10,0:0:0:0:
222,357,228381,1,0,3:0:0:0:
377,255,228535,5,2,1:2:0:0:
140,188,228689,1,0,3:0:0:0:
408,99,228843,1,10,0:0:0:0:
118,25,228997,1,8,3:0:0:0:
252,171,229151,5,6,1:0:0:0:
324,55,229304,1,2,0:0:0:0:
191,74,229458,1,10,0:1:0:0:
240,274,229612,2,2,B|318:279|353:222|353:222|375:263|415:267,1,192,2|10,1:2|0:2,0:1:0:0:
255,175,230074,1,10,0:3:0:0:
323,356,230228,6,2,P|260:372|133:291,1,192,6|2,1:2|3:2,0:1:0:0:
92,150,230689,1,10,0:0:0:0:
322,234,230843,2,2,B|369:228|369:228|428:204,1,96,2|0,1:2|0:0,0:1:0:0:
414,209,231074,1,0,0:0:0:0:
414,209,231151,1,2,3:2:0:0:
485,49,231304,1,10,0:0:0:0:
251,4,231458,6,2,B|228:54|228:54|251:207,1,192,2|2,1:2|3:2,0:1:0:0:
414,337,231920,2,0,P|425:277|433:222,1,96,14|2,0:0|0:0,0:0:0:0:
251,98,232228,1,2,1:2:0:0:
251,98,232381,1,0,3:0:0:0:
116,237,232536,2,0,P|105:297|97:352,1,96,12|0,0:0|0:0,0:0:0:0:
267,270,232843,5,0,1:0:0:0:
267,270,232997,1,2,0:1:0:0:
156,139,233151,2,0,B|111:130|111:130|46:138,1,96,12|2,0:0|0:1,0:0:0:0:
322,22,233458,1,2,1:2:0:0:
265,242,233612,1,0,0:0:0:0:
156,139,233766,2,0,L|233:126,1,48,8|8,0:0|0:0,0:0:0:0:
449,133,233920,2,0,L|372:146,1,48,8|8,0:3|0:3,0:0:0:0:
233,238,234074,6,2,P|219:293|342:357,1,192,6|8,1:2|0:0,0:1:0:0:
403,344,234535,1,2,0:2:0:0:
403,344,234844,1,2,1:0:0:0:
414,251,234997,1,8,0:0:0:0:
253,152,235151,6,2,B|181:133|186:170|101:145,1,144,6|0,1:2|0:0,0:1:0:0:
110,147,235458,2,0,P|96:81|83:37,1,96,2|8,3:1|0:0,0:0:0:0:
325,77,235766,2,0,P|385:61|428:56,1,96,2|0,0:1|1:0,0:0:0:0:
127,257,236074,2,2,B|78:251|78:251|34:229,1,96,2|8,3:1|0:0,0:1:0:0:
389,175,236381,6,2,B|416:217|416:217|398:373,1,192,6|10,1:2|0:1,0:1:0:0:
182,312,236843,1,0,1:0:0:0:
329,250,236997,1,0,0:0:0:0:
206,147,237151,1,0,3:0:0:0:
271,366,237304,1,8,0:0:0:0:
446,262,237458,1,0,3:0:0:0:
329,136,237612,1,0,1:0:0:0:
196,265,237766,5,0,3:0:0:0:
425,148,237920,1,8,0:2:0:0:
243,98,238074,1,0,3:0:0:0:
343,305,238228,2,0,L|356:247,1,48,8|0,1:3|0:0,0:0:0:0:
414,45,238381,5,8,1:3:0:0:
421,62,238535,1,8,3:3:0:0:
428,78,238689,1,8,1:3:0:0:
435,92,238843,1,8,3:3:0:0:
306,178,238997,6,0,P|257:167|209:161,1,96,0|0,1:0|0:0,0:0:0:0:
97,284,239304,2,0,B|127:324|127:324|281:287,1,192,10|2,0:0|1:2,0:0:0:0:
400,218,239766,1,0,3:0:0:0:
348,372,239920,1,10,0:0:0:0:
512,294,240073,6,0,P|530:203|459:110,1,192,2|0,1:2|3:0,0:0:0:0:
374,34,240535,2,0,P|363:87|353:134,1,96,10|0,0:0|0:0,0:0:0:0:
164,198,240843,1,2,1:2:0:0:
325,290,240997,1,0,3:0:0:0:
244,119,241151,1,10,0:0:0:0:
159,321,241304,6,0,B|101:319|58:269|58:269|33:307|-3:322,1,192,6|2,1:2|3:0,0:0:0:0:
235,384,241765,2,0,B|255:335|255:335|242:290,1,96,10|0,0:0|0:0,0:0:0:0:
133,102,242074,2,0,B|113:151|113:151|126:196,1,96,2|0,1:2|3:0,0:0:0:0:
280,87,242380,1,10,0:0:0:0:
121,13,242534,5,2,3:2:0:0:
121,13,242611,1,2,0:2:0:0:
121,13,242688,1,2,0:2:0:0:
212,156,242842,1,2,3:2:0:0:
25,215,242996,1,10,0:0:0:0:
57,66,243150,1,2,0:0:0:0:
178,255,243304,5,0,1:0:0:0:
297,125,243457,1,2,3:2:0:0:
124,174,243611,1,10,0:0:0:0:
124,174,243688,1,8,0:0:0:0:
124,174,243765,1,2,3:2:0:0:
288,234,243919,6,0,B|338:231|338:231|385:252,1,96,4|0,1:2|0:0,0:0:0:0:
217,384,244227,2,0,P|148:348|180:253,1,192,10|2,0:0|1:2,0:0:0:0:
398,223,244689,1,0,3:0:0:0:
324,339,244843,1,8,0:0:0:0:
256,208,244996,6,0,B|245:154|245:154|272:107|272:107|253:19,1,192,2|0,1:2|3:0,0:0:0:0:
371,122,245457,2,0,P|417:132|464:144,1,96,10|0,0:0|0:0,0:0:0:0:
348,37,245765,1,2,1:2:0:0:
406,233,245920,1,0,3:0:0:0:
501,121,246074,1,10,0:0:0:0:
267,221,246227,6,0,B|76:251,1,192,6|0,1:2|3:0,0:0:0:0:
2,110,246688,2,0,P|51:118|109:147,1,96,10|0,0:0|0:0,0:0:0:0:
12,314,246997,2,0,B|-10:268|-10:268|5:214,1,96,2|0,1:2|3:0,0:0:0:0:
177,283,247304,1,8,0:0:0:0:
106,381,247457,5,2,1:2:0:0:
106,381,247534,1,2,0:2:0:0:
106,381,247611,1,2,0:2:0:0:
301,287,247765,1,2,3:2:0:0:
86,218,247919,1,10,0:0:0:0:
263,144,248073,2,0,P|307:164|356:180,1,96,6|0,1:2|0:0,0:0:0:0:
481,275,248380,5,2,3:2:0:0:
491,281,248457,1,0,0:0:0:0:
498,290,248534,1,10,0:0:0:0:
508,323,248611,1,8,0:0:0:0:
488,366,248688,1,10,3:2:0:0:
440,373,248765,1,0,0:0:0:0:
403,338,248842,6,2,B|387:234|471:270|446:158,1,192,6|10,1:0|0:0,0:1:0:0:
287,74,249304,1,0,0:0:0:0:
355,8,249458,2,0,P|365:64|378:118,1,96,2|0,1:2|3:0,0:0:0:0:
272,240,249766,1,10,0:0:0:0:
189,156,249919,6,0,P|98:154|65:240,1,192,2|0,1:2|3:0,0:0:0:0:
0,338,250381,2,0,P|53:351|94:366,1,96,10|0,0:0|0:0,0:0:0:0:
257,212,250689,1,2,1:2:0:0:
79,248,250843,1,0,3:0:0:0:
171,125,250997,1,10,0:2:0:0:
228,342,251151,6,2,B|241:366|281:375|281:375|350:347|417:342,1,192,6|0,1:2|3:0,0:1:0:0:
512,225,251612,2,0,P|458:206|399:194,1,96,10|0,0:0|0:0,0:0:0:0:
244,96,251920,1,2,1:2:0:0:
309,247,252074,1,0,3:0:0:0:
439,65,252228,1,10,0:0:0:0:
256,41,252381,5,2,3:2:0:0:
216,33,252458,1,2,3:2:0:0:
177,24,252535,1,2,1:2:0:0:
357,149,252689,1,2,3:2:0:0:
129,208,252843,1,14,0:0:0:0:
286,267,252997,1,2,0:0:0:0:
212,133,253151,5,10,0:0:0:0:
185,112,253228,1,8,0:0:0:0:
150,106,253304,1,10,0:3:0:0:
110,114,253381,1,8,0:3:0:0:
77,142,253458,2,0,P|54:148|9:147,1,48,10|8,3:3|3:3,0:0:0:0:
130,250,253612,2,0,P|153:244|198:245,1,48,10|8,1:3|1:3,0:0:0:0:
97,350,253766,6,0,P|93:288|83:246,1,96,0|0,1:0|3:0,0:0:0:0:
2,45,254074,2,0,P|36:104|167:85,1,192,14|2,1:2|1:2,0:0:0:0:
266,0,254535,1,0,0:0:0:0:
395,135,254689,2,0,P|334:116|286:106,1,96,10|2,0:0|1:2,0:0:0:0:
475,24,254997,5,0,0:0:0:0:
433,150,255151,1,0,3:0:0:0:
398,280,255304,2,0,P|348:295|290:315,1,96,10|0,0:0|0:0,0:0:0:0:
133,142,255612,5,10,0:0:0:0:
417,185,255766,1,0,1:0:0:0:
122,186,255920,1,2,3:2:0:0:
433,150,256074,1,0,1:0:0:0:
244,50,256228,5,14,0:1:0:0:
265,186,256381,1,8,3:3:0:0:
286,313,256535,1,0,1:0:0:0:
133,142,256689,5,14,0:1:0:0:
372,223,256843,1,8,3:0:0:0:
187,369,256997,1,0,1:0:0:0:
254,170,257151,6,0,B|297:165|332:179|332:179|362:144|362:144|403:130|446:133,1,192,10|0,0:1|0:0,0:0:0:0:
334,289,257612,1,0,1:0:0:0:
177,95,257766,2,0,P|158:167|155:207,1,96,8|0,0:0|3:0,0:0:0:0:
26,314,258074,5,10,3:1:0:0:
51,342,258151,1,0,0:0:0:0:
91,356,258228,1,0,3:0:0:0:
131,354,258304,1,0,0:0:0:0:
172,334,258381,1,0,1:0:0:0:
210,307,258458,1,0,0:0:0:0:
258,301,258535,1,0,3:0:0:0:
302,318,258612,1,0,0:0:0:0:
337,346,258689,6,0,P|400:354|443:362,1,96,14|8,0:1|3:3,0:0:0:0:
175,185,258997,1,0,1:0:0:0:
362,36,259151,5,14,0:1:0:0:
302,318,259304,1,8,3:0:0:0:
503,216,259458,1,0,1:0:0:0:
236,85,259612,6,2,B|206:69|182:67|182:67|138:84|138:84|113:73|93:61|93:61|51:63|36:48,1,192,14|0,1:0|3:0,0:1:0:0:
154,208,260074,1,0,1:0:0:0:
332,16,260228,2,0,B|346:67|346:67|345:128,1,96,8|8,0:0|0:3,0:0:0:0:
132,282,260535,5,2,1:0:0:0:
408,195,260689,1,0,1:0:0:0:
218,82,260843,1,8,0:0:0:0:
189,381,260997,1,8,0:3:0:0:
64,210,261151,5,6,1:2:0:0:
169,241,261304,1,0,3:0:0:0:
272,265,261458,1,2,3:2:0:0:
172,34,261612,5,2,1:2:0:0:
20,342,261921,1,2,1:2:0:0:
281,142,262228,2,2,P|353:128|419:172,1,144,14|0,0:1|0:0,0:1:0:0:
439,158,262535,2,0,P|426:206|422:226,1,48,8|8,0:0|0:3,0:0:0:0:
327,305,262689,2,0,B|321:254|321:254|336:203,1,96,0|0,1:0|0:0,0:0:0:0:
473,361,262997,6,0,P|438:353|394:348,1,64,0|8,1:0|0:3,0:0:0:0:
217,265,263202,2,0,P|248:260|279:253,1,64,0|0,3:0|1:0,0:0:0:0:
480,134,263407,2,0,P|449:141|418:146,1,64,8|0,0:3|3:0,0:0:0:0:
267,10,263612,6,2,P|279:88|284:129,1,96,14|0,1:2|0:0,0:1:0:0:
226,361,263920,1,10,0:1:0:0:
131,168,264074,2,0,B|86:149|86:149|37:150,1,96,14|0,1:0|0:0,0:0:0:0:
395,225,264382,2,0,B|442:225|442:225|487:206,1,96,10|0,0:1|0:0,0:0:0:0:
253,380,264689,6,2,B|238:319|238:319|273:259|273:259|203:185|248:87,1,307.2,14|0,1:0|0:0,0:1:0:0:
