osu file format v14

[General]
AudioFilename: alisantrdoujin.mp3
AudioLeadIn: 0
PreviewTime: 179920
Countdown: 0
SampleSet: Soft
StackLeniency: 0.7
Mode: 0
LetterboxInBreaks: 0
WidescreenStoryboard: 1

[Editor]
DistanceSpacing: 0.6
BeatDivisor: 4
GridSize: 32
TimelineZoom: 4.399998

[Metadata]
Title:Don't be Defeated by a Friend!
TitleUnicode:Don't be Defeated by a Friend!
Artist:Falcom Sound Team jdk
ArtistUnicode:Falcom Sound Team jdk
Creator:Deca
Version:Lionheart
Source:英雄伝説 閃の軌跡
Tags:yogurtt kowari coco cococolaco moete nm1 co2021 ro16 corsace open 2021 no mod one 萩生田 朋克 tomokatsu hagiuda 神藤 由東大 yukihiro jindo 長野 昭子 akiko nagano 寺前 甲 masaru teramae demetori 榎本 敦 atsushi enomoto eiyuu densetsu sen no kiseki the legend of heroes trails of cold steel 1 2 i ii cs1 cs2 super arrange version sav j.d.k BAND dont nihon dbdbaf coldsteel instrumental metal rock
BeatmapID:3181298
BeatmapSetID:1557286

[Difficulty]
HPDrainRate:5
CircleSize:3.8
OverallDifficulty:9
ApproachRate:9.5
SliderMultiplier:1.92
SliderTickRate:1

[Events]
//Background and Video events
0,0,"coom_waifu2x_art_scale_tta_1.png",0,0
//Break Periods
2,179860,183009
//Storyboard Layer 0 (Background)
//Storyboard Layer 1 (Fail)
//Storyboard Layer 2 (Pass)
//Storyboard Layer 3 (Foreground)
//Storyboard Layer 4 (Overlay)
//Storyboard Sound Samples
Sample,178535,0,"normal-hitwhistle69.wav",70

[TimingPoints]
228,307.692307692308,4,2,4,60,1,0
228,-111.111111111111,4,2,4,60,0,0
535,-90.9090909090908,4,2,1,60,0,0
1304,-111.111111111111,4,2,1,60,0,0
8843,-90.9090909090908,4,2,4,60,0,0
10074,-111.111111111111,4,2,4,72,0,0
10381,-90.9090909090908,4,2,4,72,0,0
11151,-111.111111111111,4,2,4,72,0,0
12381,-90.9090909090908,4,2,4,72,0,0
12843,-111.111111111111,4,2,4,72,0,0
14228,-90.9090909090908,4,2,4,72,0,0
14997,-111.111111111111,4,2,4,72,0,0
15304,-90.9090909090908,4,2,4,72,0,0
16074,-111.111111111111,4,2,4,72,0,0
16535,-90.9090909090908,4,2,4,72,0,0
17766,-111.111111111111,4,2,4,72,0,0
20228,-90.9090909090908,4,2,4,72,0,0
20997,-111.111111111111,4,2,4,72,0,0
21458,-90.9090909090908,4,2,4,72,0,0
24843,-111.111111111111,4,2,4,72,0,0
25151,-90.9090909090908,4,2,4,72,0,0
25920,-111.111111111111,4,2,4,72,0,0
27151,-90.9090909090908,4,2,4,72,0,0
28997,-111.111111111111,4,2,4,72,0,0
29458,-76.9230769230769,4,2,4,72,0,0
29766,-100,4,2,4,60,0,0
38074,-111.111111111111,4,2,4,60,0,0
39612,-100,4,2,4,60,0,0
41920,-90.9090909090909,4,2,4,60,0,0
42689,-100,4,2,4,60,0,0
43151,-90.9090909090909,4,2,4,60,0,0
44535,-90.9090909090909,4,2,4,72,0,0
44843,-111.111111111111,4,2,4,72,0,0
45920,-111.111111111111,4,2,4,72,0,0
46228,-90.9090909090908,4,2,4,72,0,0
49458,-90.9090909090908,4,2,4,60,0,0
49920,-111.111111111111,4,2,4,60,0,0
51920,-90.9090909090908,4,2,4,60,0,0
52381,-117.647058823529,4,2,4,60,0,0
53612,-100,4,2,4,60,0,0
55458,-90.9090909090909,4,2,4,60,0,0
56843,-83.3333333333333,4,2,4,60,0,0
57304,-111.111111111111,4,2,4,60,0,0
58381,-90.9090909090909,4,2,4,60,0,0
58997,-111.111111111111,4,2,4,60,0,0
59304,-83.3333333333333,4,2,7,72,0,0
59612,-100,4,2,7,72,0,0
60381,-83.3333333333333,4,2,7,72,0,0
60997,-90.9090909090909,4,2,7,72,0,0
62843,-83.3333333333333,4,2,7,72,0,0
63458,-90.9090909090909,4,2,7,72,0,0
64227,-90.9090909090909,4,2,7,85,0,0
64535,-83.3333333333333,4,2,7,85,0,0
65304,-76.9230769230769,4,2,7,85,0,0
65612,-90.9090909090909,4,2,7,85,0,0
66535,-83.3333333333333,4,2,7,85,0,0
67766,-80,4,2,7,85,0,0
68996,-80,4,2,69,85,0,0
70381,-80,4,2,8,85,0,1
70689,-80,4,2,7,85,0,1
71458,-83.3333333333333,4,2,7,85,0,1
71766,-100,4,2,7,85,0,1
72689,-80,4,2,7,85,0,1
73151,-90.9090909090909,4,2,7,85,0,1
74228,-100,4,2,7,85,0,1
75151,-83.3333333333333,4,2,7,85,0,1
75458,-100,4,2,7,85,0,1
77612,-80,4,2,7,85,0,1
79458,-90.9090909090909,4,2,7,85,0,0
80228,-80,4,2,8,85,0,1
80535,-80,4,2,7,85,0,1
81304,-90.9090909090909,4,2,7,85,0,1
82535,-80,4,2,7,85,0,1
83151,-100,4,2,7,85,0,1
84997,-83.3333333333333,4,2,7,85,0,1
85304,-100,4,2,7,85,0,1
86228,-80,4,2,7,85,0,1
86843,-90.9090909090909,4,2,7,85,0,1
87458,-100,4,2,7,85,0,1
88074,-76.9230769230769,4,2,7,85,0,1
88381,-90.9090909090909,4,2,7,85,0,1
90074,-83.3333333333333,4,2,7,85,0,1
90535,-90.9090909090909,4,2,7,85,0,1
91151,-76.9230769230769,4,2,7,85,0,1
91766,-83.3333333333333,4,2,7,85,0,1
92074,-100,4,2,7,85,0,1
92381,-83.3333333333333,4,2,7,85,0,1
92843,-90.9090909090909,4,2,7,85,0,1
94997,-76.9230769230769,4,2,7,85,0,1
95458,-90.9090909090909,4,2,7,85,0,1
96074,-76.9230769230769,4,2,7,85,0,1
96689,-83.3333333333333,4,2,7,85,0,1
97304,-76.9230769230769,4,2,7,85,0,1
97766,-90.9090909090909,4,2,7,85,0,1
99920,-111.111111111111,4,2,4,72,0,0
100228,-90.9090909090908,4,2,4,72,0,0
100997,-111.111111111111,4,2,4,72,0,0
101458,-90.9090909090909,4,2,4,72,0,0
102689,-111.111111111111,4,2,4,72,0,0
105151,-90.9090909090908,4,2,4,72,0,0
105920,-111.111111111111,4,2,4,72,0,0
107151,-90.9090909090908,4,2,4,72,0,0
108997,-76.9230769230769,4,2,4,72,0,0
109766,-111.111111111111,4,2,4,72,0,0
110074,-90.9090909090908,4,2,4,72,0,0
110843,-111.111111111111,4,2,4,72,0,0
112074,-90.9090909090908,4,2,4,72,0,0
113766,-76.9230769230769,4,2,4,72,0,0
114689,-111.111111111111,4,2,4,72,0,0
114997,-90.9090909090908,4,2,4,72,0,0
115766,-111.111111111111,4,2,4,72,0,0
116997,-90.9090909090908,4,2,4,72,0,0
119612,-125,4,2,1,40,0,0
134381,-100,4,2,4,60,0,0
135304,-100,4,2,1,72,0,0
135612,-100,4,2,4,72,0,0
136074,-100,4,2,4,65,0,0
136535,-100,4,2,4,80,0,0
136843,-76.9230769230769,4,2,7,80,0,0
139304,-76.9230769230769,4,2,7,80,0,0
142381,-111.111111111111,4,2,7,80,0,0
143151,-66.6666666666667,4,2,7,80,0,0
143612,-76.9230769230769,4,2,7,80,0,0
144228,-71.4285714285714,4,2,7,80,0,0
145304,-83.3333333333333,4,2,7,80,0,0
145766,-71.4285714285714,4,2,7,80,0,0
146381,-76.9230769230769,4,2,7,80,0,0
147766,-71.4285714285714,4,2,7,80,0,0
150228,-71.4285714285714,4,2,7,80,0,0
151304,-83.3333333333333,4,2,7,80,0,0
152228,-71.4285714285714,4,2,7,80,0,0
152689,-83.3333333333333,4,2,7,80,0,0
154074,-83.3333333333333,4,2,7,85,0,0
155458,-76.9230769230769,4,2,7,80,0,0
156535,-76.9230769230769,4,2,7,88,0,0
157766,-76.9230769230769,4,2,7,78,0,0
158689,-90.9090909090909,4,2,7,80,0,0
158997,-90.9090909090909,4,2,4,58,0,0
160074,-111.111111111111,4,2,4,58,0,0
164997,-90.9090909090908,4,2,4,58,0,0
166843,-111.111111111111,4,2,4,58,0,0
168843,-83.3333333333333,4,2,7,72,0,0
169151,-100,4,2,7,72,0,0
169920,-83.3333333333333,4,2,7,72,0,0
170535,-90.9090909090909,4,2,7,72,0,0
172381,-80,4,2,7,72,0,0
172997,-90.9090909090909,4,2,7,72,0,0
173766,-90.9090909090909,4,2,7,85,0,0
174074,-83.3333333333333,4,2,7,85,0,0
174843,-76.9230769230769,4,2,7,85,0,0
175151,-100,4,2,7,85,0,0
176074,-83.3333333333333,4,2,7,85,0,0
176535,-100,4,2,7,85,0,0
177304,-80,4,2,7,85,0,0
184689,-111.111111111111,4,2,4,65,0,0
187151,-76.9230769230769,4,2,4,72,0,0
188381,-100,4,2,4,72,0,0
189766,-83.3333333333333,4,2,7,78,0,0
190381,-100,4,2,4,78,0,0
192074,-80,4,2,4,78,0,0
193304,-100,4,2,4,78,0,0
198228,-80,4,2,7,85,0,0
199612,-80,4,2,9,85,0,1
199920,-80,4,2,7,85,0,1
200689,-83.3333333333333,4,2,7,85,0,1
200997,-100,4,2,7,85,0,1
201920,-80,4,2,7,85,0,1
202535,-90.9090909090909,4,2,7,85,0,1
203766,-100,4,2,7,85,0,1
204381,-83.3333333333333,4,2,7,85,0,1
204689,-100,4,2,7,85,0,1
206535,-83.3333333333333,4,2,7,85,0,1
206843,-80,4,2,7,85,0,1
208689,-90.9090909090909,4,2,7,85,0,0
209458,-76.9230769230769,4,2,8,85,0,1
209766,-76.9230769230769,4,2,7,85,0,1
210843,-90.9090909090909,4,2,7,85,0,1
211766,-76.9230769230769,4,2,7,85,0,1
212228,-90.9090909090909,4,2,7,85,0,1
214228,-76.9230769230769,4,2,7,85,0,1
214535,-90.9090909090909,4,2,7,85,0,1
215458,-83.3333333333333,4,2,7,85,0,1
215766,-90.9090909090909,4,2,7,85,0,1
216074,-100,4,2,7,85,0,1
217304,-76.9230769230769,4,2,7,85,0,1
217920,-90.9090909090909,4,2,7,85,0,1
219304,-83.3333333333333,4,2,7,85,0,1
219766,-90.9090909090909,4,2,7,85,0,1
220381,-80,4,2,7,85,0,1
220997,-83.3333333333333,4,2,7,85,0,1
221304,-100,4,2,7,85,0,1
221612,-83.3333333333333,4,2,7,85,0,1
222074,-90.9090909090909,4,2,7,85,0,1
224228,-76.9230769230769,4,2,7,85,0,1
224689,-90.9090909090909,4,2,7,85,0,1
225304,-76.9230769230769,4,2,7,85,0,1
225920,-83.3333333333333,4,2,7,85,0,1
229612,-76.9230769230769,4,2,7,72,0,1
230228,-83.3333333333333,4,2,7,72,0,1
231304,-76.9230769230769,4,2,7,72,0,1
231458,-90.9090909090909,4,2,7,72,0,1
232535,-76.9230769230769,4,2,7,72,0,1
232997,-76.9230769230769,4,2,7,72,0,1
234535,-90.9090909090909,4,2,7,72,0,1
235151,-76.9230769230769,4,2,7,72,0,1
236381,-76.9230769230769,4,2,7,72,0,1
236843,-90.9090909090909,4,2,7,72,0,1
238997,-111.111111111111,4,2,7,72,0,0
239304,-90.9090909090908,4,2,4,72,0,0
240074,-111.111111111111,4,2,4,72,0,0
240535,-90.9090909090908,4,2,4,72,0,0
241766,-111.111111111111,4,2,4,72,0,0
244228,-90.9090909090908,4,2,4,72,0,0
244997,-111.111111111111,4,2,4,72,0,0
246228,-90.9090909090908,4,2,4,72,0,0
248074,-90.9090909090908,4,2,4,72,0,0
248843,-83.3333333333333,4,2,4,72,0,0
249920,-100,4,2,4,72,0,0
254074,-83.3333333333333,4,2,4,72,0,0
255304,-100,4,2,4,72,0,0
256228,-100,4,2,7,72,0,0
259612,-76.9230769230769,4,2,7,72,0,0
262689,-90.9090909090909,4,2,7,72,0,0
263612,-76.9230769230769,4,2,7,72,0,1
264689,-100,4,2,7,72,0,1
265458,-100,4,2,7,72,0,0

[Colours]
Combo1 : 134,143,227
Combo2 : 216,75,75

[HitObjects]
235,323,228,6,0,B|242:290|242:290|250:283|250:283|266:223,1,86.3999973632813,4|0,1:0|0:0,0:0:0:0:
206,178,535,2,0,B|296:166|253:243|394:213,1,158.400004833985,2|0,0:2|0:0,0:0:0:0:
511,160,843,2,0,B|470:136|470:136|440:150|398:143,1,105.600003222656,2|0,3:0|0:0,0:0:0:0:
271,83,1151,1,2,3:1:0:0:
139,259,1304,2,0,B|126:221|88:193|88:193|123:155|129:111,1,172.799994726563,4|0,1:3|3:0,0:0:0:0:
20,23,1766,2,0,P|30:72|41:131,1,86.3999973632813,2|0,0:3|3:0,0:0:0:0:
36,384,2074,1,2,0:3:0:0:
234,241,2228,1,2,0:0:0:0:
1,198,2381,1,2,0:1:0:0:
146,336,2535,6,0,B|175:340|208:348|208:348|243:336|243:336|268:343|318:352,1,172.799994726563,4|0,0:3|0:0,0:0:0:0:
340,120,2997,2,0,P|353:164|363:215,1,86.3999973632813,2|0,0:2|3:0,0:0:0:0:
512,286,3304,2,0,B|438:258|438:258|419:289|383:298,1,129.599996044922,2|0,0:3|0:0,0:0:0:0:
380,294,3612,1,2,0:1:0:0:
200,232,3766,6,0,P|221:226|217:124,1,129.599996044922,4|0,1:3|0:0,0:0:0:0:
197,113,4074,1,0,3:0:0:0:
90,171,4228,1,2,0:3:0:0:
91,49,4381,1,0,3:0:0:0:
291,49,4535,6,0,P|233:32|197:15,1,86.3999973632813,2|0,0:1|3:0,0:0:0:0:
173,267,4843,1,10,0:0:0:0:
390,156,4997,1,2,3:2:0:0:
306,384,5151,2,0,P|294:326|277:208,1,172.799994726563,4|0,1:3|0:0,0:0:0:0:
418,348,5612,1,0,3:0:0:0:
454,259,5766,2,0,B|413:245|413:245|390:259|369:257,2,86.3999973632813,2|2|2,0:0|0:3|0:1,0:0:0:0:
201,148,6228,6,0,P|256:122|371:173,1,172.799994726563,4|0,1:3|3:0,0:0:0:0:
474,62,6689,2,0,P|463:109|458:163,1,86.3999973632813,2|0,0:3|3:0,0:0:0:0:
262,298,6997,2,0,P|273:251|278:197,1,86.3999973632813,2|0,0:1|0:0,0:0:0:0:
281,57,7304,1,4,0:3:0:0:
412,236,7458,1,0,0:0:0:0:
169,292,7612,6,0,B|82:267|94:344|-16:289,1,172.799994726563,2|4,1:2|3:0,0:0:0:0:
341,368,8074,1,2,0:0:0:0:
341,368,8151,1,2,0:0:0:0:
341,368,8228,2,0,B|428:343|416:420|526:365,1,172.799994726563,2|4,1:2|3:0,0:0:0:0:
250,139,8689,1,0,0:0:0:0:
250,139,8766,1,0,0:0:0:0:
250,139,8843,2,0,B|258:179|258:179|275:195|275:195|288:258,2,105.600003222656,0|8|0,1:0|0:0|3:0,0:0:0:0:
224,42,9304,1,0,3:0:0:0:
189,250,9458,5,10,0:2:0:0:
349,128,9612,1,8,0:3:0:0:
128,149,9766,5,14,0:2:0:0:
402,221,9920,1,0,1:0:0:0:
85,359,10074,6,0,B|80:322|80:322|82:313|82:313|75:248,1,86.3999973632813,4|0,1:2|0:0,0:0:0:0:
9,223,10304,1,0,0:0:0:0:
9,223,10381,2,0,B|92:202|67:277|181:236,1,158.400004833985,10|0,0:0|0:0,0:0:0:0:
385,307,10689,2,0,B|331:286|331:286|298:304|266:308,1,105.600003222656,2|0,1:2|3:0,0:0:0:0:
217,166,10997,1,10,0:0:0:0:
336,31,11151,6,0,P|323:105|307:222,1,172.799994726563,2|0,1:2|3:0,0:0:0:0:
183,288,11612,2,0,P|207:347|214:397,1,86.3999973632813,10|0,0:0|0:0,0:0:0:0:
380,295,11920,1,2,1:2:0:0:
217,166,12074,1,0,3:0:0:0:
420,99,12228,1,10,0:0:0:0:
166,84,12381,6,0,B|142:118|99:135|99:135|131:173|135:223,1,158.400004833985,6|0,1:2|0:0,0:0:0:0:
131,238,12689,1,2,3:0:0:0:
327,189,12843,2,0,P|316:138|305:74,1,86.3999973632813,10|0,0:0|0:0,0:0:0:0:
38,277,13151,1,2,1:2:0:0:
217,166,13304,1,0,3:0:0:0:
33,67,13458,1,10,0:0:0:0:
131,238,13612,5,2,3:2:0:0:
120,211,13689,1,2,0:2:0:0:
106,187,13765,1,2,0:2:0:0:
310,298,13920,1,2,3:2:0:0:
94,384,14074,1,10,0:0:0:0:
217,166,14228,2,0,P|279:182|337:187,1,105.600003222656,2|0,0:0|1:0,0:0:0:0:
512,26,14535,5,2,3:2:0:0:
407,247,14689,1,10,0:0:0:0:
407,247,14766,1,8,0:0:0:0:
407,247,14843,1,2,3:2:0:0:
264,80,14997,6,0,B|306:74|306:74|313:78|313:78|384:64,1,86.3999973632813,4|0,1:2|0:0,0:0:0:0:
398,0,15228,1,0,0:0:0:0:
398,0,15304,2,0,B|362:85|444:75|398:173,1,158.400004833985,10|0,0:0|0:0,0:0:0:0:
506,254,15612,2,0,B|454:234|454:234|430:247|392:247,1,105.600003222656,2|0,1:2|3:0,0:0:0:0:
204,170,15920,1,8,0:0:0:0:
275,359,16074,2,0,B|310:327|311:274|311:274|339:330|384:334,1,172.799994726563,2|0,1:2|3:0,0:0:0:0:
212,281,16535,6,0,B|160:267|160:267|126:280|104:279,1,105.600003222656,10|0,0:0|0:0,0:0:0:0:
52,3,16843,1,2,1:2:0:0:
278,118,16997,1,0,3:0:0:0:
32,221,17151,1,10,0:0:0:0:
278,211,17304,6,0,B|357:195|335:273|442:241,1,158.400004833985,6|0,1:2|0:0,0:0:0:0:
444,212,17612,1,0,3:0:0:0:
288,302,17766,2,0,P|275:350|261:408,1,86.3999973632813,10|0,0:0|0:0,0:0:0:0:
161,51,18074,1,2,1:2:0:0:
380,146,18228,1,0,3:0:0:0:
185,284,18381,1,8,0:0:0:0:
231,147,18535,5,6,1:2:0:0:
245,171,18611,1,2,0:2:0:0:
256,198,18688,1,2,0:2:0:0:
39,132,18843,1,2,3:2:0:0:
237,0,18997,1,10,0:0:0:0:
110,216,19151,2,0,P|131:138|166:36,1,172.799994726563,6|2,1:2|3:2,0:0:0:0:
243,298,19612,5,10,0:0:0:0:
243,298,19689,1,8,0:0:0:0:
243,298,19766,1,10,3:2:0:0:
300,81,19920,2,0,B|308:121|308:121|315:125|315:125|326:185,1,86.3999973632813,4|0,1:2|0:0,0:0:0:0:
404,187,20151,1,0,0:0:0:0:
404,187,20228,2,0,B|317:162|337:255|228:193,1,158.400004833985,10|0,0:0|0:0,0:0:0:0:
43,258,20535,2,0,B|14:238|14:238|2:198|27:155,1,105.600003222656,2|0,1:2|3:0,0:0:0:0:
197,119,20843,1,10,0:0:0:0:
75,22,20997,6,0,P|95:93|120:228,1,172.799994726563,2|0,1:2|3:0,0:0:0:0:
74,346,21458,2,0,B|109:334|109:334|123:315|123:315|182:294,1,105.600003222656,10|0,0:0|0:0,0:0:0:0:
379,274,21766,1,2,1:2:0:0:
197,119,21920,1,0,3:0:0:0:
414,44,22074,1,10,0:0:0:0:
287,265,22228,6,0,B|293:243|297:213|297:213|344:188|344:188|354:149|359:127,1,158.400004833985,6|0,1:2|0:0,0:0:0:0:
342,114,22535,1,2,3:0:0:0:
479,273,22689,2,0,B|436:289|436:289|411:279|373:273,1,105.600003222656,10|0,0:0|0:0,0:0:0:0:
136,328,22997,1,2,1:2:0:0:
375,369,23151,1,0,3:0:0:0:
261,160,23304,1,10,0:0:0:0:
275,318,23458,5,2,3:2:0:0:
264,291,23535,1,2,0:2:0:0:
250,267,23611,1,2,0:2:0:0:
54,203,23766,1,2,3:2:0:0:
223,73,23920,1,14,0:0:0:0:
136,328,24074,6,0,P|142:302|151:277,1,52.8000016113282,2|0,0:0|0:0,0:0:0:0:
261,160,24228,1,10,0:0:0:0:
293,150,24304,1,8,0:0:0:0:
324,153,24381,1,10,0:3:0:0:
351,168,24458,1,8,0:3:0:0:
373,192,24535,1,10,3:3:0:0:
390,219,24611,1,8,3:3:0:0:
417,236,24688,1,10,1:3:0:0:
449,242,24765,1,8,1:3:0:0:
479,236,24843,2,0,B|487:193|487:193|486:186|486:186|497:119,1,86.3999973632813,0|0,1:0|0:0,0:0:0:0:
512,70,25074,5,0,0:0:0:0:
512,70,25151,2,0,P|462:99|351:45,1,158.400004833985,10|0,0:0|0:0,0:0:0:0:
164,176,25458,2,0,B|224:147|224:147|248:161|272:160,1,105.600003222656,2|0,1:2|3:0,0:0:0:0:
440,2,25766,1,10,0:0:0:0:
299,235,25920,6,0,B|290:196|277:174|277:174|300:135|300:135|283:96|282:61,1,172.799994726563,6|0,1:2|3:0,0:0:0:0:
465,211,26381,2,0,P|411:193|374:186,1,86.3999973632813,10|0,0:0|0:0,0:0:0:0:
193,241,26689,1,2,1:2:0:0:
381,75,26843,1,0,3:0:0:0:
148,5,26997,1,10,0:0:0:0:
112,271,27151,6,0,B|203:251|172:332|292:289,1,158.400004833985,6|0,1:2|0:0,0:0:0:0:
291,283,27458,1,2,3:0:0:0:
512,322,27612,2,0,P|470:309|396:300,1,105.600003222656,10|0,0:0|0:0,0:0:0:0:
212,220,27920,1,2,1:2:0:0:
445,132,28074,1,0,3:0:0:0:
368,384,28228,1,10,0:0:0:0:
370,208,28381,5,6,3:2:0:0:
359,181,28458,1,2,0:2:0:0:
345,157,28534,1,2,0:2:0:0:
180,38,28689,1,2,3:2:0:0:
431,0,28843,1,10,0:0:0:0:
215,154,28997,2,0,B|186:162|186:162|169:174|169:174|146:180|114:189,1,86.3999973632813,2|0,0:0|1:0,0:0:0:0:
464,184,29304,5,0,3:0:0:0:
464,184,29381,1,0,3:0:0:0:
464,184,29458,2,0,P|454:147|451:112,1,62.3999971435548,8|8,0:0|0:0,0:0:0:0:
328,0,29612,2,0,P|338:37|342:65,1,62.3999971435548,8|8,3:2|0:0,0:0:0:0:
334,236,29766,6,0,B|419:231|384:295|492:277,1,144,6|0,1:2|0:0,0:0:0:0:
500,268,30074,1,8,0:0:0:0:
230,384,30228,2,0,P|237:349|244:276,1,96,2|0,0:0|1:0,0:0:0:0:
240,188,30535,1,2,0:0:0:0:
342,332,30689,1,8,0:0:0:0:
160,244,30843,6,0,B|144:207|128:181|128:181|152:160|173:98,1,144,2|0,1:2|0:0,0:0:0:0:
158,91,31151,1,0,3:0:0:0:
401,95,31304,2,0,B|428:89|438:81|438:81|475:104|499:171|439:216,1,192,8|0,0:2|3:0,0:0:0:0:
229,175,31766,1,2,0:0:0:0:
389,0,31920,1,8,0:0:0:0:
348,252,32074,6,0,P|334:197|303:81,1,144,2|0,1:2|0:0,0:0:0:0:
292,82,32381,1,0,3:0:0:0:
150,302,32535,2,0,P|184:285|256:265,1,96,10|0,0:0|0:0,0:0:0:0:
448,238,32843,2,0,B|436:313|436:313|395:328|387:366,1,144,2|0,1:3|0:0,0:0:0:0:
394,380,33151,1,8,0:0:0:0:
486,150,33304,2,0,B|442:141|442:141|414:151|378:154,2,96,2|0|0,1:3|0:0|3:0,0:0:0:0:
285,221,33766,5,10,0:0:0:0:
169,71,33920,1,0,0:0:0:0:
371,52,34074,1,2,3:0:0:0:
94,222,34228,5,2,1:2:0:0:
289,122,34381,1,8,0:0:0:0:
86,47,34535,1,2,0:0:0:0:
86,47,34612,1,2,0:0:0:0:
86,47,34689,2,0,B|102:98|102:98|143:115|143:115|163:158|176:194,1,144,2|0,1:2|0:0,0:0:0:0:
170,174,34997,1,8,0:0:0:0:
340,249,35151,2,0,B|291:248|250:207|250:207|253:266|207:299,1,192,2|0,1:2|3:0,0:0:0:0:
302,339,35612,1,10,0:0:0:0:
337,152,35766,6,0,B|344:121|344:121|358:102|358:102|371:44,2,96,0|2|0,1:0|0:3|3:0,0:0:0:0:
205,194,36228,1,8,0:0:0:0:
425,288,36381,1,2,0:3:0:0:
219,288,36535,6,0,B|139:290|174:344|69:328,1,144,2|0,1:2|0:0,0:0:0:0:
1,371,36843,2,0,B|-8:318|-8:318|4:301|18:248,1,96,10|0,0:0|0:0,0:0:0:0:
163,90,37151,1,2,1:2:0:0:
101,237,37304,1,0,0:0:0:0:
11,122,37458,1,10,0:2:0:0:
189,186,37612,6,0,B|257:203|305:146|305:146|265:143|240:91,1,192,2|0,1:2|3:0,0:0:0:0:
140,6,38074,2,0,P|157:61|165:106,2,86.3999973632813,8|0|0,0:0|0:0|0:0,0:0:0:0:
360,271,38535,5,0,1:2:0:0:
498,128,38689,1,10,0:2:0:0:
321,54,38843,1,0,3:0:0:0:
189,186,38997,5,10,0:0:0:0:
475,231,39151,1,8,3:0:0:0:
125,288,39304,5,8,0:3:0:0:
368,173,39458,1,8,0:3:0:0:
126,61,39612,6,0,B|80:105|80:105|96:200,1,144,6|0,1:2|0:0,0:0:0:0:
81,206,39920,1,8,0:0:0:0:
281,212,40074,2,0,P|223:196|176:181,1,96,2|0,0:0|3:0,0:0:0:0:
0,154,40381,1,2,0:0:0:0:
125,288,40535,1,8,0:0:0:0:
228,76,40689,2,0,B|166:64|135:30|135:30|147:87|118:130,1,192,2|0,1:2|3:0,0:0:0:0:
25,311,41151,2,0,P|39:254|57:209,2,96,8|0|2,0:0|0:0|0:3,0:0:0:0:
218,172,41612,1,2,0:0:0:0:
43,56,41766,1,10,0:0:0:0:
126,282,41920,6,0,B|152:255|196:259|196:259|232:301|291:296,1,158.400004833985,6|0,1:2|0:0,0:0:0:0:
301,292,42228,1,0,3:0:0:0:
114,142,42381,1,10,0:0:0:0:
340,90,42535,1,2,0:0:0:0:
340,90,42612,1,2,0:0:0:0:
340,90,42689,2,0,P|322:145|309:213,1,96,2|0,1:3|0:0,0:0:0:0:
471,192,42997,1,8,0:0:0:0:
380,341,43151,6,0,B|288:309|312:384|206:329,1,158.400004833985,2|0,1:3|0:0,0:0:0:0:
218,310,43458,1,0,0:0:0:0:
29,349,43612,2,0,B|15:305|15:305|41:224,1,105.600003222656,10|0,0:0|0:0,0:0:0:0:
53,60,43920,1,4,1:3:0:0:
272,138,44074,1,0,3:0:0:0:
120,304,44228,1,8,0:0:0:0:
337,218,44381,5,2,0:0:0:0:
337,218,44458,1,2,0:0:0:0:
337,218,44535,2,0,B|268:194|268:194|264:184|264:184|162:151,1,158.400004833985,6|0,1:2|0:0,0:0:0:0:
105,182,44843,2,0,P|102:153|95:118,2,43.1999986816407,8|0|0,0:0|0:0|0:0,0:0:0:0:
263,293,45151,1,0,1:0:0:0:
456,220,45304,1,0,3:0:0:0:
326,44,45458,2,0,P|341:105|352:158,1,86.3999973632813,8|2,0:0|0:0,0:0:0:0:
337,218,45689,5,2,0:0:0:0:
337,218,45766,1,6,1:2:0:0:
512,143,45920,2,0,P|459:128|420:114,1,86.3999973632813,2|8,3:2|0:0,0:0:0:0:
234,99,46228,2,0,B|167:96|150:157|150:157|193:161|199:200,1,158.400004833985,2|0,1:2|0:0,0:0:0:0:
133,253,46535,1,10,0:0:0:0:
164,10,46689,1,0,0:0:0:0:
337,218,46843,6,0,P|323:289|312:382,1,158.400004833985,6|0,1:2|0:0,0:0:0:0:
312,374,47151,1,2,3:2:0:0:
374,125,47304,5,10,0:0:0:0:
239,254,47458,1,8,0:3:0:0:
427,279,47612,1,0,3:0:0:0:
298,40,47766,5,2,1:2:0:0:
492,106,47920,1,8,0:0:0:0:
337,218,48074,1,0,0:0:0:0:
385,112,48228,5,2,1:2:0:0:
164,150,48381,1,0,3:0:0:0:
324,315,48535,5,10,0:2:0:0:
205,252,48689,1,0,0:0:0:0:
482,162,48843,5,10,0:0:0:0:
257,47,48997,1,8,0:3:0:0:
313,216,49151,5,10,0:0:0:0:
456,13,49304,1,2,3:2:0:0:
456,13,49381,1,0,3:2:0:0:
456,13,49458,2,0,B|437:76|437:76|400:96|400:96|377:159,1,158.400004833985,6|0,1:2|0:0,0:0:0:0:
383,144,49766,1,8,0:0:0:0:
203,149,49920,2,0,P|264:135|300:127,2,86.3999973632813,2|0|0,0:0|3:0|3:0,0:0:0:0:
492,149,50381,1,10,0:0:0:0:
348,326,50535,6,0,P|306:317|308:228,1,129.599996044922,2|0,1:2|0:0,0:0:0:0:
313,216,50843,1,0,3:0:0:0:
372,87,50997,2,0,P|389:145|397:189,1,86.3999973632813,8|0,0:0|0:0,0:0:0:0:
512,328,51304,2,0,P|497:275|483:223,1,86.3999973632813,0|0,1:0|3:0,0:0:0:0:
492,149,51612,1,8,0:0:0:0:
285,122,51766,5,2,3:2:0:0:
285,122,51843,1,2,3:2:0:0:
285,122,51920,2,0,B|227:141|227:141|210:177|210:177|145:197,1,158.400004833985,2|0,1:2|0:0,0:0:0:0:
134,190,52228,1,10,0:0:0:0:
274,292,52381,2,0,B|273:258|273:258|301:199,1,81.6000015563965,2|0,0:0|1:0,0:0:0:0:
460,271,52689,2,0,B|465:315|465:315|444:332|433:364,1,81.6000015563965,2|8,3:2|0:0,0:0:0:0:
401,155,52997,2,0,L|351:340,1,163.200003112793,2|0,1:2|3:0,0:0:0:0:
501,188,53458,1,10,0:0:0:0:
325,95,53612,6,0,B|272:105|234:68|234:68|261:131|230:166,1,192,2|0,1:2|3:0,0:0:0:0:
154,107,54074,1,8,0:0:0:0:
305,0,54228,1,0,3:0:0:0:
321,187,54381,6,0,P|260:197|123:234,1,192,4|8,1:2|0:0,0:0:0:0:
309,285,54843,1,0,0:0:0:0:
463,169,54997,1,2,1:2:0:0:
271,86,55151,1,0,0:0:0:0:
437,287,55304,1,10,0:0:0:0:
241,356,55458,6,0,B|202:303|202:303|241:198,1,158.400004833985,2|0,1:2|0:0,0:0:0:0:
162,83,55766,2,0,P|178:127|182:148,2,52.8000016113282,2|0|8,3:2|0:0|0:0,0:0:0:0:
0,252,56074,2,0,P|35:215|149:240,1,158.400004833985,2|0,1:2|0:0,0:0:0:0:
87,315,56381,1,0,3:0:0:0:
235,216,56535,1,10,0:0:0:0:
79,115,56689,1,0,3:0:0:0:
240,314,56843,6,0,B|272:309|304:290|304:290|337:308|337:308|364:289|364:289|420:306,1,172.799994726563,2|0,1:2|0:0,0:0:0:0:
419,302,57151,1,10,0:0:0:0:
362,108,57304,2,0,P|353:169|338:209,1,86.3999973632813,2|0,0:0|1:0,0:0:0:0:
386,384,57612,1,2,3:2:0:0:
454,210,57766,1,8,0:0:0:0:
256,158,57920,6,0,B|163:135|184:217|76:171,1,172.799994726563,2|0,1:2|0:0,0:0:0:0:
0,154,58381,2,0,P|7:126|12:100,2,52.8000016113282,8|0|0,0:0|0:0|0:0,0:0:0:0:
241,244,58689,1,0,1:0:0:0:
126,89,58843,1,0,3:0:0:0:
337,0,58997,2,0,P|317:61|306:112,1,86.3999973632813,8|0,0:0|0:0,0:0:0:0:
443,248,59304,6,2,B|403:198|330:204|330:204|352:241|326:284,1,172.799994726563,6|0,1:2|0:0,0:1:0:0:
155,263,59612,2,0,B|204:232|204:232|268:249,1,96,8|0,0:0|0:0,0:0:0:0:
396,337,59920,1,2,1:0:0:0:
486,100,60074,1,0,3:0:0:0:
243,147,60228,1,10,0:0:0:0:
443,248,60381,6,2,B|460:216|428:177|428:177|408:169|408:169|373:141|390:72,1,172.799994726563,6|0,1:2|0:0,0:1:0:0:
383,67,60689,1,0,3:0:0:0:
285,269,60843,2,0,P|314:258|350:243,1,57.5999982421876,10|0,0:0|0:0,0:0:0:0:
285,67,60997,2,0,B|230:47|230:47|210:65|182:67,1,105.600003222656,2|0,1:0|3:0,0:0:0:0:
88,274,61304,2,2,P|96:246|110:209,2,52.8000016113282,2|0|8,3:2|0:0|0:0,0:1:0:0:
246,148,61612,5,0,3:0:0:0:
246,148,61689,1,0,3:0:0:0:
246,148,61766,1,2,1:0:0:0:
29,130,61920,1,0,3:0:0:0:
178,299,62074,2,0,P|161:223|134:117,1,158.400004833985,8|0,0:0|0:0,0:0:0:0:
129,99,62381,1,2,1:0:0:0:
279,269,62535,1,0,3:0:0:0:
65,348,62689,1,2,3:2:0:0:
246,148,62843,6,2,B|293:142|333:120|333:120|324:189|357:223,1,172.799994726563,6|0,1:2|0:0,0:1:0:0:
483,168,63151,2,2,P|434:155|410:149,2,57.5999982421876,2|0|8,3:2|0:0|0:0,0:1:0:0:
176,271,63458,2,0,B|232:256|232:256|307:276,1,105.600003222656,2|0,0:1|3:0,0:0:0:0:
369,287,63689,1,0,3:0:0:0:
369,287,63766,1,2,3:1:0:0:
160,106,63920,1,10,0:0:0:0:
231,360,64074,5,0,3:0:0:0:
231,360,64151,1,0,0:0:0:0:
231,360,64228,1,10,1:1:0:0:
337,77,64381,1,8,3:0:0:0:
44,176,64535,2,0,P|114:193|190:217,1,115.199996484375,12|0,0:0|0:0,0:0:0:0:
350,349,64843,5,10,0:1:0:0:
130,91,64997,1,10,3:0:0:0:
456,63,65151,1,2,1:0:0:0:
231,360,65304,6,2,P|256:283|289:179,1,187.199991430664,6|0,1:1|0:0,0:1:0:0:
387,191,65612,2,0,P|373:153|365:124,2,52.8000016113282,2|0|8,3:2|0:0|0:0,0:0:0:0:
453,344,65920,2,2,P|397:323|344:312,1,105.600003222656,2|0,1:0|0:0,0:1:0:0:
111,262,66228,1,2,3:2:0:0:
288,181,66381,1,8,0:0:0:0:
51,355,66535,6,2,P|19:305|50:178,1,172.799994726563,6|0,1:0|0:0,0:1:0:0:
66,164,66843,1,2,0:2:0:0:
230,360,66997,1,10,0:0:0:0:
246,98,67151,5,8,0:3:0:0:
111,262,67304,1,0,1:0:0:0:
312,293,67458,5,2,3:1:0:0:
132,93,67612,1,10,0:0:0:0:
395,43,67766,6,2,B|411:63|430:75|430:75|440:160|331:169,1,180,6|0,1:2|0:0,0:1:0:0:
259,190,68074,1,0,3:0:0:0:
512,349,68228,1,8,0:0:0:0:
189,371,68381,1,0,3:0:0:0:
512,167,68535,5,8,3:0:0:0:
202,48,68689,1,0,1:0:0:0:
287,367,68843,1,8,0:0:0:0:
346,192,68997,5,12,1:1:0:0:
207,196,70381,6,2,B|303:169|271:265|400:226,1,180,14|0,1:1|0:0,0:1:0:0:
415,213,70689,1,8,0:0:0:0:
262,31,70843,1,2,3:1:0:0:
262,31,70920,1,0,3:0:0:0:
262,31,70997,2,0,P|253:79|246:119,1,60,0|0,1:0|0:0,0:0:0:0:
229,298,71151,1,2,3:1:0:0:
364,125,71304,1,8,0:0:0:0:
107,0,71458,6,2,P|134:80|161:184,1,172.799994726563,2|0,1:2|0:0,0:1:0:0:
92,241,71766,2,0,P|39:253|-14:272,1,96,2|8,3:1|0:0,0:0:0:0:
298,283,72074,1,2,3:1:0:0:
54,148,72228,1,0,1:0:0:0:
292,90,72381,1,10,3:3:0:0:
156,307,72535,1,8,0:0:0:0:
333,4,72689,6,2,B|365:22|426:21|426:21|384:65|387:122,1,180,6|0,1:1|0:0,0:1:0:0:
394,130,72997,1,0,3:0:0:0:
497,153,73151,2,0,P|485:96|485:61,1,52.8000016113282,8|0,0:0|0:0,0:0:0:0:
292,90,73304,2,0,P|305:158|314:235,1,105.600003222656,2|0,0:1|1:0,0:0:0:0:
224,384,73612,1,2,3:1:0:0:
394,242,73766,1,8,0:0:0:0:
223,278,73920,6,2,B|280:292|280:292|301:320|301:320|389:336,1,158.400004833985,2|0,1:2|0:0,0:1:0:0:
476,358,74228,2,2,P|462:319|458:300,2,48,2|0|8,3:2|0:0|0:0,0:1:0:0:
278,21,74535,2,0,P|292:83|313:139,1,96,2|0,3:1|0:0,0:0:0:0:
235,376,74843,5,10,3:0:0:0:
0,133,74997,1,10,3:0:0:0:
365,198,75151,2,2,L|168:236,1,172.799994726563,6|0,1:2|0:0,0:1:0:0:
100,258,75458,2,0,P|108:217|115:199,2,48,0|0|8,3:0|3:0|0:0,0:0:0:0:
395,361,75766,5,2,3:2:0:0:
390,341,75843,1,2,3:2:0:0:
382,316,75920,1,2,1:1:0:0:
302,115,76074,1,2,3:2:0:0:
512,201,76228,1,10,0:0:0:0:
195,230,76381,6,2,P|208:293|280:311,1,144,6|0,1:2|0:0,0:1:0:0:
318,234,76689,2,0,P|324:186|337:140,1,96,2|8,3:1|0:0,0:0:0:0:
78,4,76997,2,0,P|93:59|98:109,1,96,2|0,0:1|3:0,0:0:0:0:
100,199,77228,1,0,3:0:0:0:
100,199,77304,2,0,P|138:192|170:192,1,48,2|0,3:2|0:0,0:0:0:0:
235,44,77458,2,0,P|273:51|305:51,1,48,8|0,0:0|0:0,0:0:0:0:
511,257,77612,6,2,B|470:197|395:220|395:220|436:258|404:296,1,180,6|0,1:2|0:0,0:1:0:0:
329,288,77920,1,0,3:0:0:0:
391,54,78074,2,0,P|398:92|410:136,1,60,10|0,0:0|0:0,0:0:0:0:
83,288,78228,1,2,3:1:0:0:
298,136,78381,1,0,1:0:0:0:
104,36,78535,1,2,3:1:0:0:
253,242,78689,1,8,0:0:0:0:
23,203,78843,2,2,L|94:191,2,60,6|0|0,1:2|0:0|0:0,0:1:0:0:
400,281,79151,6,2,L|329:269,1,60,6|0,1:2|0:0,0:1:0:0:
234,345,79304,1,10,0:0:0:0:
234,345,79381,1,8,0:0:0:0:
234,345,79458,2,2,L|254:232,1,105.600003222656,6|0,1:2|3:0,0:1:0:0:
381,12,79766,5,6,3:1:0:0:
100,191,79920,1,8,0:0:0:0:
373,370,80074,1,8,3:3:0:0:
34,113,80228,6,2,B|-13:168|-13:168|9:216|22:288,1,180,14|0,1:1|0:0,0:1:0:0:
11,308,80535,1,8,0:0:0:0:
356,150,80689,1,2,3:1:0:0:
356,150,80766,1,0,3:0:0:0:
356,150,80843,2,0,P|312:143|281:137,1,60,0|0,1:0|0:0,0:0:0:0:
100,191,80997,1,2,3:1:0:0:
323,312,81151,1,8,0:0:0:0:
222,67,81304,6,2,B|193:165|193:165|229:192|234:238,1,158.400004833985,2|0,1:2|0:0,0:1:0:0:
151,277,81612,2,0,P|80:299|20:327,1,105.600003222656,2|8,3:1|0:0,0:0:0:0:
296,140,81920,1,2,3:1:0:0:
183,375,82074,1,0,1:0:0:0:
97,182,82228,1,10,3:3:0:0:
374,314,82381,1,8,0:0:0:0:
0,206,82535,6,2,L|27:-12,1,180,6|0,1:1|0:0,0:1:0:0:
25,0,82843,1,0,3:0:0:0:
204,312,82997,1,8,0:0:0:0:
204,312,83074,1,0,0:0:0:0:
204,312,83151,2,0,B|128:291|136:355|62:320,1,144,2|0,0:1|0:0,0:0:0:0:
45,315,83458,1,2,3:1:0:0:
297,384,83612,1,8,0:0:0:0:
274,0,83766,6,2,B|255:49|255:49|269:91|269:91|254:135,1,144,2|0,1:2|0:0,0:1:0:0:
441,183,84074,2,2,P|389:168|329:149,1,96,2|8,3:2|0:0,0:1:0:0:
204,312,84381,2,0,P|254:295|306:283,1,96,2|0,3:1|0:0,0:0:0:0:
512,347,84689,1,10,3:0:0:0:
103,242,84843,1,10,3:0:0:0:
478,78,84997,2,2,L|507:248,1,172.799994726563,6|0,1:2|0:0,0:1:0:0:
391,326,85304,2,0,P|404:292|411:265,2,48,0|0|8,3:0|3:0|0:0,0:0:0:0:
127,23,85612,5,2,3:2:0:0:
132,43,85689,1,2,3:2:0:0:
140,68,85766,1,2,1:1:0:0:
342,216,85920,1,2,3:2:0:0:
116,310,86074,1,10,0:0:0:0:
289,132,86228,6,2,B|257:141|223:119|223:119|259:181|242:263,1,180,6|0,1:2|0:0,0:1:0:0:
85,191,86535,2,0,P|128:183|159:178,1,60,2|0,3:1|0:0,0:0:0:0:
291,33,86689,1,8,0:0:0:0:
442,245,86843,2,0,P|402:229|331:214,1,105.600003222656,2|0,0:1|3:0,0:0:0:0:
153,282,87151,1,2,3:2:0:0:
428,134,87304,1,8,0:0:0:0:
184,0,87458,6,2,P|208:83|239:207,1,192,6|0,1:2|3:0,0:1:0:0:
258,382,87920,1,10,0:0:0:0:
73,181,88074,2,0,P|107:175|137:166,1,62.3999971435548,2|0,3:1|0:0,0:0:0:0:
310,72,88228,1,0,1:0:0:0:
475,294,88381,2,0,P|444:283|403:277,2,52.8000016113282,2|0|8,3:1|0:0|0:0,0:0:0:0:
41,17,88689,5,2,1:2:0:0:
41,17,88997,2,2,B|52:58|52:58|64:74|64:74|82:151,1,105.600003222656,2|10,1:2|0:0,0:1:0:0:
0,167,89228,1,8,0:0:0:0:
0,167,89304,2,2,B|90:142|60:210|167:174,1,158.400004833985,2|0,1:2|0:0,0:1:0:0:
186,156,89612,1,0,3:1:0:0:
353,380,89766,5,8,0:0:0:0:
301,384,89842,1,8,3:0:0:0:
257,356,89919,1,0,3:0:0:0:
240,307,89996,1,0,1:0:0:0:
257,258,90074,2,0,P|273:203|294:77,1,172.799994726563,6|0,1:0|0:0,0:0:0:0:
295,0,90381,1,8,0:0:0:0:
474,224,90535,2,0,P|409:199|373:187,1,105.600003222656,2|0,3:1|1:0,0:0:0:0:
186,156,90843,1,2,3:2:0:0:
424,91,90997,1,8,0:0:0:0:
116,31,91151,6,2,B|99:26|80:4|80:4|-19:44|46:144,1,187.199991430664,2|0,1:2|0:0,0:1:0:0:
52,126,91458,1,2,3:2:0:0:
267,191,91612,1,8,0:0:0:0:
29,273,91766,2,0,P|38:243|44:208,2,57.5999982421876,2|0|0,3:1|0:0|1:0,0:1:0:0:
203,62,92074,2,0,L|177:184,1,96,2|8,1:2|0:0,0:0:0:0:
512,225,92381,6,0,B|454:208|454:208|432:239|392:237,1,115.199996484375,2|0,1:1|3:0,0:0:0:0:
388,146,92612,1,0,3:0:0:0:
388,146,92689,1,2,3:2:0:0:
150,340,92843,2,0,B|232:319|203:383|312:355,1,158.400004833985,12|0,0:0|0:0,0:0:0:0:
330,331,93151,1,2,1:2:0:0:
180,174,93304,1,0,3:0:0:0:
343,46,93458,1,8,0:0:0:0:
79,252,93612,5,2,3:2:0:0:
161,39,93766,1,0,1:0:0:0:
349,188,93920,1,0,3:0:0:0:
35,132,94074,6,0,B|76:137|76:137|98:158|98:158|168:170,1,105.600003222656,10|0,0:0|0:0,0:0:0:0:
227,197,94304,1,0,0:0:0:0:
227,197,94381,2,0,L|215:123,1,52.8000016113282,2|0,3:2|0:0,0:0:0:0:
79,252,94535,2,0,L|91:326,1,52.8000016113282,2|0,1:2|0:0,0:0:0:0:
321,374,94689,5,10,0:0:0:0:
378,379,94765,1,0,0:0:0:0:
426,348,94842,1,10,3:3:0:0:
445,294,94919,1,0,0:0:0:0:
436,241,94997,2,2,B|431:182|375:146|375:146|417:160|470:113,1,187.199991430664,6|0,1:2|0:0,0:1:0:0:
392,45,95304,1,8,0:0:0:0:
228,262,95458,2,0,P|276:241|347:221,1,105.600003222656,2|0,3:1|1:0,0:0:0:0:
509,184,95766,1,2,3:2:0:0:
286,16,95920,2,0,P|300:60|308:109,1,52.8000016113282,10|0,0:0|0:0,0:0:0:0:
230,375,96074,6,2,B|166:356|166:356|143:309|143:309|60:283,1,187.199991430664,6|0,1:2|0:0,0:1:0:0:
58,286,96381,1,2,3:2:0:0:
289,307,96535,1,8,0:0:0:0:
133,67,96689,2,0,P|161:132|176:187,1,115.199996484375,2|0,3:1|1:0,0:0:0:0:
332,66,96997,2,2,P|320:34|315:7,2,57.5999982421876,2|0|8,1:2|3:0|0:0,0:1:0:0:
512,254,97304,6,2,B|451:211|451:211|330:242,1,187.199991430664,6|0,1:2|0:0,0:1:0:0:
310,232,97612,1,10,0:1:0:0:
57,350,97766,2,0,P|118:331|174:317,1,105.600003222656,0|0,1:0|0:0,0:0:0:0:
372,141,98074,5,0,3:0:0:0:
273,384,98228,1,8,0:0:0:0:
181,209,98381,5,0,3:0:0:0:
471,332,98535,1,0,1:0:0:0:
100,323,98689,5,0,3:0:0:0:
354,233,98843,1,8,0:2:0:0:
157,94,98997,5,0,3:0:0:0:
262,366,99151,1,8,1:3:0:0:
39,128,99304,5,8,1:3:0:0:
318,0,99458,1,8,3:3:0:0:
241,348,99612,1,8,1:3:0:0:
241,348,99920,2,0,B|246:304|246:304|250:298|250:298|258:241,1,86.3999973632813,4|0,1:2|0:0,0:0:0:0:
323,214,100151,1,0,0:0:0:0:
323,214,100228,2,0,B|244:198|262:265|164:229,1,158.400004833985,10|0,0:0|0:0,0:0:0:0:
68,166,100535,2,0,P|82:226|92:286,1,105.600003222656,2|0,1:2|3:0,0:0:0:0:
209,135,100843,1,10,0:0:0:0:
378,299,100997,6,0,B|399:264|451:249|451:249|417:214|406:164,1,172.799994726563,2|0,1:2|3:0,0:0:0:0:
376,97,101458,2,0,B|439:88|439:88|456:111|487:116,1,105.600003222656,10|0,0:0|0:0,0:0:0:0:
323,214,101766,1,2,1:2:0:0:
203,80,101920,1,0,3:0:0:0:
365,0,102074,1,10,0:0:0:0:
184,199,102228,6,0,B|94:186|123:261|9:224,1,158.400004833985,6|0,1:2|0:0,0:0:0:0:
10,216,102535,1,2,3:0:0:0:
148,378,102689,2,0,P|158:332|173:283,1,86.3999973632813,10|0,0:0|0:0,0:0:0:0:
303,103,102997,1,2,1:2:0:0:
299,342,103151,1,0,3:0:0:0:
473,232,103304,1,10,0:0:0:0:
328,202,103458,5,2,3:2:0:0:
342,226,103534,1,2,0:2:0:0:
353,253,103611,1,2,0:2:0:0:
171,115,103766,1,2,3:2:0:0:
389,10,103920,1,10,0:0:0:0:
234,199,104074,2,0,P|186:208|134:225,1,86.3999973632813,2|0,0:0|1:0,0:0:0:0:
0,364,104381,5,2,3:2:0:0:
261,287,104535,1,10,0:0:0:0:
79,114,104689,1,2,3:2:0:0:
79,114,104766,1,0,0:0:0:0:
79,114,104843,2,0,B|70:157|70:157|71:166|71:166|61:217,1,86.3999973632813,4|0,1:2|0:0,0:0:0:0:
0,241,105074,1,0,0:0:0:0:
0,241,105151,2,0,B|91:224|56:290|153:267,1,158.400004833985,10|0,0:0|0:0,0:0:0:0:
260,195,105458,2,0,B|217:168|217:168|157:185,1,105.600003222656,2|0,1:2|3:0,0:0:0:0:
231,345,105766,1,8,0:0:0:0:
410,194,105920,6,0,B|487:195|504:267|504:267|472:256|436:274,1,172.799994726563,2|0,1:2|3:0,0:0:0:0:
346,381,106381,2,0,P|358:327|372:275,1,86.3999973632813,10|0,0:0|0:0,0:0:0:0:
441,114,106689,1,2,1:2:0:0:
271,252,106843,1,0,3:0:0:0:
454,349,106997,1,10,0:0:0:0:
251,158,107151,6,0,B|175:192|175:192|185:244|163:265,1,158.400004833985,6|0,1:2|0:0,0:0:0:0:
86,222,107458,1,0,3:0:0:0:
324,55,107612,2,0,P|342:119|368:177,1,105.600003222656,10|0,0:0|0:0,0:0:0:0:
471,384,107920,1,2,1:2:0:0:
280,281,108074,1,0,3:0:0:0:
462,144,108228,1,8,0:0:0:0:
397,312,108381,5,2,1:2:0:0:
386,285,108458,1,2,0:2:0:0:
372,261,108534,1,2,0:2:0:0:
213,75,108689,1,2,3:2:0:0:
471,121,108843,1,10,0:0:0:0:
193,253,108997,2,0,B|253:235|253:235|278:194|278:194|366:166,1,187.199991430664,6|0,1:2|0:0,0:0:0:0:
355,156,109304,1,2,3:2:0:0:
289,9,109458,2,0,P|304:61|310:87,1,62.3999971435548,10|8,0:0|0:0,0:0:0:0:
482,277,109612,2,0,P|467:225|461:199,1,62.3999971435548,10|0,3:2|0:0,0:0:0:0:
194,150,109766,6,0,B|157:141|157:141|146:142|146:142|107:135,1,86.3999973632813,0|0,1:0|0:0,0:0:0:0:
90,55,109997,1,0,0:0:0:0:
90,55,110074,2,0,B|123:140|42:120|80:223,1,158.400004833985,10|0,0:0|0:0,0:0:0:0:
32,324,110381,2,0,B|74:296|74:296|155:309,1,105.600003222656,2|0,1:2|3:0,0:0:0:0:
4,85,110689,1,10,0:0:0:0:
204,237,110843,6,0,B|245:275|240:327|240:327|195:347|195:402,1,172.799994726563,6|0,1:2|3:0,0:0:0:0:
392,224,111304,2,0,P|404:165|421:105,1,86.3999973632813,10|0,0:0|0:0,0:0:0:0:
359,383,111612,1,2,1:2:0:0:
128,299,111766,1,0,3:0:0:0:
310,160,111920,1,10,0:0:0:0:
219,323,112074,6,0,B|188:333|158:332|158:332|135:368|135:368|103:369|71:380,1,158.400004833985,6|0,1:2|0:0,0:0:0:0:
52,384,112381,1,2,3:0:0:0:
197,171,112535,2,0,P|211:232|217:254,2,52.8000016113282,10|0|0,0:0|0:0|0:0,0:0:0:0:
364,349,112843,2,0,B|378:353|391:365|391:365|472:333|430:251,1,158.400004833985,6|0,1:2|0:0,0:0:0:0:
410,241,113151,1,10,0:0:0:0:
287,55,113304,5,2,3:2:0:0:
287,55,113381,1,2,3:2:0:0:
287,55,113458,2,8,P|294:96|299:135,1,52.8000016113282,10|8,0:0|0:3,0:0:0:0:
320,258,113612,2,0,P|323:231|328:205,1,52.8000016113282,2|0,1:2|3:0,0:0:0:0:
437,80,113766,6,0,P|394:101|366:108,1,62.3999971435548,10|8,0:0|0:3,0:0:0:0:
184,216,113920,2,0,P|216:199|257:184,1,62.3999971435548,2|0,1:2|3:0,0:0:0:0:
503,188,114074,5,8,0:0:0:0:
503,188,114151,1,8,0:3:0:0:
503,188,114228,1,2,1:2:0:0:
503,188,114304,1,0,3:0:0:0:
503,188,114381,2,0,L|423:168,1,62.3999971435548,10|8,1:3|0:3,0:0:0:0:
116,101,114535,2,0,L|196:121,1,62.3999971435548,10|8,1:3|0:3,0:0:0:0:
323,384,114689,6,0,B|315:348|315:348|318:340|318:340|306:281,1,86.3999973632813,0|0,1:0|0:0,0:0:0:0:
251,221,114920,1,0,0:0:0:0:
251,221,114997,2,0,B|342:216|299:279|415:266,1,158.400004833985,14|0,0:0|0:0,0:0:0:0:
504,170,115304,2,0,B|454:153|454:153|389:184,1,105.600003222656,2|0,1:2|3:0,0:0:0:0:
477,325,115612,1,10,0:0:0:0:
325,99,115766,6,0,B|320:40|297:3|297:3|335:35|394:19,1,172.799994726563,6|0,1:2|3:0,0:0:0:0:
254,179,116228,2,0,B|213:188|213:188|185:224|185:224|124:239,1,129.599996044922,10|0,0:0|0:0,0:0:0:0:
100,237,116535,1,2,1:2:0:0:
341,290,116689,1,0,3:0:0:0:
220,52,116843,1,10,0:0:0:0:
222,334,116997,6,0,P|232:273|257:166,1,158.400004833985,6|0,1:2|0:0,0:0:0:0:
271,139,117304,1,2,3:0:0:0:
512,249,117458,2,0,B|469:222|469:222|406:225,1,105.600003222656,10|0,0:0|0:0,0:0:0:0:
313,49,117766,2,0,B|343:77|388:83|388:83|357:117|363:173,1,158.400004833985,6|0,1:2|0:0,0:0:0:0:
362,151,118074,1,10,0:0:0:0:
109,234,118228,5,2,3:2:0:0:
123,258,118304,1,2,0:2:0:0:
134,285,118381,1,2,0:2:0:0:
271,139,118535,1,0,3:2:0:0:
97,37,118689,1,8,0:2:0:0:
0,166,118843,2,0,B|45:152|45:152|56:155|56:155|113:135,1,105.600003222656,2|0,0:0|1:0,0:0:0:0:
305,50,119151,5,2,3:2:0:0:
118,225,119304,1,2,3:2:0:0:
360,293,119458,1,2,3:2:0:0:
215,215,119612,6,0,B|183:141|259:151|204:49,1,153.6,6|0,1:2|0:0,0:0:0:0:
61,137,120074,2,0,P|102:119|138:106,1,76.8,2|0,3:2|0:0,0:0:0:0:
371,214,120381,2,0,P|337:193|301:179,1,76.8,2|2,3:2|0:3,0:0:0:0:
134,279,120689,2,0,B|170:295|196:327|196:327|233:304|275:302,1,153.6,2|0,0:2|0:0,0:0:0:0:
366,384,121151,2,0,L|345:228,1,153.6,2|0,0:3|0:0,0:0:0:0:
195,101,121612,5,0,0:0:0:0:
177,207,121766,2,0,B|213:194|213:194|263:201,1,76.8,4|0,0:3|0:0,0:0:0:0:
437,102,122074,2,0,P|374:123|286:115,1,153.6,2|0,1:2|0:0,0:0:0:0:
278,27,122535,2,0,P|341:6|429:14,1,153.6,2|0,1:2|0:0,0:0:0:0:
414,262,122997,6,0,P|375:256|337:253,1,76.8,2|0,0:1|0:0,0:0:0:0:
323,260,123304,1,2,0:3:0:0:
437,102,123612,2,0,P|404:122|373:145,1,76.8,2|0,0:1|0:0,0:0:0:0:
367,158,123919,1,2,3:0:0:0:
498,170,124074,1,0,1:0:0:0:
504,47,124228,1,2,0:1:0:0:
373,35,124381,5,2,0:2:0:0:
373,35,124458,1,2,0:2:0:0:
373,35,124535,2,0,B|288:23|311:89|225:71,1,153.6,2|2,1:2|0:3,0:0:0:0:
164,162,124997,2,0,L|129:1,1,153.6,2|0,1:2|0:0,0:0:0:0:
95,244,125458,1,2,3:2:0:0:
258,179,125612,2,0,L|293:340,1,153.6,0|0,1:0|0:0,0:0:0:0:
443,268,126074,2,0,L|347:235,1,76.8,2|0,0:1|0:0,0:0:0:0:
257,81,126381,2,0,P|294:70|335:130,1,115.2,2|0,0:0|0:0,0:0:0:0:
332,160,126689,2,0,L|242:182,1,76.8,4|0,0:3|0:0,0:0:0:0:
85,262,126997,5,2,1:2:0:0:
140,118,127151,1,0,0:0:0:0:
191,296,127304,5,2,0:1:0:0:
33,152,127458,2,0,P|53:88|74:-12,1,153.6,2|0,1:2|0:0,0:0:0:0:
177,44,127920,2,0,P|157:114|137:224,1,153.6,2|0,0:3|0:0,0:0:0:0:
204,367,128381,5,2,0:0:0:0:
389,302,128535,1,2,0:1:0:0:
326,128,128689,1,2,0:0:0:0:
141,193,128843,5,2,0:0:0:0:
214,249,128997,1,2,0:1:0:0:
252,168,129151,1,2,0:3:0:0:
181,111,129304,1,2,0:3:0:0:
144,311,129458,6,0,B|174:306|198:297|198:297|233:315|233:315|272:302|306:297,1,153.6,2|2,1:2|0:3,0:0:0:0:
403,344,129920,2,0,L|374:259,1,76.8,2|0,1:0|0:0,0:0:0:0:
258,214,130228,2,0,L|282:141,1,76.8,0|2,3:0|0:1,0:0:0:0:
465,90,130535,2,0,B|410:69|410:69|357:101|385:167,1,153.6,6|0,0:3|0:0,0:0:0:0:
502,181,130997,2,0,B|464:191|445:233|445:233|490:252|498:309,1,153.6,2|0,0:1|0:0,0:0:0:0:
436,362,131458,1,0,0:0:0:0:
349,247,131612,2,0,L|370:158,1,76.8
204,338,131920,6,0,B|293:311|262:380|364:348,1,153.6,2|0,1:2|0:0,0:0:0:0:
107,317,132381,2,0,B|116:266|116:266|155:245|155:245|173:167,1,153.6,2|0,1:2|0:0,0:0:0:0:
99,26,132843,2,0,L|129:125,1,76.8,2|0,0:1|0:0,0:0:0:0:
120,120,133151,1,2,0:3:0:0:
303,64,133458,2,0,L|246:150,1,76.8,2|0,0:1|0:0,0:0:0:0:
244,140,133766,1,2,3:0:0:0:
319,234,133920,1,0,1:0:0:0:
191,253,134074,1,2,0:1:0:0:
399,155,134228,5,0,0:0:0:0:
399,155,134304,1,0,0:0:0:0:
399,155,134381,2,0,B|431:252|431:252|377:291|404:363,1,192,6|0,1:2|0:0,0:0:0:0:
165,352,134843,2,0,B|254:332|222:402|341:360,1,144,2|0,3:2|0:0,0:0:0:0:
305,353,135151,1,2,0:0:0:0:
492,175,135304,2,0,L|387:152,1,96,2|0,0:1|0:0,0:0:0:0:
72,107,135612,5,0,1:0:0:0:
319,27,135766,1,0,3:0:0:0:
218,278,135920,2,0,L|205:212,1,48,8|0,0:0|0:0,0:0:0:0:
180,128,136074,5,10,0:2:0:0:
180,128,136151,1,8,0:2:0:0:
180,128,136228,1,8,1:2:0:0:
224,112,136304,1,8,3:2:0:0:
271,121,136381,1,10,1:2:0:0:
306,153,136458,1,8,3:2:0:0:
319,199,136535,1,8,1:2:0:0:
331,244,136611,1,8,3:2:0:0:
368,273,136688,1,10,1:2:0:0:
416,274,136765,1,8,3:2:0:0:
454,245,136843,2,0,B|474:219|511:194|511:194|470:124|470:56,1,187.199991430664,12|0,1:0|0:0,0:0:0:0:
180,128,137151,5,8,0:2:0:0:
254,384,137304,1,0,3:2:0:0:
406,167,137458,1,0,1:2:0:0:
116,200,137612,5,2,1:2:0:0:
342,353,137766,1,2,0:1:0:0:
338,92,137920,1,0,3:2:0:0:
71,302,138074,5,2,1:2:0:0:
272,222,138228,1,2,0:1:0:0:
53,146,138381,1,8,0:2:0:0:
350,335,138535,5,2,1:2:0:0:
136,213,138689,1,2,0:1:0:0:
388,211,138843,1,0,3:0:0:0:
167,367,138997,5,8,0:0:0:0:
319,61,139151,1,2,3:1:0:0:
319,61,139228,1,2,3:0:0:0:
319,61,139304,2,2,B|351:123|291:164|291:164|266:162|266:162|187:207|245:292,2,249.599988574219,2|8|0,1:3|0:0|1:0,0:1:0:0:
369,235,140074,1,0,3:0:0:0:
199,95,140228,1,8,0:0:0:0:
501,51,140381,5,2,0:0:0:0:
501,51,140458,1,2,0:0:0:0:
501,51,140535,2,2,B|464:-1|398:10|398:10|431:56|407:118,1,187.199991430664,2|0,1:2|0:0,0:1:0:0:
283,307,140843,1,10,0:2:0:0:
320,63,140997,1,2,3:2:0:0:
512,219,141151,2,2,B|485:220|462:210|462:210|442:178|386:172,1,124.79999428711,2|0,0:1|3:0,0:1:0:0:
297,154,141381,2,0,P|306:194|317:236,1,62.3999971435548,2|8,0:2|0:0,0:0:0:0:
364,374,141612,1,2,3:2:0:0:
0,196,141766,6,2,B|22:200|46:192|46:192|63:217|63:217|82:196|109:184|109:184|153:240|239:224,1,249.599988574219,2|8,1:2|0:0,0:1:0:0:
66,102,142228,1,0,0:0:0:0:
90,383,142381,2,0,P|101:331|115:277,1,86.3999973632813,0|0,1:0|0:0,0:0:0:0:
332,131,142689,2,0,P|315:192|306:244,1,86.3999973632813,8|2,0:0|0:0,0:0:0:0:
437,384,142997,5,2,1:2:0:0:
396,357,143074,1,2,0:2:0:0:
383,310,143151,1,2,3:2:0:0:
405,266,143228,1,2,0:2:0:0:
450,247,143305,1,10,0:2:0:0:
489,232,143381,1,2,0:2:0:0:
510,195,143458,1,2,3:2:0:0:
504,154,143535,1,2,0:2:0:0:
473,125,143612,5,2,1:1:0:0:
473,125,143689,1,2,0:0:0:0:
473,125,143766,2,0,P|435:137|402:140,1,62.3999971435548,2|0,3:2|0:0,0:0:0:0:
309,240,143920,1,10,0:1:0:0:
309,240,143997,1,2,0:0:0:0:
309,240,144074,2,0,P|271:228|238:225,1,62.3999971435548,2|0,3:2|0:0,0:0:0:0:
41,213,144228,6,2,B|12:166|72:104|72:104|120:101|152:56|152:56|124:43|112:6,2,268.799991796875,0|8|0,1:0|0:0|0:0,0:1:0:0:
204,311,144997,1,0,3:0:0:0:
35,18,145151,1,8,0:0:0:0:
50,312,145304,2,2,B|79:293|104:290|104:290|134:240|134:240|180:227|216:205,1,172.799994726563,2|0,1:0|0:0,0:1:0:0:
336,114,145612,5,2,3:0:0:0:
336,114,145689,1,0,3:0:0:0:
336,114,145766,2,0,P|347:161|352:196,1,67.1999979492188,14|0,0:0|0:0,0:0:0:0:
273,384,145920,1,0,1:0:0:0:
216,101,146074,1,2,0:0:0:0:
474,213,146228,1,2,3:1:0:0:
204,311,146381,2,0,B|258:290|258:290|289:301|328:295,1,124.79999428711,12|0,0:2|3:0,0:0:0:0:
300,52,146689,5,2,1:0:0:0:
12,139,146843,1,0,3:0:0:0:
323,175,146997,5,10,0:1:0:0:
122,12,147151,1,0,0:0:0:0:
408,89,147304,5,2,1:0:0:0:
116,190,147458,1,0,3:0:0:0:
365,384,147612,1,10,0:2:0:0:
253,0,147766,6,2,B|239:40|239:40|266:58|269:93|269:93|243:105|225:123|225:123|253:177|237:239,1,268.799991796875,6|0,1:1|3:0,0:1:0:0:
332,257,148228,2,0,B|372:240|376:195|376:195|349:164|328:132,1,134.399995898438,10|0,0:0|0:0,0:0:0:0:
151,68,148535,1,2,1:1:0:0:
397,27,148689,1,0,3:0:0:0:
89,148,148843,2,0,B|67:117|43:97|43:97|56:71|63:28,1,134.399995898438,8|0,0:0|0:0,0:0:0:0:
486,317,149151,6,2,B|380:283|405:385|286:340,1,201.599993847656,6|0,1:2|0:0,0:1:0:0:
221,268,149458,1,10,0:1:0:0:
434,154,149612,2,2,P|443:202|452:232,2,67.1999979492188,2|0|2,3:1|3:0|1:2,0:1:0:0:
116,382,149920,1,2,1:0:0:0:
123,351,149997,1,0,3:0:0:0:
128,320,150073,1,10,0:0:0:0:
474,64,150228,6,2,B|446:56|446:56|421:33|384:37|384:37|371:86|339:106|339:106|302:71|217:72,1,268.799991796875,6|0,1:1|3:0,0:1:0:0:
31,160,150689,2,0,B|103:132|103:132|118:164|155:171,1,134.399995898438,8|0,0:0|3:0,0:0:0:0:
245,171,150920,1,0,3:0:0:0:
245,171,150997,1,0,1:0:0:0:
85,24,151151,1,0,3:0:0:0:
80,248,151304,2,0,P|73:302|57:376,1,115.199996484375,8|0,0:0|0:0,0:0:0:0:
284,356,151612,5,2,1:2:0:0:
274,322,151688,1,0,0:0:0:0:
277,288,151765,1,2,3:2:0:0:
293,257,151842,1,0,0:0:0:0:
318,234,151919,1,10,0:0:0:0:
349,221,151996,1,0,0:0:0:0:
384,220,152073,1,2,3:0:0:0:
416,232,152150,1,0,0:0:0:0:
442,254,152228,2,0,P|453:307|462:341,1,67.1999979492188,2|0,1:2|0:0,0:0:0:0:
326,124,152381,2,0,P|337:71|346:37,1,67.1999979492188,2|0,3:2|0:0,0:0:0:0:
494,130,152535,2,0,P|508:181|516:209,1,67.1999979492188,10|0,0:0|0:0,0:0:0:0:
227,183,152689,6,2,B|140:168|162:242|62:205,1,172.799994726563,6|0,1:2|0:0,0:1:0:0:
103,53,152997,1,2,3:2:0:0:
103,53,153074,1,0,0:0:0:0:
103,53,153151,2,0,P|116:98|122:120,1,57.5999982421876,10|0,0:0|0:0,0:0:0:0:
221,283,153304,1,2,3:2:0:0:
35,194,153458,1,2,1:2:0:0:
266,29,153612,2,0,P|253:82|243:120,1,57.5999982421876,2|0,3:2|0:0,0:0:0:0:
124,311,153766,2,0,P|137:258|147:220,1,57.5999982421876,10|0,0:0|0:0,0:0:0:0:
338,169,153920,5,0,3:0:0:0:
338,169,153997,1,0,3:0:0:0:
338,169,154074,2,2,B|378:178|378:178|405:206|405:206|464:222,1,115.199996484375,12|0,0:2|3:0,0:1:0:0:
111,202,154381,1,0,1:0:0:0:
360,338,154535,5,14,0:0:0:0:
107,105,154689,1,0,3:0:0:0:
428,12,154843,1,0,1:0:0:0:
176,278,154997,6,2,B|138:293|99:321|99:321|58:274|6:255,1,172.799994726563,14|0,0:1|0:0,0:1:0:0:
3,275,155304,1,0,3:0:0:0:
215,92,155458,2,0,P|225:143|235:174,1,62.3999971435548,2|0,1:2|0:0,0:0:0:0:
370,384,155612,5,10,0:0:0:0:
412,371,155688,1,0,0:0:0:0:
436,333,155765,1,2,0:0:0:0:
431,289,155842,1,0,0:0:0:0:
396,259,155920,1,2,1:2:0:0:
354,228,155996,1,0,0:0:0:0:
340,179,156073,1,2,3:2:0:0:
365,135,156150,1,0,0:0:0:0:
412,122,156228,2,0,P|454:144|490:156,3,62.3999971435548,10|2|2|2,0:0|0:0|3:2|0:0,0:0:0:0:
220,298,156535,5,14,0:1:0:0:
17,75,156689,1,0,3:0:0:0:
336,20,156843,1,0,1:0:0:0:
56,339,156997,5,2,1:1:0:0:
416,260,157151,1,0,3:0:0:0:
147,11,157304,1,0,1:0:0:0:
311,365,157458,6,0,B|301:332|326:295|326:295|293:258|285:218,1,124.79999428711,14|0,0:1|3:0,0:0:0:0:
252,58,157766,5,0,1:0:0:0:
45,151,157920,1,8,3:0:0:0:
220,298,158074,1,2,3:2:0:0:
37,50,158228,5,0,1:0:0:0:
325,166,158381,1,0,0:0:0:0:
38,286,158535,1,0,3:0:0:0:
199,195,158689,6,0,B|207:173|209:136|209:136|245:113|245:113|245:73|264:15,1,158.400004833985,10|0,0:0|0:0,0:0:0:0:
177,27,158997,2,0,B|230:40|306:4|306:4|294:61|345:91,1,211.200006445313,6|8,1:2|0:0,0:0:0:0:
436,138,159458,1,2,0:0:0:0:
495,41,159612,2,0,B|448:11|448:11|397:17,1,105.600003222656,0|0,1:0|3:0,0:0:0:0:
249,111,159920,1,10,0:0:0:0:
349,265,160074,6,0,B|369:207|369:207|415:199|415:199|441:120,1,172.799994726563,2|0,1:2|3:0,0:0:0:0:
452,367,160535,2,0,B|410:353|410:353|354:363,1,86.3999973632813,8|0,0:0|0:0,0:0:0:0:
249,111,160843,2,0,B|257:145|257:145|267:159|267:159|277:202,1,86.3999973632813,0|0,1:0|0:0,0:0:0:0:
356,143,161151,1,8,0:0:0:0:
263,295,161304,5,2,0:0:0:0:
263,295,161381,1,2,0:0:0:0:
263,295,161458,2,0,B|167:278|200:368|73:330,1,172.799994726563,2|8,1:2|0:0,0:0:0:0:
108,162,161920,2,0,P|121:198|134:255,1,86.3999973632813,2|0,0:0|3:0,0:0:0:0:
24,384,162228,2,0,P|11:348|-2:291,1,86.3999973632813,2|8,3:2|0:0,0:0:0:0:
0,68,162535,6,0,B|43:84|43:84|76:55|153:60,1,129.599996044922,2|0,1:2|0:0,0:0:0:0:
150,67,162843,1,2,3:2:0:0:
23,208,162997,1,8,0:0:0:0:
215,293,163151,2,0,P|226:239|239:195,2,86.3999973632813,2|0|0,0:0|3:0|3:0,0:0:0:0:
199,384,163612,1,8,0:0:0:0:
125,326,163766,1,0,3:0:0:0:
314,287,163920,6,0,L|491:340,1,172.799994726563,6|8,1:2|0:0,0:0:0:0:
389,91,164381,1,0,0:0:0:0:
492,238,164535,1,2,1:2:0:0:
388,211,164689,1,0,3:0:0:0:
508,114,164843,1,10,0:0:0:0:
296,143,164997,2,0,B|266:162|239:159|239:159|222:184|222:184|187:207|142:201,1,158.400004833985,2|0,1:2|0:0,0:0:0:0:
7,125,165304,2,0,P|14:96|27:62,2,52.8000016113282,2|0|8,3:2|0:0|0:0,0:0:0:0:
2,255,165612,6,0,B|44:247|63:198|63:198|54:238|92:269,1,158.400004833985,2|0,1:2|0:0,0:0:0:0:
109,278,165920,1,2,3:2:0:0:
256,240,166074,1,10,0:0:0:0:
146,120,166228,1,0,0:0:0:0:
186,343,166381,6,0,B|266:319|248:393|344:359,1,158.400004833985,2|0,1:2|0:0,0:0:0:0:
349,337,166689,1,10,0:0:0:0:
348,143,166843,2,0,B|331:190|331:190|348:254,1,86.3999973632813,2|0,1:2|3:0,0:0:0:0:
512,279,167151,2,0,B|527:232|527:232|507:168,1,86.3999973632813,2|8,3:2|0:0,0:0:0:0:
443,35,167458,6,0,P|434:111|427:224,1,172.799994726563,2|0,1:2|3:0,0:0:0:0:
307,328,167920,2,0,P|346:319|402:306,1,86.3999973632813,10|0,0:0|0:0,0:0:0:0:
318,163,168228,1,0,1:0:0:0:
201,288,168381,1,0,3:0:0:0:
207,122,168535,2,0,B|214:159|214:159|223:167|223:167|234:217,1,86.3999973632813,8|0,0:0|0:0,0:0:0:0:
19,365,168843,6,2,B|80:336|111:315|111:315|127:361|180:375,1,172.799994726563,6|0,1:2|0:0,0:1:0:0:
294,307,169151,2,0,P|234:296|187:284,1,96,8|0,0:0|0:0,0:0:0:0:
111,57,169458,1,2,1:0:0:0:
309,144,169612,1,0,3:0:0:0:
106,247,169766,1,10,0:0:0:0:
360,65,169920,6,2,B|385:81|403:89|403:89|436:168|367:214,1,172.799994726563,6|0,1:2|0:0,0:1:0:0:
378,225,170228,1,0,3:0:0:0:
151,158,170381,2,0,P|181:146|221:136,1,57.5999982421876,10|0,0:0|0:0,0:0:0:0:
385,325,170535,2,0,P|332:303|292:267,1,105.600003222656,2|0,1:0|3:0,0:0:0:0:
215,329,170843,2,2,P|208:293|195:261,2,52.8000016113282,2|0|8,3:2|0:0|0:0,0:1:0:0:
309,144,171151,5,0,3:0:0:0:
309,144,171228,1,0,3:0:0:0:
309,144,171304,1,2,1:0:0:0:
125,61,171458,1,0,3:0:0:0:
192,188,171612,2,0,P|212:114|241:14,1,158.400004833985,8|0,0:0|0:0,0:0:0:0:
241,8,171920,1,2,1:0:0:0:
292,248,172074,1,0,3:0:0:0:
79,151,172228,1,2,3:2:0:0:
309,144,172381,6,2,B|412:134|367:212|492:186,1,180,6|0,1:2|0:0,0:1:0:0:
512,106,172689,2,2,P|505:82|496:48,2,60,2|0|8,3:2|0:0|0:0,0:1:0:0:
333,251,172997,2,0,B|286:266|286:266|280:302|239:324,1,105.600003222656,2|0,0:1|3:0,0:0:0:0:
195,241,173228,1,0,3:0:0:0:
195,241,173304,1,2,3:1:0:0:
286,40,173458,2,0,P|299:104|315:170,1,105.600003222656,10|0,0:0|3:0,0:0:0:0:
392,334,173766,5,10,1:1:0:0:
121,160,173920,1,8,3:0:0:0:
417,0,174074,2,0,P|405:52|390:132,1,115.199996484375,12|0,0:0|0:0,0:0:0:0:
216,379,174381,5,10,0:1:0:0:
486,197,174535,1,10,3:0:0:0:
187,69,174689,1,2,1:0:0:0:
495,294,174843,6,2,B|454:289|430:272|430:272|390:301|390:301|362:283|303:281,1,187.199991430664,6|0,1:1|0:0,0:1:0:0:
238,290,175151,2,0,B|228:248|228:248|243:220|251:178,1,96,2|8,3:2|0:0,0:0:0:0:
20,66,175458,2,2,B|2:106|2:106|51:164|105:124,1,144,2|0,1:0|0:0,0:1:0:0:
167,85,175766,1,2,3:2:0:0:
367,232,175920,1,8,0:0:0:0:
108,384,176074,6,2,B|103:293|176:316|164:218,1,172.799994726563,6|0,1:0|0:0,0:1:0:0:
164,203,176381,1,2,0:2:0:0:
375,328,176535,2,2,B|345:317|345:317|314:323|314:323|272:310,2,96,10|8|0,0:0|0:3|1:0,0:1:0:0:
60,233,176997,1,2,3:1:0:0:
417,216,177151,1,10,0:0:0:0:
128,27,177304,2,2,P|151:114|164:203,1,180,6|0,1:2|0:0,0:1:0:0:
158,312,177612,1,0,3:0:0:0:
300,165,177766,5,8,0:0:0:0:
41,83,177920,1,0,3:0:0:0:
279,62,178074,5,8,3:0:0:0:
0,214,178228,1,0,1:0:0:0:
276,369,178381,1,8,0:0:0:0:
163,202,178535,5,12,1:1:0:0:
194,194,184689,6,0,B|233:183|233:183|254:195|282:195,1,86.3999973632813,2|0,1:2|0:0,0:0:0:0:
432,249,184997,1,0,3:0:0:0:
285,103,185151,2,0,P|297:178|317:302,1,172.799994726563,0|0,1:0|0:0,0:0:0:0:
387,122,185920,6,0,P|427:132|484:151,1,86.3999973632813,2|0,1:2|0:0,0:0:0:0:
199,176,186228,1,0,3:0:0:0:
385,26,186381,2,0,B|292:37|333:100|219:87,1,172.799994726563,0|0,1:0|0:0,0:0:0:0:
199,176,187151,6,0,B|168:191|152:215|152:215|85:238|23:183|26:92,1,249.599988574219,6|0,1:2|0:0,0:0:0:0:
258,95,187612,1,8,3:0:0:0:
306,260,187766,2,0,B|337:275|353:299|353:299|420:322|482:267|479:176,1,249.599988574219,6|8,1:2|0:3,0:0:0:0:
221,308,188228,1,8,3:0:0:0:
153,5,188381,2,0,L|173:129,1,96,2|0,1:2|0:0,0:0:0:0:
370,186,188689,2,0,L|350:62,1,96,2|0,3:2|0:0,0:0:0:0:
91,217,188997,2,0,B|137:202|137:202|191:217,1,96,2|0,1:2|0:0,0:0:0:0:
451,286,189304,2,0,B|420:303|390:294|390:294|374:283|374:283|342:273|295:288,1,144,2|0,1:2|0:0,0:0:0:0:
289,278,189612,1,0,3:0:0:0:
23,148,189766,6,2,B|-18:205|-18:205|15:260|15:317,1,172.799994726563,6|0,1:1|0:0,0:1:0:0:
13,326,190074,1,0,3:0:0:0:
184,195,190228,1,2,1:2:0:0:
184,195,190304,1,0,3:0:0:0:
184,195,190381,2,0,L|74:219,1,96,8|2,1:2|3:2,0:0:0:0:
23,148,190689,1,0,0:0:0:0:
139,302,190843,6,2,B|220:291|187:349|294:329,1,144,10|0,1:2|0:0,0:0:0:0:
368,339,191151,2,0,B|358:299|358:299|359:286|359:286|349:235,1,96,2|0,3:2|0:0,0:0:0:0:
295,80,191458,5,2,3:2:0:0:
435,212,191612,1,8,0:0:0:0:
216,186,191766,5,2,3:2:0:0:
489,103,191920,1,0,1:0:0:0:
157,105,192074,6,2,B|142:123|120:129|120:129|106:160|124:225|124:225|94:171|9:176,1,240,14|0,1:2|3:0,0:1:0:0:
0,194,192458,1,0,3:0:0:0:
0,194,192535,1,8,3:0:0:0:
34,341,192689,2,0,P|41:298|51:267,2,60,4|0|8,3:2|0:0|0:0,0:0:0:0:
277,309,192997,2,0,B|236:289|236:289|192:306|161:298,1,120,2|0,1:2|3:0,0:0:0:0:
238,172,193304,6,0,B|313:156|289:221|405:181,1,144,2|0,1:2|0:0,0:0:0:0:
455,132,193612,2,0,B|473:184|473:184|461:215|461:252,1,96,2|0,3:2|0:0,0:0:0:0:
135,192,193920,1,0,3:0:0:0:
135,192,193997,1,0,3:0:0:0:
135,192,194074,2,0,P|152:128|157:27,1,144,14|0,0:2|0:0,0:0:0:0:
143,14,194381,1,2,3:2:0:0:
45,241,194535,6,0,B|96:232|137:206|137:206|157:274|226:274,1,192,14|0,1:2|0:0,0:0:0:0:
302,262,194997,1,0,3:0:0:0:
235,181,195151,1,0,3:0:0:0:
235,181,195228,1,0,3:0:0:0:
235,181,195304,1,14,0:0:0:0:
275,355,195458,1,2,0:0:0:0:
404,240,195612,1,2,3:2:0:0:
197,270,195766,6,0,B|140:278|140:278|120:298|120:298|50:307,1,144,10|0,1:2|0:0,0:0:0:0:
60,212,196074,2,0,B|40:157|75:109|75:109|29:144|-3:137,1,192,2|2,1:2|3:2,0:0:0:0:
235,181,196535,2,0,B|206:172|206:172|180:177|180:177|137:163,1,96,12|2,0:0|0:0,0:0:0:0:
11,36,196843,1,0,0:0:0:0:
245,63,196997,2,0,B|264:138|264:138|262:146|262:146|291:256,1,192,8|0,1:2|3:0,0:0:0:0:
320,354,197458,1,12,0:0:0:0:
135,329,197612,2,0,B|184:307|184:307|202:319|234:319,1,96,2|0,3:2|0:0,0:0:0:0:
398,264,197920,1,2,3:2:0:0:
398,264,197997,1,0,3:0:0:0:
398,264,198074,1,12,0:0:0:0:
301,190,198228,6,0,P|291:236|286:274,3,60,2|0|0|0,1:1|0:0|0:0|0:0,0:0:0:0:
374,69,198535,1,2,1:1:0:0:
374,69,198612,1,0,3:0:0:0:
374,69,198689,1,8,0:0:0:0:
116,196,198843,1,2,3:1:0:0:
368,355,198997,5,8,1:2:0:0:
201,57,199151,1,2,3:1:0:0:
32,345,199304,5,12,3:1:0:0:
368,169,199458,1,0,3:0:0:0:
375,191,199535,1,0,3:0:0:0:
381,212,199612,2,2,B|282:185|282:185|261:228|206:227,1,180,14|0,1:1|0:0,0:1:0:0:
179,216,199920,1,8,0:0:0:0:
309,35,200074,1,2,3:1:0:0:
309,35,200151,1,0,3:0:0:0:
309,35,200228,2,0,P|319:95|332:129,1,60,0|0,1:0|0:0,0:0:0:0:
353,290,200381,1,2,3:1:0:0:
191,106,200535,1,8,0:0:0:0:
506,62,200689,6,2,P|485:139|474:239,1,172.799994726563,2|0,1:2|0:0,0:1:0:0:
444,315,200997,2,0,P|484:324|545:343,1,96,2|8,3:1|0:0,0:0:0:0:
132,279,201304,5,2,3:1:0:0:
390,193,201458,1,0,1:0:0:0:
156,68,201612,1,10,3:3:0:0:
313,298,201766,1,8,0:0:0:0:
57,214,201920,6,2,B|46:195|23:189|23:189|95:134|173:191,1,180,6|0,1:2|0:0,0:1:0:0:
184,192,202228,1,0,3:0:0:0:
274,68,202381,2,0,P|256:112|247:147,1,60,8|0,0:0|0:0,0:0:0:0:
163,379,202535,2,0,P|150:332|127:267,1,105.600003222656,2|0,0:1|1:0,0:0:0:0:
44,87,202843,1,2,3:1:0:0:
0,300,202997,1,8,0:0:0:0:
184,192,203151,6,2,B|227:189|261:169|261:169|277:223|302:244,1,158.400004833985,2|0,1:2|0:0,0:1:0:0:
382,298,203458,2,2,P|384:254|392:226,2,52.8000016113282,2|0|8,3:2|0:0|0:0,0:1:0:0:
195,94,203766,2,0,P|207:44|211:-4,1,96,2|0,3:1|0:0,0:0:0:0:
70,284,204074,5,10,3:0:0:0:
383,153,204228,1,10,3:0:0:0:
14,157,204381,2,2,L|208:197,1,172.799994726563,6|0,1:2|0:0,0:1:0:0:
289,219,204689,2,0,P|278:167|277:146,2,48,0|0|8,3:0|3:0|0:0,0:0:0:0:
160,317,204997,5,2,3:2:0:0:
165,297,205074,1,2,3:2:0:0:
171,271,205151,1,2,1:1:0:0:
202,63,205305,1,2,3:2:0:0:
371,226,205459,1,10,0:0:0:0:
36,216,205612,6,2,B|66:212|90:208|90:208|120:181|120:181|160:178|192:172,1,144,6|0,1:2|0:0,0:1:0:0:
271,252,205920,2,0,B|257:206|257:206|272:138,1,96,2|8,3:1|0:0,0:0:0:0:
458,9,206228,2,0,B|472:55|472:55|452:120,1,96,2|0,0:1|3:0,0:0:0:0:
492,198,206458,1,0,3:0:0:0:
492,198,206535,2,0,P|448:190|423:190,1,57.5999982421876,2|0,3:2|0:0,0:0:0:0:
342,56,206689,2,0,P|299:71|278:83,1,57.5999982421876,8|0,0:0|0:0,0:0:0:0:
96,239,206843,6,2,B|127:215|122:131|122:131|147:178|201:183,1,180,6|0,1:2|0:0,0:1:0:0:
205,86,207151,1,0,3:0:0:0:
258,278,207304,2,0,L|178:255,1,60,10|0,0:0|0:0,0:0:0:0:
32,155,207458,1,2,3:1:0:0:
204,356,207612,1,0,1:0:0:0:
310,155,207766,1,2,3:1:0:0:
96,239,207920,1,8,0:0:0:0:
349,336,208074,2,2,P|387:345|413:353,2,60,6|0|0,1:2|0:0|0:0,0:1:0:0:
16,350,208381,6,2,P|64:334|100:324,1,60,6|0,1:2|0:0,0:1:0:0:
173,355,208535,1,10,0:0:0:0:
173,355,208612,1,8,0:0:0:0:
173,355,208689,2,2,B|180:314|180:314|186:308|186:308|198:225,1,105.600003222656,6|0,1:2|3:0,0:1:0:0:
249,0,208997,1,6,3:1:0:0:
371,331,209151,1,8,0:0:0:0:
52,246,209304,1,8,3:3:0:0:
355,39,209458,6,2,B|351:49|360:71|360:71|392:108|392:108|341:161|336:238,1,187.199991430664,14|0,1:1|0:0,0:1:0:0:
350,243,209766,1,8,0:0:0:0:
21,145,209920,1,2,3:1:0:0:
21,145,209997,1,0,3:0:0:0:
21,145,210074,2,0,P|71:140|123:127,1,62.3999971435548,0|0,1:0|0:0,0:0:0:0:
263,113,210228,1,2,3:1:0:0:
146,335,210381,1,8,0:0:0:0:
151,59,210535,6,2,B|155:106|183:149|183:149|169:187|169:187|197:215|195:258,1,187.199991430664,6|0,1:2|0:0,0:1:0:0:
100,250,210843,2,0,P|46:269|-16:288,1,105.600003222656,2|8,3:1|0:0,0:0:0:0:
338,262,211151,1,2,3:1:0:0:
82,137,211304,1,0,1:0:0:0:
295,63,211458,1,10,3:3:0:0:
146,335,211612,1,8,0:0:0:0:
397,125,211766,6,2,B|340:138|340:138|312:157|312:157|278:149|278:149|213:162,1,187.199991430664,6|0,1:2|0:0,0:1:0:0:
166,87,212074,2,0,P|158:47|147:-1,2,62.3999971435548,0|0|8,1:0|1:0|0:0,0:0:0:0:
426,318,212381,5,2,1:1:0:0:
295,63,212535,1,10,0:0:0:0:
231,255,212689,5,2,3:1:0:0:
495,132,212843,1,10,0:0:0:0:
169,107,212997,5,2,1:1:0:0:
438,214,213151,1,10,0:0:0:0:
91,250,213304,5,2,1:2:0:0:
360,142,213458,1,10,0:0:0:0:
56,155,213612,5,2,3:1:0:0:
316,224,213766,1,8,0:3:0:0:
316,224,213843,1,8,0:3:0:0:
316,224,213920,1,10,3:0:0:0:
171,40,214074,1,10,3:0:0:0:
8,256,214228,6,2,B|44:251|72:267|72:267|106:248|106:248|138:289|205:278,1,187.199991430664,6|0,1:2|0:0,0:1:0:0:
252,384,214535,2,0,P|259:344|262:322,2,52.8000016113282,0|0|8,3:0|3:0|0:0,0:0:0:0:
281,43,214843,5,2,3:2:0:0:
286,63,214920,1,2,3:2:0:0:
294,88,214997,1,2,1:1:0:0:
390,300,215151,1,2,3:2:0:0:
140,235,215304,1,10,0:0:0:0:
388,94,215458,6,2,B|377:130|370:160|370:160|331:181|331:181|328:217|316:254,1,172.799994726563,6|0,1:2|0:0,0:1:0:0:
191,320,215766,2,0,B|241:310|241:310|264:325|295:331,1,105.600003222656,2|8,3:1|0:0,0:0:0:0:
495,246,216074,2,0,P|476:198|458:142,1,96,2|0,0:1|3:0,0:0:0:0:
212,133,216381,1,2,3:2:0:0:
473,31,216535,1,8,0:0:0:0:
485,342,216689,6,2,B|439:322|390:331|390:331|415:278|393:225,1,192,6|0,1:2|3:0,0:1:0:0:
352,161,217151,1,10,0:0:0:0:
246,294,217304,2,0,P|278:282|324:275,1,62.3999971435548,2|0,3:1|0:0,0:0:0:0:
492,244,217458,1,0,1:0:0:0:
290,87,217612,2,0,P|253:79|224:68,2,62.3999971435548,2|0|8,3:1|0:0|0:0,0:0:0:0:
154,305,217920,6,2,B|134:222|209:238|174:145,1,158.400004833985,6|0,1:2|0:0,0:1:0:0:
158,122,218228,1,2,1:2:0:0:
43,361,218381,1,10,0:0:0:0:
346,306,218535,2,2,B|291:286|291:286|273:296|236:294,1,105.600003222656,2|0,1:2|3:0,0:1:0:0:
85,198,218843,1,0,3:1:0:0:
186,4,218997,5,8,0:0:0:0:
238,0,219073,1,8,3:0:0:0:
282,28,219150,1,0,3:0:0:0:
299,77,219227,1,0,1:0:0:0:
282,126,219305,2,0,P|266:181|245:307,1,172.799994726563,6|0,1:0|0:0,0:0:0:0:
246,384,219612,1,8,0:0:0:0:
455,238,219766,2,0,P|386:221|348:207,1,105.600003222656,2|0,3:1|1:0,0:0:0:0:
167,143,220074,1,2,3:2:0:0:
403,94,220228,1,8,0:0:0:0:
104,68,220381,6,2,B|90:94|52:127|52:127|93:184|86:223,1,180,2|0,1:2|0:0,0:1:0:0:
81,253,220689,1,2,3:2:0:0:
282,149,220843,1,8,0:0:0:0:
179,5,220997,2,0,P|194:57|196:85,2,57.5999982421876,2|0|0,3:1|0:0|1:0,0:1:0:0:
228,332,221304,2,0,P|216:282|202:224,1,96,2|8,1:2|0:0,0:0:0:0:
512,139,221612,6,0,P|476:170|416:148,1,115.199996484375,2|0,1:1|3:0,0:0:0:0:
358,81,221843,1,0,3:0:0:0:
358,81,221920,1,2,3:2:0:0:
87,141,222074,2,0,B|175:111|148:184|248:146,1,158.400004833985,12|0,0:0|0:0,0:0:0:0:
269,128,222381,1,2,1:2:0:0:
83,246,222535,1,0,3:0:0:0:
60,26,222689,1,8,0:0:0:0:
301,231,222843,5,2,3:2:0:0:
87,141,222997,1,0,1:0:0:0:
274,4,223151,1,0,3:0:0:0:
218,286,223304,2,0,B|203:249|203:249|209:225|209:225|195:174,1,105.600003222656,10|0,0:0|0:0,0:0:0:0:
87,141,223535,1,0,0:0:0:0:
87,141,223612,2,0,P|111:130|135:120,1,52.8000016113282,2|0,3:2|0:0,0:0:0:0:
315,108,223766,2,0,P|290:118|266:128,1,52.8000016113282,2|0,1:2|0:0,0:0:0:0:
160,364,223920,5,10,0:0:0:0:
213,384,223996,1,0,0:0:0:0:
268,369,224074,1,10,3:3:0:0:
305,326,224150,1,0,0:0:0:0:
310,268,224228,2,2,B|408:251|376:347|496:319,1,187.199991430664,6|0,1:2|0:0,0:1:0:0:
512,238,224535,1,8,0:0:0:0:
315,68,224689,2,0,P|304:123|293:191,1,105.600003222656,2|0,3:1|1:0,0:0:0:0:
268,369,224997,1,2,3:2:0:0:
147,210,225151,2,0,P|181:203|234:194,1,52.8000016113282,10|0,0:0|0:0,0:0:0:0:
486,91,225304,6,2,B|460:84|442:62|442:62|359:104|425:199,1,187.199991430664,2|0,1:2|0:0,0:1:0:0:
416,198,225612,1,2,3:2:0:0:
512,0,225766,1,8,0:0:0:0:
204,98,225920,2,0,P|264:85|335:58,1,115.199996484375,2|0,3:1|1:0,0:0:0:0:
414,295,226228,2,2,P|370:283|334:279,2,57.5999982421876,2|0|8,1:2|3:0|0:0,0:1:0:0:
12,262,226535,6,2,B|59:188|152:221|152:221|112:270|137:328,1,230.39999296875,2|2,1:2|3:2,0:1:0:0:
392,198,226997,5,14,0:0:0:0:
281,358,227151,1,0,3:0:0:0:
278,113,227305,5,2,1:2:0:0:
268,269,227458,1,0,3:0:0:0:
127,68,227612,5,10,0:2:0:0:
213,196,227766,1,0,3:0:0:0:
26,342,227920,5,2,1:2:0:0:
131,164,228074,1,0,3:0:0:0:
175,332,228228,5,10,0:0:0:0:
15,136,228381,1,0,3:0:0:0:
302,75,228535,5,2,1:2:0:0:
104,258,228689,1,0,3:0:0:0:
54,20,228843,5,10,0:0:0:0:
328,240,228997,1,8,3:0:0:0:
4,382,229151,5,6,1:0:0:0:
229,258,229304,1,2,0:0:0:0:
16,138,229458,1,10,0:1:0:0:
116,351,229612,6,2,B|148:351|181:339|181:339|218:358|218:358|255:346|304:350,1,187.199991430664,2|0,1:2|0:0,0:1:0:0:
385,355,229920,1,10,0:2:0:0:
161,157,230074,1,10,0:3:0:0:
440,64,230228,6,2,B|473:116|473:116|425:246,1,172.799994726563,6|0,1:2|0:0,0:1:0:0:
441,257,230535,1,2,3:2:0:0:
292,120,230689,1,10,0:0:0:0:
496,0,230843,2,2,P|448:34|340:10,1,172.799994726563,2|0,1:2|0:0,0:1:0:0:
310,24,231151,1,2,3:2:0:0:
120,118,231304,2,0,P|159:103|221:94,1,62.3999971435548,10|0,0:0|0:0,0:0:0:0:
407,194,231458,2,2,B|323:170|345:257|225:205,1,158.400004833985,2|0,1:2|0:0,0:1:0:0:
183,304,231766,5,2,3:2:0:0:
173,266,231843,1,2,0:2:0:0:
158,229,231920,1,14,0:0:0:0:
48,46,232074,1,2,0:0:0:0:
255,24,232228,6,2,B|281:75|281:75|261:144,1,105.600003222656,2|0,1:2|3:0,0:1:0:0:
254,210,232458,1,2,0:1:0:0:
254,210,232535,2,0,B|290:198|321:224|321:224|329:240|329:240|375:279|423:249,1,166.399992382813,12|2,0:0|0:1,0:0:0:0:
367,133,232843,1,0,1:0:0:0:
152,334,232997,2,0,P|167:290|172:265,2,62.3999971435548,2|0|12,0:1|0:0|0:0,0:0:0:0:
158,46,233304,1,2,0:1:0:0:
158,46,233381,1,2,0:0:0:0:
158,46,233458,2,2,B|119:80|71:88|71:88|109:126|115:191,1,187.199991430664,2|0,1:2|0:0,0:1:0:0:
349,321,233766,5,8,0:0:0:0:
337,270,233843,1,8,0:0:0:0:
373,228,233920,1,8,0:3:0:0:
407,186,233997,1,8,0:3:0:0:
396,135,234074,2,2,B|301:103|314:190|209:148,1,187.199991430664,6|0,1:2|0:0,0:1:0:0:
158,46,234381,1,8,0:0:0:0:
410,37,234535,2,2,B|451:45|451:45|474:80|512:83,1,105.600003222656,2|0,0:2|3:0,0:1:0:0:
269,51,234843,2,2,P|277:10|284:-20,2,52.8000016113282,2|2|8,1:0|0:0|0:0,0:1:0:0:
283,241,235151,6,2,B|251:235|251:235|219:249|219:249|180:236|180:236|144:269|108:259,1,187.199991430664,6|0,1:2|0:0,0:1:0:0:
68,247,235458,1,2,3:1:0:0:
180,72,235612,2,0,P|188:102|199:131,1,62.3999971435548,8|0,0:0|0:0,0:0:0:0:
280,360,235766,1,2,0:1:0:0:
393,102,235920,1,0,1:0:0:0:
95,157,236074,2,2,P|41:150|6:142,2,62.3999971435548,2|0|8,3:1|0:0|0:0,0:1:0:0:
455,225,236381,6,2,B|388:217|388:217|354:250|354:250|299:241|240:236,1,187.199991430664,6|0,1:2|0:0,0:1:0:0:
257,211,236689,1,10,0:1:0:0:
39,276,236843,2,0,P|82:260|164:248,1,105.600003222656,0|0,1:0|0:0,0:0:0:0:
420,328,237151,5,0,3:0:0:0:
341,36,237304,1,8,0:0:0:0:
257,211,237458,5,0,3:0:0:0:
512,131,237612,1,0,1:0:0:0:
135,130,237766,5,0,3:0:0:0:
425,235,237920,1,8,0:2:0:0:
230,326,238074,5,0,3:0:0:0:
332,61,238228,1,8,1:3:0:0:
78,307,238381,5,8,1:3:0:0:
376,146,238535,1,8,3:3:0:0:
95,9,238689,1,8,1:3:0:0:
182,196,238843,1,8,3:3:0:0:
269,383,238997,6,0,B|274:343|274:343|280:335|280:335|288:276,1,86.3999973632813,0|0,1:0|0:0,0:0:0:0:
349,255,239228,1,0,0:0:0:0:
349,255,239304,2,0,P|277:268|174:295,1,158.400004833985,10|0,0:0|0:0,0:0:0:0:
79,384,239612,2,0,B|112:270,1,105.600003222656,2|0,1:2|3:0,0:0:0:0:
182,196,239920,1,10,0:0:0:0:
89,14,240074,6,0,B|43:41|2:39|2:39|52:86|44:140,1,172.799994726563,2|0,1:2|3:0,0:0:0:0:
2,219,240535,2,0,B|42:196|42:196|108:200,1,105.600003222656,10|0,0:0|0:0,0:0:0:0:
305,188,240843,1,2,1:2:0:0:
133,102,240997,1,0,3:0:0:0:
315,8,241151,1,10,0:0:0:0:
194,242,241304,6,0,L|240:50,1,158.400004833985,6|0,1:2|0:0,0:0:0:0:
240,55,241612,1,2,3:0:0:0:
386,216,241766,2,0,L|272:177,1,86.3999973632813,10|0,0:0|0:0,0:0:0:0:
87,361,242074,1,2,1:2:0:0:
292,285,242228,1,0,3:0:0:0:
123,132,242381,1,10,0:0:0:0:
211,368,242535,5,2,3:2:0:0:
200,341,242612,1,2,0:2:0:0:
186,317,242689,1,2,0:2:0:0:
1,181,242843,1,2,3:2:0:0:
228,101,242997,1,10,0:0:0:0:
87,361,243151,6,0,P|101:297|118:256,1,86.3999973632813,2|0,0:0|1:0,0:0:0:0:
111,70,243458,1,2,3:2:0:0:
6,283,243612,1,10,0:0:0:0:
6,283,243689,1,8,0:0:0:0:
6,283,243766,1,2,3:2:0:0:
227,297,243920,6,0,B|215:260|215:260|217:245|217:245|206:207,1,86.3999973632813,4|0,1:2|0:0,0:0:0:0:
125,184,244151,1,0,0:0:0:0:
125,184,244228,2,0,B|215:202|177:125|293:150,1,158.400004833985,10|0,0:0|0:0,0:0:0:0:
410,278,244535,2,0,B|383:270|383:270|365:247|365:247|319:228,1,105.600003222656,2|0,1:2|3:0,0:0:0:0:
136,86,244843,1,8,0:0:0:0:
365,49,244997,6,0,B|394:45|420:19|420:19|464:88|406:148,1,172.799994726563,2|0,1:2|3:0,0:0:0:0:
243,154,245458,2,0,P|290:139|347:133,1,86.3999973632813,10|0,0:0|0:0,0:0:0:0:
436,230,245766,1,2,1:2:0:0:
273,51,245920,1,0,3:0:0:0:
512,0,246074,1,10,0:0:0:0:
512,283,246228,6,0,B|479:282|445:262|445:262|395:305|333:307,1,158.400004833985,6|0,1:2|0:0,0:0:0:0:
337,307,246535,1,0,3:0:0:0:
159,360,246689,2,0,P|175:304|188:243,1,105.600003222656,10|0,0:0|0:0,0:0:0:0:
131,49,246997,1,2,1:2:0:0:
299,219,247151,1,0,3:0:0:0:
83,267,247304,1,8,0:0:0:0:
263,97,247458,5,2,1:2:0:0:
289,106,247534,1,2,0:2:0:0:
317,112,247611,1,2,0:2:0:0:
30,111,247766,1,2,3:2:0:0:
185,257,247920,1,10,0:0:0:0:
111,51,248074,6,0,B|143:43|181:16|181:16|152:92|152:167,1,211.200006445313,6|2,1:2|3:2,0:0:0:0:
18,219,248535,1,10,0:0:0:0:
44,210,248611,1,8,0:0:0:0:
72,204,248688,1,10,3:2:0:0:
467,242,248843,6,2,B|438:224|401:226|401:226|361:256|361:256|331:226|331:226|296:255|241:237,2,230.39999296875,6|10|2,1:0|0:0|1:2,0:1:0:0:
421,322,249612,1,0,3:0:0:0:
277,146,249766,1,10,0:0:0:0:
486,0,249920,6,0,B|477:29|474:58|474:58|454:80|454:80|448:124|440:160,1,144,2|0,1:2|0:0,0:0:0:0:
446,134,250228,1,0,3:0:0:0:
232,55,250381,2,0,B|282:44|282:44|338:68,1,96,10|0,0:0|0:0,0:0:0:0:
403,279,250689,1,2,1:2:0:0:
183,354,250843,1,0,3:0:0:0:
277,146,250997,1,10,0:2:0:0:
341,356,251151,6,2,B|311:343|282:331|282:331|260:277|260:277|220:264|189:250,1,192,6|0,1:2|3:0,0:1:0:0:
23,321,251612,2,0,P|66:306|131:296,1,96,10|0,0:0|0:0,0:0:0:0:
340,220,251920,1,2,1:2:0:0:
124,122,252074,1,0,3:0:0:0:
336,0,252228,1,10,0:0:0:0:
252,177,252381,5,2,3:2:0:0:
246,149,252458,1,2,3:2:0:0:
237,123,252534,1,2,1:2:0:0:
458,196,252689,1,2,3:2:0:0:
300,361,252843,1,14,0:0:0:0:
512,335,252997,6,0,P|469:320|437:314,1,48,2|0,0:0|0:0,0:0:0:0:
326,275,253151,1,10,0:0:0:0:
296,266,253227,1,8,0:0:0:0:
267,269,253304,1,10,0:3:0:0:
242,283,253381,1,8,0:3:0:0:
222,305,253458,1,10,3:3:0:0:
206,330,253534,1,8,3:3:0:0:
181,346,253611,1,10,1:3:0:0:
152,351,253688,1,8,1:3:0:0:
124,346,253766,2,0,B|116:307|116:307|117:300|117:300|107:230,1,96,0|0,1:0|3:0,0:0:0:0:
36,191,253997,5,0,0:0:0:0:
36,191,254074,2,0,B|127:159|108:243|212:193,1,172.799994726563,14|0,1:2|0:0,0:0:0:0:
331,180,254381,2,0,B|346:118|346:118|323:89|320:58,1,115.199996484375,2|0,1:2|0:0,0:0:0:0:
150,105,254689,1,10,0:0:0:0:
402,230,254843,6,0,B|294:208|294:208|285:264|229:283,1,172.799994726563,2|0,1:2|0:0,0:0:0:0:
233,287,255151,1,0,3:0:0:0:
24,220,255304,2,0,B|74:206|74:206|134:222,1,96,10|0,0:0|0:0,0:0:0:0:
336,340,255612,5,10,0:0:0:0:
208,98,255766,1,0,1:0:0:0:
120,307,255920,5,2,3:2:0:0:
427,148,256074,1,0,1:0:0:0:
75,100,256228,5,14,0:1:0:0:
282,246,256381,1,8,3:3:0:0:
256,0,256535,1,0,1:0:0:0:
63,222,256689,5,14,0:1:0:0:
327,132,256843,1,8,3:0:0:0:
86,0,256997,1,0,1:0:0:0:
175,316,257151,5,10,0:1:0:0:
175,316,257304,2,2,B|164:269|157:253|157:253|190:198|190:198|173:151|173:105,1,192,6|0,3:1|1:0,0:1:0:0:
260,261,257766,5,8,0:0:0:0:
95,168,257920,1,0,3:0:0:0:
276,134,258074,5,10,3:1:0:0:
59,261,258228,1,0,3:0:0:0:
343,205,258381,5,0,1:0:0:0:
0,186,258535,1,0,3:0:0:0:
369,31,258689,5,14,0:1:0:0:
179,210,258843,1,8,3:3:0:0:
436,287,258997,1,0,1:0:0:0:
257,4,259151,5,14,0:1:0:0:
231,336,259304,1,8,3:0:0:0:
512,148,259458,1,0,1:0:0:0:
118,95,259612,6,2,B|143:97|170:105|170:105|200:80|200:80|244:115|244:115|305:80|369:103,1,249.599988574219,14|0,1:0|3:0,0:1:0:0:
423,129,260074,1,0,1:0:0:0:
250,217,260228,1,8,0:0:0:0:
260,10,260381,1,8,0:3:0:0:
386,291,260535,5,2,1:0:0:0:
94,182,260689,1,0,1:0:0:0:
341,95,260843,5,8,0:0:0:0:
165,384,260997,1,8,0:3:0:0:
512,150,261151,6,2,B|440:164|439:164|390:177,1,124.79999428711,6|0,1:2|3:0,0:1:0:0:
102,280,261458,1,2,3:2:0:0:
248,23,261612,2,0,B|234:94|234:94|266:163,1,124.79999428711,2|0,1:2|0:0,0:0:0:0:
417,384,261920,2,0,B|449:318|449:318|435:244,1,124.79999428711,2|0,1:2|0:0,0:0:0:0:
103,154,262228,2,2,B|129:160|165:170|165:170|185:218|185:218|283:256,1,187.199991430664,14|0,0:1|0:0,0:1:0:0:
344,278,262535,5,8,0:0:0:0:
344,278,262612,1,8,0:3:0:0:
344,278,262689,2,0,P|338:233|325:177,2,70.4000021484376,0|8|0,1:0|0:3|3:3,0:0:0:0:
463,117,262997,2,0,P|427:144|385:183,2,70.4000021484376,0|8|0,1:0|0:3|3:0,0:0:0:0:
262,96,263304,2,0,P|303:113|358:130,2,70.4000021484376,0|8|0,1:0|0:3|3:0,0:0:0:0:
409,307,263612,6,2,B|305:283|338:378|228:338,1,187.199991430664,14|0,1:2|0:0,0:1:0:0:
149,384,263920,2,0,L|138:300,1,62.3999971435548,10|0,0:1|0:0,0:0:0:0:
18,0,264074,1,14,1:0:0:0:
512,225,264381,1,10,0:1:0:0:
11,358,264689,2,2,B|22:335|47:326|47:326|60:269|32:204|32:204|78:235|151:213|151:213|105:194|94:95|94:95|84:130|60:143,1,480,14|0,1:0|0:0,0:1:0:0:
