osu file format v14

[General]
AudioFilename: DESERT_AFTER_TEARS.mp3
AudioLeadIn: 0
PreviewTime: 68373
Countdown: 0
SampleSet: Soft
StackLeniency: 0.6
Mode: 0
LetterboxInBreaks: 0
WidescreenStoryboard: 1

[Editor]
Bookmarks: 138206
DistanceSpacing: 1.1
BeatDivisor: 4
GridSize: 4
TimelineZoom: 3.999998

[Metadata]
Title:Desert After Tears
TitleUnicode:Desert After Tears
Artist:Falcom Sound Team jdk
ArtistUnicode:Falcom Sound Team jdk
Creator:Deca
Version:Normal
Source:イースIX -Monstrum NOX-
Tags:jonathanlfj j.d.k. ys 9 ys9 ysix super ultimate arpg action role playing game masaru teramae 寺前 甲 tokunan demetori takahiro unisuga 宇仁菅 孝宏 instrumental metal rock
BeatmapID:2525469
BeatmapSetID:1150262

[Difficulty]
HPDrainRate:4
CircleSize:3
OverallDifficulty:5
ApproachRate:6
SliderMultiplier:0.9
SliderTickRate:1

[Events]
//Background and Video events
0,0,"Ys.IX .Monstrum.Nox.full.2487324.jpg",0,0
//Break Periods
2,119091,121698
//Storyboard Layer 0 (Background)
//Storyboard Layer 1 (Fail)
//Storyboard Layer 2 (Pass)
//Storyboard Layer 3 (Foreground)
//Storyboard Layer 4 (Overlay)
//Storyboard Sound Samples

[TimingPoints]
813,241.935483870968,4,2,1,65,1,0
813,-133.333333333333,4,2,1,65,0,0
11942,-133.333333333333,4,2,1,75,0,0
16296,-100,4,2,1,75,0,0
51619,-111.111111111111,4,2,1,65,0,0
64563,-111.111111111111,4,2,1,75,0,0
68433,-100,4,2,1,85,0,1
68494,-100,4,2,1,85,0,1
83554,-100,4,2,1,85,0,0
84038,-100,4,2,2,85,0,1
84099,-100,4,2,1,85,0,1
99522,-100,4,2,2,85,0,0
99583,-100,4,2,1,85,0,0
99885,-100,4,2,1,75,0,0
111135,245.901639344262,4,2,1,75,1,0
112118,241.935483870968,4,2,1,75,1,0
115021,-100,4,2,1,65,0,0
122763,-133.333333333333,4,2,1,55,0,0
134134,-133.333333333333,4,2,1,75,0,0
137400,-133.333333333333,4,2,1,85,0,0

[Colours]
Combo1 : 91,172,164
Combo2 : 140,140,140
Combo3 : 108,217,182
Combo4 : 141,128,107

[HitObjects]
328,294,813,5,2,0:0:0:0:
396,381,1175,1,2,0:0:0:0:
497,336,1538,2,0,L|513:191,1,135.000005149841,2|2,0:0|0:0,0:0:0:0:
452,141,2264,2,0,L|376:131,1,67.5000025749207,2|2,0:0|0:0,0:0:0:0:
314,195,2748,2,0,L|171:223,1,135.000005149841,2|0,0:0|0:0,0:0:0:0:
122,293,3474,1,2,0:0:0:0:
51,236,3716,2,0,P|41:209|76:110,1,135.000005149841,2|0,0:0|0:0,0:0:0:0:
208,52,4683,21,2,0:0:0:0:
288,129,5046,1,2,0:0:0:0:
212,211,5409,2,0,P|192:255|190:350,2,135.000005149841,2|2|0,0:0|0:0|0:0,0:0:0:0:
298,181,6619,2,0,L|443:204,1,135.000005149841,2|0,0:0|0:0,0:0:0:0:
512,164,7345,1,0,0:0:0:0:
445,102,7587,2,0,P|412:57|463:1,1,135.000005149841,2|2,0:0|0:0,0:0:0:0:
319,117,8554,21,6,0:3:0:0:
242,198,8917,1,2,0:0:0:0:
156,126,9280,2,0,P|58:115|15:126,1,135.000005149841,2|2,0:0|0:0,0:0:0:0:
0,207,10006,2,0,L|9:279,1,67.5000025749207,0|2,0:0|0:0,0:0:0:0:
96,281,10490,2,0,B|167:287|136:316|223:323,1,135.000005149841,2|0,0:0|0:0,0:0:0:0:
295,279,11216,1,2,0:0:0:0:
374,310,11458,2,0,P|389:273|367:173,1,135.000005149842,2|2,0:0|0:0,0:0:0:0:
203,119,12425,22,0,L|-2:160,1,202.500007724762,6|2,1:2|0:0,0:0:0:0:
26,245,13393,2,0,P|63:238|150:357,1,202.500007724762,6|2,1:2|0:0,0:0:0:0:
234,370,14361,2,0,L|348:387,2,101.250003862381,6|8|8,1:2|1:3|3:0,0:0:0:0:
241,284,15329,2,0,L|249:245,1,33.7500012874604,0|8,3:0|1:3,0:0:0:0:
313,193,15692,2,0,L|306:156,1,33.7500012874604,0|8,3:0|1:3,0:0:0:0:
268,86,16054,1,0,1:0:0:0:
352,59,16296,22,0,L|448:78,1,90,6|8,1:2|1:2,0:2:0:0:
499,144,16780,2,0,L|481:236,1,90,2|10,1:2|1:2,0:0:0:0:
479,282,17143,2,0,P|421:284|338:316,1,135,2|8,3:2|1:2,0:2:0:0:
312,343,17627,1,2,1:2:0:0:
215,320,17869,1,2,3:2:0:0:
254,232,18111,22,0,P|260:173|266:90,1,135,2|8,1:2|1:2,0:2:0:0:
270,47,18595,2,0,P|316:33|394:86,1,135,2|8,1:2|1:2,0:2:0:0:
450,158,19200,1,0,1:2:0:0:
383,231,19442,1,8,1:2:0:0:
288,202,19683,2,0,L|237:194,1,45,2|2,1:2|3:2,0:0:0:0:
148,164,20046,22,0,P|97:174|76:263,1,135,2|8,1:2|1:2,0:2:0:0:
90,290,20530,1,2,1:2:0:0:
164,343,20772,1,2,3:2:0:0:
234,280,21014,2,0,B|303:272|297:315|373:300,1,135,2|8,1:2|1:2,0:2:0:0:
411,283,21498,1,2,1:2:0:0:
471,204,21740,1,2,3:2:0:0:
398,139,21982,22,0,L|369:6,1,135,2|8,1:2|1:2,0:2:0:0:
284,59,22587,2,0,L|303:154,1,90,2|8,1:2|1:2,0:2:0:0:
271,242,23071,2,0,P|235:268|188:264,1,90,2|8,1:2|1:2,0:2:0:0:
142,270,23433,2,0,L|115:135,1,135,2|8,1:2|1:2,0:2:0:0:
27,90,24038,22,0,P|40:31|75:12,1,90,6|8,1:2|1:2,0:2:0:0:
160,2,24522,2,0,L|259:18,1,90,2|10,1:2|1:2,0:0:0:0:
293,37,24885,2,0,P|301:140|311:186,1,135,2|8,1:2|1:2,0:2:0:0:
347,199,25369,1,2,1:2:0:0:
445,217,25611,2,0,P|434:266|432:310,1,90,2|2,3:2|0:0,0:0:0:0:
384,320,25974,2,0,P|355:329|289:308,1,90,6|0,1:2|0:0,0:0:0:0:
250,301,26337,2,0,P|170:320|115:337,1,135,2|10,1:2|1:2,0:2:0:0:
47,277,26942,2,0,L|62:185,1,90,2|8,1:2|1:2,0:2:0:0:
158,169,27425,1,0,1:0:0:0:
129,74,27667,1,8,0:0:0:0:
207,1,27909,22,0,B|309:15,1,90,2|8,1:2|0:2,0:2:0:0:
346,96,28393,2,0,L|440:72,1,90,0|8,1:2|1:2,0:0:0:0:
473,44,28756,2,0,P|503:119|487:183,1,135,2|8,3:2|1:2,0:0:0:0:
431,247,29361,1,0,0:0:0:0:
357,180,29603,1,10,1:2:0:0:
273,233,29845,22,0,P|205:249|171:261,2,90,2|8|0,1:2|1:2|1:2,0:2:0:0:
355,288,30571,1,10,1:2:0:0:
427,220,30813,2,0,P|436:149|456:80,2,135,2|2|10,1:2|1:2|1:2,0:2:0:0:
468,309,31780,22,0,P|427:347|313:323,1,180,2|0,1:2|0:0,0:2:0:0:
263,239,32506,1,8,1:2:0:0:
184,309,32748,2,0,P|154:336|101:338,1,90,0|8,1:2|1:2,0:2:0:0:
87,380,33111,2,0,P|37:371|4:334,1,90,0|0,1:2|3:2,0:2:0:0:
8,294,33474,1,8,1:2:0:0:
82,227,33716,22,0,L|90:138,1,90,6|8,1:2|1:2,0:2:0:0:
190,142,34200,2,0,L|181:231,1,90,2|10,1:2|1:2,0:0:0:0:
203,275,34563,2,0,P|228:288|339:261,1,135,2|8,3:2|1:2,0:2:0:0:
354,228,35046,1,2,1:2:0:0:
297,146,35288,1,2,3:2:0:0:
367,76,35530,22,0,P|440:41|483:85,1,135,2|8,1:2|1:2,0:2:0:0:
502,110,36014,2,0,L|475:261,1,135,2|8,1:2|1:2,0:2:0:0:
510,336,36619,1,0,1:2:0:0:
422,382,36861,1,8,1:2:0:0:
387,289,37103,2,0,L|332:277,1,45,2|2,1:2|3:2,0:0:0:0:
282,200,37466,22,0,P|234:212|180:276,1,135,2|8,1:2|1:2,0:2:0:0:
171,324,37950,1,2,1:2:0:0:
88,379,38192,1,2,3:2:0:0:
33,296,38433,2,0,P|43:253|51:149,1,135,0|8,1:2|1:2,0:2:0:0:
42,113,38917,1,2,1:2:0:0:
119,50,39159,1,2,3:2:0:0:
202,103,39401,22,0,L|342:118,1,135,2|8,1:2|1:2,0:2:0:0:
350,215,40006,2,0,L|258:208,1,90,2|8,1:2|1:2,0:2:0:0:
163,187,40490,2,0,P|98:220|88:287,1,135,2|2,1:2|1:2,0:2:0:0:
157,341,41095,2,0,L|295:330,1,135,2|6,1:2|1:2,0:0:0:0:
463,230,41942,22,0,P|440:188|430:134,1,90,2|10,1:2|1:2,0:0:0:0:
461,108,42304,2,0,P|456:57|368:34,1,135,2|8,1:2|1:2,0:2:0:0:
350,61,42788,1,2,1:2:0:0:
263,108,43030,1,2,3:2:0:0:
189,41,43272,22,0,P|150:30|58:84,1,135,6|8,1:2|0:0,0:0:0:0:
40,113,43756,2,0,L|67:265,1,135,2|10,1:2|1:2,0:2:0:0:
24,337,44361,1,2,1:2:0:0:
114,378,44603,1,8,1:2:0:0:
165,293,44845,2,0,P|196:287|258:280,1,90,0|10,0:0|1:2,0:0:0:0:
321,353,45329,22,0,P|387:359|425:364,1,90,2|8,1:2|1:2,0:2:0:0:
504,371,45813,2,0,P|491:324|476:282,1,90,0|8,1:2|1:2,0:0:0:0:
487,236,46175,1,2,1:2:0:0:
422,161,46417,1,2,1:2:0:0:
492,91,46659,1,2,1:2:0:0:
417,25,46901,1,2,1:2:0:0:
305,123,47264,22,0,P|272:126|115:156,1,180,2|0,1:2|1:2,0:2:0:0:
32,124,47990,1,10,1:2:0:0:
12,220,48232,2,0,L|61:363,2,135,2|2|10,1:2|1:2|1:2,0:2:0:0:
62,134,49200,22,0,P|117:134|187:237,1,180,2|0,1:2|0:0,0:2:0:0:
212,322,49925,1,8,1:2:0:0:
299,368,50167,2,0,P|349:379|428:347,2,135,0|8|8,1:2|3:2|1:2,0:2:0:0:
228,297,51135,1,6,1:2:0:0:
388,180,51619,22,0,P|392:113|391:88,1,80.9999975280763,2|10,1:2|1:2,0:0:0:0:
321,42,52103,2,0,P|294:47|232:62,1,80.9999975280763,2|8,1:2|1:0,0:0:0:0:
212,93,52466,1,2,1:2:0:0:
125,67,52708,1,2,3:2:0:0:
84,146,52950,22,0,L|105:283,1,121.499996292114,0|8,1:0|1:0,0:0:0:0:
190,277,53554,2,0,L|206:374,1,80.9999975280763,0|8,1:0|1:0,0:0:0:0:
300,344,54038,2,0,P|357:335|432:339,2,121.499996292114,2|2|10,1:2|1:2|1:2,0:0:0:0:
222,299,55006,22,0,P|214:258|224:214,1,80.9999975280763,2|8,1:2|1:0,0:0:0:0:
246,193,55369,1,2,1:2:0:0:
356,118,55732,1,10,1:2:0:0:
305,44,55974,2,0,L|183:30,2,121.499996292114,2|2|10,1:2|1:2|1:2,0:0:0:0:
385,4,56942,22,0,P|413:34|457:54,1,80.9999975280763,2|8,1:2|1:0,0:0:0:0:
492,60,57304,1,2,1:2:0:0:
489,149,57546,1,2,1:2:0:0:
403,177,57788,2,0,P|321:165|275:182,1,121.499996292114,2|8,1:2|1:0,0:0:0:0:
248,257,58393,2,0,P|214:266|163:256,1,80.9999975280763,2|8,1:2|1:0,0:0:0:0:
108,193,58877,22,0,L|93:104,1,80.9999975280763,6|8,1:2|1:0,0:0:0:0:
178,80,59361,2,0,L|195:168,1,80.9999975280763,2|8,1:2|1:0,0:0:0:0:
236,171,59724,2,0,B|300:170|286:213|361:218,1,121.499996292114,2|8,1:2|1:0,0:0:0:0:
390,223,60208,1,2,3:2:0:0:
453,159,60450,1,0,3:0:0:0:
407,82,60692,2,0,L|196:43,1,202.499993820191,2|0,1:2|1:0,0:0:0:0:
137,99,61538,1,10,1:2:0:0:
148,187,61780,22,0,P|160:252|162:318,2,121.499996292114,2|2|10,1:2|1:2|1:2,0:0:0:0:
228,147,62748,22,0,P|271:153|316:158,1,80.9999975280763,2|8,1:2|1:0,0:0:0:0:
333,194,63111,2,0,P|378:198|427:206,1,80.9999975280763,2|0,1:2|3:0,0:0:0:0:
454,186,63474,1,10,1:2:0:0:
500,262,63716,2,0,P|486:330|484:364,1,80.9999975280763,2|8,1:2|1:0,0:0:0:0:
461,379,64079,1,2,1:2:0:0:
378,344,64321,1,2,3:2:0:0:
280,374,64563,22,0,P|218:375|152:385,1,121.499996292114,6|8,1:2|1:2,0:0:0:0:
91,325,65167,2,0,P|98:279|103:238,1,80.9999975280763,2|8,1:2|1:0,0:0:0:0:
71,212,65530,22,0,P|95:170|180:188,1,121.499996292114,6|8,1:2|1:0,0:0:0:0:
227,108,66135,2,0,P|240:73|224:25,1,80.9999975280763,0|8,3:0|1:0,0:0:0:0:
190,8,66498,2,0,P|133:10|40:15,1,121.499996292114,6|8,1:2|1:3,0:0:0:0:
23,9,66982,1,8,0:3:0:0:
6,96,67224,1,8,0:3:0:0:
63,164,67466,2,0,P|77:241|80:297,1,121.499996292114,4|8,1:2|1:3,0:0:0:0:
69,327,67950,1,8,1:3:0:0:
143,376,68192,1,8,1:3:0:0:
207,314,68433,6,2,B|279:296|268:351|373:320,1,135,12|10,1:0|1:0,0:1:0:0:
383,306,68917,1,2,1:1:0:0:
323,226,69159,1,2,1:1:0:0:
408,176,69401,2,2,P|422:129|432:43,1,135,2|8,1:2|1:0,0:1:0:0:
340,4,70006,2,0,P|323:47|322:100,1,90,2|8,1:0|1:0,0:0:0:0:
298,135,70369,22,2,L|149:158,1,135,6|8,1:2|1:0,0:1:0:0:
86,94,70974,1,0,1:0:0:0:
18,166,71216,1,10,1:0:0:0:
90,233,71458,2,0,P|101:290|103:356,1,90,2|8,1:0|1:0,0:0:0:0:
95,371,71821,1,2,1:0:0:0:
193,382,72063,1,2,1:0:0:0:
262,312,72304,22,2,B|327:308|302:346|409:331,1,135,6|8,1:2|1:0,0:1:0:0:
432,302,72788,2,2,P|439:250|451:201,1,90,2|0,1:2|3:2,0:1:0:0:
375,145,73272,2,2,B|310:141|335:179|228:164,1,135,6|8,1:2|1:0,0:1:0:0:
205,135,73756,2,2,P|198:83|186:34,1,90,2|0,1:2|3:0,0:1:0:0:
98,87,74240,22,2,P|76:160|62:229,1,135,6|8,1:2|1:0,0:1:0:0:
29,253,74724,1,2,1:0:0:0:
106,314,74966,1,2,1:0:0:0:
193,267,75208,1,2,1:0:0:0:
280,328,75450,2,0,P|343:335|420:364,1,135,2|0,1:0|1:0,0:0:0:0:
492,303,76054,1,10,1:0:0:0:
440,218,76296,22,2,P|432:173|432:106,1,90,6|8,1:2|3:1,0:1:0:0:
437,79,76659,1,2,1:0:0:0:
375,1,76901,1,2,1:0:0:0:
295,59,77143,22,2,P|257:89|163:65,1,135,2|8,1:2|1:0,0:1:0:0:
76,72,77748,2,0,P|89:128|95:174,1,90,2|8,1:0|1:0,0:0:0:0:
76,207,78111,1,6,1:0:0:0:
113,298,78353,1,8,1:0:0:0:
280,226,78716,22,0,P|342:217|385:217,1,90,2|8,1:0|1:0,0:0:0:0:
413,194,79079,2,2,P|422:127|440:62,1,135,6|8,1:2|1:0,0:1:0:0:
374,12,79683,1,2,1:0:0:0:
205,69,80046,22,2,P|146:80|66:112,1,135,6|8,1:2|1:0,0:1:0:0:
28,91,80530,2,2,P|1:162|1:238,1,135,2|8,1:2|1:0,0:1:0:0:
71,288,81135,1,0,1:0:0:0:
150,229,81377,1,8,1:0:0:0:
187,320,81619,2,0,P|255:333|290:343,1,90,2|8,1:0|1:0,0:0:0:0:
365,379,82103,22,0,P|418:370|408:256,1,180,6|0,1:0|3:0,0:0:0:0:
498,201,82829,1,2,1:0:0:0:
437,122,83071,2,2,P|422:79|418:12,1,90,4|0,1:0|1:0,0:1:0:0:
320,14,83554,21,14,1:0:0:0:
257,91,83796,1,8,1:0:0:0:
299,180,84038,2,2,P|283:258|282:298,1,90,12|10,1:0|1:0,0:1:0:0:
306,311,84401,1,2,1:1:0:0:
229,374,84643,1,2,1:1:0:0:
135,341,84885,2,2,B|97:322|-6:315,1,135,2|8,1:2|1:0,0:1:0:0:
45,225,85490,22,0,P|46:169|41:109,1,90,2|8,1:0|1:0,0:0:0:0:
55,86,85853,2,2,P|73:50|175:77,1,135,6|8,1:2|1:0,0:1:0:0:
201,138,86458,1,0,1:0:0:0:
292,100,86700,1,10,1:0:0:0:
333,190,86942,2,0,P|322:250|319:302,1,90,2|8,1:0|1:0,0:0:0:0:
328,327,87304,1,2,1:0:0:0:
418,367,87546,1,2,1:0:0:0:
454,275,87788,2,2,P|453:222|424:119,1,135,6|8,1:2|1:0,0:1:0:0:
445,94,88272,2,2,P|394:85|350:72,1,90,2|0,1:2|3:2,0:1:0:0:
272,22,88756,22,2,P|271:75|242:178,1,135,6|8,1:2|1:0,0:1:0:0:
263,203,89240,2,2,P|212:212|168:225,1,90,2|0,1:2|3:0,0:1:0:0:
91,275,89724,22,2,P|20:247|33:161,1,135,6|8,1:2|1:0,0:1:0:0:
46,159,90208,1,2,1:0:0:0:
4,68,90450,1,2,1:0:0:0:
89,17,90692,1,2,1:0:0:0:
136,103,90933,2,0,P|208:126|252:118,1,90,2|2,1:0|1:0,0:0:0:0:
268,108,91296,1,0,1:0:0:0:
329,30,91538,1,10,1:0:0:0:
414,79,91780,22,2,P|458:128|459:180,1,90,6|8,1:2|3:1,0:1:0:0:
446,197,92143,1,2,1:0:0:0:
491,284,92385,1,2,1:0:0:0:
417,349,92627,2,2,P|364:357|272:375,1,135,2|8,1:2|1:0,0:1:0:0:
185,359,93232,22,0,P|171:314|164:262,1,90,2|8,1:0|1:0,0:0:0:0:
176,223,93595,1,6,1:0:0:0:
134,133,93837,2,2,P|79:115|31:111,1,90,8|0,1:0|3:0,0:1:0:0:
14,148,94200,2,0,P|15:209|7:262,1,90,2|8,1:0|1:0,0:0:0:0:
6,287,94563,22,2,B|90:286|45:332|146:334,1,135,6|8,1:2|1:0,0:1:0:0:
214,381,95167,1,2,1:0:0:0:
338,300,95530,22,2,P|393:289|491:278,1,135,6|8,1:2|1:0,0:1:0:0:
498,237,96014,2,2,P|500:189|421:114,1,135,2|8,1:2|1:0,0:1:0:0:
349,120,96619,1,0,1:0:0:0:
311,28,96861,1,8,1:0:0:0:
226,79,97103,2,0,P|214:135|199:196,1,90,2|8,1:0|1:0,0:0:0:0:
153,251,97587,22,2,P|90:241|88:125,1,180,6|0,1:2|3:0,0:1:0:0:
24,53,98313,1,2,1:0:0:0:
118,25,98554,2,2,P|173:41|217:48,1,90,4|8,1:0|1:0,0:1:0:0:
301,21,99038,21,14,1:0:0:0:
359,101,99280,1,8,1:0:0:0:
447,57,99522,6,2,P|480:125|485:165,2,90,12|8|0,1:0|1:0|1:2,0:1:0:0:
359,101,100248,1,8,1:2:0:0:
298,179,100490,2,0,P|314:239|347:294,1,90,0|8,0:0|1:2,0:0:0:0:
425,273,100974,2,0,P|407:211|391:177,1,90,0|8,1:2|1:2,0:2:0:0:
395,88,101458,21,2,1:2:0:0:
321,22,101700,1,8,1:2:0:0:
251,92,101942,2,0,P|208:104|164:125,1,90,0|8,1:2|1:2,0:0:0:0:
126,94,102304,22,0,P|88:116|17:52,1,135,2|10,1:2|1:2,0:2:0:0:
92,4,102909,1,0,1:2:0:0:
190,17,103151,1,10,1:2:0:0:
287,33,103393,22,0,P|304:91|303:131,1,90,14|8,1:2|1:2,0:2:0:0:
399,138,103877,2,0,P|391:190|379:228,1,90,0|8,1:2|1:2,0:2:0:0:
421,253,104240,2,0,P|482:281|483:357,1,135,2|8,1:2|1:2,0:2:0:0:
397,379,104845,1,0,1:2:0:0:
311,328,105087,1,8,1:2:0:0:
221,371,105329,22,0,P|165:376|118:382,1,90,2|14,1:2|1:2,0:2:0:0:
33,361,105813,2,0,P|32:312|29:264,1,90,0|8,1:2|1:2,0:0:0:0:
9,225,106175,2,0,P|62:206|122:262,1,135,2|10,1:2|1:2,0:2:0:0:
216,270,106780,1,8,1:2:0:0:
297,214,107022,1,8,1:2:0:0:
219,152,107264,22,0,P|195:98|188:49,1,90,6|8,1:2|1:2,0:2:0:0:
274,16,107748,2,0,P|302:67|314:112,1,90,0|8,1:2|1:2,0:0:0:0:
349,129,108111,22,0,P|396:137|493:155,1,135,2|8,1:2|1:2,0:2:0:0:
497,251,108716,1,0,1:2:0:0:
507,349,108958,1,8,1:2:0:0:
408,360,109200,2,0,P|323:357|314:351,1,90,2|8,1:2|1:2,0:2:0:0:
224,372,109683,2,0,P|208:337|207:283,1,90,0|8,1:2|1:2,0:0:0:0:
166,256,110046,2,0,B|176:199|220:215|229:132,1,135,2|10,1:2|1:2,0:2:0:0:
198,44,110651,1,0,1:2:0:0:
104,77,110893,1,10,1:2:0:0:
11,113,111135,22,0,P|28:178|40:209,1,90,6|8,1:2|1:2,0:2:0:0:
135,200,111626,2,0,L|161:292,1,90,0|8,3:2|1:2,0:0:0:0:
122,319,111995,2,0,P|143:357|234:360,1,133,2|8,1:2|1:2,0:2:0:0:
293,293,112601,1,0,1:2:0:0:
384,331,112843,1,8,1:2:0:0:
481,361,113085,22,0,P|492:314|493:269,1,90,2|8,1:2|1:2,0:2:0:0:
508,225,113448,1,10,1:2:0:0:
455,140,113690,1,10,1:2:0:0:
495,49,113932,22,0,P|456:40|403:28,1,90,2|8,1:2|3:3,0:0:0:0:
360,10,114295,1,8,1:3:0:0:
294,84,114537,1,8,1:3:0:0:
210,30,114779,1,8,1:3:0:0:
163,117,115021,1,6,0:0:0:0:
256,192,115081,12,6,118891,3:2:0:0:
328,90,122763,21,2,0:0:0:0:
396,3,123126,1,2,0:0:0:0:
497,48,123488,2,0,L|513:193,1,135.000005149841,2|2,0:0|0:0,0:0:0:0:
452,243,124214,2,0,L|376:253,1,67.5000025749207,2|0,0:0|0:0,0:0:0:0:
314,189,124698,2,0,L|171:161,1,135.000005149841,2|0,0:0|0:0,0:0:0:0:
122,91,125424,1,2,0:0:0:0:
51,148,125666,2,0,P|41:175|76:274,1,135.000005149841,2|0,0:0|0:0,0:0:0:0:
208,332,126634,21,2,0:0:0:0:
288,255,126997,1,2,0:0:0:0:
212,173,127359,2,0,P|192:129|190:34,2,135.000005149841,2|2|0,0:0|0:0|0:0,0:0:0:0:
298,203,128569,2,0,L|443:180,1,135.000005149841,2|0,0:0|0:0,0:0:0:0:
512,220,129295,1,2,0:0:0:0:
446,279,129537,2,0,P|413:324|464:380,1,135.000005149841,2|2,0:0|0:0,0:0:0:0:
319,267,130505,21,6,0:3:0:0:
242,186,130868,1,2,0:0:0:0:
156,258,131230,2,0,P|58:269|15:258,1,135.000005149841,2|2,0:0|0:0,0:0:0:0:
0,177,131956,2,0,L|9:105,1,67.5000025749207,0|2,0:0|0:0,0:0:0:0:
96,103,132440,2,0,B|167:97|136:68|223:61,1,135.000005149841,2|0,0:0|0:0,0:0:0:0:
295,105,133166,1,2,0:0:0:0:
376,74,133408,2,0,P|391:111|369:211,1,135.000005149842,2|2,0:0|0:0,0:0:0:0:
221,262,134376,22,0,L|16:221,1,202.500007724762,6|0,1:2|0:0,0:0:0:0:
47,138,135343,2,0,P|84:145|171:26,1,202.500007724762,6|2,1:2|0:0,0:0:0:0:
262,42,136311,2,0,L|376:25,2,101.250003862381,6|8|8,1:2|1:3|3:0,0:0:0:0:
268,130,137279,2,0,L|276:169,1,33.7500012874604,0|8,3:0|1:3,0:0:0:0:
228,234,137642,2,0,L|221:271,1,33.7500012874604,0|8,3:0|1:3,0:0:0:0:
279,331,138005,1,0,1:0:0:0:
349,263,138247,1,6,1:2:0:0:
