osu file format v14

[General]
AudioFilename: DESERT_AFTER_TEARS.mp3
AudioLeadIn: 0
PreviewTime: 68373
Countdown: 0
SampleSet: Soft
StackLeniency: 0.6
Mode: 0
LetterboxInBreaks: 0
WidescreenStoryboard: 1

[Editor]
DistanceSpacing: 1.6
BeatDivisor: 4
GridSize: 8
TimelineZoom: 4.999997

[Metadata]
Title:Desert After Tears
TitleUnicode:Desert After Tears
Artist:Falcom Sound Team jdk
ArtistUnicode:Falcom Sound Team jdk
Creator:Deca
Version:Lunatic
Source:イースIX -Monstrum NOX-
Tags:jonathanlfj j.d.k. ys 9 ys9 ysix super ultimate arpg action role playing game masaru teramae 寺前 甲 tokunan demetori takahiro unisuga 宇仁菅 孝宏 instrumental metal rock
BeatmapID:2451538
BeatmapSetID:1150262

[Difficulty]
HPDrainRate:6
CircleSize:4
OverallDifficulty:8.5
ApproachRate:9
SliderMultiplier:1.4
SliderTickRate:1

[Events]
//Background and Video events
0,0,"Ys.IX .Monstrum.Nox.full.2487324.jpg",0,0
//Break Periods
//Storyboard Layer 0 (Background)
//Storyboard Layer 1 (Fail)
//Storyboard Layer 2 (Pass)
//Storyboard Layer 3 (Foreground)
//Storyboard Layer 4 (Overlay)
//Storyboard Sound Samples

[TimingPoints]
813,241.935483870968,4,2,1,65,1,0
813,-166.666666666667,4,2,1,65,0,0
11942,-166.666666666667,4,2,1,75,0,0
15329,-111.111111111111,4,2,1,75,0,0
16296,-100,4,2,1,75,0,0
51619,-117.647058823529,4,2,1,65,0,0
64563,-100,4,2,1,75,0,0
68433,-100,4,2,1,85,0,1
68494,-100,4,2,1,85,0,1
83917,-100,4,2,1,85,0,0
84038,-100,4,2,2,85,0,1
84099,-100,4,2,1,85,0,1
99522,-100,4,2,2,85,0,0
99583,-100,4,2,1,85,0,0
99885,-100,4,2,1,75,0,0
111135,245.901639344262,4,2,1,75,1,0
112118,241.935483870968,4,2,1,75,1,0
115021,-133.333333333333,4,2,1,65,0,0
122763,-166.666666666667,4,2,1,55,0,0
134134,-166.666666666667,4,2,1,75,0,0
137400,-111.111111111111,4,2,1,85,0,0

[Colours]
Combo1 : 91,172,164
Combo2 : 140,140,140
Combo3 : 108,217,182
Combo4 : 141,128,107

[HitObjects]
102,211,813,6,0,P|185:214|193:215,1,83.9999974365235,2|0,0:0|0:0,0:0:0:0:
332,260,1175,2,0,P|249:263|241:264,1,83.9999974365235,2|0,0:0|0:0,0:0:0:0:
233,150,1538,2,0,B|226:116|226:116|228:108|228:108|220:61,1,83.9999974365235,2|0,0:0|0:0,0:0:0:0:
337,156,1901,2,0,P|344:128|350:113,2,41.9999987182618,0|2|0,0:0|0:0|0:0,0:0:0:0:
483,247,2264,2,0,P|450:224|395:215,1,83.9999974365235,2|2,0:0|0:0,0:0:0:0:
365,279,2627,21,0,0:0:0:0:
365,279,2748,2,0,P|330:295|277:288,1,83.9999974365235,2|0,0:0|0:0,0:0:0:0:
184,335,3111,2,0,P|190:311|193:290,2,41.9999987182618
220,143,3474,2,0,L|236:233,2,83.9999974365235,2|2|0,0:0|0:0|0:0,0:0:0:0:
301,111,4079,1,0,0:0:0:0:
301,111,4200,2,0,B|337:123|337:123|354:134|354:134|394:147,1,83.9999974365235
468,179,4563,1,0,0:0:0:0:
409,250,4683,22,0,P|362:256|281:291,1,125.999996154785,2|2,0:0|0:0,0:0:0:0:
203,328,5167,2,0,L|197:283,1,41.9999987182618
275,209,5409,2,0,L|269:163,1,41.9999987182618,2|0,0:0|0:0,0:0:0:0:
200,112,5651,1,0,0:0:0:0:
263,57,5772,2,0,P|291:62|316:67,2,41.9999987182618,0|2|0,0:0|0:0|0:0,0:0:0:0:
151,28,6135,2,0,P|76:45|59:46,1,83.9999974365235
19,109,6498,21,0,0:0:0:0:
56,197,6619,1,2,0:0:0:0:
56,197,6740,2,0,B|87:204|87:204|101:215|101:215|135:220,1,83.9999974365235
229,215,7103,2,0,P|219:178|218:167,1,41.9999987182618
302,137,7345,2,0,P|311:174|312:195,1,41.9999987182618
126,60,7587,2,0,P|162:91|238:79,1,125.999996154785,2|0,0:0|0:0,0:0:0:0:
311,28,8071,2,0,P|339:35|359:39,1,41.9999987182618,2|0,0:0|0:0,0:0:0:0:
387,137,8313,2,0,P|418:145|447:152,1,41.9999987182618
226,179,8554,22,0,B|228:220|228:220|244:239|244:239|246:300,1,125.999996154785,6|2,0:3|0:0,0:0:0:0:
379,265,9038,2,0,P|375:237|373:210,1,41.9999987182618
202,363,9280,2,0,B|280:360|243:330|330:321,1,125.999996154785,2|0,0:0|0:0,0:0:0:0:
495,305,9764,2,0,B|417:302|454:272|367:263,1,125.999996154785,2|0,0:0|0:0,0:0:0:0:
288,221,10248,2,0,P|286:183|286:161,1,41.9999987182618,2|0,0:0|0:0,0:0:0:0:
409,54,10490,22,0,P|456:76|455:153,1,125.999996154785,2|0,0:0|0:0,0:0:0:0:
381,158,10974,2,0,P|363:141|356:109,1,41.9999987182618
285,179,11216,1,2,0:0:0:0:
285,179,11337,1,0,0:0:0:0:
285,179,11458,2,0,P|250:186|237:190,2,41.9999987182618,2|0|0,0:0|0:0|0:0,0:0:0:0:
353,239,11821,1,0,0:0:0:0:
238,300,11942,22,0,B|219:289|219:289|259:281|259:281|284:293,1,83.9999974365235,2|0,0:0|0:0,0:0:0:0:
278,290,12304,1,0,0:0:0:0:
321,366,12425,2,0,B|215:411|229:279|124:320,1,209.999993591309,6|0,1:2|0:0,0:0:0:0:
51,345,13151,2,0,P|57:312|60:296,1,41.9999987182618,2|0,0:0|0:0,0:0:0:0:
131,118,13393,22,0,P|201:114|222:233,1,209.999993591309,6|0,1:2|0:0,0:0:0:0:
140,251,14119,2,0,P|116:249|95:248,1,41.9999987182618,2|0,0:0|0:0,0:0:0:0:
357,266,14361,22,0,P|411:275|454:281,1,83.9999974365235,6|0,1:2|0:0,0:0:0:0:
306,103,14724,2,0,P|298:131|292:187,1,83.9999974365235,8|0,1:3|0:0,0:0:0:0:
259,345,15087,2,0,P|269:370|270:390,1,41.9999987182618,8|0,3:0|0:0,0:0:0:0:
142,286,15329,21,0,3:0:0:0:
142,286,15450,2,0,P|106:278|60:272,1,62.9999980773926,8|0,1:3|0:0,0:0:0:0:
303,268,15692,21,0,3:0:0:0:
303,268,15813,2,0,P|330:262|379:254,1,62.9999980773926,8|0,1:3|0:0,0:0:0:0:
152,203,16054,21,0,1:0:0:0:
110,125,16175,1,0,3:0:0:0:
189,75,16296,2,0,P|250:72|317:130,1,140,6|8,1:2|1:2,0:2:0:0:
383,178,16659,1,0,0:2:0:0:
303,268,16780,2,0,P|285:226|291:186,1,70,2|0,1:2|3:2,0:0:0:0:
488,315,17022,21,10,1:2:0:0:
488,315,17143,2,0,B|434:323|434:323|409:340|409:340|336:350,1,140,2|0,3:2|3:2,0:2:0:0:
142,352,17506,1,8,1:2:0:0:
105,264,17627,2,0,P|172:265|233:316,1,140,2|2,1:2|3:2,0:2:0:0:
285,202,17990,21,8,1:2:0:0:
355,102,18111,2,0,L|378:253,1,140,2|0,1:2|0:2,0:2:0:0:
400,334,18474,1,8,1:2:0:0:
300,293,18595,2,0,B|219:280|244:338|140:313,1,140,2|0,1:2|3:2,0:2:0:0:
15,163,18958,22,0,P|42:130|65:96,1,70,8|0,1:2|0:2,0:2:0:0:
103,255,19200,2,0,P|61:247|19:244,1,70,0|0,1:2|0:2,0:2:0:0:
139,133,19442,2,0,P|153:172|171:210,1,70,8|0,1:2|0:2,0:2:0:0:
267,284,19683,1,2,1:2:0:0:
267,284,19804,2,0,P|225:276|183:273,1,70,2|8,3:2|1:2,0:2:0:0:
495,123,20046,22,0,P|437:143|339:149,1,140,2|0,1:2|0:2,0:2:0:0:
209,113,20409,1,8,1:2:0:0:
275,48,20530,2,0,P|289:92|282:135,1,70,2|0,1:2|3:2,0:2:0:0:
139,172,20772,2,0,P|125:128|132:85,1,70,2|8,3:2|1:2,0:2:0:0:
266,203,21014,22,0,P|305:209|380:284,1,140,2|0,1:2|0:2,0:2:0:0:
300,382,21377,1,8,1:2:0:0:
300,382,21498,2,0,B|288:351|288:351|296:312,1,70,2|0,1:2|3:2,0:2:0:0:
266,203,21740,2,0,B|285:175|285:175|326:161,1,70,2|8,3:2|1:2,0:2:0:0:
451,56,21982,22,0,P|481:106|472:199,1,140,2|0,1:2|3:2,0:2:0:0:
469,272,22345,2,0,P|418:267|390:265,1,70,8|0,1:2|0:2,0:2:0:0:
204,147,22587,2,0,P|174:197|183:290,1,140,2|8,1:2|1:2,0:2:0:0:
137,364,22950,1,0,0:2:0:0:
253,326,23071,22,0,B|326:334|291:374|391:373,1,140,2|8,1:2|1:2,0:2:0:0:
385,288,23433,2,0,P|428:286|474:281,1,70,2|0,1:2|3:2,0:2:0:0:
299,229,23675,2,0,P|308:187|312:146,2,70,2|8|0,1:2|1:2|3:2,0:0:0:0:
184,268,24038,22,0,P|142:233|51:191,1,140,6|8,1:2|1:2,0:2:0:0:
65,195,24401,1,0,0:2:0:0:
171,153,24522,2,0,P|163:108|161:79,1,70,2|0,1:2|3:2,0:0:0:0:
131,337,24764,21,10,1:2:0:0:
131,337,24885,2,0,B|187:326|187:326|204:312|204:312|273:295,1,140,2|0,1:2|3:2,0:2:0:0:
417,260,25248,1,8,1:2:0:0:
487,324,25369,2,0,B|501:291|501:291|492:239,1,70,2|0,1:2|3:2,0:2:0:0:
347,208,25611,2,0,B|333:241|333:241|342:293,1,70,2|8,3:2|1:2,0:2:0:0:
504,78,25853,21,2,0:2:0:0:
504,78,25974,2,0,P|478:117|384:138,1,140,4|8,1:2|1:2,0:2:0:0:
150,123,26337,2,0,P|176:162|270:183,1,140,2|0,1:2|3:2,0:2:0:0:
310,18,26700,2,0,B|314:56|314:56|315:64|315:64|320:104,1,70,10|0,1:2|3:2,0:0:0:0:
497,213,26942,22,0,B|413:222|444:250|360:253,1,140,2|8,1:2|1:2,0:2:0:0:
122,272,27304,2,0,B|203:283|168:304|259:312,1,140,0|0,0:0|3:2,0:0:0:0:
338,336,27667,1,10,1:2:0:0:
283,224,27788,21,0,0:2:0:0:
283,224,27909,2,0,P|296:176|309:83,1,140,2|8,1:2|1:2,0:2:0:0:
197,129,28272,2,0,P|222:84|250:-12,1,140,2|2,1:2|3:2,0:2:0:0:
251,5,28635,1,8,1:2:0:0:
381,42,28756,22,0,P|438:59|491:128,1,140,2|0,3:2|0:0,0:0:0:0:
451,195,29119,2,0,P|403:199|369:208,1,70,8|2,1:2|1:2,0:0:0:0:
289,287,29361,2,0,P|299:247|301:213,1,70,0|0,0:0|3:2,0:0:0:0:
271,136,29603,21,10,1:2:0:0:
185,148,29724,1,0,3:2:0:0:
99,158,29845,2,0,P|107:112|163:32,1,140,2|8,1:2|1:2,0:2:0:0:
205,232,30208,2,0,B|151:239|151:239|136:247|136:247|52:260,1,140,0|0,0:2|3:2,0:0:0:0:
17,186,30571,2,0,B|4:155|4:155|17:105,1,70,10|0,1:2|0:2,0:0:0:0:
0,325,30813,22,0,P|67:335|144:355,1,140,2|8,1:2|1:2,0:2:0:0:
211,312,31175,2,0,P|272:345|330:384,1,140,2|0,1:2|3:2,0:2:0:0:
398,323,31538,2,0,P|423:361|433:389,1,70,10|0,1:2|0:2,0:2:0:0:
487,219,31780,22,0,L|316:248,1,140,2|8,1:2|1:2,0:2:0:0:
436,144,32143,2,0,L|265:173,1,140,2|0,1:2|3:2,0:2:0:0:
215,52,32506,2,0,P|229:95|234:136,1,70,8|0,1:2|3:2,0:0:0:0:
80,268,32748,21,0,1:2:0:0:
49,183,32869,1,0,3:2:0:0:
80,268,32990,1,8,1:2:0:0:
143,200,33111,2,0,P|197:202|274:262,1,140,0|0,1:2|3:2,0:2:0:0:
240,353,33474,2,0,P|281:356|319:362,1,70,8|0,1:2|0:2,0:2:0:0:
512,267,33716,22,0,B|429:273|468:303|367:301,1,140,6|8,1:2|1:2,0:2:0:0:
339,170,34079,1,0,0:2:0:0:
339,170,34200,2,0,P|348:127|348:89,1,70,2|0,1:2|3:2,0:0:0:0:
454,130,34442,1,10,1:2:0:0:
397,218,34563,2,0,P|325:207|250:202,1,140,2|0,3:2|3:2,0:2:0:0:
140,92,34925,1,8,1:2:0:0:
140,92,35046,2,0,P|162:134|179:163,1,70,2|0,1:2|0:2,0:2:0:0:
137,302,35288,2,0,P|162:261|178:232,1,70,2|8,3:2|1:2,0:2:0:0:
51,78,35530,22,0,P|29:118|48:221,1,140,2|0,1:2|0:2,0:2:0:0:
48,374,35893,1,8,1:2:0:0:
0,295,36014,2,0,B|84:275|55:318|137:301,1,140,2|0,1:2|3:2,0:2:0:0:
299,275,36377,2,0,B|302:243|302:243|328:207,1,70,8|0,1:2|0:2,0:2:0:0:
178,228,36619,2,0,B|203:246|203:246|221:287,1,70,0|0,1:2|0:2,0:2:0:0:
278,147,36861,2,0,B|249:159|249:159|204:154,1,70,8|0,1:2|0:2,0:2:0:0:
117,57,37103,1,2,1:2:0:0:
117,57,37224,2,0,B|145:44|145:44|190:49,1,70,2|8,3:2|1:2,0:2:0:0:
349,42,37466,22,0,B|325:117|386:102|353:188,1,140,2|0,1:2|0:2,0:2:0:0:
232,270,37829,1,8,1:2:0:0:
232,270,37950,2,0,P|256:241|298:234,1,70,2|0,1:2|3:2,0:2:0:0:
439,305,38192,2,0,P|428:272|401:250,1,70,2|8,3:2|1:2,0:2:0:0:
269,349,38433,22,0,B|336:332|336:332|403:377,1,140,0|0,1:2|0:2,0:2:0:0:
129,292,38796,1,8,1:2:0:0:
129,292,38917,2,0,B|118:261|118:261|124:209,1,70,2|0,1:2|3:2,0:2:0:0:
225,202,39159,2,0,B|236:233|236:233|230:285,1,70,2|8,3:2|1:2,0:2:0:0:
26,112,39401,2,0,P|72:137|171:137,1,140,2|0,1:2|3:2,0:2:0:0:
158,140,39764,2,0,P|147:96|144:65,1,70,8|0,1:2|0:2,0:2:0:0:
248,20,40006,2,0,P|300:23|357:95,1,140,2|8,1:2|1:2,0:2:0:0:
355,85,40369,1,0,0:2:0:0:
367,240,40490,22,0,P|378:193|394:162,1,70,2|0,1:2|3:2,0:2:0:0:
475,171,40732,1,8,1:2:0:0:
475,171,40853,2,0,P|466:123|467:87,1,70,2|0,1:2|3:2,0:2:0:0:
419,23,41095,2,0,L|499:13,2,70,2|8|0,1:2|1:2|3:2,0:0:0:0:
303,159,41458,22,0,B|250:153|250:153|223:138|223:138|152:131,1,140,6|8,1:2|1:2,0:2:0:0:
146,285,41821,1,0,0:2:0:0:
146,285,41942,2,0,P|148:240|137:206,2,70,2|0|10,1:2|3:2|1:2,0:0:0:0:
163,379,42304,22,0,B|112:371|112:371|89:355|89:355|9:342,1,140,2|0,1:2|3:2,0:2:0:0:
0,207,42667,1,8,1:2:0:0:
0,207,42788,2,0,P|51:198|85:193,1,70,2|0,1:2|3:2,0:2:0:0:
149,132,43030,2,0,P|193:148|234:164,1,70,2|8,3:2|1:2,0:2:0:0:
414,199,43272,21,2,0:2:0:0:
414,199,43393,2,0,P|350:177|328:101,1,140,4|8,1:2|1:2,0:2:0:0:
386,24,43756,2,0,P|324:37|242:50,1,140,2|0,1:2|3:2,0:2:0:0:
79,125,44119,1,10,1:2:0:0:
146,63,44240,1,0,3:2:0:0:
205,135,44361,2,0,P|195:191|188:286,2,140,2|8|0,1:2|1:2|0:0,0:2:0:0:
450,298,45087,21,10,1:2:0:0:
512,222,45208,1,0,3:2:0:0:
442,167,45329,2,0,P|389:172|324:244,1,140,2|8,1:2|1:2,0:2:0:0:
224,201,45692,2,0,P|242:245|232:285,1,70,2|0,1:2|3:2,0:2:0:0:
202,361,45933,1,2,3:2:0:0:
306,321,46054,1,8,1:2:0:0:
154,246,46175,2,0,P|104:239|57:229,1,70,2|0,1:2|3:2,0:0:0:0:
58,129,46417,2,0,P|92:135|127:139,1,70,0|8,1:0|1:2,0:0:0:0:
293,211,46659,2,0,P|243:204|196:194,1,70,2|0,1:2|3:0,0:2:0:0:
197,94,46901,2,0,P|231:100|266:104,1,70,2|8,3:2|1:2,0:0:0:0:
359,148,47143,21,0,3:2:0:0:
369,279,47264,2,0,P|347:234|362:142,1,140,2|8,1:2|1:2,0:2:0:0:
498,132,47627,2,0,P|520:177|505:269,1,140,0|0,0:2|0:2,0:0:0:0:
392,364,47990,2,0,P|352:364|325:348,1,70,10|0,1:2|0:2,0:0:0:0:
125,190,48232,2,0,P|181:186|274:167,1,140,2|8,1:2|1:2,0:2:0:0:
369,279,48595,2,0,P|313:275|220:256,1,140,2|0,1:2|3:2,0:2:0:0:
144,355,48958,2,0,P|152:302|152:271,1,70,10|0,1:2|0:2,0:2:0:0:
52,130,49200,22,0,B|29:180|29:180|63:277,1,140,2|8,1:2|1:2,0:2:0:0:
230,259,49563,2,0,B|253:209|253:209|219:112,1,140,2|0,1:2|3:2,0:2:0:0:
93,49,49925,2,0,P|128:61|180:67,1,70,8|0,1:2|3:2,0:0:0:0:
312,95,50167,2,0,P|356:83|391:81,1,70,0|0,1:2|0:2,0:2:0:0:
474,72,50409,1,8,1:2:0:0:
508,154,50530,1,8,3:2:0:0:
428,219,50651,2,0,P|423:262|415:296,1,70,8|8,1:0|3:2,0:0:0:0:
306,305,50893,2,0,P|311:348|319:382,1,70,8|8,1:2|3:2,0:0:0:0:
213,210,51135,2,0,P|283:223|362:185,1,140,6|8,1:2|1:0,0:0:0:0:
443,120,51498,21,0,0:0:0:0:
443,120,51619,2,0,P|435:74|435:50,1,59.5000011348725,2|0,1:2|3:0,0:0:0:0:
360,0,51861,2,0,P|352:46|352:70,1,59.5000011348725,10|0,1:2|0:0,0:0:0:0:
284,102,52103,2,0,P|228:108|147:126,1,119.000002269745,2|8,1:2|1:0,0:0:0:0:
24,146,52466,2,0,P|39:195|40:220,1,59.5000011348725,2|0,1:2|3:0,0:0:0:0:
124,228,52708,2,0,P|119:265|110:296,1,59.5000011348725,2|8,3:2|1:0,0:0:0:0:
0,348,52950,22,0,L|127:373,1,119.000002269745,0|0,1:0|3:0,0:0:0:0:
306,296,53313,2,0,L|179:321,2,119.000002269745,8|0|8,1:0|1:0|1:0,0:0:0:0:
442,284,53917,1,0,3:0:0:0:
442,284,54038,2,0,P|426:234|419:155,1,119.000002269745,2|8,1:2|1:0,0:0:0:0:
343,147,54401,2,0,P|307:185|242:231,1,119.000002269745,2|0,1:2|3:0,0:0:0:0:
306,296,54764,2,0,P|337:302|372:323,1,59.5000011348725,10|0,1:2|0:0,0:0:0:0:
202,289,55006,22,0,P|146:301|81:305,1,119.000002269745,2|8,1:2|1:0,0:0:0:0:
0,206,55369,2,0,P|56:218|121:222,1,119.000002269745,2|0,1:2|3:0,0:0:0:0:
177,154,55732,2,0,P|171:111|166:91,1,59.5000011348725,10|0,1:2|0:0,0:0:0:0:
347,116,55974,22,0,P|406:142|406:214,1,119.000002269745,2|8,1:2|1:0,0:0:0:0:
345,263,56337,2,0,P|304:251|285:173,1,119.000002269745,2|0,1:2|3:0,0:0:0:0:
310,43,56700,2,0,P|332:35|378:35,1,59.5000011348725,10|0,1:2|0:0,0:0:0:0:
213,135,56942,22,0,P|164:126|138:119,1,59.5000011348725,2|0,1:2|0:0,0:0:0:0:
93,191,57183,1,8,1:0:0:0:
93,191,57304,2,0,P|44:182|18:175,1,59.5000011348725,2|0,1:2|0:0,0:0:0:0:
60,294,57546,1,2,1:2:0:0:
145,318,57667,1,8,1:0:0:0:
169,231,57788,2,0,P|232:247|264:315,1,119.000002269745,2|0,1:2|3:0,0:0:0:0:
347,294,58151,2,0,P|337:337|335:364,1,59.5000011348725,8|0,1:0|0:0,0:0:0:0:
450,384,58393,2,0,P|443:349|438:322,2,59.5000011348725,2|0|8,1:2|3:0|1:0,0:0:0:0:
503,155,58877,22,0,P|465:197|389:193,1,119.000002269745,6|8,1:2|1:0,0:0:0:0:
303,245,59240,1,0,0:0:0:0:
331,170,59361,2,0,P|323:142|318:113,2,59.5000011348725,2|0|8,1:2|3:0|1:0,0:0:0:0:
137,102,59724,2,0,P|175:144|251:140,1,119.000002269745,2|0,1:2|0:0,0:0:0:0:
290,31,60087,1,8,1:0:0:0:
290,31,60208,2,0,P|253:26|228:20,1,59.5000011348725,2|0,3:2|0:0,0:0:0:0:
376,123,60450,2,0,P|339:118|314:112,1,59.5000011348725,0|8,3:0|1:0,0:0:0:0:
477,48,60692,2,0,B|468:93|468:93|474:115|474:115|462:187,1,119.000002269745,2|0,1:2|3:0,0:0:0:0:
395,268,61054,2,0,P|453:252|512:245,1,119.000002269745,8|0,1:0|1:0,0:0:0:0:
151,308,61538,21,10,1:2:0:0:
98,235,61659,1,0,3:0:0:0:
170,155,61780,2,0,P|203:186|209:275,1,119.000002269745,2|8,1:2|1:0,0:0:0:0:
60,315,62143,2,0,P|27:284|21:195,1,119.000002269745,2|0,1:2|3:0,0:0:0:0:
134,74,62506,2,0,P|180:70|217:81,1,59.5000011348725,10|0,1:2|0:0,0:0:0:0:
329,44,62748,22,0,P|344:109|360:184,1,119.000002269745,2|8,1:2|1:0,0:0:0:0:
500,207,63111,2,0,P|485:142|469:67,1,119.000002269745,2|0,1:2|3:0,0:0:0:0:
380,239,63474,2,0,P|389:281|394:307,1,59.5000011348725,10|0,1:2|0:0,0:0:0:0:
200,360,63716,22,0,P|246:350|341:352,1,119.000002269745,2|8,1:2|1:0,0:0:0:0:
140,297,64079,2,0,P|154:265|183:237,1,59.5000011348725,2|0,1:2|3:0,0:0:0:0:
54,334,64321,2,0,P|36:295|31:268,1,59.5000011348725,2|8,3:2|1:0,0:0:0:0:
197,143,64563,22,0,P|97:156|52:171,1,140,6|0,1:2|3:3,0:0:0:0:
117,57,64925,1,8,1:2:0:0:
278,105,65046,1,2,0:0:0:0:
278,105,65167,2,0,P|269:57|259:34,2,70,2|0|8,1:2|0:0|1:0,0:0:0:0:
245,260,65530,22,0,P|270:222|369:216,1,140,6|0,1:2|3:0,0:0:0:0:
436,294,65893,1,8,1:0:0:0:
317,371,66014,1,2,0:0:0:0:
317,371,66135,2,0,P|323:318|325:298,2,70,0|2|8,3:0|3:2|1:0,0:0:0:0:
150,186,66498,22,0,P|160:247|168:338,1,140,6|8,1:2|3:0,0:0:0:0:
93,365,66861,1,8,1:3:0:0:
16,214,66982,2,0,P|62:224|89:230,1,70,8|8,0:3|1:3,0:0:0:0:
118,102,67224,2,0,P|164:92|191:86,1,70,8|8,0:3|1:3,0:0:0:0:
294,259,67466,22,0,P|283:179|277:113,1,140,4|8,1:2|3:0,0:0:0:0:
276,35,67829,1,8,1:3:0:0:
361,125,67950,2,0,B|375:158|375:158|359:206,1,70,8|8,1:3|0:3,0:0:0:0:
207,233,68192,2,0,B|193:200|193:200|209:152,1,70,8|8,1:3|3:3,0:0:0:0:
369,269,68433,6,2,P|416:283|485:222,1,140,12|0,1:0|1:0,0:1:0:0:
280,315,68796,1,10,1:0:0:0:
280,315,68917,2,0,P|236:320|138:353,1,140,2|2,1:1|1:1,0:0:0:0:
80,287,69280,1,8,3:1:0:0:
89,185,69401,2,2,B|142:192|142:192|166:205|166:205|245:219,1,140,2|0,1:2|3:0,0:1:0:0:
305,189,69764,2,0,P|293:153|288:114,1,70,8|0,1:0|0:0,0:0:0:0:
445,49,70006,22,0,P|459:88|464:126,1,70,2|0,1:0|3:2,0:0:0:0:
457,224,70248,1,8,1:0:0:0:
375,132,70369,2,2,P|451:145|519:157,1,140,6|0,1:2|3:0,0:1:0:0:
401,294,70732,2,0,P|350:288|318:288,1,70,8|0,1:0|3:0,0:0:0:0:
258,346,70974,2,0,P|213:353|173:357,1,70,0|0,1:0|3:0,0:0:0:0:
60,288,71216,21,10,1:0:0:0:
20,211,71337,1,0,3:0:0:0:
66,143,71458,2,0,P|122:136|205:187,1,140,2|8,1:0|1:0,0:0:0:0:
279,133,71821,2,0,P|280:181|282:213,1,70,2|0,1:0|3:1,0:0:0:0:
426,252,72063,2,0,P|428:217|429:183,1,70,2|8,1:0|3:1,0:0:0:0:
253,294,72304,22,2,L|95:331,1,140,6|0,1:2|3:0,0:1:0:0:
332,341,72667,1,8,1:0:0:0:
281,202,72788,2,2,L|134:194,1,140,2|0,1:2|3:2,0:1:0:0:
56,187,73151,1,8,1:0:0:0:
134,57,73272,22,2,P|149:110|135:209,1,140,6|0,1:2|3:0,0:1:0:0:
49,29,73635,1,8,1:0:0:0:
201,6,73756,2,2,P|270:34|316:95,1,140,2|0,1:2|3:0,0:1:0:0:
281,202,74119,1,10,1:0:0:0:
512,130,74240,22,2,B|426:132|473:172|348:149,1,140,6|0,1:2|3:0,0:1:0:0:
281,202,74603,1,8,1:0:0:0:
369,318,74724,2,0,P|366:276|352:248,1,70,2|0,1:0|3:0,0:0:0:0:
196,211,74966,2,0,P|199:253|213:281,1,70,2|8,1:0|3:1,0:0:0:0:
132,375,75208,2,0,P|214:364|300:360,2,140,2|2|2,1:0|1:0|1:0,0:0:0:0:
8,285,75813,21,0,1:0:0:0:
68,204,75933,1,0,1:0:0:0:
141,268,76054,2,0,P|189:276|237:277,1,70,10|0,1:0|0:0,0:0:0:0:
145,90,76296,2,2,P|140:135|224:189,1,140,6|8,1:2|3:1,0:1:0:0:
371,100,76659,2,0,P|327:91|289:82,1,70,2|0,1:0|0:0,0:0:0:0:
354,238,76901,2,0,P|310:229|272:220,1,70,2|8,1:0|1:0,0:0:0:0:
448,244,77143,2,2,B|428:180|428:180|471:110,1,140,2|0,1:2|3:0,0:1:0:0:
505,320,77506,2,0,P|460:326|431:336,1,70,8|0,1:0|0:0,0:0:0:0:
294,366,77748,22,0,P|310:329|317:275,2,70,2|0|8,1:0|3:0|1:0,0:0:0:0:
200,149,78111,2,0,P|213:195|210:228,1,70,6|0,1:0|0:0,0:0:0:0:
151,290,78353,2,2,B|196:280|196:280|217:247|217:247|286:226,1,140,8|0,1:0|3:0,0:1:0:0:
411,165,78716,2,0,P|359:156|325:147,1,70,2|0,1:0|3:0,0:0:0:0:
200,149,78958,1,8,1:0:0:0:
113,87,79079,2,2,P|167:77|269:52,1,140,6|0,1:2|1:0,0:1:0:0:
448,20,79442,2,0,P|429:63|433:103,1,70,8|0,1:0|0:0,0:0:0:0:
438,263,79683,21,2,1:0:0:0:
497,191,79804,1,0,3:0:0:0:
438,263,79925,1,8,1:0:0:0:
363,212,80046,2,2,P|294:226|208:247,1,140,6|0,1:2|1:0,0:1:0:0:
363,212,80409,1,8,1:0:0:0:
186,155,80530,2,2,P|134:157|28:157,1,140,2|0,1:2|3:1,0:1:0:0:
277,15,80893,2,0,B|290:71|290:71|279:105|279:105|295:180,2,140,8|0|8,1:0|1:0|1:0,0:0:0:0:
201,56,81498,1,0,3:0:0:0:
368,130,81619,2,0,P|414:140|457:146,1,70,2|0,1:0|3:0,0:0:0:0:
459,144,81800,1,2,3:1:0:0:
459,144,81861,1,8,1:0:0:0:
395,247,81982,1,2,1:0:0:0:
283,185,82103,22,0,P|238:189|190:281,1,140,6|8,1:0|1:0,0:0:0:0:
397,316,82466,2,0,P|398:262|388:228,1,70,4|0,1:0|3:0,0:0:0:0:
254,305,82708,2,0,P|253:359|263:393,1,70,8|2,3:1|1:0,0:0:0:0:
486,362,82950,1,0,1:0:0:0:
486,362,83071,2,2,P|389:340|320:335,1,140,4|0,1:0|1:0,0:1:0:0:
235,210,83433,1,8,3:1:0:0:
101,287,83554,2,0,P|135:280|169:274,1,70,14|8,1:0|3:1,0:0:0:0:
325,216,83796,1,8,1:0:0:0:
159,144,83917,1,8,3:0:0:0:
262,72,84038,22,2,P|243:152|233:229,1,140,12|10,1:0|1:0,0:1:0:0:
428,283,84401,2,0,P|435:252|438:200,1,70,2|0,1:1|0:0,0:0:0:0:
493,96,84643,2,0,P|484:61|465:28,1,70,2|8,1:1|3:1,0:0:0:0:
221,295,84885,22,2,B|276:284|276:284|289:268|289:268|367:253,1,140,2|0,1:2|3:0,0:1:0:0:
400,134,85248,2,0,P|354:130|323:120,1,70,8|0,1:0|0:0,0:0:0:0:
178,31,85490,1,2,1:0:0:0:
208,146,85611,1,0,3:2:0:0:
265,64,85732,1,8,1:0:0:0:
119,109,85853,22,2,P|104:164|134:262,1,140,6|0,1:2|3:0,0:1:0:0:
339,292,86216,2,0,P|311:268|280:236,1,70,8|0,1:0|3:0,0:0:0:0:
228,381,86458,2,0,P|262:368|305:357,1,70,0|0,1:0|3:0,0:0:0:0:
206,240,86700,2,0,P|199:276|187:319,1,70,10|0,1:0|3:0,0:0:0:0:
368,155,86942,22,0,P|347:236|336:316,1,140,2|8,1:0|1:0,0:0:0:0:
280,129,87304,2,0,P|238:146|202:154,1,70,2|0,1:0|3:1,0:0:0:0:
269,44,87546,2,0,P|236:33|202:16,1,70,2|8,1:0|3:1,0:0:0:0:
451,113,87788,22,2,P|493:139|493:252,1,140,6|0,1:2|3:0,0:1:0:0:
457,301,88151,1,8,1:0:0:0:
349,233,88272,2,2,B|265:251|309:283|196:284,1,140,2|0,1:2|3:2,0:1:0:0:
148,245,88635,1,8,1:0:0:0:
272,156,88756,22,2,P|251:122|243:3,1,140,6|0,1:2|3:0,0:1:0:0:
349,233,89119,1,8,1:0:0:0:
454,193,89240,2,2,P|475:159|483:40,1,140,2|0,1:2|3:0,0:1:0:0:
397,37,89603,1,10,1:0:0:0:
272,156,89724,2,2,B|217:168|217:168|193:197|193:197|119:217,1,140,6|0,1:2|3:0,0:1:0:0:
352,318,90087,1,8,1:0:0:0:
281,258,90208,2,0,P|262:311|271:338,1,70,2|0,1:0|3:0,0:0:0:0:
430,365,90450,2,0,P|440:324|432:291,1,70,2|8,1:0|3:1,0:0:0:0:
384,97,90692,22,0,P|389:136|395:172,1,70,2|0,1:0|3:0,0:0:0:0:
232,165,90933,2,0,P|283:174|311:181,1,70,2|8,1:0|1:0,0:0:0:0:
458,223,91175,1,2,1:0:0:0:
434,306,91296,1,0,1:0:0:0:
362,243,91417,1,0,1:0:0:0:
288,323,91538,2,0,P|240:334|212:340,1,70,10|0,1:0|0:0,0:0:0:0:
157,107,91780,22,2,B|137:171|137:171|172:257,1,140,6|8,1:2|3:1,0:1:0:0:
36,376,92143,2,0,P|47:328|41:277,1,70,2|0,1:0|0:0,0:0:0:0:
0,229,92385,2,0,P|43:214|90:203,1,70,2|8,1:0|1:0,0:0:0:0:
238,96,92627,2,2,P|137:81|76:64,1,140,2|0,1:2|3:0,0:1:0:0:
17,55,92990,2,0,P|7:108|3:138,1,70,8|0,1:0|0:0,0:0:0:0:
217,295,93232,21,2,1:0:0:0:
244,215,93353,1,0,3:0:0:0:
168,183,93474,1,8,1:0:0:0:
134,263,93595,2,0,B|126:300|126:300|136:347,1,70,6|0,1:0|0:0,0:0:0:0:
375,236,93837,2,2,P|340:215|224:224,1,140,8|0,1:0|3:0,0:1:0:0:
63,214,94200,22,0,P|72:179|79:138,2,70,2|0|8,1:0|3:0|1:0,0:0:0:0:
292,41,94563,2,2,P|245:80|141:89,1,140,6|0,1:2|1:0,0:1:0:0:
40,37,94925,2,0,P|90:34|132:29,1,70,8|0,1:0|0:0,0:0:0:0:
240,179,95167,2,0,P|186:174|164:174,1,70,2|0,1:0|3:0,0:0:0:0:
77,145,95409,1,8,1:0:0:0:
210,257,95530,22,2,B|258:247|258:247|277:220|277:220|347:198,1,140,6|0,1:2|1:0,0:1:0:0:
458,155,95893,1,8,1:0:0:0:
382,267,96014,2,2,P|359:158|346:113,1,140,2|0,1:2|3:1,0:1:0:0:
284,49,96377,22,0,P|275:80|275:132,1,70,8|0,1:0|0:0,0:0:0:0:
148,25,96619,2,0,P|179:16|224:-9,1,70,0|0,1:0|0:0,0:0:0:0:
194,155,96861,2,0,P|171:132|126:106,1,70,8|0,1:0|3:0,0:0:0:0:
300,54,97103,22,0,P|291:85|291:137,1,70,2|0,1:0|3:0,0:0:0:0:
303,161,97284,1,2,3:1:0:0:
303,161,97345,2,0,P|333:144|367:135,1,70,8|2,1:0|1:0,0:0:0:0:
469,311,97587,2,2,B|394:301|436:247|328:243,1,140,6|8,1:2|1:0,0:1:0:0:
171,295,97950,2,0,P|217:286|266:285,1,70,0|0,1:0|3:0,0:0:0:0:
321,327,98192,1,8,3:1:0:0:
186,207,98313,2,0,P|193:168|202:131,1,70,2|0,1:0|1:0,0:0:0:0:
395,66,98554,22,2,P|387:112|377:148,1,70,4|0,1:0|0:0,0:1:0:0:
162,58,98796,2,0,P|207:55|252:51,1,70,8|8,1:0|3:1,0:0:0:0:
318,210,99038,1,14,1:0:0:0:
200,138,99159,1,8,3:1:0:0:
213,228,99280,1,8,1:0:0:0:
298,121,99401,1,8,3:1:0:0:
133,188,99522,38,2,B|48:200|100:237|0:251,1,140,12|8,1:0|1:0,0:1:0:0:
318,210,99885,2,0,P|357:226|398:232,1,70,0|0,3:2|1:2,0:2:0:0:
213,228,100127,2,0,B|226:264|226:264|208:310,1,70,0|8,3:2|1:2,0:0:0:0:
156,357,100369,2,0,P|238:329|314:346,1,140,6|0,1:2|3:2,0:2:0:0:
466,266,100732,22,0,P|456:313|453:353,1,70,8|0,1:2|3:2,0:2:0:0:
369,197,100974,2,0,P|361:235|352:279,1,70,0|0,1:2|3:2,0:2:0:0:
445,126,101216,2,0,P|381:150|290:126,2,140,8|2|8,1:2|1:2|1:2,0:2:0:0:
160,144,101942,2,0,P|128:139|82:135,1,70,0|0,1:2|3:2,0:0:0:0:
39,66,102183,1,8,1:2:0:0:
173,58,102304,2,0,B|185:113|185:113|174:144|174:144|190:216,1,140,2|0,1:2|1:2,0:2:0:0:
286,246,102667,2,0,P|274:204|260:160,1,70,10|0,1:2|0:2,0:2:0:0:
371,56,102909,2,0,P|390:104|406:138,1,70,0|0,1:2|3:2,0:0:0:0:
474,224,103151,2,0,P|424:212|383:210,1,70,10|0,1:2|0:2,0:2:0:0:
330,339,103393,22,0,L|176:370,2,140,14|8|0,1:2|1:2|1:2,0:2:0:0:
408,295,103998,1,0,3:2:0:0:
317,252,104119,1,8,1:2:0:0:
394,206,104240,2,0,P|398:149|410:41,1,140,2|0,1:2|3:2,0:2:0:0:
313,129,104603,2,0,P|263:134|227:138,1,70,8|0,1:2|3:2,0:2:0:0:
195,214,104845,2,0,P|144:206|104:205,1,70,0|0,1:2|3:2,0:2:0:0:
66,137,105087,2,0,B|58:104|58:104|75:49,1,70,8|0,1:2|0:2,0:2:0:0:
187,0,105329,22,0,B|196:36|196:36|179:83,1,70,2|0,1:2|3:2,0:2:0:0:
423,203,105571,2,0,P|407:150|410:46,1,140,14|0,1:2|1:2,0:2:0:0:
230,141,105933,2,0,P|279:130|320:128,1,70,0|8,3:2|1:2,0:0:0:0:
245,240,106175,2,0,B|189:232|189:232|170:211|170:211|107:207,1,140,2|0,1:2|3:2,0:2:0:0:
40,257,106538,2,0,P|36:217|26:168,1,70,10|0,1:2|3:2,0:2:0:0:
33,14,106780,21,8,1:2:0:0:
125,56,106901,1,8,3:2:0:0:
217,48,107022,21,8,1:2:0:0:
47,113,107143,1,8,3:2:0:0:
254,133,107264,22,0,P|271:204|285:281,2,140,6|8|0,1:2|1:2|1:2,0:2:0:0:
385,68,107869,1,0,3:2:0:0:
452,135,107990,1,8,1:2:0:0:
408,215,108111,2,0,B|318:226|377:262|254:273,1,140,2|0,1:2|3:2,0:2:0:0:
48,264,108474,22,0,P|68:221|77:195,1,70,8|0,1:2|0:2,0:2:0:0:
173,319,108716,2,0,P|125:323|98:328,1,70,0|0,1:2|3:2,0:0:0:0:
159,184,108958,2,0,P|186:222|204:243,1,70,8|0,1:2|3:2,0:0:0:0:
392,142,109200,2,0,P|379:177|356:214,1,70,2|0,1:2|0:2,0:2:0:0:
116,110,109442,2,0,B|173:99|173:99|189:106|189:106|260:96,1,140,8|0,1:2|1:2,0:2:0:0:
395,58,109804,2,0,P|349:51|306:43,1,70,0|8,3:2|1:2,0:0:0:0:
257,180,110046,22,0,P|275:247|287:331,1,140,2|0,1:2|1:2,0:2:0:0:
192,258,110409,2,0,P|150:267|119:274,1,70,10|0,1:2|0:2,0:2:0:0:
23,133,110651,1,0,1:2:0:0:
77,63,110772,1,0,3:2:0:0:
157,101,110893,2,0,B|171:133|171:133|163:178,1,70,10|0,1:2|0:2,0:2:0:0:
0,326,111135,22,0,B|82:341|39:367|150:377,2,140,6|8|0,1:2|1:2|3:2,0:2:0:0:
20,224,111749,1,0,1:2:0:0:
147,197,111872,1,8,1:2:0:0:
76,142,111995,2,0,P|98:235|109:295,1,139,2|0,1:2|3:2,0:2:0:0:
209,332,112359,2,0,P|244:338|301:347,1,70,8|0,1:2|0:2,0:2:0:0:
324,191,112601,2,0,P|313:236|306:279,1,70,0|0,1:2|3:2,0:0:0:0:
461,313,112843,2,0,P|426:307|391:301,1,70,8|0,1:2|3:2,0:0:0:0:
408,144,113085,22,0,B|418:180|418:180|407:230,1,70,2|0,1:2|0:0,0:2:0:0:
278,343,113327,1,8,1:2:0:0:
166,235,113448,2,0,P|230:228|247:226,1,70,10|0,1:2|3:2,0:2:0:0:
480,219,113690,2,0,P|445:215|410:211,1,70,10|0,1:2|3:2,0:2:0:0:
302,70,113932,22,0,P|309:147|320:235,1,140,2|8,1:2|3:3,0:0:0:0:
348,297,114295,1,8,1:3:0:0:
235,227,114416,1,8,3:3:0:0:
405,214,114537,2,0,P|444:224|485:232,1,70,8|8,1:3|3:3,0:0:0:0:
247,131,114779,2,0,P|208:140|176:144,1,70,8|8,1:3|3:3,0:0:0:0:
74,227,115021,22,0,P|76:188|106:56,1,157.500006008148,6|2,0:0|0:0,0:0:0:0:
170,20,115505,2,0,P|205:27|230:32,1,52.5000020027161
326,171,115747,2,0,P|363:164|399:154,1,52.5000020027161,2|0,0:0|0:0,0:0:0:0:
447,78,115988,2,0,P|463:166|471:195,2,105.000004005432,2|2|2,0:0|0:0|0:0,0:0:0:0:
172,280,116714,2,0,P|182:245|188:212,1,52.5000020027161
134,172,116956,2,0,B|223:165|194:214|301:200,2,157.500006008148,2|2|2,0:0|0:0|0:0,0:0:0:0:
352,136,117924,21,0,0:0:0:0:
352,136,118045,1,0,0:0:0:0:
352,136,118166,2,0,P|392:143|426:149,1,52.5000020027161
235,66,118408,2,0,P|230:101|228:132,1,52.5000020027161,2|0,0:0|0:0,0:0:0:0:
134,172,118650,2,0,P|139:138|143:114,1,52.5000020027161
303,209,118892,22,0,P|350:247|338:308,1,105.000004005432,6|0,3:2|0:0,0:0:0:0:
254,350,119255,2,0,P|207:312|219:251,1,105.000004005432,2|0,0:0|0:0,0:0:0:0:
236,170,119618,2,0,B|333:170|295:216|403:205,1,157.500006008148,2|0,0:0|0:0,0:0:0:0:
465,169,120101,2,0,P|456:141|452:117,1,52.5000020027161
432,27,120343,1,2,0:0:0:0:
229,170,120585,2,0,P|184:167|162:165,1,52.5000020027161
76,122,120827,22,0,L|98:291,2,157.500006008148,6|8|8,3:2|3:3|3:0,0:0:0:0:
45,44,121674,1,8,0:3:0:0:
203,92,121916,2,0,P|234:100|262:108,1,52.5000020027161,8|0,0:3|0:0,0:0:0:0:
176,166,122158,1,8,0:3:0:0:
228,233,122279,2,0,P|259:241|287:249,1,52.5000020027161,8|0,3:0|0:0,0:0:0:0:
452,179,122521,21,8,3:0:0:0:
436,97,122642,1,8,0:3:0:0:
420,15,122763,2,0,P|365:26|323:34,1,83.9999974365235,2|0,0:0|0:0,0:0:0:0:
201,76,123126,2,0,P|242:84|284:93,1,83.9999974365235,2|0,0:0|0:0,0:0:0:0:
427,142,123488,2,0,P|436:179|444:237,1,83.9999974365235,2|0,0:0|0:0,0:0:0:0:
290,220,123851,2,0,P|280:191|278:162,2,41.9999987182618,0|2|0,0:0|0:0|0:0,0:0:0:0:
376,287,124214,2,0,B|323:298|323:298|315:304|315:304|240:317,1,125.999996154785,2|0,0:0|0:0,0:0:0:0:
145,166,124698,22,0,P|184:192|170:273,1,125.999996154785,2|0,0:0|0:0,0:0:0:0:
70,273,125182,2,0,P|57:250|57:228,1,41.9999987182618
43,72,125424,2,0,P|53:104|65:168,1,83.9999974365235,2|2,0:0|0:0,0:0:0:0:
155,71,125787,2,0,P|184:76|203:80,2,41.9999987182618
234,153,126150,2,0,P|268:160|293:169,1,41.9999987182618
360,274,126392,2,0,P|345:241|340:231,1,41.9999987182618
342,88,126634,22,0,P|382:96|400:177,1,125.999996154785,2|2,0:0|0:0,0:0:0:0:
342,235,127118,2,0,P|304:243|285:245,1,41.9999987182618
217,298,127359,2,0,P|184:295|121:288,1,83.9999974365235,2|0,0:0|0:0,0:0:0:0:
60,243,127722,1,0,0:0:0:0:
60,243,127843,2,0,P|56:203|52:152,2,83.9999974365235,2|0|0,0:0|0:0|0:0,0:0:0:0:
28,329,128448,1,0,0:0:0:0:
114,368,128569,2,0,P|155:365|205:359,1,83.9999974365235,2|0,0:0|0:0,0:0:0:0:
348,304,128932,22,0,P|316:301|299:299,2,41.9999987182618,2|0|0,0:0|0:0|0:0,0:0:0:0:
225,282,129295,2,0,P|232:241|243:184,1,83.9999974365235,2|2,0:0|0:0,0:0:0:0:
315,142,129658,2,0,P|311:114|308:92,2,41.9999987182618
378,209,130021,1,2,0:0:0:0:
203,107,130263,2,0,P|168:100|151:101,1,41.9999987182618
62,176,130505,22,0,P|50:205|69:268,1,83.9999974365235,6|0,0:3|0:0,0:0:0:0:
141,376,130868,2,0,P|129:347|148:284,1,83.9999974365235,2|0,0:0|0:0,0:0:0:0:
220,222,131230,2,0,B|291:231|268:260|351:266,1,125.999996154785,2|0,0:0|0:0,0:0:0:0:
416,224,131714,2,0,P|409:187|406:166,1,41.9999987182618,2|0,0:0|0:0,0:0:0:0:
259,151,131956,2,0,L|271:56,1,83.9999974365235,0|2,0:0|0:0,0:0:0:0:
269,67,132319,1,0,0:0:0:0:
172,151,132440,22,0,B|46:184,2,125.999996154785,2|0|2,0:0|0:0|0:0,0:0:0:0:
249,210,133287,1,0,0:0:0:0:
249,210,133408,2,0,P|246:245|251:266,1,41.9999987182618,2|0,0:0|0:0,0:0:0:0:
341,246,133650,2,0,P|344:211|339:190,1,41.9999987182618
258,78,133892,22,0,B|239:89|239:89|279:97|279:97|304:85,1,83.9999974365235,2|0,0:0|0:0,0:0:0:0:
298,87,134255,1,0,0:0:0:0:
349,21,134376,2,0,B|243:-24|257:108|152:67,1,209.999993591309,6|0,1:2|0:0,0:0:0:0:
68,20,135101,2,0,L|76:68,1,41.9999987182618,2|0,0:0|0:0,0:0:0:0:
215,155,135343,22,0,L|189:370,1,209.999993591309,6|0,1:2|0:0,0:0:0:0:
69,257,136069,2,0,P|103:262|119:266,1,41.9999987182618,2|0,0:0|0:0,0:0:0:0:
330,315,136311,22,0,P|371:290|412:285,1,83.9999974365235,6|0,1:2|0:0,0:0:0:0:
267,188,136674,2,0,P|268:236|251:274,1,83.9999974365235,8|0,1:3|0:0,0:0:0:0:
408,196,137037,2,0,P|365:172|341:139,1,83.9999974365235,8|0,3:0|3:0,0:0:0:0:
169,85,137400,22,0,P|130:91|99:93,1,62.9999980773926,8|0,1:3|0:0,0:0:0:0:
305,26,137642,1,0,3:0:0:0:
305,26,137763,2,0,P|336:28|367:33,1,62.9999980773926,8|0,1:3|0:0,0:0:0:0:
228,188,138005,1,0,1:0:0:0:
201,6,138126,1,0,3:0:0:0:
350,114,138247,1,6,1:2:0:0:
