osu file format v14

[General]
AudioFilename: audio.mp3
AudioLeadIn: 0
PreviewTime: -1
Countdown: 0
SampleSet: Normal
StackLeniency: 0.7
Mode: 1
LetterboxInBreaks: 0
WidescreenStoryboard: 1

[Editor]
Bookmarks: 3910,7057,10414,13770,15658,17337,30763,42511,55938
DistanceSpacing: 0.6
BeatDivisor: 4
GridSize: 4
TimelineZoom: 1.9

[Metadata]
Title:Silver Will
TitleUnicode:Silver Will
Artist:Falcom Sound Team J.D.K
ArtistUnicode:Falcom Sound Team J.D.K
Creator:Leeafa
Version:Futsuu
Source:Eiyuu Densetsu VI: Sora no Kiseki
Tags:sora no kiseki rpg game ost falcom
BeatmapID:2023777
BeatmapSetID:966455

[Difficulty]
HPDrainRate:4
CircleSize:5
OverallDifficulty:4
ApproachRate:5
SliderMultiplier:1.4
SliderTickRate:1

[Events]
//Background and Video events
0,0,"loewe.png",0,0
//Break Periods
//Storyboard Layer 0 (Background)
//Storyboard Layer 1 (Fail)
//Storyboard Layer 2 (Pass)
//Storyboard Layer 3 (Foreground)
//Storyboard Sound Samples

[TimingPoints]
566,419.579228399384,4,1,0,90,1,0
57616,419.579228399384,4,1,0,100,1,1
69154,419.579228399386,4,1,0,90,1,0
70412,419.579228399384,4,1,0,100,1,1
82789,419.579228399384,4,1,0,90,1,0
84047,419.579228399384,4,1,0,90,1,0
96005,419.579228399384,4,1,0,90,1,0
97263,419.579228399384,4,1,0,90,1,0

[HitObjects]
255,193,3922,5,0,0:0:0:0:
255,193,4342,1,0,0:0:0:0:
255,193,4761,1,0,0:0:0:0:
255,193,5181,1,0,0:0:0:0:
255,193,5600,1,0,0:0:0:0:
255,193,6020,1,0,0:0:0:0:
255,193,6440,1,0,0:0:0:0:
255,193,6859,1,0,0:0:0:0:
255,198,7069,1,6,0:0:0:0:
255,193,7279,1,0,0:0:0:0:
255,193,7698,1,0,0:0:0:0:
255,193,8118,1,0,0:0:0:0:
255,193,8538,1,0,0:0:0:0:
255,193,8957,1,0,0:0:0:0:
255,193,9377,1,0,0:0:0:0:
255,193,9796,1,0,0:0:0:0:
255,193,10216,1,0,0:0:0:0:
249,196,10426,1,6,0:0:0:0:
256,198,10635,1,0,0:0:0:0:
256,198,11055,1,0,0:0:0:0:
256,198,11475,1,0,0:0:0:0:
256,198,11894,1,0,0:0:0:0:
256,198,12314,1,0,0:0:0:0:
256,198,12733,1,0,0:0:0:0:
256,198,13153,1,0,0:0:0:0:
256,198,13572,1,0,0:0:0:0:
256,198,13782,1,6,0:0:0:0:
256,198,13992,1,0,0:0:0:0:
256,198,14412,1,0,0:0:0:0:
256,198,14831,1,0,0:0:0:0:
256,198,15251,1,0,0:0:0:0:
256,198,15670,1,0,0:0:0:0:
256,198,15880,1,2,0:0:0:0:
256,198,16090,1,0,0:0:0:0:
256,198,16300,1,2,0:0:0:0:
256,198,16510,1,0,0:0:0:0:
256,198,16719,1,2,0:0:0:0:
256,198,16929,1,0,0:0:0:0:
256,198,17139,1,2,0:0:0:0:
256,198,17349,1,0,0:0:0:0:
257,193,17978,1,0,0:0:0:0:
259,193,18188,1,2,0:0:0:0:
257,193,18817,1,0,0:0:0:0:
257,193,19027,1,2,0:0:0:0:
257,193,19342,1,0,0:0:0:0:
257,193,19656,1,2,0:0:0:0:
257,193,19866,1,0,0:0:0:0:
257,193,20181,1,0,0:0:0:0:
257,193,20496,1,0,0:0:0:0:
257,193,20706,1,2,0:0:0:0:
257,193,21020,1,0,0:0:0:0:
257,193,21754,1,0,0:0:0:0:
257,193,21963,1,2,0:0:0:0:
257,193,22173,1,0,0:0:0:0:
257,193,23223,1,2,0:0:0:0:
257,193,23433,1,0,0:0:0:0:
257,193,23642,1,2,0:0:0:0:
252,195,24062,1,0,0:0:0:0:
257,193,24691,1,2,0:0:0:0:
257,193,24900,1,0,0:0:0:0:
257,193,25530,1,0,0:0:0:0:
257,193,25740,1,2,0:0:0:0:
260,189,26370,1,0,0:0:0:0:
260,189,26579,1,2,0:0:0:0:
260,189,27209,1,0,0:0:0:0:
260,189,27419,1,2,0:0:0:0:
255,195,28048,1,2,0:0:0:0:
257,195,28258,1,0,0:0:0:0:
255,195,28887,1,0,0:0:0:0:
257,195,29097,1,0,0:0:0:0:
255,195,29307,1,0,0:0:0:0:
255,195,29516,1,0,0:0:0:0:
255,195,29726,1,0,0:0:0:0:
257,195,29936,1,0,0:0:0:0:
255,195,30146,1,0,0:0:0:0:
255,195,30356,1,0,0:0:0:0:
257,195,30775,1,6,0:0:0:0:
255,195,31405,1,2,0:0:0:0:
257,195,31615,1,0,0:0:0:0:
255,195,32244,1,0,0:0:0:0:
255,195,32454,1,2,0:0:0:0:
255,195,32768,1,2,0:0:0:0:
255,195,33083,1,2,0:0:0:0:
255,195,33292,1,0,0:0:0:0:
255,195,33607,1,0,0:0:0:0:
255,195,33922,1,0,0:0:0:0:
255,195,34132,1,2,0:0:0:0:
255,195,34447,1,0,0:0:0:0:
255,195,35181,1,2,0:0:0:0:
255,195,35391,1,2,0:0:0:0:
255,195,35601,1,0,0:0:0:0:
251,191,36649,1,0,0:0:0:0:
255,193,37069,1,2,0:0:0:0:
255,193,37488,1,0,0:0:0:0:
255,193,38118,1,0,0:0:0:0:
255,193,38328,1,0,0:0:0:0:
255,193,38957,1,0,0:0:0:0:
250,196,39167,1,2,0:0:0:0:
255,193,39481,1,2,0:0:0:0:
257,194,39796,1,2,0:0:0:0:
255,193,40006,1,0,0:0:0:0:
257,194,40320,1,0,0:0:0:0:
257,194,40635,1,0,0:0:0:0:
255,193,40845,1,2,0:0:0:0:
257,194,41474,1,2,0:0:0:0:
257,194,41683,1,0,0:0:0:0:
257,194,42523,1,0,0:0:0:0:
257,194,42733,1,0,0:0:0:0:
257,194,42943,1,0,0:0:0:0:
257,194,43153,1,0,0:0:0:0:
257,194,43363,1,0,0:0:0:0:
257,194,43572,1,0,0:0:0:0:
257,194,43782,1,0,0:0:0:0:
257,194,43992,1,0,0:0:0:0:
257,194,44202,1,4,0:0:0:0:
257,194,44516,1,4,0:0:0:0:
257,194,44831,1,4,0:0:0:0:
257,194,45251,1,0,0:0:0:0:
257,194,45460,1,0,0:0:0:0:
257,194,45670,1,0,0:0:0:0:
257,194,45880,1,4,0:0:0:0:
257,194,46195,1,4,0:0:0:0:
257,194,46509,1,4,0:0:0:0:
257,194,46719,1,0,0:0:0:0:
257,194,46929,1,0,0:0:0:0:
257,194,47139,1,0,0:0:0:0:
257,194,47349,1,0,0:0:0:0:
257,194,47558,1,4,0:0:0:0:
257,194,47873,1,4,0:0:0:0:
257,194,48188,1,4,0:0:0:0:
257,194,48607,1,0,0:0:0:0:
257,194,48817,1,0,0:0:0:0:
257,194,49027,1,0,0:0:0:0:
257,194,49237,1,4,0:0:0:0:
257,194,49551,1,4,0:0:0:0:
257,194,49866,1,4,0:0:0:0:
257,194,50076,1,0,0:0:0:0:
257,194,50286,1,0,0:0:0:0:
257,194,50495,1,0,0:0:0:0:
257,194,50705,1,0,0:0:0:0:
257,194,50915,1,4,0:0:0:0:
257,194,51230,1,4,0:0:0:0:
257,194,51544,1,4,0:0:0:0:
257,191,52593,1,0,0:0:0:0:
257,191,53013,1,0,0:0:0:0:
257,191,53432,1,0,0:0:0:0:
257,191,53852,1,0,0:0:0:0:
257,191,54272,1,0,0:0:0:0:
257,191,54691,1,0,0:0:0:0:
257,191,55111,1,0,0:0:0:0:
257,191,55530,1,0,0:0:0:0:
257,191,55950,1,4,0:0:0:0:
263,193,56370,1,0,0:0:0:0:
263,193,56579,1,0,0:0:0:0:
263,193,56789,1,0,0:0:0:0:
263,193,56999,1,0,0:0:0:0:
263,193,57209,1,0,0:0:0:0:
263,193,57418,1,0,0:0:0:0:
263,193,57616,1,0,0:0:0:0:
263,193,58035,1,0,0:0:0:0:
263,193,58245,1,2,0:0:0:0:
263,193,58664,1,2,0:0:0:0:
263,193,58874,1,0,0:0:0:0:
263,193,59084,1,2,0:0:0:0:
254,194,60343,1,2,0:0:0:0:
254,194,60553,1,2,0:0:0:0:
254,194,60762,1,0,0:0:0:0:
254,194,60972,1,2,0:0:0:0:
254,194,61392,1,0,0:0:0:0:
254,194,61602,1,2,0:0:0:0:
254,194,62021,1,0,0:0:0:0:
254,194,62231,1,2,0:0:0:0:
254,194,62441,1,0,0:0:0:0:
254,188,63699,1,0,0:0:0:0:
254,188,63909,1,2,0:0:0:0:
254,188,64119,1,0,0:0:0:0:
254,188,64329,1,2,0:0:0:0:
254,188,64958,1,2,0:0:0:0:
254,188,65168,1,0,0:0:0:0:
259,193,65797,1,0,0:0:0:0:
259,193,66007,1,2,0:0:0:0:
259,193,66217,1,0,0:0:0:0:
259,193,66427,1,2,0:0:0:0:
259,193,66636,1,0,0:0:0:0:
259,193,66846,1,2,0:0:0:0:
259,193,67266,1,2,0:0:0:0:
263,193,67685,1,2,0:0:0:0:
256,193,68315,1,2,0:0:0:0:
256,193,68525,1,0,0:0:0:0:
256,193,69154,1,2,0:0:0:0:
256,193,69363,1,0,0:0:0:0:
256,193,69573,1,2,0:0:0:0:
256,193,69783,1,0,0:0:0:0:
256,193,69993,1,2,0:0:0:0:
256,193,70202,1,0,0:0:0:0:
261,192,70412,1,2,0:0:0:0:
261,192,70622,1,0,0:0:0:0:
261,192,70832,1,2,0:0:0:0:
256,193,71041,1,0,0:0:0:0:
261,192,71460,1,0,0:0:0:0:
261,192,71670,1,2,0:0:0:0:
261,192,72090,1,2,0:0:0:0:
261,192,72300,1,0,0:0:0:0:
261,192,72509,1,2,0:0:0:0:
254,192,73558,1,0,0:0:0:0:
254,192,73768,1,0,0:0:0:0:
254,192,73978,1,0,0:0:0:0:
254,192,74188,1,2,0:0:0:0:
254,192,74398,1,2,0:0:0:0:
262,193,74817,1,2,0:0:0:0:
262,193,75027,1,2,0:0:0:0:
262,193,75446,1,2,0:0:0:0:
262,193,75656,1,2,0:0:0:0:
262,193,75866,1,6,0:0:0:0:
255,191,77125,1,0,0:0:0:0:
255,191,77335,1,0,0:0:0:0:
255,191,77544,1,2,0:0:0:0:
255,191,77754,1,6,0:0:0:0:
255,191,78384,1,0,0:0:0:0:
255,191,78593,1,0,0:0:0:0:
259,193,79223,1,0,0:0:0:0:
255,191,79432,1,0,0:0:0:0:
259,193,79642,1,2,0:0:0:0:
259,193,79852,1,0,0:0:0:0:
259,193,80062,1,2,0:0:0:0:
255,191,80272,1,0,0:0:0:0:
259,193,80481,1,2,0:0:0:0:
259,193,80691,1,0,0:0:0:0:
259,193,80901,1,2,0:0:0:0:
255,191,81111,1,0,0:0:0:0:
250,186,81740,1,0,0:0:0:0:
255,191,81950,1,0,0:0:0:0:
264,189,82789,1,0,0:0:0:0:
266,189,82999,1,2,0:0:0:0:
266,189,83208,1,0,0:0:0:0:
266,189,83418,1,2,0:0:0:0:
266,189,83628,1,0,0:0:0:0:
266,189,83838,1,2,0:0:0:0:
266,189,84047,1,0,0:0:0:0:
266,189,84256,1,2,0:0:0:0:
266,189,84466,1,0,0:0:0:0:
266,189,84676,1,0,0:0:0:0:
266,189,84886,1,0,0:0:0:0:
266,189,85095,1,0,0:0:0:0:
266,189,85515,1,0,0:0:0:0:
266,189,85725,1,0,0:0:0:0:
266,189,85934,1,0,0:0:0:0:
257,189,87193,1,2,0:0:0:0:
257,189,87403,1,0,0:0:0:0:
257,189,87613,1,2,0:0:0:0:
257,189,87823,1,0,0:0:0:0:
257,189,88242,1,0,0:0:0:0:
257,189,88452,1,2,0:0:0:0:
257,189,88872,1,0,0:0:0:0:
257,189,89081,1,2,0:0:0:0:
257,189,89291,1,0,0:0:0:0:
256,185,90550,1,0,0:0:0:0:
256,185,90760,1,0,0:0:0:0:
256,185,90970,1,2,0:0:0:0:
256,185,91179,1,2,0:0:0:0:
256,185,91809,1,2,0:0:0:0:
256,185,92019,1,0,0:0:0:0:
259,196,92648,1,0,0:0:0:0:
259,191,92858,1,2,0:0:0:0:
259,196,93067,1,0,0:0:0:0:
254,196,93277,1,2,0:0:0:0:
254,196,93487,1,0,0:0:0:0:
254,196,93697,1,2,0:0:0:0:
254,196,93907,1,0,0:0:0:0:
254,196,94116,1,2,0:0:0:0:
254,196,94326,1,0,0:0:0:0:
254,196,94536,1,2,0:0:0:0:
254,196,95165,1,2,0:0:0:0:
254,196,95375,1,2,0:0:0:0:
259,193,96005,1,2,0:0:0:0:
259,193,96214,1,0,0:0:0:0:
259,193,96424,1,2,0:0:0:0:
259,193,96634,1,0,0:0:0:0:
259,193,96844,1,2,0:0:0:0:
259,193,97054,1,0,0:0:0:0:
259,193,97263,1,2,0:0:0:0:
259,193,97472,1,2,0:0:0:0:
259,193,97682,1,0,0:0:0:0:
259,193,97892,1,2,0:0:0:0:
266,191,98311,1,2,0:0:0:0:
266,191,98521,1,0,0:0:0:0:
266,191,98941,1,2,0:0:0:0:
266,191,99150,1,0,0:0:0:0:
266,191,99360,1,2,0:0:0:0:
257,191,100619,1,2,0:0:0:0:
257,191,100829,1,0,0:0:0:0:
257,191,101039,1,2,0:0:0:0:
257,191,101249,1,0,0:0:0:0:
257,191,101458,1,2,0:0:0:0:
257,191,101668,1,0,0:0:0:0:
257,191,101878,1,2,0:0:0:0:
257,191,102297,1,2,0:0:0:0:
257,191,102507,1,2,0:0:0:0:
257,191,102717,1,6,0:0:0:0:
258,190,103766,1,0,0:0:0:0:
258,190,103976,1,0,0:0:0:0:
258,190,104186,1,0,0:0:0:0:
258,190,104395,1,0,0:0:0:0:
258,190,104605,1,6,0:0:0:0:
258,190,105235,1,2,0:0:0:0:
258,190,105444,1,6,0:0:0:0:
261,193,106074,1,2,0:0:0:0:
261,193,106283,1,0,0:0:0:0:
261,193,106493,1,2,0:0:0:0:
261,193,106703,1,0,0:0:0:0:
261,193,106913,1,2,0:0:0:0:
261,193,107123,1,0,0:0:0:0:
261,193,107332,1,2,0:0:0:0:
261,193,107542,1,0,0:0:0:0:
261,193,107752,1,2,0:0:0:0:
261,193,107962,1,0,0:0:0:0:
261,193,108591,1,2,0:0:0:0:
261,193,108801,1,0,0:0:0:0:
261,193,109430,1,0,0:0:0:0:
261,193,109850,1,0,0:0:0:0:
259,186,110269,1,0,0:0:0:0:
261,193,110689,1,0,0:0:0:0:
256,192,111109,12,0,113626,0:0:0:0:
