osu file format v14

[General]
AudioFilename: audio.mp3
AudioLeadIn: 0
PreviewTime: 161923
Countdown: 0
SampleSet: None
StackLeniency: 0.7
Mode: 2
LetterboxInBreaks: 0
WidescreenStoryboard: 0

[Editor]
Bookmarks: 41208,50208,51066,51351,60351,67208,68637,71208,72066,92637,108066,130351,134637
DistanceSpacing: 1.2
BeatDivisor: 4
GridSize: 8
TimelineZoom: 1.8

[Metadata]
Title:Soul of Cinder
TitleUnicode:Soul of Cinder
Artist:FalKKonE
ArtistUnicode:FalKKonE
Creator:nicostrike
Version:Soul of the Lords
Source:
Tags:Dark Souls 3 Metal Intense Boss Marathon
BeatmapID:1629805
BeatmapSetID:775592

[Difficulty]
HPDrainRate:4
CircleSize:3
OverallDifficulty:9
ApproachRate:9.5
SliderMultiplier:2.1
SliderTickRate:1

[Events]
//Background and Video events
0,0,"DarkSouls-3-wallpaper.jpg",0,0
//Break Periods
2,82836,107541
2,116337,133398
//Storyboard Layer 0 (Background)
//Storyboard Layer 1 (Fail)
//Storyboard Layer 2 (Pass)
//Storyboard Layer 3 (Foreground)
//Storyboard Sound Samples

[TimingPoints]
66,285.714285714286,4,3,0,40,1,0

[HitObjects]
256,88,66,5,0,0:0:0:0:
384,88,208,1,0,0:0:0:0:
256,88,351,1,0,0:0:0:0:
128,152,494,1,0,0:0:0:0:
88,152,565,1,0,0:0:0:0:
352,208,637,1,0,0:0:0:0:
400,240,708,1,0,0:0:0:0:
400,272,780,1,0,0:0:0:0:
352,304,851,1,0,0:0:0:0:
152,304,923,5,0,0:0:0:0:
56,224,1066,1,0,0:0:0:0:
152,168,1208,1,0,0:0:0:0:
248,112,1351,2,0,L|256:56,1,52.5
88,304,1494,2,0,L|72:248,1,52.5
152,168,1637,2,0,L|232:168,1,52.5
408,160,1780,5,0,0:0:0:0:
288,160,1923,1,0,0:0:0:0:
440,240,2066,2,0,L|456:304,1,52.5
240,304,2208,2,0,L|128:304,1,105
416,160,2637,5,0,0:0:0:0:
280,160,2780,1,0,0:0:0:0:
416,160,2923,1,0,0:0:0:0:
296,256,3066,1,0,0:0:0:0:
240,256,3137,1,0,0:0:0:0:
448,256,3208,1,0,0:0:0:0:
464,304,3279,1,0,0:0:0:0:
408,352,3351,1,0,0:0:0:0:
352,352,3422,1,0,0:0:0:0:
128,352,3494,5,0,0:0:0:0:
240,352,3637,1,0,0:0:0:0:
128,352,3780,1,0,0:0:0:0:
256,256,3923,1,0,0:0:0:0:
272,200,3994,1,0,0:0:0:0:
56,184,4066,1,0,0:0:0:0:
40,128,4137,1,0,0:0:0:0:
88,64,4208,1,0,0:0:0:0:
140,64,4280,1,0,0:0:0:0:
352,64,4351,5,0,0:0:0:0:
464,64,4494,1,0,0:0:0:0:
344,192,4637,1,0,0:0:0:0:
400,192,4708,1,0,0:0:0:0:
456,192,4780,1,0,0:0:0:0:
320,192,4923,1,0,0:0:0:0:
464,288,5209,5,0,0:0:0:0:
344,288,5351,1,0,0:0:0:0:
224,288,5494,1,0,0:0:0:0:
336,192,5637,1,0,0:0:0:0:
384,192,5708,1,0,0:0:0:0:
192,104,5780,1,0,0:0:0:0:
144,104,5851,1,0,0:0:0:0:
96,104,5923,1,0,0:0:0:0:
48,104,5994,1,0,0:0:0:0:
336,80,6066,5,0,0:0:0:0:
448,80,6208,1,0,0:0:0:0:
336,80,6351,1,0,0:0:0:0:
224,80,6494,1,0,0:0:0:0:
208,136,6566,1,0,0:0:0:0:
376,192,6637,1,0,0:0:0:0:
392,248,6709,1,0,0:0:0:0:
200,248,6780,1,0,0:0:0:0:
184,304,6852,1,0,0:0:0:0:
424,344,6923,5,0,0:0:0:0:
464,248,7066,1,0,0:0:0:0:
200,248,7208,1,0,0:0:0:0:
160,152,7351,1,0,0:0:0:0:
248,80,7494,1,0,0:0:0:0:
448,80,7780,5,0,0:0:0:0:
312,80,7923,1,0,0:0:0:0:
448,80,8066,1,0,0:0:0:0:
280,176,8208,1,0,0:0:0:0:
264,232,8279,1,0,0:0:0:0:
320,240,8351,1,0,0:0:0:0:
376,240,8422,1,0,0:0:0:0:
168,336,8494,1,0,0:0:0:0:
112,336,8565,1,0,0:0:0:0:
344,336,8637,5,0,0:0:0:0:
456,336,8780,1,0,0:0:0:0:
344,336,8923,1,0,0:0:0:0:
232,96,9066,2,0,L|216:40,1,52.5
408,96,9208,1,0,0:0:0:0:
464,128,9279,1,0,0:0:0:0:
464,168,9351,1,0,0:0:0:0:
408,200,9422,1,0,0:0:0:0:
192,328,9494,5,0,0:0:0:0:
304,328,9637,1,0,0:0:0:0:
416,328,9780,1,0,0:0:0:0:
128,192,9923,1,0,0:0:0:0:
256,192,10066,1,0,0:0:0:0:
384,192,10209,1,0,0:0:0:0:
64,56,10351,6,0,L|48:112,1,52.5
104,152,10494,2,0,L|176:152,1,52.5
208,152,10637,2,0,L|272:152,1,52.5
64,264,10780,2,0,L|136:264,1,52.5
168,264,10923,2,0,L|232:264,1,52.5
408,264,11066,6,0,L|472:264,1,52.5
456,184,11208,2,0,L|392:184,1,52.5
232,168,11351,2,0,L|168:168,1,52.5
368,88,11494,2,0,L|432:88,1,52.5
104,256,11637,6,0,L|80:320,1,52.5
144,344,11780,2,0,L|208:344,1,52.5
376,344,11923,2,0,L|448:344,1,52.5
232,232,12066,2,0,L|176:232,1,52.5
224,144,12208,2,0,L|288:144,1,52.5
232,56,12351,2,0,L|168:56,1,52.5
384,56,12494,6,0,L|440:56,1,52.5
432,144,12637,2,0,L|352:144,1,52.5
208,144,12780,2,0,L|136:144,1,52.5
328,248,12923,2,0,L|392:248,1,52.5
144,304,13066,6,0,L|80:304,1,52.5
56,256,13208,2,0,L|56:192,1,52.5
296,168,13351,2,0,L|296:115,1,52.5
72,104,13494,2,0,L|64:48,1,52.5
320,299,13637,2,0,L|328:247,1,52.5
88,320,13780,6,0,L|72:240,1,52.5
128,216,13923,2,0,L|184:216,1,52.5
240,216,14066,2,0,L|312:216,1,52.5
72,136,14208,2,0,L|64:80,1,52.5
128,48,14351,2,0,L|208:48,1,52.5
352,48,14494,2,0,L|416:48,1,52.5
176,216,14637,6,0,L|120:216,1,52.5
120,304,14780,2,0,L|172:304,1,52.5
376,312,14923,2,0,L|400:240,1,52.5
200,232,15066,5,0,0:0:0:0:
144,232,15137,1,0,0:0:0:0:
344,160,15208,1,0,0:0:0:0:
400,160,15279,1,0,0:0:0:0:
128,96,15351,1,0,0:0:0:0:
72,96,15422,1,0,0:0:0:0:
424,48,15494,5,0,0:0:0:0:
448,104,15566,1,0,0:0:0:0:
376,160,15637,1,0,0:0:0:0:
352,216,15708,1,0,0:0:0:0:
448,240,15780,1,0,0:0:0:0:
464,304,15851,1,0,0:0:0:0:
240,312,15923,5,0,0:0:0:0:
189,322,15994,1,0,0:0:0:0:
145,296,16065,1,0,0:0:0:0:
131,247,16137,1,0,0:0:0:0:
153,201,16208,1,0,0:0:0:0:
201,183,16280,1,0,0:0:0:0:
440,64,16351,5,0,0:0:0:0:
224,64,16494,1,0,0:0:0:0:
440,64,16637,1,0,0:0:0:0:
224,64,16780,1,0,0:0:0:0:
360,184,17208,5,0,0:0:0:0:
144,184,17351,1,0,0:0:0:0:
360,184,17494,1,0,0:0:0:0:
144,184,17637,1,0,0:0:0:0:
280,304,18066,5,0,0:0:0:0:
64,304,18208,1,0,0:0:0:0:
280,304,18351,1,0,0:0:0:0:
160,224,18494,1,0,0:0:0:0:
216,224,18566,1,0,0:0:0:0:
272,224,18637,1,0,0:0:0:0:
40,128,18780,1,0,0:0:0:0:
256,128,18923,5,0,0:0:0:0:
40,128,19066,1,0,0:0:0:0:
256,128,19208,1,0,0:0:0:0:
472,128,19351,1,0,0:0:0:0:
320,232,19780,5,0,0:0:0:0:
456,232,19923,1,0,0:0:0:0:
320,232,20066,1,0,0:0:0:0:
72,232,20208,2,0,P|40:160|192:120,1,262.5
344,192,20637,2,0,L|184:192,1,157.5
368,272,20923,2,0,B|496:208|376:104|376:104|248:104,1,315
136,104,21494,5,0,0:0:0:0:
280,104,21637,1,0,0:0:0:0:
136,104,21780,1,0,0:0:0:0:
280,104,21923,1,0,0:0:0:0:
168,168,22066,1,0,0:0:0:0:
56,232,22208,2,0,P|32:288|152:320,1,210
368,288,22637,6,0,L|384:176,1,105
272,144,22923,1,0,0:0:0:0:
56,232,23066,2,0,L|40:120,1,105
152,88,23351,1,0,0:0:0:0:
368,88,23494,5,0,0:0:0:0:
240,88,23637,1,0,0:0:0:0:
368,88,23780,1,0,0:0:0:0:
240,88,23923,1,0,0:0:0:0:
456,88,24066,6,0,P|480:168|296:232,1,315
160,240,24637,2,0,L|144:120,1,105
368,88,24923,1,0,0:0:0:0:
256,88,25066,1,0,0:0:0:0:
144,88,25208,1,0,0:0:0:0:
256,88,25351,1,0,0:0:0:0:
352,168,25494,1,0,0:0:0:0:
448,248,25637,2,0,P|448:320|320:328,1,210
112,288,26066,5,0,0:0:0:0:
232,288,26208,2,0,L|192:184,1,105
416,176,26494,1,0,0:0:0:0:
432,128,26566,1,0,0:0:0:0:
240,88,26637,2,0,L|128:88,1,105
264,184,26923,5,0,0:0:0:0:
136,184,27066,1,0,0:0:0:0:
264,184,27208,1,0,0:0:0:0:
136,184,27351,1,0,0:0:0:0:
368,184,27494,6,0,P|440:232|336:280,1,210
256,304,27923,1,0,0:0:0:0:
144,304,28066,1,0,0:0:0:0:
288,216,28208,1,0,0:0:0:0:
72,216,28351,5,0,0:0:0:0:
208,216,28494,1,0,0:0:0:0:
72,216,28637,1,0,0:0:0:0:
208,216,28780,1,0,0:0:0:0:
344,216,28923,2,0,L|376:104,1,105
144,144,29208,6,0,L|112:32,1,105
336,312,29494,1,0,0:0:0:0:
120,312,29637,1,0,0:0:0:0:
336,312,29780,1,0,0:0:0:0:
224,312,29923,1,0,0:0:0:0:
336,312,30066,2,0,L|360:200,1,105
136,192,30351,5,0,0:0:0:0:
113,89,30493,1,0,0:0:0:0:
216,48,30637,1,0,0:0:0:0:
432,48,30780,1,0,0:0:0:0:
496,144,30923,6,0,L|392:144,1,105
152,144,31208,1,0,0:0:0:0:
368,144,31351,2,0,L|400:256,1,105
176,256,31637,1,0,0:0:0:0:
400,312,31780,5,0,0:0:0:0:
446,219,31922,1,0,0:0:0:0:
430,117,32065,1,0,0:0:0:0:
296,64,32208,1,0,0:0:0:0:
194,45,32351,1,0,0:0:0:0:
100,88,32494,1,0,0:0:0:0:
248,176,32637,1,0,0:0:0:0:
280,280,32779,1,0,0:0:0:0:
176,328,32923,1,0,0:0:0:0:
392,248,33066,5,0,0:0:0:0:
464,144,33208,2,0,L|352:144,1,105
112,216,33494,2,0,L|80:96,1,105
200,72,33780,1,0,0:0:0:0:
72,72,33923,1,0,0:0:0:0:
200,72,34066,1,0,0:0:0:0:
328,72,34208,1,0,0:0:0:0:
112,160,34351,6,0,P|40:200|128:232,1,210
232,192,34780,1,0,0:0:0:0:
344,144,34923,2,0,L|384:264,1,105
136,304,35208,5,0,0:0:0:0:
280,304,35351,1,0,0:0:0:0:
136,304,35494,1,0,0:0:0:0:
280,304,35637,1,0,0:0:0:0:
168,200,35780,1,0,0:0:0:0:
56,200,35923,2,0,P|40:120|160:72,1,210
360,64,36351,5,0,0:0:0:0:
248,64,36494,1,0,0:0:0:0:
136,64,36637,1,0,0:0:0:0:
400,168,36780,1,0,0:0:0:0:
272,168,36923,1,0,0:0:0:0:
144,168,37066,1,0,0:0:0:0:
440,272,37208,5,0,0:0:0:0:
224,272,37351,1,0,0:0:0:0:
440,272,37494,1,0,0:0:0:0:
224,272,37637,1,0,0:0:0:0:
440,272,37780,5,0,0:0:0:0:
476,176,37922,1,0,0:0:0:0:
376,48,38066,1,0,0:0:0:0:
320,48,38137,1,0,0:0:0:0:
264,48,38208,1,0,0:0:0:0:
368,136,38351,1,0,0:0:0:0:
404,231,38493,1,0,0:0:0:0:
184,216,38637,5,0,0:0:0:0:
148,311,38779,1,0,0:0:0:0:
272,312,38923,1,0,0:0:0:0:
148,311,39066,1,0,0:0:0:0:
272,312,39208,1,0,0:0:0:0:
392,312,39351,2,0,P|432:216|312:192,1,210
136,88,39780,5,0,0:0:0:0:
356,90,39923,1,0,0:0:0:0:
136,88,40066,1,0,0:0:0:0:
440,184,40208,1,0,0:0:0:0:
200,184,40351,1,0,0:0:0:0:
440,184,40494,1,0,0:0:0:0:
136,280,40637,5,0,0:0:0:0:
384,280,40780,1,0,0:0:0:0:
136,280,40923,1,0,0:0:0:0:
384,280,41066,1,0,0:0:0:0:
168,288,41208,6,0,L|104:288,1,52.5
115,288,41351,2,0,L|167:288,1,52.5
336,288,41494,2,0,L|408:288,1,52.5
216,216,41637,2,0,L|192:152,1,52.5
256,128,41780,2,0,L|312:128,1,52.5
360,128,41923,2,0,L|384:64,1,52.5
152,64,42066,6,0,L|72:64,1,52.5
160,144,42208,2,0,L|216:144,1,52.5
160,224,42351,2,0,L|104:224,1,52.5
296,312,42494,2,0,L|360:312,1,52.5
296,232,42637,2,0,L|240:232,1,52.5
296,152,42780,2,0,L|360:152,1,52.5
143,304,42923,6,0,L|79:304,1,52.5
88,216,43066,2,0,L|145:216,1,52.5
200,216,43209,2,0,L|252:216,1,52.5
72,104,43351,2,0,L|136:104,1,52.5
176,104,43494,2,0,L|240:104,1,52.5
280,104,43637,2,0,L|344:104,1,52.5
88,216,43780,6,0,L|24:216,1,52.5
208,264,43923,2,0,L|224:320,1,52.5
400,216,44066,2,0,L|464:216,1,52.5
264,192,44208,2,0,L|248:128,1,52.5
312,104,44351,2,0,L|368:104,1,52.5
424,104,44494,2,0,L|448:32,1,52.5
264,320,44637,6,0,L|240:248,1,52.5
416,264,44780,2,0,L|440:192,1,52.5
376,160,44923,2,0,L|320:160,1,52.5
144,168,45066,2,0,L|88:168,1,52.5
144,248,45208,2,0,L|208:248,1,52.5
144,328,45351,2,0,L|88:328,1,52.5
344,64,45494,5,0,0:0:0:0:
393,78,45565,1,0,0:0:0:0:
427,117,45636,1,0,0:0:0:0:
435,168,45708,1,0,0:0:0:0:
413,215,45779,1,0,0:0:0:0:
369,242,45851,1,0,0:0:0:0:
184,288,45924,2,0,L|104:288,1,52.5
128,200,46066,2,0,L|208:200,1,52.5
413,215,46208,2,0,L|501:215,1,52.5
226,225,46351,6,0,L|205:286,1,52.5
275,303,46494,2,0,L|339:303,1,52.5
395,287,46637,2,0,L|413:237,1,52.5
226,225,46781,1,0,0:0:0:0:
180,200,46852,1,0,0:0:0:0:
256,144,46923,1,0,0:0:0:0:
268,94,46994,1,0,0:0:0:0:
96,104,47066,1,0,0:0:0:0:
84,54,47137,1,0,0:0:0:0:
320,224,47208,6,0,L|392:224,1,52.5
368,312,47351,2,0,L|296:312,1,52.5
264,312,47494,2,0,L|192:312,1,52.5
448,64,47637,2,0,L|472:136,1,52.5
400,152,47780,2,0,L|344:152,1,52.5
112,152,47923,2,0,L|48:152,1,52.5
312,232,48066,6,0,L|368:232,1,52.5
312,312,48208,2,0,L|248:312,1,52.5
88,312,48351,2,0,L|24:312,1,52.5
272,72,48494,2,0,L|328:72,1,52.5
272,160,48637,2,0,L|216:160,1,52.5
272,248,48780,2,0,L|336:248,1,52.5
72,192,48923,6,0,L|56:128,1,52.5
240,264,49066,2,0,L|320:264,1,52.5
104,304,49208,2,0,L|48:304,1,52.5
264,168,49351,2,0,L|344:168,1,52.5
128,208,49493,2,0,L|72:208,1,52.5
328,344,49637,2,0,L|328:280,1,52.5
128,260,49780,2,0,L|128:196,1,52.5
316,168,49923,2,0,L|316:104,1,52.5
116,84,50066,2,0,L|116:20,1,52.5
360,248,50208,6,0,L|424:248,1,52.5
176,168,50351,2,0,L|112:168,1,52.5
376,80,50494,2,0,L|448:80,1,52.5
168,288,50637,2,0,L|104:288,1,52.5
392,176,50780,2,0,L|448:176,1,52.5
160,72,50923,2,0,L|104:72,1,52.5
392,304,51066,6,0,P|416:240|352:168,1,157.5
128,160,51351,1,0,0:0:0:0:
64,248,51494,1,0,0:0:0:0:
136,328,51637,1,0,0:0:0:0:
248,328,51780,1,0,0:0:0:0:
464,328,51923,2,0,B|488:256|456:160,1,157.5
224,128,52208,5,0,0:0:0:0:
184,224,52351,1,0,0:0:0:0:
296,224,52494,1,0,0:0:0:0:
408,224,52637,1,0,0:0:0:0:
181,322,52780,2,0,P|109:282|213:258,1,210
312,224,53208,5,0,0:0:0:0:
184,224,53351,1,0,0:0:0:0:
312,224,53494,1,0,0:0:0:0:
72,224,53637,2,0,P|48:144|128:104,1,157.5
304,96,53923,5,0,0:0:0:0:
176,96,54066,1,0,0:0:0:0:
304,96,54208,1,0,0:0:0:0:
176,96,54351,1,0,0:0:0:0:
408,200,54494,1,0,0:0:0:0:
272,200,54637,1,0,0:0:0:0:
408,200,54779,1,0,0:0:0:0:
160,200,54923,6,0,P|120:256|208:264,1,157.5
376,72,55208,1,0,0:0:0:0:
128,72,55351,2,0,P|96:136|176:176,1,157.5
370,181,55637,5,0,0:0:0:0:
154,181,55780,1,0,0:0:0:0:
370,181,55923,1,0,0:0:0:0:
154,181,56066,1,0,0:0:0:0:
408,272,56208,2,0,L|432:112,1,157.5
240,112,56494,1,0,0:0:0:0:
120,112,56637,2,0,L|96:272,1,157.5
288,280,56923,1,0,0:0:0:0:
408,272,57066,6,0,L|424:144,1,105
296,112,57351,1,0,0:0:0:0:
176,112,57494,2,0,P|144:168|192:256,1,157.5
368,296,57780,1,0,0:0:0:0:
136,336,57923,6,0,L|120:176,1,157.5
320,128,58208,1,0,0:0:0:0:
104,48,58351,2,0,L|80:160,1,105
216,152,58637,2,0,L|224:216,1,52.5
48,208,58780,6,0,P|16:280|88:352,1,157.5
256,344,59066,1,0,0:0:0:0:
40,56,59208,1,0,0:0:0:0:
256,56,59351,1,0,0:0:0:0:
40,56,59494,1,0,0:0:0:0:
376,56,59637,2,0,P|416:128|368:216,1,157.5
208,288,59923,1,0,0:0:0:0:
424,288,60066,5,0,0:0:0:0:
208,288,60208,1,0,0:0:0:0:
424,288,60351,1,0,0:0:0:0:
120,288,60494,2,0,P|96:200|168:152,1,157.5
344,120,60780,1,0,0:0:0:0:
120,56,60923,6,0,L|96:168,1,105
320,224,61208,1,0,0:0:0:0:
64,184,61351,2,0,P|32:256|80:328,1,157.5
280,320,61637,1,0,0:0:0:0:
64,184,61780,6,0,L|40:24,1,157.5
248,88,62066,1,0,0:0:0:0:
392,88,62208,2,0,L|416:248,1,157.5
216,264,62494,1,0,0:0:0:0:
440,336,62637,5,0,0:0:0:0:
224,344,62780,1,0,0:0:0:0:
440,336,62923,1,0,0:0:0:0:
128,344,63066,2,0,L|112:232,1,105
336,168,63351,1,0,0:0:0:0:
88,128,63494,6,0,P|64:200|112:272,1,157.5
304,336,63780,1,0,0:0:0:0:
88,336,63923,2,0,P|64:264|128:200,1,157.5
304,176,64208,1,0,0:0:0:0:
88,88,64351,6,0,L|64:192,1,105
112,208,64566,1,0,0:0:0:0:
312,288,64637,1,0,0:0:0:0:
96,304,64780,2,0,L|80:192,1,105
328,192,65066,1,0,0:0:0:0:
112,208,65209,6,0,L|96:96,1,105
320,96,65494,1,0,0:0:0:0:
104,88,65637,1,0,0:0:0:0:
320,96,65780,1,0,0:0:0:0:
104,88,65923,1,0,0:0:0:0:
416,96,66066,6,0,L|432:208,1,105
208,256,66351,1,0,0:0:0:0:
440,200,66494,2,0,P|464:272|408:344,1,157.5
208,104,66780,1,0,0:0:0:0:
424,96,66923,2,0,L|440:200,1,105
160,48,67208,5,0,0:0:0:0:
384,48,67351,1,0,0:0:0:0:
160,48,67494,1,0,0:0:0:0:
432,152,67637,1,0,0:0:0:0:
192,152,67780,1,0,0:0:0:0:
432,152,67923,1,0,0:0:0:0:
128,256,68066,5,0,0:0:0:0:
384,256,68209,1,0,0:0:0:0:
128,256,68352,1,0,0:0:0:0:
456,352,68494,1,0,0:0:0:0:
184,352,68637,6,2,P|120:288|200:216,1,210
408,224,69066,2,2,P|472:160|392:88,1,210
184,88,69494,2,0,P|144:136|224:200,1,157.5
376,280,69780,1,0,0:0:0:0:
160,288,69923,2,0,L|136:176,1,105
376,128,70208,5,0,0:0:0:0:
256,128,70351,1,0,0:0:0:0:
136,128,70494,1,0,0:0:0:0:
24,128,70637,1,0,0:0:0:0:
240,224,70780,1,0,0:0:0:0:
360,224,70923,1,0,0:0:0:0:
480,224,71066,1,0,0:0:0:0:
232,72,71208,5,0,0:0:0:0:
448,72,71351,1,0,0:0:0:0:
184,152,71494,1,0,0:0:0:0:
400,152,71637,1,0,0:0:0:0:
112,232,71780,1,0,0:0:0:0:
328,232,71923,1,0,0:0:0:0:
40,288,72066,6,0,P|16:224|88:152,1,157.5
256,128,72351,1,0,0:0:0:0:
384,112,72494,2,0,L|408:272,1,157.5
216,280,72780,1,0,0:0:0:0:
88,80,72923,5,0,0:0:0:0:
304,80,73066,1,0,0:0:0:0:
88,80,73208,1,0,0:0:0:0:
336,168,73351,2,0,L|352:336,1,157.5
160,320,73637,1,0,0:0:0:0:
376,72,73780,5,0,0:0:0:0:
248,72,73923,1,0,0:0:0:0:
120,72,74066,1,0,0:0:0:0:
376,168,74208,1,0,0:0:0:0:
160,168,74351,1,0,0:0:0:0:
376,168,74494,1,0,0:0:0:0:
104,256,74637,1,0,0:0:0:0:
232,256,74780,1,0,0:0:0:0:
360,256,74923,1,0,0:0:0:0:
96,160,75066,6,0,L|72:48,1,105
208,48,75351,1,0,0:0:0:0:
456,128,75494,1,0,0:0:0:0:
240,128,75637,1,0,0:0:0:0:
456,128,75780,1,0,0:0:0:0:
144,160,75923,6,0,P|120:232|216:272,1,157.5
360,288,76208,1,0,0:0:0:0:
120,56,76351,1,0,0:0:0:0:
336,56,76494,1,0,0:0:0:0:
120,56,76637,1,0,0:0:0:0:
432,56,76780,6,0,P|456:112|384:160,1,157.5
192,168,77066,1,0,0:0:0:0:
408,256,77208,1,0,0:0:0:0:
280,256,77351,1,0,0:0:0:0:
152,256,77494,1,0,0:0:0:0:
368,72,77637,6,0,P|384:144|320:200,1,157.5
128,160,77923,1,0,0:0:0:0:
360,312,78066,2,0,L|464:312,1,105
248,248,78351,1,0,0:0:0:0:
32,248,78494,1,0,0:0:0:0:
248,248,78637,1,0,0:0:0:0:
464,248,78780,1,0,0:0:0:0:
152,248,78923,6,0,P|128:176|224:144,1,157.5
376,104,79208,1,0,0:0:0:0:
128,64,79351,2,0,L|24:64,1,105
240,176,79637,1,0,0:0:0:0:
456,208,79780,2,0,L|480:320,1,105
256,320,80066,1,0,0:0:0:0:
40,320,80208,6,0,P|24:240|104:208,1,157.5
272,176,80494,1,0,0:0:0:0:
56,128,80637,2,0,L|40:16,1,105
264,248,80923,1,0,0:0:0:0:
480,120,81066,1,0,0:0:0:0:
264,112,81208,1,0,0:0:0:0:
48,112,81351,1,0,0:0:0:0:
360,128,81494,6,0,L|384:264,1,105
160,248,81780,1,0,0:0:0:0:
400,48,81923,1,0,0:0:0:0:
288,48,82066,1,0,0:0:0:0:
176,48,82208,1,0,0:0:0:0:
408,144,82351,1,0,0:0:0:0:
280,144,82494,1,0,0:0:0:0:
152,144,82636,1,0,0:0:0:0:
248,272,108066,6,0,L|232:208,1,52.5
336,192,108208,2,0,L|352:128,1,52.5
248,128,108351,2,0,L|232:64,1,52.5
417,272,108494,2,0,L|433:208,1,52.5
328,192,108636,2,0,L|312:128,1,52.5
417,128,108779,2,0,L|433:64,1,52.5
208,304,108923,6,0,L|192:240,1,52.5
248,200,109066,2,0,L|304:200,1,52.5
469,181,109208,2,0,L|485:117,1,52.5
429,77,109351,2,0,L|373:77,1,52.5
200,144,109494,6,0,L|184:88,1,52.5
248,72,109637,2,0,L|312:72,1,52.5
300,72,109780,2,0,L|248:72,1,52.5
80,160,109923,2,0,L|16:160,1,52.5
32,248,110066,2,0,L|120:248,1,52.5
312,248,110208,5,0,0:0:0:0:
363,244,110279,1,0,0:0:0:0:
402,210,110350,1,0,0:0:0:0:
412,159,110422,1,0,0:0:0:0:
390,112,110493,1,0,0:0:0:0:
345,88,110565,1,0,0:0:0:0:
120,224,110637,6,0,L|112:168,1,52.5
208,168,110780,2,0,L|216:112,1,52.5
312,88,110923,2,0,L|320:32,1,52.5
127,275,111066,2,0,L|119:219,1,52.5
224,224,111209,2,0,L|232:168,1,52.5
337,139,111352,2,0,L|345:83,1,52.5
104,104,111494,6,0,L|88:160,1,52.5
144,200,111637,2,0,L|208:200,1,52.5
256,200,111780,2,0,L|312:200,1,52.5
136,280,111923,2,0,L|72:280,1,52.5
144,200,112066,2,0,L|208:200,1,52.5
136,120,112208,2,0,L|80:120,1,52.5
328,120,112351,6,0,L|384:120,1,52.5
288,200,112494,2,0,L|272:256,1,52.5
368,256,112637,2,0,L|384:312,1,52.5
200,48,112780,2,0,L|192:104,1,52.5
120,136,112923,2,0,L|112:192,1,52.5
32,216,113066,2,0,L|24:272,1,52.5
200,88,113208,6,0,L|208:144,1,52.5
280,176,113351,2,0,L|288:232,1,52.5
368,256,113494,2,0,L|376:312,1,52.5
200,88,113637,2,0,L|192:144,1,52.5
120,176,113780,2,0,L|112:232,1,52.5
32,256,113923,2,0,L|24:312,1,52.5
264,224,114066,6,0,L|272:280,1,52.5
224,320,114208,2,0,L|152:320,1,52.5
264,224,114351,2,0,L|328:224,1,52.5
136,208,114494,2,0,L|72:208,1,52.5
176,120,114637,2,0,L|232:120,1,52.5
136,32,114780,2,0,L|72:32,1,52.5
268,208,114923,6,0,L|332:208,1,52.5
228,120,115066,2,0,L|172:120,1,52.5
268,32,115209,2,0,L|332:32,1,52.5
96,216,115351,2,0,L|40:216,1,52.5
40,304,115494,2,0,L|104:304,1,52.5
152,304,115637,2,0,L|208:304,1,52.5
432,304,115780,6,0,L|456:232,1,52.5
384,208,115923,2,0,L|328:208,1,52.5
272,208,116066,2,0,L|216:208,1,52.5
368,192,133923,5,0,0:0:0:0:
272,192,134019,1,0,0:0:0:0:
368,192,134114,1,0,0:0:0:0:
128,72,134208,5,0,0:0:0:0:
224,72,134304,1,0,0:0:0:0:
128,72,134399,1,0,0:0:0:0:
392,80,134494,1,0,0:0:0:0:
176,232,134637,6,0,L|112:232,1,52.5
296,232,134780,2,0,L|360:232,1,52.5
352,136,134923,2,0,L|296:136,1,52.5
64,136,135066,6,0,L|136:136,1,52.5
168,136,135208,2,0,L|232:136,1,52.5
392,136,135351,2,0,L|448:136,1,52.5
216,240,135494,2,0,L|160:240,1,52.5
412,240,135637,6,0,L|348:240,1,52.5
308,240,135780,2,0,L|252:240,1,52.5
424,136,135923,2,0,L|480:136,1,52.5
472,56,136066,2,0,L|416:56,1,52.5
176,64,136208,6,0,L|248:64,1,52.5
400,136,136351,2,0,L|328:136,1,52.5
176,168,136494,2,0,L|144:232,1,52.5
200,264,136637,2,0,L|272:264,1,52.5
424,264,136780,2,0,L|488:264,1,52.5
304,200,136923,6,0,L|288:144,1,52.5
344,104,137066,2,0,L|400:104,1,52.5
464,80,137208,2,0,L|480:24,1,52.5
240,328,137351,1,0,0:0:0:0:
