osu file format v14

[General]
AudioFilename: audio.mp3
AudioLeadIn: 0
PreviewTime: 143083
Countdown: 1
SampleSet: Soft
StackLeniency: 0.7
Mode: 0
LetterboxInBreaks: 0
WidescreenStoryboard: 0

[Editor]
DistanceSpacing: 0.7
BeatDivisor: 4
GridSize: 4
TimelineZoom: 2.4

[Metadata]
Title:Los! Los! Los! Intense Symphonic Metal Cover [Instrumental]
TitleUnicode:Los! Los! Los! 【Intense Symphonic Metal Cover】 [Instrumental]
Artist:FalKKonE
ArtistUnicode:FalKKonE
Creator:Asryl
Version:Krieg
Source:
Tags:
BeatmapID:1967710
BeatmapSetID:942363

[Difficulty]
HPDrainRate:6
CircleSize:4.2
OverallDifficulty:9.9
ApproachRate:10
SliderMultiplier:1.4
SliderTickRate:1

[Events]
//Background and Video events
0,0,"tanya works.jpg",0,0
//Break Periods
//Storyboard Layer 0 (Background)
//Storyboard Layer 1 (Fail)
//Storyboard Layer 2 (Pass)
//Storyboard Layer 3 (Foreground)
//Storyboard Sound Samples

[TimingPoints]
2083,250,4,2,0,100,1,0
6083,-66.6666666666667,4,2,0,100,0,0
10083,-76.9230769230769,4,2,0,100,0,0
12083,-71.4285714285714,4,2,0,100,0,0
26083,-58.8235294117647,4,2,0,100,0,0
38083,-76.9230769230769,4,2,0,100,0,0
42083,-58.8235294117647,4,2,0,100,0,0
50083,-66.6666666666667,4,2,0,100,0,0
56020,-66.6666666666667,4,2,0,5,0,0
56083,-50,4,2,0,100,0,0
62083,-45.4545454545455,4,2,0,100,0,0
64083,-50,4,2,0,100,0,0
67333,-66.6666666666667,4,2,0,100,0,0
68083,-50,4,2,0,100,0,0
70083,-44.4444444444445,4,2,0,100,0,0
70270,-44.4444444444445,4,2,0,5,0,0
70333,-44.4444444444445,4,2,0,100,0,0
70520,-44.4444444444445,4,2,0,5,0,0
70583,-44.4444444444445,4,2,0,100,0,0
72083,-57.1428571428571,4,2,0,100,0,0
78083,-66.6666666666667,4,2,0,100,0,0
80270,-66.6666666666667,4,2,0,5,0,0
80333,-66.6666666666667,4,2,0,100,0,0
91083,-58.8235294117647,4,2,0,100,0,0

[HitObjects]
256,192,333,12,0,2020,0:0:0:0:
136,45,2083,6,0,B|182:101|217:147|195:186|196:379|78:408|-143:317|-118:128|31:113|230:123|392:203|283:124|284:281|226:338|167:363,1,840
72,75,3833,1,0,0:0:0:0:
100,54,3895,1,0,0:0:0:0:
132,40,3958,1,0,0:0:0:0:
166,33,4020,1,0,0:0:0:0:
201,34,4083,6,0,B|284:188|549:96|333:53|279:286,1,420
135,110,5083,1,0,0:0:0:0:
418,218,5333,1,0,0:0:0:0:
91,364,5583,1,0,0:0:0:0:
362,308,5708,1,0,0:0:0:0:
57,186,5833,1,0,0:0:0:0:
315,146,5958,1,0,0:0:0:0:
192,361,6083,6,0,P|261:382|338:357,1,105.000004005432
203,95,6333,2,0,P|182:142|144:178,1,105.000004005432
497,152,6583,5,0,0:0:0:0:
281,302,6708,1,0,0:0:0:0:
342,117,6833,5,0,0:0:0:0:
173,337,6958,1,0,0:0:0:0:
184,98,7083,5,0,0:0:0:0:
81,363,7208,1,0,0:0:0:0:
31,100,7333,5,0,0:0:0:0:
0,375,7458,1,0,0:0:0:0:
268,251,7583,5,0,0:0:0:0:
0,167,7708,1,0,0:0:0:0:
150,368,7833,2,0,L|292:377,1,105.000004005432
206,65,8083,5,0,0:0:0:0:
16,249,8208,1,0,0:0:0:0:
383,98,8333,5,0,0:0:0:0:
122,219,8458,1,0,0:0:0:0:
512,191,8583,5,0,0:0:0:0:
228,235,8708,1,0,0:0:0:0:
465,4,8833,1,0,0:0:0:0:
465,4,8895,1,0,0:0:0:0:
465,4,8958,1,0,0:0:0:0:
390,321,9083,5,0,0:0:0:0:
204,61,9208,1,0,0:0:0:0:
284,384,9333,5,0,0:0:0:0:
419,115,9458,1,0,0:0:0:0:
139,272,9583,5,0,0:0:0:0:
332,32,9708,1,0,0:0:0:0:
512,277,9833,5,0,0:0:0:0:
164,12,9958,1,0,0:0:0:0:
299,363,10083,5,0,0:0:0:0:
343,369,10145,1,0,0:0:0:0:
388,363,10208,2,0,P|429:353|441:347,1,45.4999979171754
429,254,10333,5,0,0:0:0:0:
464,225,10395,1,0,0:0:0:0:
490,189,10458,2,0,P|510:153|514:140,1,45.4999979171754
329,120,10583,5,0,0:0:0:0:
284,111,10645,1,0,0:0:0:0:
241,110,10708,2,0,P|191:119|176:135,1,45.4999979171754
94,295,10833,5,0,0:0:0:0:
138,303,10895,1,0,0:0:0:0:
182,305,10958,2,0,P|231:295|246:279,1,45.4999979171754
384,80,11083,5,0,0:0:0:0:
357,125,11145,1,0,0:0:0:0:
317,154,11208,2,0,P|271:177|248:175,1,45.4999979171754
0,62,11333,5,0,0:0:0:0:
46,86,11395,1,0,0:0:0:0:
94,90,11458,2,0,P|116:93|138:88,1,45.4999979171754
320,331,11583,5,0,0:0:0:0:
274,307,11645,1,0,0:0:0:0:
226,303,11708,2,0,P|203:299|181:304,1,45.4999979171754
150,85,11833,5,0,0:0:0:0:
108,115,11895,1,0,0:0:0:0:
83,157,11958,2,0,P|70:175|64:197,1,45.4999979171754
105,335,12083,5,0,0:0:0:0:
153,340,12145,1,0,0:0:0:0:
202,346,12208,2,0,L|272:358,1,48.9999985046387
426,215,12333,5,0,0:0:0:0:
377,220,12395,1,0,0:0:0:0:
328,226,12458,2,0,L|258:237,1,48.9999985046387
26,151,12583,5,0,0:0:0:0:
74,156,12645,1,0,0:0:0:0:
123,162,12708,2,0,L|192:173,1,48.9999985046387
411,28,12833,5,0,0:0:0:0:
362,33,12895,1,0,0:0:0:0:
313,39,12958,2,0,L|243:50,1,48.9999985046387
37,341,13083,5,0,0:0:0:0:
475,151,13208,1,0,0:0:0:0:
34,9,13333,1,0,0:0:0:0:
12,53,13395,1,0,0:0:0:0:
3,100,13458,2,0,P|0:153|6:180,1,48.9999985046387
459,320,13583,5,0,0:0:0:0:
271,2,13708,1,0,0:0:0:0:
12,234,13833,1,0,0:0:0:0:
470,67,13958,1,0,0:0:0:0:
213,368,14083,6,0,P|130:380|99:366,1,97.9999970092774
0,158,14333,2,0,P|83:146|114:160,1,97.9999970092774
315,236,14583,5,0,0:0:0:0:
135,309,14708,1,0,0:0:0:0:
214,151,14833,2,0,P|267:137|332:163,1,97.9999970092774
213,368,15083,6,0,P|219:287|197:260,1,97.9999970092774
22,189,15333,2,0,P|90:216|196:155,1,195.999994018555
234,315,15708,5,0,0:0:0:0:
234,315,15771,1,0,0:0:0:0:
234,315,15833,1,0,0:0:0:0:
145,84,15958,1,0,0:0:0:0:
371,144,16083,6,0,P|413:173|436:238,1,97.9999970092774
340,369,16333,2,0,P|306:309|320:261,1,97.9999970092774
510,303,16583,5,0,0:0:0:0:
292,209,16708,1,0,0:0:0:0:
491,99,16833,2,0,P|470:186|439:216,1,97.9999970092774
241,325,17083,6,0,P|320:316|363:288,1,97.9999970092774
389,85,17333,1,0,0:0:0:0:
206,218,17458,1,0,0:0:0:0:
411,236,17583,1,0,0:0:0:0:
261,74,17708,1,0,0:0:0:0:
221,62,17770,1,0,0:0:0:0:
182,56,17833,2,0,P|115:67|78:86,1,97.9999970092774
276,346,18083,5,0,0:0:0:0:
501,159,18208,1,0,0:0:0:0:
251,155,18333,1,0,0:0:0:0:
465,340,18458,5,0,0:0:0:0:
400,59,18583,1,0,0:0:0:0:
270,244,18708,1,0,0:0:0:0:
510,234,18833,5,0,0:0:0:0:
256,63,18958,1,0,0:0:0:0:
308,344,19083,1,0,0:0:0:0:
478,119,19208,5,0,0:0:0:0:
166,56,19333,1,0,0:0:0:0:
354,289,19458,1,0,0:0:0:0:
405,3,19583,2,0,P|351:70|358:117,1,97.9999970092774
165,158,19833,2,0,P|249:174|274:215,1,97.9999970092774,0|0,0:3|0:3,0:3:0:0:
497,341,20083,6,0,L|429:363,5,48.9999985046387
314,117,20458,5,0,0:0:0:0:
148,348,20583,1,0,0:0:0:0:
441,243,20708,1,0,0:0:0:0:
177,70,20833,5,0,0:0:0:0:
301,371,20958,1,0,0:0:0:0:
503,165,21083,6,0,P|441:145|388:153,1,97.9999970092774
206,353,21333,2,0,P|268:373|321:365,1,97.9999970092774
411,48,21583,5,0,0:0:0:0:
37,177,21708,1,0,0:0:0:0:
479,157,21833,1,0,0:0:0:0:
71,298,21958,1,0,0:0:0:0:
317,87,22083,5,0,0:0:0:0:
124,72,22208,1,0,0:0:0:0:
214,236,22333,1,0,0:0:0:0:
307,212,22583,5,0,0:0:0:0:
130,139,22708,1,0,0:0:0:0:
223,327,22833,1,0,0:0:0:0:
319,90,23083,5,0,0:0:0:0:
209,241,23208,1,0,0:0:0:0:
424,159,23333,1,0,0:0:0:0:
365,337,23583,5,0,0:0:0:0:
227,130,23708,1,0,0:0:0:0:
162,348,23833,1,0,0:0:0:0:
322,257,23958,1,0,0:0:0:0:
128,150,24083,5,0,0:0:0:0:
420,97,24208,1,0,0:0:0:0:
217,280,24333,1,0,0:0:0:0:
290,84,24458,1,0,0:0:0:0:
395,311,24583,5,0,0:0:0:0:
146,225,24708,1,0,0:0:0:0:
465,154,24833,1,0,0:0:0:0:
136,62,24958,1,0,0:0:0:0:
281,345,25083,1,0,0:0:0:0:
356,110,25208,1,0,0:0:0:0:
118,168,25333,6,0,P|91:254|110:299,1,97.9999970092774
426,363,25583,5,0,0:0:0:0:
287,47,25708,1,0,0:0:0:0:
155,328,25833,1,0,0:0:0:0:
208,348,25895,1,0,0:0:0:0:
265,351,25958,1,0,0:0:0:0:
319,334,26020,1,0,0:0:0:0:
362,294,26083,6,0,P|402:238|389:139,1,119.000002269745
181,152,26333,2,0,P|266:204|322:193,1,119.000002269745
461,77,26583,2,0,B|417:69|402:156|315:93,1,119.000002269745
176,30,26833,2,0,B|219:57|256:-5|311:11,1,119.000002269745
397,278,27083,5,0,0:0:0:0:
372,266,27145,1,0,0:0:0:0:
352,248,27208,1,0,0:0:0:0:
339,224,27270,1,0,0:0:0:0:
333,197,27333,1,0,0:0:0:0:
332,169,27395,1,0,0:0:0:0:
338,142,27458,2,0,P|382:93|452:111,1,119.000002269745
280,308,27708,5,0,0:0:0:0:
206,84,27833,1,0,0:0:0:0:
421,188,27958,1,0,0:0:0:0:
201,303,28083,6,0,P|130:322|71:296,1,119.000002269745
46,88,28333,2,0,P|100:164|71:225,1,119.000002269745
317,190,28583,5,0,0:0:0:0:
156,1,28708,1,0,0:0:0:0:
157,268,28833,5,0,0:0:0:0:
227,55,28958,1,0,0:0:0:0:
263,312,29083,5,0,0:0:0:0:
239,332,29145,1,0,0:0:0:0:
212,347,29208,1,0,0:0:0:0:
182,355,29270,1,0,0:0:0:0:
151,357,29333,1,0,0:0:0:0:
121,351,29395,1,0,0:0:0:0:
92,339,29458,6,0,L|32:313,1,59.5000011348725
279,214,29583,2,0,L|339:188,1,59.5000011348725
81,192,29708,2,0,L|21:166,1,59.5000011348725
324,65,29833,2,0,L|384:39,1,59.5000011348725
66,5,29958,5,0,0:0:0:0:
166,266,30083,6,0,P|229:295|295:284,1,119.000002269745
414,114,30333,2,0,P|313:118|292:164,1,119.000002269745
373,384,30583,5,0,0:0:0:0:
402,351,30645,1,0,0:0:0:0:
411,308,30708,1,0,0:0:0:0:
398,265,30770,1,0,0:0:0:0:
368,237,30833,6,0,P|297:204|238:220,1,119.000002269745
97,378,31083,2,0,P|162:318|156:249,1,119.000002269745
251,127,31333,1,0,0:0:0:0:
10,222,31458,1,0,0:0:0:0:
202,241,31583,1,0,0:0:0:0:
93,90,31708,1,0,0:0:0:0:
242,337,31833,5,0,0:0:0:0:
376,8,31958,1,0,0:0:0:0:
74,189,32083,5,0,0:0:0:0:
83,235,32145,1,0,0:0:0:0:
119,267,32208,1,0,0:0:0:0:
167,270,32270,1,0,0:0:0:0:
205,250,32333,1,0,0:0:0:0:
246,225,32395,1,0,0:0:0:0:
292,235,32458,1,0,0:0:0:0:
317,274,32520,1,0,0:0:0:0:
307,321,32583,1,0,0:0:0:0:
270,345,32645,1,0,0:0:0:0:
224,340,32708,6,0,P|157:350|116:388,1,119.000002269745
93,110,32958,1,0,0:0:0:0:
396,59,33083,5,0,0:0:0:0:
431,76,33145,1,0,0:0:0:0:
454,107,33208,1,0,0:0:0:0:
461,146,33270,1,0,0:0:0:0:
450,184,33333,1,0,0:0:0:0:
423,213,33395,1,0,0:0:0:0:
387,226,33458,1,0,0:0:0:0:
351,221,33521,1,0,0:0:0:0:
311,201,33583,1,0,0:0:0:0:
272,177,33646,1,0,0:0:0:0:
233,168,33708,6,0,P|197:166|152:188,1,59.5000011348725
33,378,33833,2,0,P|69:380|114:358,1,59.5000011348725
157,82,33958,2,0,P|121:80|76:102,1,59.5000011348725
40,303,34083,5,0,0:0:0:0:
76,287,34145,1,0,0:0:0:0:
116,293,34208,1,0,0:0:0:0:
146,319,34270,1,0,0:0:0:0:
173,343,34333,1,0,0:0:0:0:
211,354,34395,1,0,0:0:0:0:
251,348,34458,1,0,0:0:0:0:
284,328,34520,1,0,0:0:0:0:
308,296,34583,6,0,P|339:225|313:172,1,119.000002269745
131,121,34833,2,0,P|206:137|234:189,1,119.000002269745
90,363,35083,5,0,0:0:0:0:
323,209,35208,1,0,0:0:0:0:
68,220,35333,1,0,0:0:0:0:
279,308,35458,1,0,0:0:0:0:
197,83,35583,5,0,0:0:0:0:
158,72,35645,1,0,0:0:0:0:
120,71,35708,1,0,0:0:0:0:
84,80,35770,1,0,0:0:0:0:
48,104,35833,2,0,P|19:167|27:241,1,119.000002269745
196,357,36083,5,0,0:0:0:0:
236,369,36145,1,0,0:0:0:0:
278,365,36208,1,0,0:0:0:0:
314,344,36270,1,0,0:0:0:0:
342,316,36333,5,0,0:0:0:0:
268,86,36458,1,0,0:0:0:0:
144,259,36583,2,0,P|222:283|275:258,1,119.000002269745
376,98,36833,2,0,P|319:162|323:210,1,119.000002269745
414,286,37083,5,0,0:0:0:0:
193,101,37208,1,0,0:0:0:0:
300,310,37333,5,0,0:0:0:0:
265,39,37458,1,0,0:0:0:0:
39,236,37583,1,0,0:0:0:0:
80,258,37645,1,0,0:0:0:0:
121,260,37708,1,0,0:0:0:0:
162,241,37770,1,0,0:0:0:0:
191,205,37833,2,0,P|202:137|156:88,1,119.000002269745
132,352,38083,5,0,0:0:0:0:
176,361,38145,1,0,0:0:0:0:
221,356,38208,1,0,0:0:0:0:
261,336,38270,1,0,0:0:0:0:
293,303,38333,1,0,0:0:0:0:
284,196,38583,5,0,0:0:0:0:
325,178,38645,1,0,0:0:0:0:
370,178,38708,1,0,0:0:0:0:
411,198,38770,1,0,0:0:0:0:
439,233,38833,1,0,0:0:0:0:
477,134,39083,5,0,0:0:0:0:
466,89,39145,1,0,0:0:0:0:
441,52,39208,1,0,0:0:0:0:
405,25,39270,1,0,0:0:0:0:
361,13,39333,1,0,0:0:0:0:
197,70,39583,5,0,0:0:0:0:
231,99,39645,1,0,0:0:0:0:
273,115,39708,1,0,0:0:0:0:
318,113,39770,1,0,0:0:0:0:
360,95,39833,1,0,0:0:0:0:
377,200,40083,5,0,0:0:0:0:
340,226,40145,1,0,0:0:0:0:
319,266,40208,1,0,0:0:0:0:
317,311,40270,1,0,0:0:0:0:
335,353,40333,1,0,0:0:0:0:
201,268,40583,5,0,0:0:0:0:
207,222,40645,1,0,0:0:0:0:
214,177,40708,1,0,0:0:0:0:
220,132,40770,1,0,0:0:0:0:
227,87,40833,1,0,0:0:0:0:
363,43,41083,5,0,0:0:0:0:
318,32,41145,1,0,0:0:0:0:
274,21,41208,1,0,0:0:0:0:
230,10,41270,1,0,0:0:0:0:
186,0,41333,1,0,0:0:0:0:
308,213,41458,5,0,0:0:0:0:
451,37,41583,1,0,0:0:0:0:
99,107,41708,5,0,0:0:0:0:
493,133,41833,1,0,0:0:0:0:
191,362,41958,1,0,0:0:0:0:
432,217,42083,6,0,P|462:304|431:356,3,119.000002269745
196,182,42583,1,0,0:0:0:0:
400,28,42708,1,0,0:0:0:0:
403,50,42770,1,0,0:0:0:0:
405,71,42833,1,0,0:0:0:0:
316,289,42958,1,0,0:0:0:0:
150,78,43083,6,0,P|243:53|276:83,1,119.000002269745
141,292,43333,5,0,0:0:0:0:
345,181,43458,1,0,0:0:0:0:
296,376,43583,1,0,0:0:0:0:
194,208,43708,1,0,0:0:0:0:
384,314,43833,1,0,0:0:0:0:
406,310,43895,1,0,0:0:0:0:
432,306,43958,1,0,0:0:0:0:
274,112,44083,6,0,P|187:98|139:134,3,119.000002269745
273,335,44583,1,0,0:0:0:0:
421,172,44708,1,0,0:0:0:0:
424,150,44770,1,0,0:0:0:0:
428,128,44833,1,0,0:0:0:0:
215,224,44958,1,0,0:0:0:0:
456,326,45083,6,0,P|496:277|496:209,1,119.000002269745
302,56,45333,1,0,0:0:0:0:
205,306,45458,5,0,0:0:0:0:
240,321,45521,1,0,0:0:0:0:
279,327,45583,2,0,P|334:324|364:308,1,59.5000011348725
368,115,45708,5,0,0:3:0:0:
353,150,45771,1,0,0:3:0:0:
347,189,45833,2,0,P|350:244|366:274,1,59.5000011348725,0|0,0:3|0:3,0:3:0:0:
512,358,45958,2,0,P|509:303|493:273,1,59.5000011348725,0|0,0:3|0:3,0:3:0:0:
256,122,46083,6,0,L|125:138,5,119.000002269745
294,320,46833,2,0,P|360:333|418:315,1,119.000002269745
213,93,47083,6,0,L|91:144,5,119.000002269745
327,304,47833,2,0,P|394:298|445:265,1,119.000002269745
109,344,48083,5,0,0:0:0:0:
272,154,48208,1,0,0:0:0:0:
55,167,48333,2,0,P|82:230|147:258,1,119.000002269745
320,383,48583,5,0,0:0:0:0:
386,165,48708,1,0,0:0:0:0:
208,245,48833,2,0,P|190:328|217:392,1,119.000002269745
490,51,49083,6,0,P|423:92|357:80,1,119.000002269745
58,127,49333,5,0,0:0:0:0:
493,252,49458,1,0,0:0:0:0:
111,312,49583,5,0,0:0:0:0:
336,148,49708,1,0,0:0:0:0:
94,224,49833,5,0,0:0:0:0:
440,137,49958,1,0,0:0:0:0:
268,365,50083,5,0,0:0:0:0:
217,376,50145,1,0,0:0:0:0:
168,359,50208,1,0,0:0:0:0:
135,319,50270,1,0,0:0:0:0:
129,267,50333,1,0,0:0:0:0:
150,220,50395,1,0,0:0:0:0:
193,191,50458,1,0,0:0:0:0:
245,190,50520,1,0,0:0:0:0:
290,216,50583,5,0,0:0:0:0:
330,251,50645,1,0,0:0:0:0:
380,262,50707,1,0,0:0:0:0:
429,244,50770,1,0,0:0:0:0:
460,202,50832,1,0,0:0:0:0:
463,151,50895,1,0,0:0:0:0:
438,106,50957,1,0,0:0:0:0:
392,81,51020,1,0,0:0:0:0:
341,86,51082,5,0,0:0:0:0:
300,117,51145,1,0,0:0:0:0:
262,148,51208,1,0,0:0:0:0:
220,176,51270,1,0,0:0:0:0:
171,191,51332,1,0,0:0:0:0:
123,173,51395,1,0,0:0:0:0:
97,128,51457,1,0,0:0:0:0:
105,78,51520,1,0,0:0:0:0:
144,44,51582,5,0,0:0:0:0:
196,42,51645,1,0,0:0:0:0:
231,68,51708,1,0,0:0:0:0:
249,117,51770,1,0,0:0:0:0:
257,187,51833,5,0,0:0:0:0:
223,249,51895,1,0,0:0:0:0:
168,294,51958,1,0,0:0:0:0:
101,316,52020,1,0,0:0:0:0:
30,310,52083,5,0,0:0:0:0:
479,195,52583,1,0,0:0:0:0:
15,53,53083,1,0,0:0:0:0:
504,384,53583,1,0,0:0:0:0:
256,192,53645,12,0,55020,0:0:0:0:
54,86,55083,5,0,0:0:0:0:
443,25,55208,1,0,0:0:0:0:
91,345,55333,1,0,0:0:0:0:
504,283,55458,1,0,0:0:0:0:
204,31,55583,6,0,P|79:44|186:190,1,367.500014019013
213,271,56083,6,0,P|294:264|341:191,1,140
180,0,56333,2,0,P|99:7|52:80,1,140
376,274,56583,5,0,0:0:0:0:
400,223,56645,1,0,0:0:0:0:
393,167,56708,1,0,0:0:0:0:
357,123,56770,1,0,0:0:0:0:
308,100,56833,1,0,0:0:0:0:
95,184,56958,1,0,0:0:0:0:
276,377,57083,5,0,0:0:0:0:
316,384,57145,1,0,0:0:0:0:
356,375,57208,1,0,0:0:0:0:
390,352,57270,1,0,0:0:0:0:
416,313,57333,1,0,0:0:0:0:
172,261,57458,1,0,0:0:0:0:
382,71,57583,5,0,0:0:0:0:
322,82,57645,1,0,0:0:0:0:
286,124,57708,1,0,0:0:0:0:
268,176,57770,1,0,0:0:0:0:
259,228,57833,2,0,P|271:292|294:319,1,70
488,136,57958,2,0,P|476:72|453:45,1,70
182,7,58083,6,0,P|78:12|33:69,1,140
294,321,58333,2,0,P|364:243|355:171,1,140
81,89,58583,5,0,0:0:0:0:
137,89,58645,1,0,0:0:0:0:
186,115,58708,1,0,0:0:0:0:
217,162,58770,1,0,0:0:0:0:
237,216,58833,1,0,0:0:0:0:
9,305,58958,1,0,0:0:0:0:
216,375,59083,5,0,0:0:0:0:
264,382,59145,1,0,0:0:0:0:
298,376,59208,1,0,0:0:0:0:
329,360,59270,1,0,0:0:0:0:
348,341,59333,1,0,0:0:0:0:
288,132,59458,1,0,0:0:0:0:
467,50,59583,5,0,0:0:0:0:
425,80,59645,1,0,0:0:0:0:
400,125,59708,1,0,0:0:0:0:
396,176,59770,1,0,0:0:0:0:
414,224,59833,2,0,P|435:265|468:292,1,70
179,137,59958,2,0,P|175:182|155:220,1,70
425,80,60083,6,0,P|446:194|391:215,1,140
96,27,60333,2,0,B|183:22|134:76|243:68,1,140
129,328,60583,5,0,0:0:0:0:
180,342,60645,1,0,0:0:0:0:
232,328,60708,1,0,0:0:0:0:
269,290,60770,1,0,0:0:0:0:
282,238,60833,1,0,0:0:0:0:
35,81,60958,1,0,0:0:0:0:
341,104,61083,5,0,0:0:0:0:
300,112,61145,1,0,0:0:0:0:
258,105,61208,1,0,0:0:0:0:
223,83,61270,1,0,0:0:0:0:
199,49,61333,1,0,0:0:0:0:
336,299,61458,1,0,0:0:0:0:
53,285,61583,5,0,0:0:0:0:
80,239,61645,1,0,0:0:0:0:
124,209,61708,1,0,0:0:0:0:
177,199,61770,1,0,0:0:0:0:
230,210,61833,2,0,P|266:224|298:248,1,70
118,0,61958,2,0,P|82:14|50:38,1,70
454,67,62083,6,0,P|416:162|467:252,1,154.000004699707
88,109,62333,2,0,P|196:100|262:163,1,154.000004699707
256,330,62583,5,0,0:0:0:0:
312,335,62645,1,0,0:0:0:0:
363,310,62708,1,0,0:0:0:0:
393,263,62770,1,0,0:0:0:0:
419,212,62833,2,0,P|434:169|428:121,1,77.0000023498536
138,21,62958,2,0,P|157:62|195:91,1,77.0000023498536
280,229,63083,5,0,0:0:0:0:
232,244,63145,1,0,0:0:0:0:
184,229,63208,1,0,0:0:0:0:
154,190,63270,1,0,0:0:0:0:
138,147,63333,2,0,P|134:108|148:62,1,77.0000023498536
388,353,63458,2,8,P|349:357|303:343,1,77.0000023498536
71,41,63583,5,0,0:0:0:0:
31,87,63645,1,0,0:0:0:0:
18,146,63708,1,0,0:0:0:0:
33,204,63770,1,0,0:0:0:0:
70,243,63833,2,0,P|155:288|194:282,1,77.0000023498536
512,41,63958,2,0,P|427:-4|388:2,1,77.0000023498536
279,372,64083,6,0,P|376:305|390:251,1,140
141,87,64333,6,0,P|61:90|49:110,1,70
387,270,64458,2,0,P|467:267|479:247,1,70
140,339,64583,5,0,0:0:0:0:
130,284,64645,1,0,0:0:0:0:
143,230,64708,1,0,0:0:0:0:
179,186,64770,1,0,0:0:0:0:
231,163,64833,2,0,P|274:155|329:161,1,70
507,376,64958,2,0,P|464:384|409:378,1,70
62,182,65083,6,0,P|132:151|163:156,1,70
456,229,65208,2,0,P|386:260|355:255,1,70
66,78,65333,2,0,P|153:84|181:106,1,70
436,335,65458,2,0,P|350:329|321:307,1,70
334,70,65583,5,0,0:0:0:0:
288,81,65645,1,0,0:0:0:0:
254,114,65708,1,0,0:0:0:0:
239,158,65770,1,0,0:0:0:0:
249,212,65833,2,0,P|276:252|320:279,1,70
75,17,65958,2,0,P|27:7|-22:19,1,70
231,356,66083,6,0,P|339:372|406:318,1,140
512,202,66333,2,0,L|404:179,1,70
110,30,66458,2,0,L|2:7,1,70
152,266,66583,5,0,0:0:0:0:
203,285,66645,1,0,0:0:0:0:
256,278,66708,1,0,0:0:0:0:
300,247,66770,1,0,0:0:0:0:
324,199,66833,2,0,P|326:157|305:108,1,70
43,258,66958,2,0,P|41:300|62:349,1,70
317,52,67083,5,0,0:0:0:0:
263,44,67145,1,0,0:0:0:0:
219,64,67208,1,0,0:0:0:0:
183,99,67270,1,0,0:0:0:0:
161,138,67333,2,0,P|143:178|147:213,1,52.5000020027161
337,263,67458,2,0,P|355:223|351:188,1,52.5000020027161
445,46,67583,5,0,0:0:0:0:
443,85,67645,1,0,0:0:0:0:
441,124,67708,1,0,0:0:0:0:
439,160,67770,1,0,0:0:0:0:
439,194,67833,2,0,B|436:265|436:265,1,52.5000020027161
266,302,67958,2,0,B|269:231|269:231,1,52.5000020027161
125,38,68083,6,0,P|214:22|265:72,1,140
399,330,68333,2,0,P|366:285|365:263,1,70
78,159,68458,2,0,P|69:103|79:83,1,70
458,105,68583,5,0,0:0:0:0:
453,159,68645,1,0,0:0:0:0:
423,206,68708,1,0,0:0:0:0:
375,233,68770,1,0,0:0:0:0:
320,234,68833,2,0,P|272:223|247:201,1,70
503,26,68958,2,0,P|509:102|506:108,1,70
78,92,69083,6,0,P|158:77|184:90,1,70
266,336,69208,2,0,P|186:351|160:338,1,70
239,18,69333,2,0,P|319:3|345:16,1,70
427,262,69458,2,0,P|347:277|321:264,1,70
100,55,69583,5,0,0:0:0:0:
83,102,69645,1,0,0:0:0:0:
91,152,69708,1,0,0:0:0:0:
122,192,69770,1,0,0:0:0:0:
162,220,69833,2,0,P|233:245|247:243,1,70
459,31,69958,2,0,P|388:6|374:8,1,70
334,368,70083,6,0,P|375:275|321:124,1,236.250009012223
19,63,70333,6,0,P|52:158|194:232,1,236.250009012223
331,17,70583,5,0,0:0:0:0:
271,32,70645,1,0,0:0:0:0:
233,83,70708,1,0,0:0:0:0:
217,141,70770,1,0,0:0:0:0:
226,202,70833,2,0,P|251:271|292:302,1,78.7500030040742
507,46,70958,2,0,P|449:13|403:14,1,78.7500030040742
441,351,71083,5,0,0:0:0:0:
474,294,71145,1,0,0:0:0:0:
470,228,71208,1,0,0:0:0:0:
432,175,71270,1,0,0:0:0:0:
370,152,71333,2,0,P|318:139|276:156,1,78.7500030040742
181,378,71458,2,0,P|233:375|269:347,1,78.7500030040742
343,118,71583,5,0,0:0:0:0:
304,58,71645,1,0,0:0:0:0:
245,21,71708,1,0,0:0:0:0:
175,14,71770,1,0,0:0:0:0:
102,19,71833,2,0,P|55:26|22:50,1,78.7500030040742
344,382,71958,2,0,P|391:375|424:351,1,78.7500030040742
165,152,72083,6,0,P|115:232|141:296,1,122.500001168251
189,368,72333,6,0,P|216:296|201:248,1,122.500001168251
15,204,72583,2,0,P|-12:132|3:84,1,122.500001168251
180,103,72833,2,0,P|252:76|300:91,1,122.500001168251
367,147,73083,5,0,0:0:0:0:
146,314,73208,2,0,P|84:228|83:175,1,122.500001168251
121,131,73458,5,0,0:0:0:0:
311,363,73583,2,0,P|350:273|336:228,1,122.500001168251
237,78,73833,5,0,0:0:0:0:
229,306,73958,1,0,0:0:0:0:
405,130,74083,2,0,P|321:147|287:200,1,122.500001168251
406,368,74333,2,0,P|451:298|431:243,1,122.500001168251
224,241,74583,2,0,P|307:251|352:215,1,122.500001168251
392,62,74833,1,0,0:0:0:0:
210,226,74958,5,0,0:0:0:0:
286,6,75083,1,0,0:0:0:0:
421,264,75208,2,0,P|333:226|305:159,1,122.500001168251
490,71,75458,1,0,0:0:0:0:
258,361,75583,5,0,0:0:0:0:
147,14,75708,1,0,0:0:0:0:
483,193,75833,1,0,0:0:0:0:
75,307,75958,1,0,0:0:0:0:
404,368,76083,5,0,0:0:0:0:
416,322,76145,1,0,0:0:0:0:
415,274,76208,1,0,0:0:0:0:
402,228,76270,1,0,0:0:0:0:
377,188,76333,1,0,0:0:0:0:
39,87,76583,5,0,0:0:0:0:
70,125,76645,1,0,0:0:0:0:
114,150,76708,1,0,0:0:0:0:
164,158,76770,1,0,0:0:0:0:
213,147,76833,1,0,0:0:0:0:
407,0,77083,5,0,0:0:0:0:
360,8,77145,1,0,0:0:0:0:
322,37,77208,1,0,0:0:0:0:
301,79,77270,1,0,0:0:0:0:
301,126,77333,1,0,0:0:0:0:
90,304,77583,5,0,0:0:0:0:
138,299,77645,1,0,0:0:0:0:
187,295,77708,1,0,0:0:0:0:
235,291,77770,1,0,0:0:0:0:
284,287,77833,1,0,0:0:0:0:
481,48,77958,1,0,0:0:0:0:
156,185,78083,5,0,0:0:0:0:
106,201,78145,1,0,0:0:0:0:
56,188,78208,1,0,0:0:0:0:
20,150,78270,1,0,0:0:0:0:
11,99,78333,1,0,0:0:0:0:
29,51,78395,1,0,0:0:0:0:
71,21,78458,1,0,0:0:0:0:
123,17,78520,1,0,0:0:0:0:
168,42,78583,1,0,0:0:0:0:
194,87,78645,1,0,0:0:0:0:
229,122,78708,1,0,0:0:0:0:
274,146,78770,1,0,0:0:0:0:
326,149,78833,1,0,0:0:0:0:
375,130,78895,1,0,0:0:0:0:
411,92,78958,2,0,P|421:76|428:39,1,52.5000020027161
276,13,79083,5,0,0:0:0:0:
248,57,79145,1,0,0:0:0:0:
237,108,79208,1,0,0:0:0:0:
244,160,79270,1,0,0:0:0:0:
271,203,79333,2,0,P|296:234|324:256,3,52.5000020027161,0|0|0|0,0:3|0:0|0:0|0:0,0:0:0:0:
359,78,79583,5,0,0:0:0:0:
309,61,79645,1,0,0:0:0:0:
256,59,79708,1,0,0:0:0:0:
205,70,79770,1,0,0:0:0:0:
159,94,79833,1,0,0:0:0:0:
307,364,79958,1,0,0:0:0:0:
467,157,80083,6,0,P|366:147|314:182,1,157.500006008148
162,334,80333,5,0,0:0:0:0:
289,49,80458,1,0,0:0:0:0:
82,239,80583,5,0,0:0:0:0:
340,130,80708,1,0,0:0:0:0:
40,127,80833,5,0,0:0:0:0:
117,115,80895,1,0,0:0:0:0:
193,137,80958,1,0,0:0:0:0:
252,189,81020,1,0,0:0:0:0:
284,261,81083,1,0,0:0:0:0:
322,296,81145,1,0,0:0:0:0:
371,312,81208,1,0,0:0:0:0:
423,306,81270,1,0,0:0:0:0:
468,279,81333,1,0,0:0:0:0:
497,237,81395,1,0,0:0:0:0:
507,185,81458,1,0,0:0:0:0:
494,135,81520,1,0,0:0:0:0:
461,94,81583,1,0,0:0:0:0:
169,22,81833,5,0,0:0:0:0:
114,78,81895,1,0,0:0:0:0:
78,147,81958,1,0,0:0:0:0:
63,225,82020,1,0,0:0:0:0:
70,303,82083,5,0,0:0:0:0:
304,372,82208,1,0,0:0:0:0:
208,184,82333,1,0,0:0:0:0:
208,184,82395,1,0,0:0:0:0:
208,184,82458,1,0,0:0:0:0:
90,381,82583,5,0,0:0:0:0:
318,254,82708,1,0,0:0:0:0:
151,104,82833,1,0,0:0:0:0:
151,104,82895,1,0,0:0:0:0:
151,104,82958,1,0,0:0:0:0:
218,325,83083,5,0,0:0:0:0:
328,73,83208,1,0,0:0:0:0:
131,195,83333,1,0,0:0:0:0:
131,195,83395,1,0,0:0:0:0:
131,195,83458,1,0,0:0:0:0:
416,274,83583,5,0,0:0:0:0:
243,42,83708,1,0,0:0:0:0:
295,293,83833,1,0,0:0:0:0:
295,293,83895,1,0,0:0:0:0:
290,290,83958,1,0,0:0:0:0:
33,156,84083,5,0,0:0:0:0:
313,92,84208,1,0,0:0:0:0:
189,290,84333,1,0,0:0:0:0:
189,290,84395,1,0,0:0:0:0:
189,290,84458,1,0,0:0:0:0:
218,6,84583,5,0,0:0:0:0:
387,218,84708,1,0,0:0:0:0:
121,132,84833,1,0,0:0:0:0:
121,132,84896,1,0,0:0:0:0:
121,132,84958,1,0,0:0:0:0:
266,357,85083,5,0,0:0:0:0:
327,84,85208,1,0,0:0:0:0:
103,234,85333,1,0,0:0:0:0:
103,234,85395,1,0,0:0:0:0:
103,234,85458,1,0,0:0:0:0:
447,304,85583,5,0,0:0:0:0:
117,64,85708,1,0,0:0:0:0:
436,31,85833,1,0,0:0:0:0:
108,332,85958,1,0,0:0:0:0:
104,314,86020,1,0,0:0:0:0:
100,297,86083,5,0,0:0:0:0:
351,144,86208,1,0,0:0:0:0:
272,340,86333,1,0,0:0:0:0:
235,310,86395,1,0,0:0:0:0:
212,274,86458,1,0,0:0:0:0:
202,232,86520,1,0,0:0:0:0:
194,189,86583,6,0,P|192:138|227:84,1,105.000004005432
338,227,86833,1,0,0:0:0:0:
128,146,86958,6,0,P|206:102|249:110,1,105.000004005432
347,240,87208,1,0,0:0:0:0:
89,82,87333,6,0,P|169:75|223:107,1,105.000004005432
350,253,87583,2,0,P|270:260|216:228,1,105.000004005432
131,0,87833,1,0,0:0:0:0:
19,290,87958,1,0,0:0:0:0:
268,145,88083,2,0,P|283:52|246:14,1,105.000004005432
55,135,88333,5,0,0:0:0:0:
75,174,88395,1,0,0:0:0:0:
106,205,88458,1,0,0:0:0:0:
146,224,88520,1,0,0:0:0:0:
190,229,88583,1,0,0:0:0:0:
326,5,88708,1,0,0:0:0:0:
183,106,88833,1,0,0:0:0:0:
387,301,88958,1,0,0:0:0:0:
411,125,89083,2,0,P|466:111|474:113,7,52.5000020027161
58,299,89583,5,0,0:0:0:0:
460,110,89708,1,0,0:0:0:0:
39,125,89833,1,0,0:0:0:0:
477,291,89958,1,0,0:0:0:0:
477,291,90083,1,0,0:0:0:0:
256,192,90145,12,0,91020,0:0:0:0:
80,85,91083,6,0,P|180:46|228:60,1,119.000002269745
338,147,91333,2,0,B|273:143|321:214|200:187,1,119.000002269745
170,321,91583,2,0,P|130:244|145:182,1,119.000002269745
256,75,91833,2,0,L|233:210,1,119.000002269745
75,244,92083,5,0,0:0:0:0:
55,210,92145,1,0,0:0:0:0:
54,172,92208,1,0,0:0:0:0:
63,135,92270,1,0,0:0:0:0:
86,105,92333,1,0,0:0:0:0:
120,82,92395,1,0,0:0:0:0:
155,69,92458,2,0,P|223:67|276:102,1,119.000002269745
155,279,92708,1,0,0:0:0:0:
36,85,92833,1,0,0:0:0:0:
260,181,92958,1,0,0:0:0:0:
191,16,93083,6,0,P|143:92|168:167,1,119.000002269745
335,236,93333,2,0,P|282:161|210:154,1,119.000002269745
74,230,93583,2,0,L|206:241,1,119.000002269745
269,37,93833,2,0,B|249:103|249:103|264:176,1,119.000002269745
