osu file format v14

[General]
AudioFilename: audio.mp3
AudioLeadIn: 0
PreviewTime: 26754
Countdown: 0
SampleSet: None
StackLeniency: 0.7
Mode: 3
LetterboxInBreaks: 0
SpecialStyle: 0
WidescreenStoryboard: 1

[Editor]
DistanceSpacing: 0.8
BeatDivisor: 4
GridSize: 16
TimelineZoom: 1.6

[Metadata]
Title:Bird That Carries You Over A Disproportionately Small Gap
TitleUnicode:Bird That Carries You Over A Disproportionately Small Gap
Artist:FalKKonE
ArtistUnicode:FalKKonE
Creator:_wwwww
Version:NM
Source:Undertale
Tags:Duck Toby Fox Intense Symphonic Metal Cover FastYoshi
BeatmapID:1391030
BeatmapSetID:656583

[Difficulty]
HPDrainRate:7
CircleSize:4
OverallDifficulty:7
ApproachRate:5
SliderMultiplier:1.6
SliderTickRate:1

[Events]
//Background and Video events
0,0,"CPO4GobWwAQMJqy.png",0,0
//Break Periods
//Storyboard Layer 0 (Background)
//Storyboard Layer 1 (Fail)
//Storyboard Layer 2 (Pass)
//Storyboard Layer 3 (Foreground)
//Storyboard Sound Samples

[TimingPoints]
88,392.156862745098,4,3,1,25,1,0
6362,-100,4,3,1,45,0,1
18911,-100,4,3,1,30,0,0
70676,-100,4,3,1,45,0,1
83225,-100,4,3,1,30,0,0

[HitObjects]
64,192,88,5,0,0:0:0:0:
320,192,284,1,0,0:0:0:0:
448,192,676,1,0,0:0:0:0:
64,192,872,1,0,0:0:0:0:
320,192,1068,1,0,0:0:0:0:
192,192,1460,1,0,0:0:0:0:
448,192,1656,1,0,0:0:0:0:
448,192,1852,1,0,0:0:0:0:
320,192,2048,1,0,0:0:0:0:
192,192,2244,1,0,0:0:0:0:
448,192,2440,1,0,0:0:0:0:
448,192,2637,1,0,0:0:0:0:
64,192,2833,1,0,0:0:0:0:
320,192,3029,1,0,0:0:0:0:
448,192,3225,1,0,0:0:0:0:
192,192,3421,1,0,0:0:0:0:
64,192,3813,1,0,0:0:0:0:
448,192,4009,1,0,0:0:0:0:
192,192,4205,1,0,0:0:0:0:
192,192,4597,1,0,0:0:0:0:
320,192,4793,1,0,0:0:0:0:
320,192,4989,1,0,0:0:0:0:
64,192,5382,1,0,0:0:0:0:
320,192,5774,1,0,0:0:0:0:
192,192,5970,1,0,0:0:0:0:
64,192,6166,1,0,0:0:0:0:
448,192,6362,1,0,0:0:0:0:
320,192,6362,1,8,0:0:0:0:
192,192,6558,1,2,0:0:0:0:
64,192,6754,1,2,0:0:0:0:
448,192,6950,1,2,0:0:0:0:
192,192,7146,1,2,0:0:0:0:
320,192,7342,1,2,0:0:0:0:
64,192,7538,1,2,0:0:0:0:
192,192,7735,1,2,0:0:0:0:
320,192,7931,128,2,8323:0:0:0:0:
448,192,8323,128,2,8715:0:0:0:0:
64,192,8715,128,2,9107:0:0:0:0:
192,192,9107,128,2,9499:0:0:0:0:
448,192,9499,1,4,0:0:0:0:
320,192,9695,1,2,0:0:0:0:
64,192,9891,1,2,0:0:0:0:
192,192,10088,1,2,0:0:0:0:
448,192,10284,1,2,0:0:0:0:
64,192,10480,1,2,0:0:0:0:
320,192,10676,1,2,0:0:0:0:
192,192,10872,1,2,0:0:0:0:
448,192,11068,128,2,11460:0:0:0:0:
64,192,11460,128,2,11852:0:0:0:0:
320,192,11852,128,2,12244:0:0:0:0:
192,192,12244,128,2,12637:0:0:0:0:
448,192,12637,1,4,0:0:0:0:
64,192,12833,1,2,0:0:0:0:
320,192,13029,1,2,0:0:0:0:
192,192,13225,1,2,0:0:0:0:
64,192,13421,1,2,0:0:0:0:
448,192,13617,1,2,0:0:0:0:
320,192,13813,1,2,0:0:0:0:
64,192,14009,1,2,0:0:0:0:
192,192,14205,128,2,14597:0:0:0:0:
320,192,14597,128,2,14989:0:0:0:0:
448,192,14989,128,2,15382:0:0:0:0:
64,192,15382,128,2,15774:0:0:0:0:
320,192,15774,1,4,0:0:0:0:
192,192,15970,1,2,0:0:0:0:
320,192,16166,1,2,0:0:0:0:
448,192,16362,1,2,0:0:0:0:
192,192,16558,1,2,0:0:0:0:
64,192,16754,1,2,0:0:0:0:
320,192,16950,1,2,0:0:0:0:
192,192,17146,1,2,0:0:0:0:
448,192,17342,128,2,17735:0:0:0:0:
320,192,17735,128,2,18127:0:0:0:0:
192,192,18127,128,2,18519:0:0:0:0:
64,192,18519,128,2,18911:0:0:0:0:
320,192,18911,1,4,0:0:0:0:
448,192,19107,5,0,0:0:0:0:
320,192,19499,1,0,0:0:0:0:
64,192,19695,1,0,0:0:0:0:
448,192,19891,1,0,0:0:0:0:
448,192,20284,1,0,0:0:0:0:
64,192,20480,1,0,0:0:0:0:
320,192,20480,1,8,0:0:0:0:
64,192,20676,1,0,0:0:0:0:
192,192,21068,1,0,0:0:0:0:
64,192,21460,1,8,0:0:0:0:
192,192,21656,1,8,0:1:0:0:
320,192,21852,1,8,0:0:0:0:
64,192,22048,1,4,0:0:0:0:
448,192,22048,128,0,23617:0:0:0:0:
192,192,23617,1,4,0:0:0:0:
64,192,23617,1,0,0:0:0:0:
64,192,26362,1,0,0:0:0:0:
448,192,26362,1,8,0:0:0:0:
192,192,26754,1,8,0:0:0:0:
320,192,26754,128,0,27146:0:0:0:0:
448,192,27146,1,8,0:0:0:0:
192,192,27538,1,2,0:0:0:0:
64,192,27538,128,0,27931:0:0:0:0:
320,192,27931,1,8,0:0:0:0:
448,192,28323,128,0,29891:0:0:0:0:
192,192,28323,1,4,0:0:0:0:
320,192,28715,1,8,0:0:0:0:
64,192,29107,1,2,0:0:0:0:
192,192,29499,1,8,0:0:0:0:
320,192,29891,1,4,0:0:0:0:
64,192,29891,128,0,30284:0:0:0:0:
192,192,30284,1,8,0:0:0:0:
320,192,30676,128,0,31068:0:0:0:0:
448,192,30676,1,2,0:0:0:0:
64,192,31068,1,8,0:0:0:0:
192,192,31460,1,4,0:0:0:0:
448,192,31460,128,0,33029:0:0:0:0:
64,192,31852,1,8,0:0:0:0:
320,192,32244,1,2,0:0:0:0:
192,192,32637,1,8,0:0:0:0:
64,192,33029,1,4,0:0:0:0:
320,192,33029,128,0,33421:0:0:0:0:
192,192,33421,1,8,0:0:0:0:
64,192,33813,128,0,34205:0:0:0:0:
448,192,33813,1,2,0:0:0:0:
320,192,34205,1,8,0:0:0:0:
192,192,34597,128,0,36166:0:0:0:0:
448,192,34597,1,4,0:0:0:0:
320,192,34989,1,8,0:0:0:0:
64,192,35382,1,2,0:0:0:0:
448,192,35774,1,8,0:0:0:0:
320,192,36166,1,4,0:0:0:0:
448,192,36166,128,0,36558:0:0:0:0:
64,192,36558,1,8,0:0:0:0:
320,192,36950,1,2,0:0:0:0:
192,192,36950,128,0,37342:0:0:0:0:
448,192,37342,1,8,0:0:0:0:
64,192,37735,1,8,0:0:0:0:
320,192,37931,1,2,0:0:0:0:
192,192,38127,1,8,0:0:0:0:
448,192,38323,1,2,0:0:0:0:
320,192,38519,1,8,0:0:0:0:
64,192,38715,1,10,0:1:0:0:
448,192,38813,1,8,0:0:0:0:
320,192,38911,1,10,0:0:0:0:
192,192,39009,1,8,0:0:0:0:
64,192,39107,1,10,0:0:0:0:
192,192,39205,1,8,0:0:0:0:
320,192,39303,1,0,0:0:0:0:
448,192,39303,1,4,0:0:0:0:
192,192,39499,1,8,0:0:0:0:
64,192,39695,1,2,0:0:0:0:
448,192,39891,1,8,0:0:0:0:
192,192,40088,1,2,0:0:0:0:
320,192,40284,1,8,0:0:0:0:
64,192,40480,1,2,0:0:0:0:
448,192,40676,1,8,0:0:0:0:
192,192,40872,128,0,42440:0:0:0:0:
320,192,40872,1,4,0:0:0:0:
448,192,41068,1,8,0:0:0:0:
320,192,41264,1,2,0:0:0:0:
64,192,41460,1,8,0:0:0:0:
448,192,41656,1,2,0:0:0:0:
320,192,41852,1,8,0:0:0:0:
64,192,42048,1,2,0:0:0:0:
320,192,42244,1,8,0:0:0:0:
448,192,42440,1,4,0:0:0:0:
64,192,42637,1,8,0:0:0:0:
320,192,42833,1,2,0:0:0:0:
192,192,43029,1,8,0:0:0:0:
64,192,43225,1,2,0:0:0:0:
448,192,43421,1,8,0:0:0:0:
192,192,43617,1,2,0:0:0:0:
320,192,43813,1,8,0:0:0:0:
64,192,44009,128,0,45578:0:0:0:0:
192,192,44009,1,4,0:0:0:0:
320,192,44205,1,8,0:0:0:0:
448,192,44401,1,2,0:0:0:0:
192,192,44597,1,8,0:0:0:0:
448,192,44793,1,2,0:0:0:0:
320,192,44989,1,8,0:0:0:0:
192,192,45186,1,2,0:0:0:0:
448,192,45382,1,8,0:0:0:0:
192,192,45578,1,4,0:0:0:0:
320,192,45774,1,8,0:0:0:0:
64,192,45970,1,2,0:0:0:0:
448,192,46166,1,8,0:0:0:0:
192,192,46362,1,2,0:0:0:0:
320,192,46558,1,8,0:0:0:0:
64,192,46754,1,2,0:0:0:0:
192,192,46950,1,8,0:0:0:0:
448,192,47146,128,0,48715:0:0:0:0:
320,192,47146,1,8,0:1:0:0:
64,192,47342,1,8,0:0:0:0:
192,192,47538,1,2,0:0:0:0:
320,192,47735,1,8,0:0:0:0:
64,192,47931,1,2,0:0:0:0:
192,192,48127,1,8,0:0:0:0:
64,192,48323,1,2,0:0:0:0:
320,192,48519,1,8,0:0:0:0:
64,192,48715,1,4,0:0:0:0:
192,192,48911,1,8,0:0:0:0:
448,192,49107,1,2,0:0:0:0:
320,192,49303,1,8,0:0:0:0:
64,192,49499,1,2,0:0:0:0:
448,192,49695,1,8,0:0:0:0:
192,192,49891,1,2,0:0:0:0:
320,192,50088,1,8,0:0:0:0:
64,192,50284,128,0,51852:0:0:0:0:
448,192,50284,1,4,0:0:0:0:
320,192,50480,1,8,0:0:0:0:
192,192,50676,1,2,0:0:0:0:
448,192,50872,128,8,51852:0:0:0:0:
320,192,51852,1,4,0:0:0:0:
192,192,52244,1,2,0:0:0:0:
64,192,52637,1,8,0:0:0:0:
320,192,53029,1,2,0:0:0:0:
448,192,53421,128,0,54989:0:0:0:0:
64,192,53421,1,4,0:0:0:0:
192,192,53813,1,2,0:0:0:0:
320,192,54205,1,8,0:0:0:0:
64,192,54597,1,2,0:0:0:0:
320,192,54989,1,4,0:0:0:0:
192,192,55382,1,2,0:0:0:0:
448,192,55774,1,8,0:0:0:0:
64,192,56166,1,2,0:0:0:0:
320,192,56558,128,0,58127:0:0:0:0:
192,192,56558,1,4,0:0:0:0:
448,192,56950,1,2,0:0:0:0:
64,192,57342,1,8,0:0:0:0:
192,192,57735,1,2,0:0:0:0:
448,192,58127,1,4,0:0:0:0:
64,192,58519,1,2,0:0:0:0:
320,192,58911,1,8,0:0:0:0:
192,192,59303,1,2,0:0:0:0:
448,192,59695,128,0,61264:0:0:0:0:
320,192,59695,1,4,0:0:0:0:
64,192,60087,1,2,0:0:0:0:
192,192,60480,1,8,0:0:0:0:
320,192,60872,1,2,0:0:0:0:
64,192,61264,1,4,0:0:0:0:
192,192,61656,1,2,0:0:0:0:
448,192,62048,1,8,0:0:0:0:
320,192,62440,1,2,0:0:0:0:
64,192,62833,128,0,64401:0:0:0:0:
192,192,62833,1,12,0:1:0:0:
320,192,63029,1,8,0:0:0:0:
448,192,63225,5,2,0:0:0:0:
192,192,63617,1,8,0:0:0:0:
448,192,64009,1,2,0:0:0:0:
320,192,64205,1,8,0:0:0:0:
448,192,64401,5,4,0:0:0:0:
192,192,64597,1,0,0:0:0:0:
64,192,64989,1,0,0:0:0:0:
448,192,65186,1,0,0:0:0:0:
192,192,65382,1,0,0:0:0:0:
320,192,65774,1,0,0:0:0:0:
64,192,65970,1,0,0:0:0:0:
64,192,66166,1,0,0:0:0:0:
192,192,66362,1,0,0:0:0:0:
320,192,66558,1,0,0:0:0:0:
64,192,66754,1,0,0:0:0:0:
64,192,66950,1,0,0:0:0:0:
448,192,67146,1,0,0:0:0:0:
192,192,67342,1,0,0:0:0:0:
64,192,67538,1,0,0:0:0:0:
320,192,67735,1,0,0:0:0:0:
448,192,68127,1,0,0:0:0:0:
64,192,68323,1,0,0:0:0:0:
320,192,68519,1,0,0:0:0:0:
320,192,68911,1,0,0:0:0:0:
192,192,69107,1,0,0:0:0:0:
192,192,69303,1,0,0:0:0:0:
448,192,69695,1,0,0:0:0:0:
192,192,70087,1,0,0:0:0:0:
320,192,70284,1,0,0:0:0:0:
448,192,70480,1,0,0:0:0:0:
64,192,70676,1,0,0:0:0:0:
192,192,70676,1,8,0:0:0:0:
320,192,70872,1,2,0:0:0:0:
448,192,71068,1,2,0:0:0:0:
64,192,71264,1,2,0:0:0:0:
320,192,71460,1,2,0:0:0:0:
192,192,71656,1,2,0:0:0:0:
448,192,71852,1,2,0:0:0:0:
320,192,72048,1,2,0:0:0:0:
192,192,72244,128,2,72637:0:0:0:0:
64,192,72637,128,2,73029:0:0:0:0:
448,192,73029,128,2,73421:0:0:0:0:
320,192,73421,128,2,73813:0:0:0:0:
64,192,73813,1,4,0:0:0:0:
192,192,74009,1,2,0:0:0:0:
448,192,74205,1,2,0:0:0:0:
320,192,74401,1,2,0:0:0:0:
64,192,74597,1,2,0:0:0:0:
448,192,74793,1,2,0:0:0:0:
192,192,74989,1,2,0:0:0:0:
320,192,75186,1,2,0:0:0:0:
64,192,75382,128,2,75774:0:0:0:0:
448,192,75774,128,2,76166:0:0:0:0:
192,192,76166,128,2,76558:0:0:0:0:
320,192,76558,128,2,76950:0:0:0:0:
64,192,76950,1,4,0:0:0:0:
448,192,77146,1,2,0:0:0:0:
192,192,77342,1,2,0:0:0:0:
320,192,77538,1,2,0:0:0:0:
448,192,77735,1,2,0:0:0:0:
64,192,77931,1,2,0:0:0:0:
192,192,78127,1,2,0:0:0:0:
448,192,78323,1,2,0:0:0:0:
320,192,78519,128,2,78911:0:0:0:0:
192,192,78911,128,2,79303:0:0:0:0:
64,192,79303,128,2,79695:0:0:0:0:
448,192,79695,128,2,80087:0:0:0:0:
192,192,80087,1,4,0:0:0:0:
320,192,80284,1,2,0:0:0:0:
192,192,80480,1,2,0:0:0:0:
64,192,80676,1,2,0:0:0:0:
320,192,80872,1,2,0:0:0:0:
448,192,81068,1,2,0:0:0:0:
192,192,81264,1,2,0:0:0:0:
320,192,81460,1,2,0:0:0:0:
64,192,81656,128,2,82048:0:0:0:0:
192,192,82048,128,2,82440:0:0:0:0:
320,192,82440,128,2,82833:0:0:0:0:
448,192,82833,128,2,83225:0:0:0:0:
192,192,83225,1,4,0:0:0:0:
64,192,83421,5,0,0:0:0:0:
192,192,83813,1,0,0:0:0:0:
448,192,84009,1,0,0:0:0:0:
64,192,84205,1,0,0:0:0:0:
64,192,84597,1,0,0:0:0:0:
448,192,84793,1,0,0:0:0:0:
192,192,84793,1,8,0:0:0:0:
448,192,84989,1,0,0:0:0:0:
320,192,85382,1,0,0:0:0:0:
448,192,85774,1,8,0:0:0:0:
320,192,85970,1,8,0:1:0:0:
192,192,86166,1,8,0:0:0:0:
448,192,86362,1,4,0:0:0:0:
64,192,86362,128,0,87931:0:0:0:0:
320,192,87931,1,4,0:0:0:0:
448,192,87931,1,0,0:0:0:0:
