osu file format v14

[General]
AudioFilename: audiocut.mp3
AudioLeadIn: 0
PreviewTime: 118159
Countdown: 0
SampleSet: None
StackLeniency: 0.7
Mode: 3
LetterboxInBreaks: 0
SpecialStyle: 0
WidescreenStoryboard: 1

[Editor]
Bookmarks: 38188,68582,81382,108582,118159,151748
DistanceSpacing: 0.8
BeatDivisor: 8
GridSize: 32
TimelineZoom: 1.7

[Metadata]
Title:Holding Out For a Hero
TitleUnicode:Holding Out For a Hero
Artist:Fairy Godmother (CV:Jennifer Saunders)
ArtistUnicode:Fairy Godmother (CV:Jennifer Saunders)
Creator:-mint-
Version:Happily Ever After (cut)
Source:Shrek 2
Tags:i need a hero
BeatmapID:2192932
BeatmapSetID:1049206

[Difficulty]
HPDrainRate:8
CircleSize:4
OverallDifficulty:8
ApproachRate:5
SliderMultiplier:1.4
SliderTickRate:1

[Events]
//Background and Video events
0,0,"Mongo.png",0,0
//Break Periods
//Storyboard Layer 0 (Background)
//Storyboard Layer 1 (Fail)
//Storyboard Layer 2 (Pass)
//Storyboard Layer 3 (Foreground)
//Storyboard Layer 4 (Overlay)
//Storyboard Sound Samples

[TimingPoints]
38188,400,4,2,0,10,1,0
42988,-100,4,2,0,10,0,1
59788,397.350993377483,4,2,0,10,1,1
59788,-101.010101010101,4,2,0,10,0,1
60582,400,4,2,0,10,1,1
68582,-100,4,2,0,10,0,0
112582,397.350993377483,4,2,0,10,1,0
112582,-101.010101010101,4,2,0,10,0,0
113376,400,4,2,0,10,1,0
115776,397.350993377483,4,2,0,10,1,0
115776,-101.010101010101,4,2,0,10,0,0
116570,397.350993377483,4,2,0,10,1,0
116570,-101.010101010101,4,2,0,10,0,0
118159,400,4,2,0,10,1,0
146959,397.350993377483,4,2,0,10,1,0
146959,-101.010101010101,4,2,0,10,0,0
148548,400,4,2,0,10,1,0

[HitObjects]
64,192,38188,5,0,0:0:0:0:
448,192,38188,1,0,0:0:0:0:
192,192,38238,1,0,0:0:0:0:
320,192,38288,1,0,0:0:0:0:
448,192,38338,1,0,0:0:0:0:
64,192,38388,1,0,0:0:0:0:
320,192,38438,1,0,0:0:0:0:
192,192,38488,1,0,0:0:0:0:
64,192,38538,1,0,0:0:0:0:
320,192,38588,1,0,0:0:0:0:
448,192,38588,1,0,0:0:0:0:
192,192,38638,1,0,0:0:0:0:
320,192,38688,1,0,0:0:0:0:
64,192,38738,1,0,0:0:0:0:
192,192,38788,1,0,0:0:0:0:
448,192,38838,1,0,0:0:0:0:
64,192,38888,1,0,0:0:0:0:
320,192,38938,1,0,0:0:0:0:
192,192,38988,1,0,0:0:0:0:
448,192,39038,1,0,0:0:0:0:
320,192,39088,1,0,0:0:0:0:
64,192,39138,1,0,0:0:0:0:
192,192,39188,1,0,0:0:0:0:
320,192,39238,1,0,0:0:0:0:
64,192,39288,1,0,0:0:0:0:
192,192,39338,1,0,0:0:0:0:
320,192,39388,1,0,0:0:0:0:
448,192,39388,1,0,0:0:0:0:
64,192,39438,1,0,0:0:0:0:
448,192,39488,1,0,0:0:0:0:
192,192,39538,1,0,0:0:0:0:
320,192,39588,1,0,0:0:0:0:
64,192,39638,1,0,0:0:0:0:
192,192,39688,1,0,0:0:0:0:
320,192,39738,1,0,0:0:0:0:
448,192,39788,1,0,0:0:0:0:
64,192,39788,1,0,0:0:0:0:
192,192,39838,1,0,0:0:0:0:
320,192,39888,1,0,0:0:0:0:
192,192,39938,1,0,0:0:0:0:
448,192,39988,1,0,0:0:0:0:
64,192,40038,1,0,0:0:0:0:
320,192,40088,1,0,0:0:0:0:
448,192,40138,1,0,0:0:0:0:
192,192,40188,1,0,0:0:0:0:
64,192,40188,1,0,0:0:0:0:
320,192,40238,1,0,0:0:0:0:
64,192,40288,1,0,0:0:0:0:
192,192,40338,1,0,0:0:0:0:
448,192,40388,1,0,0:0:0:0:
64,192,40438,1,0,0:0:0:0:
320,192,40488,1,0,0:0:0:0:
192,192,40538,1,0,0:0:0:0:
448,192,40588,1,0,0:0:0:0:
320,192,40638,1,0,0:0:0:0:
64,192,40688,1,0,0:0:0:0:
448,192,40738,1,0,0:0:0:0:
192,192,40788,1,0,0:0:0:0:
64,192,40838,1,0,0:0:0:0:
320,192,40888,1,0,0:0:0:0:
448,192,40938,1,0,0:0:0:0:
192,192,40988,1,0,0:0:0:0:
64,192,40988,1,0,0:0:0:0:
320,192,41038,1,0,0:0:0:0:
192,192,41088,1,0,0:0:0:0:
448,192,41138,1,0,0:0:0:0:
320,192,41188,1,0,0:0:0:0:
64,192,41238,1,0,0:0:0:0:
192,192,41288,1,0,0:0:0:0:
320,192,41338,1,0,0:0:0:0:
448,192,41388,1,0,0:0:0:0:
64,192,41388,1,0,0:0:0:0:
192,192,41438,1,0,0:0:0:0:
320,192,41488,1,0,0:0:0:0:
192,192,41538,1,0,0:0:0:0:
448,192,41588,1,0,0:0:0:0:
320,192,41638,1,0,0:0:0:0:
192,192,41688,1,0,0:0:0:0:
320,192,41738,1,0,0:0:0:0:
448,192,41788,1,0,0:0:0:0:
64,192,41788,1,0,0:0:0:0:
192,192,41838,1,0,0:0:0:0:
320,192,41888,1,0,0:0:0:0:
64,192,41938,1,0,0:0:0:0:
192,192,41988,1,0,0:0:0:0:
448,192,42038,1,0,0:0:0:0:
320,192,42088,1,0,0:0:0:0:
192,192,42138,1,0,0:0:0:0:
64,192,42188,1,0,0:0:0:0:
320,192,42188,1,0,0:0:0:0:
448,192,42238,1,0,0:0:0:0:
192,192,42288,1,0,0:0:0:0:
320,192,42338,1,0,0:0:0:0:
64,192,42388,1,0,0:0:0:0:
192,192,42438,1,0,0:0:0:0:
64,192,42488,1,0,0:0:0:0:
320,192,42538,1,0,0:0:0:0:
192,192,42588,1,0,0:0:0:0:
448,192,42588,1,0,0:0:0:0:
320,192,42638,1,0,0:0:0:0:
64,192,42688,1,0,0:0:0:0:
192,192,42738,1,0,0:0:0:0:
448,192,42788,1,0,0:0:0:0:
64,192,42788,1,0,0:0:0:0:
320,192,42838,1,0,0:0:0:0:
448,192,42888,1,0,0:0:0:0:
192,192,42938,1,0,0:0:0:0:
320,192,42988,1,0,0:0:0:0:
448,192,42988,1,0,0:0:0:0:
64,192,43038,1,0,0:0:0:0:
192,192,43088,1,0,0:0:0:0:
320,192,43138,1,0,0:0:0:0:
64,192,43188,1,0,0:0:0:0:
448,192,43188,1,0,0:0:0:0:
320,192,43238,1,0,0:0:0:0:
192,192,43288,1,0,0:0:0:0:
448,192,43338,1,0,0:0:0:0:
192,192,43388,1,0,0:0:0:0:
64,192,43388,1,0,0:0:0:0:
320,192,43438,1,0,0:0:0:0:
448,192,43488,1,0,0:0:0:0:
192,192,43538,1,0,0:0:0:0:
320,192,43588,1,0,0:0:0:0:
448,192,43588,1,0,0:0:0:0:
64,192,43638,1,0,0:0:0:0:
192,192,43688,1,0,0:0:0:0:
320,192,43738,1,0,0:0:0:0:
64,192,43788,1,0,0:0:0:0:
448,192,43788,1,0,0:0:0:0:
192,192,43888,1,0,0:0:0:0:
64,192,43988,1,0,0:0:0:0:
320,192,43988,1,0,0:0:0:0:
192,192,44088,1,0,0:0:0:0:
320,192,44188,1,0,0:0:0:0:
448,192,44188,1,0,0:0:0:0:
64,192,44288,1,0,0:0:0:0:
448,192,44388,1,0,0:0:0:0:
192,192,44388,1,0,0:0:0:0:
320,192,44488,1,0,0:0:0:0:
64,192,44588,1,0,0:0:0:0:
192,192,44588,1,0,0:0:0:0:
448,192,44688,1,0,0:0:0:0:
64,192,44788,1,0,0:0:0:0:
320,192,44788,1,0,0:0:0:0:
448,192,44838,1,0,0:0:0:0:
192,192,44888,1,0,0:0:0:0:
320,192,44938,1,0,0:0:0:0:
192,192,44988,1,0,0:0:0:0:
64,192,44988,1,0,0:0:0:0:
448,192,45038,1,0,0:0:0:0:
192,192,45088,1,0,0:0:0:0:
320,192,45138,1,0,0:0:0:0:
64,192,45188,1,0,0:0:0:0:
448,192,45188,1,0,0:0:0:0:
192,192,45238,1,0,0:0:0:0:
320,192,45288,1,0,0:0:0:0:
64,192,45338,1,0,0:0:0:0:
320,192,45388,1,0,0:0:0:0:
448,192,45388,1,0,0:0:0:0:
192,192,45438,1,0,0:0:0:0:
448,192,45488,1,0,0:0:0:0:
320,192,45538,1,0,0:0:0:0:
192,192,45588,1,0,0:0:0:0:
64,192,45588,1,0,0:0:0:0:
448,192,45638,1,0,0:0:0:0:
64,192,45688,1,0,0:0:0:0:
192,192,45738,1,0,0:0:0:0:
320,192,45788,1,0,0:0:0:0:
448,192,45788,1,0,0:0:0:0:
64,192,45838,1,0,0:0:0:0:
320,192,45888,1,0,0:0:0:0:
192,192,45938,1,0,0:0:0:0:
64,192,45988,1,0,0:0:0:0:
448,192,45988,1,0,0:0:0:0:
320,192,46038,1,0,0:0:0:0:
448,192,46088,1,0,0:0:0:0:
320,192,46138,1,0,0:0:0:0:
64,192,46188,1,0,0:0:0:0:
448,192,46188,1,0,0:0:0:0:
192,192,46238,1,0,0:0:0:0:
64,192,46288,1,0,0:0:0:0:
192,192,46338,1,0,0:0:0:0:
320,192,46388,1,0,0:0:0:0:
448,192,46388,1,0,0:0:0:0:
64,192,46438,1,0,0:0:0:0:
320,192,46488,1,0,0:0:0:0:
192,192,46538,1,0,0:0:0:0:
64,192,46588,1,0,0:0:0:0:
448,192,46588,1,0,0:0:0:0:
192,192,46638,1,0,0:0:0:0:
320,192,46688,1,0,0:0:0:0:
64,192,46738,1,0,0:0:0:0:
192,192,46788,1,0,0:0:0:0:
448,192,46788,1,0,0:0:0:0:
64,192,46838,1,0,0:0:0:0:
320,192,46888,1,0,0:0:0:0:
192,192,46938,1,0,0:0:0:0:
64,192,46988,1,0,0:0:0:0:
448,192,46988,1,0,0:0:0:0:
320,192,47038,1,0,0:0:0:0:
192,192,47088,1,0,0:0:0:0:
320,192,47138,1,0,0:0:0:0:
448,192,47188,1,0,0:0:0:0:
64,192,47188,1,0,0:0:0:0:
192,192,47238,1,0,0:0:0:0:
320,192,47288,1,0,0:0:0:0:
448,192,47338,1,0,0:0:0:0:
192,192,47388,1,0,0:0:0:0:
64,192,47388,1,0,0:0:0:0:
320,192,47438,1,0,0:0:0:0:
192,192,47488,1,0,0:0:0:0:
448,192,47538,1,0,0:0:0:0:
320,192,47588,1,0,0:0:0:0:
64,192,47588,1,0,0:0:0:0:
192,192,47638,1,0,0:0:0:0:
64,192,47688,1,0,0:0:0:0:
192,192,47738,1,0,0:0:0:0:
448,192,47788,1,0,0:0:0:0:
64,192,47788,1,0,0:0:0:0:
320,192,47838,1,0,0:0:0:0:
448,192,47888,1,0,0:0:0:0:
320,192,47938,1,0,0:0:0:0:
192,192,47988,1,0,0:0:0:0:
64,192,47988,1,0,0:0:0:0:
448,192,48038,1,0,0:0:0:0:
320,192,48088,1,0,0:0:0:0:
192,192,48138,1,0,0:0:0:0:
64,192,48188,1,0,0:0:0:0:
448,192,48188,1,0,0:0:0:0:
320,192,48288,1,0,0:0:0:0:
448,192,48388,1,0,0:0:0:0:
192,192,48388,1,0,0:0:0:0:
320,192,48488,1,0,0:0:0:0:
192,192,48588,1,0,0:0:0:0:
64,192,48588,1,0,0:0:0:0:
320,192,48688,1,0,0:0:0:0:
448,192,48788,1,0,0:0:0:0:
64,192,48788,1,0,0:0:0:0:
192,192,48888,1,0,0:0:0:0:
320,192,48988,1,0,0:0:0:0:
448,192,48988,1,0,0:0:0:0:
192,192,49038,1,0,0:0:0:0:
320,192,49088,1,0,0:0:0:0:
64,192,49138,1,0,0:0:0:0:
192,192,49188,1,0,0:0:0:0:
448,192,49188,1,0,0:0:0:0:
320,192,49238,1,0,0:0:0:0:
192,192,49288,1,0,0:0:0:0:
448,192,49338,1,0,0:0:0:0:
192,192,49388,1,0,0:0:0:0:
64,192,49388,1,0,0:0:0:0:
320,192,49438,1,0,0:0:0:0:
192,192,49488,1,0,0:0:0:0:
448,192,49538,1,0,0:0:0:0:
320,192,49588,1,0,0:0:0:0:
64,192,49588,1,0,0:0:0:0:
192,192,49638,1,0,0:0:0:0:
320,192,49688,1,0,0:0:0:0:
64,192,49738,1,0,0:0:0:0:
192,192,49788,1,0,0:0:0:0:
448,192,49788,1,0,0:0:0:0:
320,192,49838,1,0,0:0:0:0:
192,192,49888,1,0,0:0:0:0:
448,192,49938,1,0,0:0:0:0:
320,192,49988,1,0,0:0:0:0:
64,192,49988,1,0,0:0:0:0:
192,192,50038,1,0,0:0:0:0:
320,192,50088,1,0,0:0:0:0:
448,192,50138,1,0,0:0:0:0:
192,192,50188,1,0,0:0:0:0:
64,192,50188,1,0,0:0:0:0:
320,192,50238,1,0,0:0:0:0:
192,192,50288,1,0,0:0:0:0:
64,192,50338,1,0,0:0:0:0:
320,192,50388,1,0,0:0:0:0:
448,192,50388,1,0,0:0:0:0:
192,192,50438,1,0,0:0:0:0:
64,192,50488,1,0,0:0:0:0:
192,192,50538,1,0,0:0:0:0:
320,192,50588,1,0,0:0:0:0:
448,192,50588,1,0,0:0:0:0:
64,192,50638,1,0,0:0:0:0:
192,192,50688,1,0,0:0:0:0:
320,192,50738,1,0,0:0:0:0:
448,192,50788,1,0,0:0:0:0:
64,192,50788,1,0,0:0:0:0:
320,192,50838,1,0,0:0:0:0:
192,192,50888,1,0,0:0:0:0:
64,192,50938,1,0,0:0:0:0:
448,192,50988,1,0,0:0:0:0:
320,192,50988,1,0,0:0:0:0:
192,192,51038,1,0,0:0:0:0:
320,192,51088,1,0,0:0:0:0:
64,192,51138,1,0,0:0:0:0:
192,192,51188,1,0,0:0:0:0:
448,192,51188,1,0,0:0:0:0:
64,192,51238,1,0,0:0:0:0:
320,192,51288,1,0,0:0:0:0:
192,192,51338,1,0,0:0:0:0:
64,192,51388,1,0,0:0:0:0:
448,192,51388,1,0,0:0:0:0:
320,192,51438,1,0,0:0:0:0:
192,192,51488,1,0,0:0:0:0:
448,192,51538,1,0,0:0:0:0:
320,192,51588,1,0,0:0:0:0:
64,192,51588,1,0,0:0:0:0:
448,192,51638,1,0,0:0:0:0:
192,192,51688,1,0,0:0:0:0:
64,192,51738,1,0,0:0:0:0:
320,192,51788,1,0,0:0:0:0:
448,192,51788,1,0,0:0:0:0:
192,192,51838,1,0,0:0:0:0:
64,192,51888,1,0,0:0:0:0:
320,192,51938,1,0,0:0:0:0:
192,192,51988,1,0,0:0:0:0:
64,192,51988,1,0,0:0:0:0:
448,192,52038,1,0,0:0:0:0:
320,192,52088,1,0,0:0:0:0:
448,192,52138,1,0,0:0:0:0:
192,192,52188,1,0,0:0:0:0:
64,192,52188,1,0,0:0:0:0:
320,192,52238,1,0,0:0:0:0:
448,192,52288,1,0,0:0:0:0:
192,192,52338,1,0,0:0:0:0:
320,192,52388,1,0,0:0:0:0:
64,192,52388,1,0,0:0:0:0:
448,192,52438,1,0,0:0:0:0:
192,192,52488,1,0,0:0:0:0:
320,192,52538,1,0,0:0:0:0:
192,192,52588,1,0,0:0:0:0:
64,192,52588,1,0,0:0:0:0:
448,192,52638,1,0,0:0:0:0:
320,192,52688,1,0,0:0:0:0:
192,192,52738,1,0,0:0:0:0:
320,192,52788,1,0,0:0:0:0:
448,192,52788,1,0,0:0:0:0:
64,192,52838,1,0,0:0:0:0:
192,192,52888,1,0,0:0:0:0:
320,192,52938,1,0,0:0:0:0:
192,192,52988,1,0,0:0:0:0:
64,192,52988,1,0,0:0:0:0:
448,192,53038,1,0,0:0:0:0:
64,192,53088,1,0,0:0:0:0:
192,192,53138,1,0,0:0:0:0:
320,192,53188,1,0,0:0:0:0:
448,192,53188,1,0,0:0:0:0:
64,192,53238,1,0,0:0:0:0:
320,192,53288,1,0,0:0:0:0:
192,192,53338,1,0,0:0:0:0:
64,192,53388,1,0,0:0:0:0:
448,192,53388,1,0,0:0:0:0:
320,192,53438,1,0,0:0:0:0:
192,192,53488,1,0,0:0:0:0:
448,192,53538,1,0,0:0:0:0:
192,192,53588,1,0,0:0:0:0:
64,192,53588,1,0,0:0:0:0:
320,192,53638,1,0,0:0:0:0:
448,192,53688,1,0,0:0:0:0:
64,192,53738,1,0,0:0:0:0:
320,192,53788,1,0,0:0:0:0:
448,192,53788,1,0,0:0:0:0:
192,192,53838,1,0,0:0:0:0:
64,192,53888,1,0,0:0:0:0:
320,192,53938,1,0,0:0:0:0:
192,192,53988,1,0,0:0:0:0:
448,192,53988,1,0,0:0:0:0:
64,192,54038,1,0,0:0:0:0:
192,192,54088,1,0,0:0:0:0:
320,192,54138,1,0,0:0:0:0:
64,192,54188,1,0,0:0:0:0:
448,192,54188,1,0,0:0:0:0:
192,192,54288,1,0,0:0:0:0:
320,192,54388,1,0,0:0:0:0:
448,192,54388,1,0,0:0:0:0:
64,192,54488,1,0,0:0:0:0:
448,192,54488,1,0,0:0:0:0:
448,192,54588,1,0,0:0:0:0:
192,192,54588,1,0,0:0:0:0:
192,192,54688,1,0,0:0:0:0:
64,192,54788,1,0,0:0:0:0:
448,192,54788,1,0,0:0:0:0:
320,192,54888,1,0,0:0:0:0:
64,192,54888,1,0,0:0:0:0:
64,192,54988,1,0,0:0:0:0:
192,192,54988,1,0,0:0:0:0:
448,192,55088,1,0,0:0:0:0:
320,192,55188,1,0,0:0:0:0:
192,192,55188,1,0,0:0:0:0:
320,192,55288,1,0,0:0:0:0:
64,192,55288,1,0,0:0:0:0:
320,192,55388,1,0,0:0:0:0:
448,192,55388,1,0,0:0:0:0:
192,192,55488,1,0,0:0:0:0:
64,192,55488,1,0,0:0:0:0:
64,192,55588,1,0,0:0:0:0:
192,192,55588,1,0,0:0:0:0:
192,192,55688,1,0,0:0:0:0:
64,192,55688,1,0,0:0:0:0:
320,192,55788,1,0,0:0:0:0:
448,192,55788,1,0,0:0:0:0:
64,192,55838,1,0,0:0:0:0:
192,192,55888,1,0,0:0:0:0:
320,192,55938,1,0,0:0:0:0:
448,192,55988,1,0,0:0:0:0:
192,192,55988,1,0,0:0:0:0:
64,192,56038,1,0,0:0:0:0:
320,192,56088,1,0,0:0:0:0:
192,192,56138,1,0,0:0:0:0:
64,192,56188,1,0,0:0:0:0:
448,192,56188,1,0,0:0:0:0:
320,192,56238,1,0,0:0:0:0:
192,192,56288,1,0,0:0:0:0:
64,192,56338,1,0,0:0:0:0:
320,192,56388,1,0,0:0:0:0:
448,192,56388,1,0,0:0:0:0:
192,192,56438,1,0,0:0:0:0:
64,192,56488,1,0,0:0:0:0:
192,192,56538,1,0,0:0:0:0:
320,192,56588,1,0,0:0:0:0:
448,192,56588,1,0,0:0:0:0:
64,192,56688,1,0,0:0:0:0:
192,192,56788,1,0,0:0:0:0:
448,192,56788,1,0,0:0:0:0:
64,192,56888,1,0,0:0:0:0:
320,192,56988,1,0,0:0:0:0:
448,192,56988,1,0,0:0:0:0:
192,192,57088,1,0,0:0:0:0:
320,192,57188,1,0,0:0:0:0:
64,192,57188,1,0,0:0:0:0:
192,192,57288,1,0,0:0:0:0:
64,192,57388,1,0,0:0:0:0:
448,192,57388,1,0,0:0:0:0:
320,192,57438,1,0,0:0:0:0:
192,192,57488,1,0,0:0:0:0:
64,192,57538,1,0,0:0:0:0:
192,192,57588,1,0,0:0:0:0:
448,192,57588,1,0,0:0:0:0:
320,192,57638,1,0,0:0:0:0:
448,192,57688,1,0,0:0:0:0:
192,192,57738,1,0,0:0:0:0:
64,192,57788,1,0,0:0:0:0:
320,192,57788,1,0,0:0:0:0:
448,192,57838,1,0,0:0:0:0:
320,192,57888,1,0,0:0:0:0:
192,192,57938,1,0,0:0:0:0:
64,192,57988,1,0,0:0:0:0:
448,192,57988,1,0,0:0:0:0:
192,192,58038,1,0,0:0:0:0:
320,192,58088,1,0,0:0:0:0:
64,192,58138,1,0,0:0:0:0:
192,192,58188,1,0,0:0:0:0:
448,192,58188,1,0,0:0:0:0:
64,192,58238,1,0,0:0:0:0:
320,192,58288,1,0,0:0:0:0:
448,192,58338,1,0,0:0:0:0:
320,192,58388,1,0,0:0:0:0:
192,192,58388,1,0,0:0:0:0:
64,192,58438,1,0,0:0:0:0:
192,192,58488,1,0,0:0:0:0:
320,192,58538,1,0,0:0:0:0:
448,192,58588,1,0,0:0:0:0:
64,192,58588,1,0,0:0:0:0:
192,192,58638,1,0,0:0:0:0:
320,192,58688,1,0,0:0:0:0:
64,192,58738,1,0,0:0:0:0:
320,192,58788,1,0,0:0:0:0:
448,192,58788,1,0,0:0:0:0:
192,192,58838,1,0,0:0:0:0:
64,192,58888,1,0,0:0:0:0:
320,192,58938,1,0,0:0:0:0:
192,192,58988,1,0,0:0:0:0:
448,192,58988,1,0,0:0:0:0:
64,192,59038,1,0,0:0:0:0:
192,192,59088,1,0,0:0:0:0:
320,192,59138,1,0,0:0:0:0:
448,192,59188,1,0,0:0:0:0:
64,192,59188,1,0,0:0:0:0:
320,192,59238,1,0,0:0:0:0:
192,192,59288,1,0,0:0:0:0:
64,192,59338,1,0,0:0:0:0:
320,192,59388,1,0,0:0:0:0:
448,192,59388,1,0,0:0:0:0:
192,192,59438,1,0,0:0:0:0:
64,192,59488,1,0,0:0:0:0:
448,192,59538,1,0,0:0:0:0:
192,192,59588,1,0,0:0:0:0:
64,192,59588,1,0,0:0:0:0:
320,192,59638,1,0,0:0:0:0:
448,192,59688,1,0,0:0:0:0:
64,192,59738,1,0,0:0:0:0:
320,192,59788,1,0,0:0:0:0:
448,192,59788,1,0,0:0:0:0:
192,192,59837,1,0,0:0:0:0:
64,192,59887,1,0,0:0:0:0:
448,192,59937,1,0,0:0:0:0:
192,192,59986,1,0,0:0:0:0:
64,192,59986,1,0,0:0:0:0:
320,192,60036,1,0,0:0:0:0:
448,192,60086,1,0,0:0:0:0:
192,192,60135,1,0,0:0:0:0:
320,192,60185,1,0,0:0:0:0:
64,192,60185,1,0,0:0:0:0:
448,192,60235,1,0,0:0:0:0:
320,192,60284,1,0,0:0:0:0:
192,192,60334,1,0,0:0:0:0:
64,192,60384,1,0,0:0:0:0:
448,192,60384,1,0,0:0:0:0:
320,192,60433,1,0,0:0:0:0:
192,192,60483,1,0,0:0:0:0:
64,192,60533,1,0,0:0:0:0:
192,192,60582,1,0,0:0:0:0:
448,192,60582,1,0,0:0:0:0:
320,192,60632,1,0,0:0:0:0:
448,192,60682,1,0,0:0:0:0:
192,192,60732,1,0,0:0:0:0:
64,192,60782,1,0,0:0:0:0:
320,192,60782,1,0,0:0:0:0:
448,192,60832,1,0,0:0:0:0:
320,192,60882,1,0,0:0:0:0:
192,192,60932,1,0,0:0:0:0:
64,192,60982,1,0,0:0:0:0:
448,192,60982,1,0,0:0:0:0:
320,192,61032,1,0,0:0:0:0:
192,192,61082,1,0,0:0:0:0:
448,192,61132,1,0,0:0:0:0:
320,192,61182,1,0,0:0:0:0:
64,192,61182,1,0,0:0:0:0:
192,192,61232,1,0,0:0:0:0:
64,192,61282,1,0,0:0:0:0:
320,192,61332,1,0,0:0:0:0:
192,192,61382,1,0,0:0:0:0:
448,192,61382,1,0,0:0:0:0:
64,192,61432,1,0,0:0:0:0:
320,192,61482,1,0,0:0:0:0:
192,192,61532,1,0,0:0:0:0:
448,192,61582,1,0,0:0:0:0:
64,192,61582,1,0,0:0:0:0:
192,192,61632,1,0,0:0:0:0:
320,192,61682,1,0,0:0:0:0:
448,192,61732,1,0,0:0:0:0:
192,192,61782,1,0,0:0:0:0:
64,192,61782,1,0,0:0:0:0:
320,192,61832,1,0,0:0:0:0:
192,192,61882,1,0,0:0:0:0:
448,192,61932,1,0,0:0:0:0:
320,192,61982,1,0,0:0:0:0:
64,192,61982,1,0,0:0:0:0:
192,192,62032,1,0,0:0:0:0:
320,192,62082,1,0,0:0:0:0:
64,192,62132,1,0,0:0:0:0:
320,192,62182,1,0,0:0:0:0:
448,192,62182,1,0,0:0:0:0:
192,192,62232,1,0,0:0:0:0:
320,192,62282,1,0,0:0:0:0:
64,192,62332,1,0,0:0:0:0:
192,192,62382,1,0,0:0:0:0:
448,192,62382,1,0,0:0:0:0:
320,192,62432,1,0,0:0:0:0:
192,192,62482,1,0,0:0:0:0:
448,192,62532,1,0,0:0:0:0:
320,192,62582,1,0,0:0:0:0:
64,192,62582,1,0,0:0:0:0:
192,192,62632,1,0,0:0:0:0:
320,192,62682,1,0,0:0:0:0:
64,192,62732,1,0,0:0:0:0:
192,192,62782,1,0,0:0:0:0:
448,192,62782,1,0,0:0:0:0:
320,192,62832,1,0,0:0:0:0:
192,192,62882,1,0,0:0:0:0:
64,192,62932,1,0,0:0:0:0:
320,192,62982,1,0,0:0:0:0:
448,192,62982,1,0,0:0:0:0:
192,192,63032,1,0,0:0:0:0:
320,192,63082,1,0,0:0:0:0:
448,192,63132,1,0,0:0:0:0:
192,192,63182,1,0,0:0:0:0:
64,192,63182,1,0,0:0:0:0:
320,192,63232,1,0,0:0:0:0:
448,192,63282,1,0,0:0:0:0:
320,192,63332,1,0,0:0:0:0:
192,192,63382,1,0,0:0:0:0:
64,192,63382,1,0,0:0:0:0:
448,192,63432,1,0,0:0:0:0:
320,192,63482,1,0,0:0:0:0:
64,192,63532,1,0,0:0:0:0:
192,192,63582,1,0,0:0:0:0:
448,192,63582,1,0,0:0:0:0:
320,192,63632,1,0,0:0:0:0:
192,192,63682,1,0,0:0:0:0:
448,192,63732,1,0,0:0:0:0:
64,192,63782,1,0,0:0:0:0:
192,192,63782,1,0,0:0:0:0:
320,192,63832,1,0,0:0:0:0:
192,192,63882,1,0,0:0:0:0:
448,192,63932,1,0,0:0:0:0:
320,192,63982,1,0,0:0:0:0:
64,192,63982,1,0,0:0:0:0:
448,192,64032,1,0,0:0:0:0:
192,192,64082,1,0,0:0:0:0:
320,192,64132,1,0,0:0:0:0:
448,192,64182,1,0,0:0:0:0:
64,192,64182,1,0,0:0:0:0:
192,192,64232,1,0,0:0:0:0:
320,192,64282,1,0,0:0:0:0:
64,192,64332,1,0,0:0:0:0:
192,192,64382,1,0,0:0:0:0:
448,192,64382,1,0,0:0:0:0:
64,192,64432,1,0,0:0:0:0:
320,192,64482,1,0,0:0:0:0:
448,192,64532,1,0,0:0:0:0:
192,192,64582,1,0,0:0:0:0:
64,192,64582,1,0,0:0:0:0:
320,192,64632,1,0,0:0:0:0:
448,192,64682,1,0,0:0:0:0:
192,192,64732,1,0,0:0:0:0:
320,192,64782,1,0,0:0:0:0:
448,192,64782,1,0,0:0:0:0:
64,192,64832,1,0,0:0:0:0:
192,192,64882,1,0,0:0:0:0:
64,192,64932,1,0,0:0:0:0:
320,192,64982,1,0,0:0:0:0:
448,192,64982,1,0,0:0:0:0:
192,192,65032,1,0,0:0:0:0:
64,192,65082,1,0,0:0:0:0:
320,192,65132,1,0,0:0:0:0:
192,192,65182,1,0,0:0:0:0:
448,192,65182,1,0,0:0:0:0:
64,192,65232,1,0,0:0:0:0:
320,192,65282,1,0,0:0:0:0:
192,192,65332,1,0,0:0:0:0:
320,192,65382,1,0,0:0:0:0:
448,192,65382,1,0,0:0:0:0:
64,192,65432,1,0,0:0:0:0:
192,192,65482,1,0,0:0:0:0:
320,192,65532,1,0,0:0:0:0:
192,192,65582,1,0,0:0:0:0:
64,192,65582,1,0,0:0:0:0:
448,192,65632,1,0,0:0:0:0:
320,192,65682,1,0,0:0:0:0:
192,192,65732,1,0,0:0:0:0:
320,192,65782,1,0,0:0:0:0:
448,192,65782,1,0,0:0:0:0:
64,192,65832,1,0,0:0:0:0:
448,192,65882,1,0,0:0:0:0:
320,192,65932,1,0,0:0:0:0:
192,192,65982,1,0,0:0:0:0:
64,192,65982,1,0,0:0:0:0:
448,192,66032,1,0,0:0:0:0:
192,192,66082,1,0,0:0:0:0:
320,192,66132,1,0,0:0:0:0:
448,192,66182,1,0,0:0:0:0:
64,192,66182,1,0,0:0:0:0:
192,192,66232,1,0,0:0:0:0:
320,192,66282,1,0,0:0:0:0:
64,192,66332,1,0,0:0:0:0:
448,192,66382,1,0,0:0:0:0:
320,192,66382,1,0,0:0:0:0:
192,192,66432,1,0,0:0:0:0:
64,192,66482,1,0,0:0:0:0:
448,192,66532,1,0,0:0:0:0:
64,192,66582,1,0,0:0:0:0:
192,192,66582,1,0,0:0:0:0:
320,192,66632,1,0,0:0:0:0:
448,192,66682,1,0,0:0:0:0:
192,192,66732,1,0,0:0:0:0:
320,192,66782,1,0,0:0:0:0:
64,192,66782,1,0,0:0:0:0:
448,192,66832,1,0,0:0:0:0:
320,192,66882,1,0,0:0:0:0:
192,192,66932,1,0,0:0:0:0:
448,192,66982,1,0,0:0:0:0:
64,192,66982,1,0,0:0:0:0:
320,192,67032,1,0,0:0:0:0:
192,192,67082,1,0,0:0:0:0:
448,192,67132,1,0,0:0:0:0:
192,192,67182,1,0,0:0:0:0:
64,192,67182,1,0,0:0:0:0:
320,192,67282,1,0,0:0:0:0:
64,192,67382,1,0,0:0:0:0:
448,192,67382,1,0,0:0:0:0:
192,192,67482,1,0,0:0:0:0:
320,192,67582,1,0,0:0:0:0:
448,192,67582,1,0,0:0:0:0:
64,192,67682,1,0,0:0:0:0:
192,192,67782,1,0,0:0:0:0:
448,192,67782,1,0,0:0:0:0:
64,192,67832,1,0,0:0:0:0:
320,192,67882,1,0,0:0:0:0:
192,192,67932,1,0,0:0:0:0:
64,192,67982,1,0,0:0:0:0:
448,192,67982,1,0,0:0:0:0:
320,192,68032,1,0,0:0:0:0:
192,192,68082,1,0,0:0:0:0:
448,192,68132,1,0,0:0:0:0:
64,192,68182,1,0,0:0:0:0:
320,192,68182,1,0,0:0:0:0:
192,192,68232,1,0,0:0:0:0:
320,192,68282,1,0,0:0:0:0:
448,192,68332,1,0,0:0:0:0:
192,192,68382,1,0,0:0:0:0:
64,192,68382,1,0,0:0:0:0:
320,192,68432,1,0,0:0:0:0:
448,192,68482,1,0,0:0:0:0:
192,192,68532,1,0,0:0:0:0:
320,192,68582,1,0,0:0:0:0:
448,192,68582,1,0,0:0:0:0:
64,192,68632,1,0,0:0:0:0:
192,192,68682,1,0,0:0:0:0:
320,192,68732,1,0,0:0:0:0:
448,192,68782,1,0,0:0:0:0:
64,192,68782,1,0,0:0:0:0:
320,192,68832,1,0,0:0:0:0:
192,192,68882,1,0,0:0:0:0:
64,192,68932,1,0,0:0:0:0:
320,192,68982,128,0,69082:0:0:0:0:
448,192,68982,128,0,69082:0:0:0:0:
192,192,69182,1,0,0:0:0:0:
64,192,69382,128,0,69482:0:0:0:0:
320,192,69382,128,0,69482:0:0:0:0:
192,192,69582,1,0,0:0:0:0:
64,192,69782,128,0,69882:0:0:0:0:
448,192,69782,128,0,69882:0:0:0:0:
320,192,69982,1,0,0:0:0:0:
192,192,70182,1,0,0:0:0:0:
448,192,70182,128,0,71182:0:0:0:0:
320,192,70382,1,0,0:0:0:0:
192,192,70582,1,0,0:0:0:0:
64,192,70582,1,0,0:0:0:0:
192,192,70782,1,0,0:0:0:0:
64,192,70982,128,0,71182:0:0:0:0:
320,192,70982,128,0,71182:0:0:0:0:
192,192,71182,1,0,0:0:0:0:
320,192,71382,1,0,0:0:0:0:
448,192,71382,1,0,0:0:0:0:
192,192,71582,1,0,0:0:0:0:
320,192,71682,1,0,0:0:0:0:
448,192,71782,1,0,0:0:0:0:
64,192,71782,128,0,72782:0:0:0:0:
192,192,71982,1,0,0:0:0:0:
320,192,72182,1,0,0:0:0:0:
448,192,72182,1,0,0:0:0:0:
320,192,72382,1,0,0:0:0:0:
192,192,72582,128,0,72782:0:0:0:0:
448,192,72582,128,0,72782:0:0:0:0:
320,192,72782,1,0,0:0:0:0:
192,192,72982,1,0,0:0:0:0:
64,192,72982,1,0,0:0:0:0:
192,192,73182,1,0,0:0:0:0:
64,192,73282,1,0,0:0:0:0:
320,192,73382,1,0,0:0:0:0:
448,192,73382,128,0,74382:0:0:0:0:
64,192,73582,1,0,0:0:0:0:
192,192,73782,128,0,73882:0:0:0:0:
320,192,73782,128,0,73882:0:0:0:0:
192,192,73982,1,0,0:0:0:0:
320,192,74182,128,0,74382:0:0:0:0:
64,192,74182,128,0,74382:0:0:0:0:
192,192,74382,1,0,0:0:0:0:
320,192,74482,1,0,0:0:0:0:
448,192,74582,1,0,0:0:0:0:
64,192,74582,1,0,0:0:0:0:
192,192,74682,1,0,0:0:0:0:
448,192,74782,1,0,0:0:0:0:
64,192,74782,1,0,0:0:0:0:
320,192,74882,1,0,0:0:0:0:
192,192,74882,1,0,0:0:0:0:
320,192,74982,1,0,0:0:0:0:
448,192,74982,1,0,0:0:0:0:
64,192,74982,1,0,0:0:0:0:
192,192,75082,1,0,0:0:0:0:
64,192,75082,1,0,0:0:0:0:
64,192,75182,1,0,0:0:0:0:
320,192,75182,1,0,0:0:0:0:
192,192,75282,1,0,0:0:0:0:
448,192,75282,1,0,0:0:0:0:
320,192,75382,1,0,0:0:0:0:
448,192,75382,1,0,0:0:0:0:
64,192,75482,1,0,0:0:0:0:
192,192,75482,1,0,0:0:0:0:
192,192,75582,1,0,0:0:0:0:
320,192,75582,1,0,0:0:0:0:
320,192,75682,1,0,0:0:0:0:
448,192,75682,1,0,0:0:0:0:
448,192,75782,1,0,0:0:0:0:
64,192,75782,1,0,0:0:0:0:
192,192,75882,1,0,0:0:0:0:
320,192,75882,1,0,0:0:0:0:
192,192,75982,1,0,0:0:0:0:
64,192,75982,1,0,0:0:0:0:
64,192,76082,1,0,0:0:0:0:
320,192,76082,1,0,0:0:0:0:
320,192,76182,1,0,0:0:0:0:
448,192,76182,1,0,0:0:0:0:
192,192,76282,1,0,0:0:0:0:
64,192,76282,1,0,0:0:0:0:
192,192,76382,1,0,0:0:0:0:
320,192,76382,1,0,0:0:0:0:
320,192,76482,1,0,0:0:0:0:
448,192,76482,1,0,0:0:0:0:
192,192,76582,1,0,0:0:0:0:
64,192,76582,128,0,76682:0:0:0:0:
448,192,76582,128,0,76682:0:0:0:0:
192,192,76782,1,0,0:0:0:0:
320,192,76982,1,0,0:0:0:0:
448,192,76982,128,0,77082:0:0:0:0:
64,192,76982,128,0,77082:0:0:0:0:
192,192,77182,1,0,0:0:0:0:
192,192,77282,1,0,0:0:0:0:
192,192,77382,1,0,0:0:0:0:
320,192,77382,1,0,0:0:0:0:
320,192,77582,1,0,0:0:0:0:
448,192,77582,128,0,77682:0:0:0:0:
64,192,77582,128,0,77682:0:0:0:0:
320,192,77782,1,0,0:0:0:0:
448,192,77782,1,0,0:0:0:0:
192,192,77982,1,0,0:0:0:0:
64,192,77982,128,0,78082:0:0:0:0:
448,192,77982,128,0,78082:0:0:0:0:
192,192,78182,128,0,78282:0:0:0:0:
320,192,78182,128,0,78282:0:0:0:0:
64,192,78182,1,0,0:0:0:0:
64,192,78382,1,0,0:0:0:0:
192,192,78582,128,0,78682:0:0:0:0:
320,192,78582,128,0,78682:0:0:0:0:
448,192,78582,1,0,0:0:0:0:
320,192,78782,1,0,0:0:0:0:
448,192,78982,128,0,79082:0:0:0:0:
192,192,78982,128,0,79082:0:0:0:0:
64,192,78982,1,0,0:0:0:0:
320,192,79182,128,0,79282:0:0:0:0:
64,192,79182,128,0,79282:0:0:0:0:
192,192,79382,128,0,79482:0:0:0:0:
64,192,79382,128,0,79482:0:0:0:0:
448,192,79382,1,0,0:0:0:0:
320,192,79582,1,0,0:0:0:0:
448,192,79582,1,0,0:0:0:0:
192,192,79648,1,0,0:0:0:0:
320,192,79715,1,0,0:0:0:0:
448,192,79782,1,0,0:0:0:0:
64,192,79782,1,0,0:0:0:0:
192,192,79848,1,0,0:0:0:0:
64,192,79915,1,0,0:0:0:0:
320,192,79982,1,0,0:0:0:0:
448,192,79982,1,0,0:0:0:0:
192,192,80048,1,0,0:0:0:0:
320,192,80115,1,0,0:0:0:0:
192,192,80182,1,0,0:0:0:0:
64,192,80182,1,0,0:0:0:0:
448,192,80248,1,0,0:0:0:0:
64,192,80315,1,0,0:0:0:0:
192,192,80382,1,0,0:0:0:0:
320,192,80382,1,0,0:0:0:0:
448,192,80448,1,0,0:0:0:0:
320,192,80515,1,0,0:0:0:0:
192,192,80582,1,0,0:0:0:0:
64,192,80582,1,0,0:0:0:0:
448,192,80632,1,0,0:0:0:0:
64,192,80682,1,0,0:0:0:0:
320,192,80732,1,0,0:0:0:0:
192,192,80782,1,0,0:0:0:0:
448,192,80782,1,0,0:0:0:0:
64,192,80832,1,0,0:0:0:0:
320,192,80882,1,0,0:0:0:0:
192,192,80932,1,0,0:0:0:0:
64,192,80982,1,0,0:0:0:0:
448,192,80982,1,0,0:0:0:0:
320,192,81032,1,0,0:0:0:0:
192,192,81082,1,0,0:0:0:0:
64,192,81132,1,0,0:0:0:0:
320,192,81182,1,0,0:0:0:0:
448,192,81182,1,0,0:0:0:0:
320,192,81282,1,0,0:0:0:0:
192,192,81282,1,0,0:0:0:0:
192,192,81382,1,0,0:0:0:0:
64,192,81382,1,0,0:0:0:0:
448,192,81382,1,0,0:0:0:0:
320,192,81582,1,0,0:0:0:0:
64,192,81782,1,0,0:0:0:0:
448,192,81782,1,0,0:0:0:0:
192,192,81832,1,0,0:0:0:0:
320,192,81882,1,0,0:0:0:0:
448,192,81932,1,0,0:0:0:0:
192,192,81982,1,0,0:0:0:0:
320,192,82032,1,0,0:0:0:0:
64,192,82082,1,0,0:0:0:0:
192,192,82132,1,0,0:0:0:0:
448,192,82182,1,0,0:0:0:0:
320,192,82182,1,0,0:0:0:0:
64,192,82232,1,0,0:0:0:0:
192,192,82282,1,0,0:0:0:0:
320,192,82332,1,0,0:0:0:0:
448,192,82382,1,0,0:0:0:0:
192,192,82432,1,0,0:0:0:0:
64,192,82482,1,0,0:0:0:0:
320,192,82582,1,0,0:0:0:0:
448,192,82582,1,0,0:0:0:0:
192,192,82632,1,0,0:0:0:0:
320,192,82682,1,0,0:0:0:0:
64,192,82732,1,0,0:0:0:0:
448,192,82782,1,0,0:0:0:0:
320,192,82832,1,0,0:0:0:0:
192,192,82882,1,0,0:0:0:0:
448,192,82932,1,0,0:0:0:0:
320,192,82982,1,0,0:0:0:0:
64,192,82982,1,0,0:0:0:0:
192,192,83032,1,0,0:0:0:0:
448,192,83082,1,0,0:0:0:0:
64,192,83132,1,0,0:0:0:0:
320,192,83182,1,0,0:0:0:0:
448,192,83232,1,0,0:0:0:0:
192,192,83282,1,0,0:0:0:0:
64,192,83332,1,0,0:0:0:0:
320,192,83382,1,0,0:0:0:0:
448,192,83382,1,0,0:0:0:0:
192,192,83432,1,0,0:0:0:0:
64,192,83482,1,0,0:0:0:0:
320,192,83532,1,0,0:0:0:0:
192,192,83582,1,0,0:0:0:0:
448,192,83682,1,0,0:0:0:0:
320,192,83782,1,0,0:0:0:0:
64,192,83782,1,0,0:0:0:0:
192,192,83882,1,0,0:0:0:0:
320,192,83982,1,0,0:0:0:0:
448,192,84032,1,0,0:0:0:0:
192,192,84082,1,0,0:0:0:0:
320,192,84132,1,0,0:0:0:0:
448,192,84182,1,0,0:0:0:0:
64,192,84182,1,0,0:0:0:0:
192,192,84232,1,0,0:0:0:0:
320,192,84282,1,0,0:0:0:0:
64,192,84332,1,0,0:0:0:0:
192,192,84382,1,0,0:0:0:0:
448,192,84432,1,0,0:0:0:0:
320,192,84482,1,0,0:0:0:0:
192,192,84532,1,0,0:0:0:0:
64,192,84582,1,0,0:0:0:0:
448,192,84582,1,0,0:0:0:0:
320,192,84632,1,0,0:0:0:0:
192,192,84682,1,0,0:0:0:0:
448,192,84732,1,0,0:0:0:0:
64,192,84782,1,0,0:0:0:0:
192,192,84832,1,0,0:0:0:0:
320,192,84882,1,0,0:0:0:0:
64,192,84932,1,0,0:0:0:0:
192,192,84982,1,0,0:0:0:0:
448,192,84982,1,0,0:0:0:0:
320,192,85032,1,0,0:0:0:0:
64,192,85082,1,0,0:0:0:0:
448,192,85132,1,0,0:0:0:0:
192,192,85182,1,0,0:0:0:0:
64,192,85232,1,0,0:0:0:0:
320,192,85282,1,0,0:0:0:0:
192,192,85332,1,0,0:0:0:0:
64,192,85382,1,0,0:0:0:0:
448,192,85382,1,0,0:0:0:0:
320,192,85432,1,0,0:0:0:0:
192,192,85482,1,0,0:0:0:0:
448,192,85532,1,0,0:0:0:0:
320,192,85582,1,0,0:0:0:0:
64,192,85632,1,0,0:0:0:0:
448,192,85682,1,0,0:0:0:0:
192,192,85732,1,0,0:0:0:0:
64,192,85782,1,0,0:0:0:0:
320,192,85782,1,0,0:0:0:0:
448,192,85832,1,0,0:0:0:0:
192,192,85882,1,0,0:0:0:0:
320,192,85932,1,0,0:0:0:0:
64,192,85982,1,0,0:0:0:0:
192,192,86032,1,0,0:0:0:0:
448,192,86082,1,0,0:0:0:0:
320,192,86132,1,0,0:0:0:0:
192,192,86182,1,0,0:0:0:0:
64,192,86182,1,0,0:0:0:0:
448,192,86232,1,0,0:0:0:0:
320,192,86282,1,0,0:0:0:0:
64,192,86332,1,0,0:0:0:0:
192,192,86382,1,0,0:0:0:0:
320,192,86432,1,0,0:0:0:0:
448,192,86482,1,0,0:0:0:0:
192,192,86532,1,0,0:0:0:0:
320,192,86582,1,0,0:0:0:0:
64,192,86582,1,0,0:0:0:0:
448,192,86682,1,0,0:0:0:0:
192,192,86782,1,0,0:0:0:0:
320,192,86882,1,0,0:0:0:0:
192,192,86982,128,0,87082:0:0:0:0:
64,192,86982,128,0,87082:0:0:0:0:
448,192,87082,1,0,0:0:0:0:
320,192,87182,1,0,0:0:0:0:
192,192,87282,1,0,0:0:0:0:
448,192,87382,128,0,87682:0:0:0:0:
320,192,87382,128,0,87682:0:0:0:0:
64,192,87482,1,0,0:0:0:0:
192,192,87582,1,0,0:0:0:0:
64,192,87682,1,0,0:0:0:0:
320,192,87782,1,0,0:0:0:0:
448,192,87782,1,0,0:0:0:0:
192,192,87832,1,0,0:0:0:0:
64,192,87882,1,0,0:0:0:0:
320,192,87932,1,0,0:0:0:0:
192,192,87982,1,0,0:0:0:0:
448,192,88032,1,0,0:0:0:0:
320,192,88082,1,0,0:0:0:0:
64,192,88132,1,0,0:0:0:0:
192,192,88182,1,0,0:0:0:0:
448,192,88182,1,0,0:0:0:0:
64,192,88232,1,0,0:0:0:0:
320,192,88282,1,0,0:0:0:0:
192,192,88332,1,0,0:0:0:0:
448,192,88382,1,0,0:0:0:0:
320,192,88432,1,0,0:0:0:0:
64,192,88482,1,0,0:0:0:0:
192,192,88532,1,0,0:0:0:0:
320,192,88582,1,0,0:0:0:0:
448,192,88582,1,0,0:0:0:0:
64,192,88632,1,0,0:0:0:0:
320,192,88682,1,0,0:0:0:0:
192,192,88732,1,0,0:0:0:0:
448,192,88782,1,0,0:0:0:0:
64,192,88832,1,0,0:0:0:0:
192,192,88882,1,0,0:0:0:0:
320,192,88932,1,0,0:0:0:0:
64,192,88982,1,0,0:0:0:0:
448,192,88982,1,0,0:0:0:0:
192,192,89032,1,0,0:0:0:0:
320,192,89082,1,0,0:0:0:0:
192,192,89132,1,0,0:0:0:0:
448,192,89182,1,0,0:0:0:0:
320,192,89232,1,0,0:0:0:0:
64,192,89282,1,0,0:0:0:0:
192,192,89332,1,0,0:0:0:0:
320,192,89382,1,0,0:0:0:0:
448,192,89382,1,0,0:0:0:0:
64,192,89432,1,0,0:0:0:0:
448,192,89482,1,0,0:0:0:0:
192,192,89532,1,0,0:0:0:0:
320,192,89582,1,0,0:0:0:0:
64,192,89632,1,0,0:0:0:0:
192,192,89682,1,0,0:0:0:0:
448,192,89732,1,0,0:0:0:0:
320,192,89782,1,0,0:0:0:0:
64,192,89782,1,0,0:0:0:0:
192,192,89832,1,0,0:0:0:0:
320,192,89882,1,0,0:0:0:0:
448,192,89932,1,0,0:0:0:0:
192,192,89982,1,0,0:0:0:0:
64,192,90032,1,0,0:0:0:0:
320,192,90082,1,0,0:0:0:0:
192,192,90132,1,0,0:0:0:0:
64,192,90182,1,0,0:0:0:0:
448,192,90182,1,0,0:0:0:0:
320,192,90232,1,0,0:0:0:0:
192,192,90282,1,0,0:0:0:0:
448,192,90332,1,0,0:0:0:0:
320,192,90382,1,0,0:0:0:0:
192,192,90482,1,0,0:0:0:0:
320,192,90582,128,0,90682:0:0:0:0:
64,192,90582,128,0,90682:0:0:0:0:
448,192,90682,1,0,0:0:0:0:
192,192,90782,128,0,90882:0:0:0:0:
64,192,90782,128,0,90882:0:0:0:0:
320,192,90882,1,0,0:0:0:0:
448,192,90982,1,0,0:0:0:0:
64,192,90982,1,0,0:0:0:0:
192,192,91032,1,0,0:0:0:0:
320,192,91082,1,0,0:0:0:0:
448,192,91132,1,0,0:0:0:0:
192,192,91182,1,0,0:0:0:0:
64,192,91232,1,0,0:0:0:0:
320,192,91282,1,0,0:0:0:0:
448,192,91282,1,0,0:0:0:0:
192,192,91332,1,0,0:0:0:0:
320,192,91382,1,0,0:0:0:0:
448,192,91382,1,0,0:0:0:0:
64,192,91432,1,0,0:0:0:0:
192,192,91482,1,0,0:0:0:0:
320,192,91532,1,0,0:0:0:0:
64,192,91582,1,0,0:0:0:0:
448,192,91632,1,0,0:0:0:0:
320,192,91682,1,0,0:0:0:0:
192,192,91732,1,0,0:0:0:0:
64,192,91782,1,0,0:0:0:0:
448,192,91782,1,0,0:0:0:0:
320,192,91832,1,0,0:0:0:0:
192,192,91882,1,0,0:0:0:0:
448,192,91932,1,0,0:0:0:0:
64,192,91982,1,0,0:0:0:0:
192,192,92032,1,0,0:0:0:0:
320,192,92082,1,0,0:0:0:0:
448,192,92132,1,0,0:0:0:0:
192,192,92182,1,0,0:0:0:0:
64,192,92182,1,0,0:0:0:0:
320,192,92232,1,0,0:0:0:0:
192,192,92282,1,0,0:0:0:0:
64,192,92332,1,0,0:0:0:0:
448,192,92382,1,0,0:0:0:0:
320,192,92382,1,0,0:0:0:0:
192,192,92432,1,0,0:0:0:0:
320,192,92482,1,0,0:0:0:0:
448,192,92532,1,0,0:0:0:0:
192,192,92582,1,0,0:0:0:0:
64,192,92582,1,0,0:0:0:0:
320,192,92632,1,0,0:0:0:0:
448,192,92682,1,0,0:0:0:0:
192,192,92732,1,0,0:0:0:0:
64,192,92782,1,0,0:0:0:0:
320,192,92832,1,0,0:0:0:0:
192,192,92882,1,0,0:0:0:0:
64,192,92932,1,0,0:0:0:0:
320,192,92982,1,0,0:0:0:0:
448,192,92982,1,0,0:0:0:0:
192,192,93032,1,0,0:0:0:0:
64,192,93082,1,0,0:0:0:0:
320,192,93132,1,0,0:0:0:0:
448,192,93182,1,0,0:0:0:0:
192,192,93232,1,0,0:0:0:0:
320,192,93282,1,0,0:0:0:0:
64,192,93332,1,0,0:0:0:0:
192,192,93382,1,0,0:0:0:0:
448,192,93382,1,0,0:0:0:0:
64,192,93432,1,0,0:0:0:0:
320,192,93482,1,0,0:0:0:0:
192,192,93532,1,0,0:0:0:0:
448,192,93582,1,0,0:0:0:0:
320,192,93632,1,0,0:0:0:0:
64,192,93682,1,0,0:0:0:0:
192,192,93732,1,0,0:0:0:0:
320,192,93782,1,0,0:0:0:0:
448,192,93782,1,0,0:0:0:0:
64,192,93832,1,0,0:0:0:0:
192,192,93882,1,0,0:0:0:0:
320,192,93932,1,0,0:0:0:0:
448,192,93982,1,0,0:0:0:0:
64,192,93982,1,0,0:0:0:0:
448,192,94082,1,0,0:0:0:0:
64,192,94082,1,0,0:0:0:0:
64,192,94182,1,0,0:0:0:0:
192,192,94182,1,0,0:0:0:0:
320,192,94282,1,0,0:0:0:0:
192,192,94382,1,0,0:0:0:0:
448,192,94482,1,0,0:0:0:0:
320,192,94582,1,0,0:0:0:0:
64,192,94582,1,0,0:0:0:0:
448,192,94632,1,0,0:0:0:0:
192,192,94682,1,0,0:0:0:0:
320,192,94732,1,0,0:0:0:0:
192,192,94782,1,0,0:0:0:0:
448,192,94782,1,0,0:0:0:0:
64,192,94832,1,0,0:0:0:0:
320,192,94882,1,0,0:0:0:0:
192,192,94932,1,0,0:0:0:0:
64,192,94982,1,0,0:0:0:0:
320,192,94982,1,0,0:0:0:0:
448,192,95032,1,0,0:0:0:0:
192,192,95082,1,0,0:0:0:0:
320,192,95132,1,0,0:0:0:0:
448,192,95182,1,0,0:0:0:0:
64,192,95232,1,0,0:0:0:0:
320,192,95282,1,0,0:0:0:0:
192,192,95332,1,0,0:0:0:0:
64,192,95382,1,0,0:0:0:0:
448,192,95382,1,0,0:0:0:0:
320,192,95432,1,0,0:0:0:0:
192,192,95482,1,0,0:0:0:0:
448,192,95532,1,0,0:0:0:0:
192,192,95582,1,0,0:0:0:0:
64,192,95582,1,0,0:0:0:0:
320,192,95632,1,0,0:0:0:0:
448,192,95682,1,0,0:0:0:0:
320,192,95732,1,0,0:0:0:0:
192,192,95782,1,0,0:0:0:0:
64,192,95782,1,0,0:0:0:0:
448,192,95832,1,0,0:0:0:0:
64,192,95882,1,0,0:0:0:0:
320,192,95932,1,0,0:0:0:0:
192,192,95982,1,0,0:0:0:0:
448,192,96032,1,0,0:0:0:0:
64,192,96082,1,0,0:0:0:0:
192,192,96132,1,0,0:0:0:0:
320,192,96182,1,0,0:0:0:0:
448,192,96182,1,0,0:0:0:0:
64,192,96232,1,0,0:0:0:0:
320,192,96282,1,0,0:0:0:0:
192,192,96332,1,0,0:0:0:0:
448,192,96382,1,0,0:0:0:0:
320,192,96432,1,0,0:0:0:0:
64,192,96482,1,0,0:0:0:0:
192,192,96532,1,0,0:0:0:0:
448,192,96582,1,0,0:0:0:0:
320,192,96582,1,0,0:0:0:0:
64,192,96632,1,0,0:0:0:0:
448,192,96682,1,0,0:0:0:0:
192,192,96732,1,0,0:0:0:0:
64,192,96782,1,0,0:0:0:0:
320,192,96782,1,0,0:0:0:0:
448,192,96832,1,0,0:0:0:0:
192,192,96882,1,0,0:0:0:0:
320,192,96932,1,0,0:0:0:0:
448,192,96982,1,0,0:0:0:0:
64,192,96982,1,0,0:0:0:0:
320,192,97032,1,0,0:0:0:0:
192,192,97082,1,0,0:0:0:0:
64,192,97132,1,0,0:0:0:0:
448,192,97182,1,0,0:0:0:0:
192,192,97232,1,0,0:0:0:0:
320,192,97282,1,0,0:0:0:0:
64,192,97332,1,0,0:0:0:0:
320,192,97382,1,0,0:0:0:0:
448,192,97382,1,0,0:0:0:0:
192,192,97432,1,0,0:0:0:0:
64,192,97482,1,0,0:0:0:0:
192,192,97532,1,0,0:0:0:0:
320,192,97582,1,0,0:0:0:0:
448,192,97632,1,0,0:0:0:0:
64,192,97682,1,0,0:0:0:0:
320,192,97732,1,0,0:0:0:0:
192,192,97782,1,0,0:0:0:0:
448,192,97782,1,0,0:0:0:0:
64,192,97832,1,0,0:0:0:0:
320,192,97882,1,0,0:0:0:0:
192,192,97932,1,0,0:0:0:0:
64,192,97982,1,0,0:0:0:0:
448,192,98032,1,0,0:0:0:0:
320,192,98082,1,0,0:0:0:0:
192,192,98132,1,0,0:0:0:0:
448,192,98182,1,0,0:0:0:0:
320,192,98182,1,0,0:0:0:0:
64,192,98232,1,0,0:0:0:0:
192,192,98282,1,0,0:0:0:0:
448,192,98332,1,0,0:0:0:0:
64,192,98382,1,0,0:0:0:0:
320,192,98432,1,0,0:0:0:0:
448,192,98482,1,0,0:0:0:0:
192,192,98532,1,0,0:0:0:0:
320,192,98582,1,0,0:0:0:0:
64,192,98582,1,0,0:0:0:0:
448,192,98632,1,0,0:0:0:0:
320,192,98682,1,0,0:0:0:0:
192,192,98732,1,0,0:0:0:0:
64,192,98782,1,0,0:0:0:0:
448,192,98782,1,0,0:0:0:0:
320,192,98832,1,0,0:0:0:0:
192,192,98882,1,0,0:0:0:0:
448,192,98932,1,0,0:0:0:0:
192,192,98982,1,0,0:0:0:0:
64,192,98982,1,0,0:0:0:0:
320,192,99032,1,0,0:0:0:0:
448,192,99082,1,0,0:0:0:0:
64,192,99132,1,0,0:0:0:0:
320,192,99182,1,0,0:0:0:0:
192,192,99232,1,0,0:0:0:0:
448,192,99282,1,0,0:0:0:0:
320,192,99332,1,0,0:0:0:0:
192,192,99382,1,0,0:0:0:0:
64,192,99382,1,0,0:0:0:0:
448,192,99482,1,0,0:0:0:0:
192,192,99582,1,0,0:0:0:0:
320,192,99682,1,0,0:0:0:0:
448,192,99782,1,0,0:0:0:0:
64,192,99782,1,0,0:0:0:0:
192,192,99832,1,0,0:0:0:0:
64,192,99882,1,0,0:0:0:0:
320,192,99932,1,0,0:0:0:0:
192,192,99982,1,0,0:0:0:0:
448,192,100032,1,0,0:0:0:0:
320,192,100082,1,0,0:0:0:0:
448,192,100132,1,0,0:0:0:0:
192,192,100182,1,0,0:0:0:0:
64,192,100182,1,0,0:0:0:0:
320,192,100232,1,0,0:0:0:0:
192,192,100282,1,0,0:0:0:0:
448,192,100332,1,0,0:0:0:0:
64,192,100382,1,0,0:0:0:0:
320,192,100432,1,0,0:0:0:0:
192,192,100482,1,0,0:0:0:0:
320,192,100532,1,0,0:0:0:0:
448,192,100582,1,0,0:0:0:0:
64,192,100582,1,0,0:0:0:0:
192,192,100632,1,0,0:0:0:0:
320,192,100682,1,0,0:0:0:0:
64,192,100732,1,0,0:0:0:0:
192,192,100782,1,0,0:0:0:0:
448,192,100832,1,0,0:0:0:0:
320,192,100882,1,0,0:0:0:0:
192,192,100932,1,0,0:0:0:0:
64,192,100982,1,0,0:0:0:0:
448,192,100982,1,0,0:0:0:0:
320,192,101032,1,0,0:0:0:0:
192,192,101082,1,0,0:0:0:0:
320,192,101132,1,0,0:0:0:0:
448,192,101182,1,0,0:0:0:0:
64,192,101182,1,0,0:0:0:0:
192,192,101232,1,0,0:0:0:0:
320,192,101282,1,0,0:0:0:0:
192,192,101332,1,0,0:0:0:0:
64,192,101382,1,0,0:0:0:0:
448,192,101382,1,0,0:0:0:0:
320,192,101432,1,0,0:0:0:0:
192,192,101482,1,0,0:0:0:0:
448,192,101532,1,0,0:0:0:0:
64,192,101582,1,0,0:0:0:0:
320,192,101632,1,0,0:0:0:0:
192,192,101682,1,0,0:0:0:0:
64,192,101732,1,0,0:0:0:0:
320,192,101782,1,0,0:0:0:0:
448,192,101782,1,0,0:0:0:0:
192,192,101832,1,0,0:0:0:0:
64,192,101882,1,0,0:0:0:0:
192,192,101932,1,0,0:0:0:0:
320,192,101982,1,0,0:0:0:0:
448,192,102032,1,0,0:0:0:0:
192,192,102082,1,0,0:0:0:0:
64,192,102082,1,0,0:0:0:0:
320,192,102132,1,0,0:0:0:0:
448,192,102182,1,0,0:0:0:0:
64,192,102182,1,0,0:0:0:0:
192,192,102232,1,0,0:0:0:0:
320,192,102282,1,0,0:0:0:0:
64,192,102332,1,0,0:0:0:0:
192,192,102382,1,0,0:0:0:0:
448,192,102382,1,0,0:0:0:0:
64,192,102432,1,0,0:0:0:0:
320,192,102482,1,0,0:0:0:0:
192,192,102532,1,0,0:0:0:0:
320,192,102582,1,0,0:0:0:0:
448,192,102582,1,0,0:0:0:0:
64,192,102632,1,0,0:0:0:0:
192,192,102682,1,0,0:0:0:0:
320,192,102732,1,0,0:0:0:0:
448,192,102782,1,0,0:0:0:0:
64,192,102782,1,0,0:0:0:0:
192,192,102832,1,0,0:0:0:0:
320,192,102882,1,0,0:0:0:0:
64,192,102932,1,0,0:0:0:0:
192,192,102982,1,0,0:0:0:0:
448,192,102982,1,0,0:0:0:0:
320,192,103032,1,0,0:0:0:0:
448,192,103082,1,0,0:0:0:0:
192,192,103132,1,0,0:0:0:0:
64,192,103182,1,0,0:0:0:0:
320,192,103182,1,0,0:0:0:0:
192,192,103232,1,0,0:0:0:0:
448,192,103282,1,0,0:0:0:0:
320,192,103332,1,0,0:0:0:0:
192,192,103382,1,0,0:0:0:0:
64,192,103382,1,0,0:0:0:0:
448,192,103432,1,0,0:0:0:0:
320,192,103482,1,0,0:0:0:0:
192,192,103532,1,0,0:0:0:0:
448,192,103582,1,0,0:0:0:0:
64,192,103582,1,0,0:0:0:0:
192,192,103632,1,0,0:0:0:0:
320,192,103682,1,0,0:0:0:0:
448,192,103732,1,0,0:0:0:0:
192,192,103782,1,0,0:0:0:0:
64,192,103782,1,0,0:0:0:0:
320,192,103832,1,0,0:0:0:0:
192,192,103882,1,0,0:0:0:0:
448,192,103932,1,0,0:0:0:0:
320,192,103982,1,0,0:0:0:0:
64,192,103982,1,0,0:0:0:0:
192,192,104032,1,0,0:0:0:0:
320,192,104082,1,0,0:0:0:0:
448,192,104132,1,0,0:0:0:0:
192,192,104182,1,0,0:0:0:0:
64,192,104182,1,0,0:0:0:0:
320,192,104232,1,0,0:0:0:0:
192,192,104282,1,0,0:0:0:0:
448,192,104332,1,0,0:0:0:0:
320,192,104382,1,0,0:0:0:0:
64,192,104382,1,0,0:0:0:0:
192,192,104432,1,0,0:0:0:0:
64,192,104482,1,0,0:0:0:0:
448,192,104532,1,0,0:0:0:0:
192,192,104582,1,0,0:0:0:0:
320,192,104582,1,0,0:0:0:0:
64,192,104632,1,0,0:0:0:0:
320,192,104682,1,0,0:0:0:0:
192,192,104732,1,0,0:0:0:0:
64,192,104782,1,0,0:0:0:0:
448,192,104782,1,0,0:0:0:0:
320,192,104832,1,0,0:0:0:0:
192,192,104882,1,0,0:0:0:0:
64,192,104932,1,0,0:0:0:0:
320,192,104982,1,0,0:0:0:0:
448,192,104982,1,0,0:0:0:0:
192,192,105032,1,0,0:0:0:0:
448,192,105082,1,0,0:0:0:0:
320,192,105132,1,0,0:0:0:0:
192,192,105182,1,0,0:0:0:0:
64,192,105182,1,0,0:0:0:0:
448,192,105232,1,0,0:0:0:0:
64,192,105282,1,0,0:0:0:0:
320,192,105332,1,0,0:0:0:0:
448,192,105382,1,0,0:0:0:0:
192,192,105382,1,0,0:0:0:0:
64,192,105432,1,0,0:0:0:0:
320,192,105482,1,0,0:0:0:0:
192,192,105532,1,0,0:0:0:0:
64,192,105582,1,0,0:0:0:0:
448,192,105582,1,0,0:0:0:0:
320,192,105632,1,0,0:0:0:0:
192,192,105682,1,0,0:0:0:0:
320,192,105732,1,0,0:0:0:0:
64,192,105782,1,0,0:0:0:0:
448,192,105782,1,0,0:0:0:0:
192,192,105832,1,0,0:0:0:0:
320,192,105882,1,0,0:0:0:0:
448,192,105932,1,0,0:0:0:0:
192,192,105982,1,0,0:0:0:0:
64,192,105982,1,0,0:0:0:0:
320,192,106032,1,0,0:0:0:0:
192,192,106082,1,0,0:0:0:0:
64,192,106132,1,0,0:0:0:0:
320,192,106182,1,0,0:0:0:0:
448,192,106182,1,0,0:0:0:0:
192,192,106232,1,0,0:0:0:0:
64,192,106282,1,0,0:0:0:0:
320,192,106332,1,0,0:0:0:0:
192,192,106382,1,0,0:0:0:0:
64,192,106382,1,0,0:0:0:0:
448,192,106432,1,0,0:0:0:0:
320,192,106482,1,0,0:0:0:0:
448,192,106532,1,0,0:0:0:0:
192,192,106582,1,0,0:0:0:0:
64,192,106582,1,0,0:0:0:0:
320,192,106632,1,0,0:0:0:0:
192,192,106682,1,0,0:0:0:0:
448,192,106732,1,0,0:0:0:0:
320,192,106782,1,0,0:0:0:0:
64,192,106782,1,0,0:0:0:0:
192,192,106832,1,0,0:0:0:0:
320,192,106882,1,0,0:0:0:0:
448,192,106932,1,0,0:0:0:0:
64,192,106982,5,0,0:0:0:0:
192,192,106982,1,0,0:0:0:0:
320,192,107032,1,0,0:0:0:0:
64,192,107082,1,0,0:0:0:0:
192,192,107132,1,0,0:0:0:0:
448,192,107182,1,0,0:0:0:0:
320,192,107182,1,0,0:0:0:0:
192,192,107232,1,0,0:0:0:0:
320,192,107282,1,0,0:0:0:0:
448,192,107332,1,0,0:0:0:0:
64,192,107382,1,0,0:0:0:0:
192,192,107382,1,0,0:0:0:0:
320,192,107432,1,0,0:0:0:0:
448,192,107482,1,0,0:0:0:0:
192,192,107532,1,0,0:0:0:0:
320,192,107582,1,0,0:0:0:0:
448,192,107582,1,0,0:0:0:0:
64,192,107632,1,0,0:0:0:0:
320,192,107682,1,0,0:0:0:0:
192,192,107732,1,0,0:0:0:0:
448,192,107782,1,0,0:0:0:0:
64,192,107782,1,0,0:0:0:0:
320,192,107832,1,0,0:0:0:0:
192,192,107882,1,0,0:0:0:0:
320,192,107932,1,0,0:0:0:0:
64,192,107982,1,0,0:0:0:0:
192,192,107982,1,0,0:0:0:0:
448,192,108032,1,0,0:0:0:0:
320,192,108082,1,0,0:0:0:0:
192,192,108132,1,0,0:0:0:0:
64,192,108182,1,0,0:0:0:0:
448,192,108182,1,0,0:0:0:0:
320,192,108232,1,0,0:0:0:0:
192,192,108282,1,0,0:0:0:0:
320,192,108332,1,0,0:0:0:0:
192,192,108382,1,0,0:0:0:0:
64,192,108382,1,0,0:0:0:0:
448,192,108432,1,0,0:0:0:0:
64,192,108482,1,0,0:0:0:0:
448,192,108532,1,0,0:0:0:0:
64,192,108582,128,0,108648:0:0:0:0:
192,192,108582,128,0,108648:0:0:0:0:
320,192,108782,1,0,0:0:0:0:
64,192,108982,1,0,0:0:0:0:
448,192,108982,1,0,0:0:0:0:
64,192,109182,1,0,0:0:0:0:
192,192,109182,1,0,0:0:0:0:
192,192,109282,1,0,0:0:0:0:
64,192,109282,1,0,0:0:0:0:
192,192,109382,128,0,109448:0:0:0:0:
64,192,109382,128,0,109448:0:0:0:0:
320,192,109582,1,0,0:0:0:0:
192,192,109682,128,0,109748:0:0:0:0:
64,192,109682,128,0,109748:0:0:0:0:
448,192,109782,1,0,0:0:0:0:
320,192,109982,128,0,110048:0:0:0:0:
64,192,109982,128,0,110048:0:0:0:0:
192,192,110182,128,0,110248:0:0:0:0:
320,192,110182,128,0,110248:0:0:0:0:
192,192,110382,1,0,0:0:0:0:
448,192,110582,1,0,0:0:0:0:
192,192,110782,1,0,0:0:0:0:
320,192,110782,1,0,0:0:0:0:
320,192,110882,1,0,0:0:0:0:
192,192,110882,1,0,0:0:0:0:
192,192,110982,128,0,111048:0:0:0:0:
320,192,110982,128,0,111048:0:0:0:0:
64,192,111182,1,0,0:0:0:0:
192,192,111282,128,0,111348:0:0:0:0:
320,192,111282,128,0,111348:0:0:0:0:
448,192,111382,1,0,0:0:0:0:
320,192,111515,128,0,111582:0:0:0:0:
64,192,111515,128,0,111582:0:0:0:0:
320,192,111782,128,0,111848:0:0:0:0:
448,192,111782,128,0,111848:0:0:0:0:
192,192,111982,1,0,0:0:0:0:
320,192,112182,128,0,112248:0:0:0:0:
448,192,112182,128,0,112248:0:0:0:0:
448,192,112315,128,0,112382:0:0:0:0:
320,192,112315,128,0,112382:0:0:0:0:
320,192,112448,128,0,112515:0:0:0:0:
448,192,112448,128,0,112515:0:0:0:0:
320,192,112582,128,0,112648:0:0:0:0:
448,192,112582,128,0,112648:0:0:0:0:
64,192,112714,1,0,0:0:0:0:
320,192,112846,128,0,112913:0:0:0:0:
448,192,112846,128,0,112913:0:0:0:0:
64,192,112979,1,0,0:0:0:0:
192,192,113111,128,0,113178:0:0:0:0:
448,192,113111,128,0,113178:0:0:0:0:
320,192,113244,1,0,0:0:0:0:
192,192,113376,128,0,113442:0:0:0:0:
64,192,113376,128,0,113442:0:0:0:0:
448,192,113476,1,0,0:0:0:0:
320,192,113576,1,0,0:0:0:0:
64,192,113576,1,0,0:0:0:0:
192,192,113676,1,0,0:0:0:0:
64,192,113776,1,0,0:0:0:0:
448,192,113776,1,0,0:0:0:0:
64,192,113876,1,0,0:0:0:0:
64,192,113976,1,0,0:0:0:0:
320,192,113976,1,0,0:0:0:0:
64,192,114076,1,0,0:0:0:0:
192,192,114176,1,0,0:0:0:0:
448,192,114176,1,0,0:0:0:0:
320,192,114276,1,0,0:0:0:0:
64,192,114376,1,0,0:0:0:0:
192,192,114376,1,0,0:0:0:0:
320,192,114476,1,0,0:0:0:0:
448,192,114576,1,0,0:0:0:0:
192,192,114576,1,0,0:0:0:0:
192,192,114676,1,0,0:0:0:0:
192,192,114776,1,0,0:0:0:0:
320,192,114776,1,0,0:0:0:0:
192,192,114876,1,0,0:0:0:0:
320,192,114976,1,0,0:0:0:0:
448,192,114976,1,0,0:0:0:0:
64,192,115076,1,0,0:0:0:0:
192,192,115176,1,0,0:0:0:0:
448,192,115176,1,0,0:0:0:0:
64,192,115276,1,0,0:0:0:0:
320,192,115376,1,0,0:0:0:0:
448,192,115376,1,0,0:0:0:0:
192,192,115476,1,0,0:0:0:0:
320,192,115509,1,0,0:0:0:0:
64,192,115576,1,0,0:0:0:0:
448,192,115576,1,0,0:0:0:0:
320,192,115642,1,0,0:0:0:0:
192,192,115676,1,0,0:0:0:0:
448,192,115776,1,0,0:0:0:0:
64,192,115776,1,0,0:0:0:0:
448,192,115875,1,0,0:0:0:0:
448,192,115974,1,0,0:0:0:0:
192,192,115974,1,0,0:0:0:0:
320,192,116074,1,0,0:0:0:0:
192,192,116173,1,0,0:0:0:0:
64,192,116173,1,0,0:0:0:0:
64,192,116272,1,0,0:0:0:0:
64,192,116372,1,0,0:0:0:0:
448,192,116372,1,0,0:0:0:0:
320,192,116471,1,0,0:0:0:0:
64,192,116570,1,0,0:0:0:0:
192,192,116570,1,0,0:0:0:0:
192,192,116669,1,0,0:0:0:0:
448,192,116669,1,0,0:0:0:0:
320,192,116768,1,0,0:0:0:0:
64,192,116768,1,0,0:0:0:0:
320,192,116868,1,0,0:0:0:0:
448,192,116868,1,0,0:0:0:0:
192,192,116967,1,0,0:0:0:0:
64,192,116967,1,0,0:0:0:0:
64,192,117066,1,0,0:0:0:0:
320,192,117066,1,0,0:0:0:0:
448,192,117166,1,0,0:0:0:0:
320,192,117166,1,0,0:0:0:0:
448,192,117265,1,0,0:0:0:0:
192,192,117265,1,0,0:0:0:0:
192,192,117364,1,0,0:0:0:0:
64,192,117364,1,0,0:0:0:0:
64,192,117464,1,0,0:0:0:0:
320,192,117464,1,0,0:0:0:0:
320,192,117563,1,0,0:0:0:0:
448,192,117563,1,0,0:0:0:0:
192,192,117662,1,0,0:0:0:0:
64,192,117662,1,0,0:0:0:0:
320,192,117762,1,0,0:0:0:0:
192,192,117762,1,0,0:0:0:0:
320,192,117861,1,0,0:0:0:0:
448,192,117861,1,0,0:0:0:0:
64,192,117960,1,0,0:0:0:0:
192,192,117960,1,0,0:0:0:0:
192,192,118060,1,0,0:0:0:0:
448,192,118060,1,0,0:0:0:0:
320,192,118159,1,0,0:0:0:0:
448,192,118159,1,0,0:0:0:0:
64,192,118259,1,0,0:0:0:0:
320,192,118359,1,0,0:0:0:0:
448,192,118359,1,0,0:0:0:0:
192,192,118409,1,0,0:0:0:0:
320,192,118459,1,0,0:0:0:0:
64,192,118509,1,0,0:0:0:0:
448,192,118559,1,0,0:0:0:0:
192,192,118559,1,0,0:0:0:0:
64,192,118609,1,0,0:0:0:0:
320,192,118659,1,0,0:0:0:0:
192,192,118709,1,0,0:0:0:0:
64,192,118759,1,0,0:0:0:0:
448,192,118759,1,0,0:0:0:0:
320,192,118809,1,0,0:0:0:0:
192,192,118859,1,0,0:0:0:0:
448,192,118909,1,0,0:0:0:0:
320,192,118959,1,0,0:0:0:0:
64,192,118959,1,0,0:0:0:0:
448,192,119009,1,0,0:0:0:0:
192,192,119059,1,0,0:0:0:0:
320,192,119109,1,0,0:0:0:0:
64,192,119159,1,0,0:0:0:0:
448,192,119159,1,0,0:0:0:0:
192,192,119209,1,0,0:0:0:0:
320,192,119259,1,0,0:0:0:0:
64,192,119309,1,0,0:0:0:0:
192,192,119359,1,0,0:0:0:0:
448,192,119359,1,0,0:0:0:0:
64,192,119409,1,0,0:0:0:0:
320,192,119459,1,0,0:0:0:0:
192,192,119509,1,0,0:0:0:0:
448,192,119559,1,0,0:0:0:0:
64,192,119559,1,0,0:0:0:0:
320,192,119609,1,0,0:0:0:0:
192,192,119659,1,0,0:0:0:0:
448,192,119709,1,0,0:0:0:0:
64,192,119759,1,0,0:0:0:0:
320,192,119759,1,0,0:0:0:0:
448,192,119809,1,0,0:0:0:0:
192,192,119859,1,0,0:0:0:0:
320,192,119909,1,0,0:0:0:0:
64,192,119959,1,0,0:0:0:0:
448,192,119959,1,0,0:0:0:0:
192,192,120009,1,0,0:0:0:0:
320,192,120059,1,0,0:0:0:0:
64,192,120109,1,0,0:0:0:0:
448,192,120159,1,0,0:0:0:0:
192,192,120159,1,0,0:0:0:0:
64,192,120209,1,0,0:0:0:0:
320,192,120259,1,0,0:0:0:0:
448,192,120309,1,0,0:0:0:0:
192,192,120359,1,0,0:0:0:0:
64,192,120359,1,0,0:0:0:0:
320,192,120409,1,0,0:0:0:0:
448,192,120459,1,0,0:0:0:0:
320,192,120509,1,0,0:0:0:0:
192,192,120559,1,0,0:0:0:0:
64,192,120559,1,0,0:0:0:0:
448,192,120609,1,0,0:0:0:0:
320,192,120659,1,0,0:0:0:0:
192,192,120709,1,0,0:0:0:0:
320,192,120759,1,0,0:0:0:0:
448,192,120759,1,0,0:0:0:0:
64,192,120809,1,0,0:0:0:0:
192,192,120859,1,0,0:0:0:0:
64,192,120909,1,0,0:0:0:0:
320,192,120959,1,0,0:0:0:0:
448,192,120959,1,0,0:0:0:0:
192,192,121009,1,0,0:0:0:0:
64,192,121059,1,0,0:0:0:0:
320,192,121109,1,0,0:0:0:0:
192,192,121159,1,0,0:0:0:0:
448,192,121159,1,0,0:0:0:0:
320,192,121259,1,0,0:0:0:0:
448,192,121259,1,0,0:0:0:0:
192,192,121359,1,0,0:0:0:0:
64,192,121359,1,0,0:0:0:0:
320,192,121459,1,0,0:0:0:0:
192,192,121559,1,0,0:0:0:0:
64,192,121559,1,0,0:0:0:0:
448,192,121609,1,0,0:0:0:0:
320,192,121659,1,0,0:0:0:0:
192,192,121709,1,0,0:0:0:0:
448,192,121759,1,0,0:0:0:0:
320,192,121759,1,0,0:0:0:0:
64,192,121809,1,0,0:0:0:0:
192,192,121859,1,0,0:0:0:0:
320,192,121909,1,0,0:0:0:0:
192,192,121959,1,0,0:0:0:0:
64,192,121959,1,0,0:0:0:0:
448,192,122009,1,0,0:0:0:0:
320,192,122059,1,0,0:0:0:0:
192,192,122109,1,0,0:0:0:0:
320,192,122159,1,0,0:0:0:0:
448,192,122159,1,0,0:0:0:0:
64,192,122209,1,0,0:0:0:0:
192,192,122259,1,0,0:0:0:0:
320,192,122309,1,0,0:0:0:0:
64,192,122359,1,0,0:0:0:0:
192,192,122409,1,0,0:0:0:0:
320,192,122459,1,0,0:0:0:0:
448,192,122459,1,0,0:0:0:0:
64,192,122509,1,0,0:0:0:0:
192,192,122559,1,0,0:0:0:0:
448,192,122609,1,0,0:0:0:0:
320,192,122659,1,0,0:0:0:0:
192,192,122709,1,0,0:0:0:0:
64,192,122759,1,0,0:0:0:0:
448,192,122759,1,0,0:0:0:0:
320,192,122809,1,0,0:0:0:0:
448,192,122859,1,0,0:0:0:0:
320,192,122909,1,0,0:0:0:0:
192,192,122959,1,0,0:0:0:0:
64,192,122959,1,0,0:0:0:0:
448,192,123009,1,0,0:0:0:0:
192,192,123059,1,0,0:0:0:0:
320,192,123109,1,0,0:0:0:0:
448,192,123159,1,0,0:0:0:0:
64,192,123159,1,0,0:0:0:0:
192,192,123209,1,0,0:0:0:0:
64,192,123259,1,0,0:0:0:0:
320,192,123309,1,0,0:0:0:0:
192,192,123359,1,0,0:0:0:0:
448,192,123359,1,0,0:0:0:0:
64,192,123409,1,0,0:0:0:0:
320,192,123459,1,0,0:0:0:0:
192,192,123509,1,0,0:0:0:0:
64,192,123559,1,0,0:0:0:0:
448,192,123559,1,0,0:0:0:0:
320,192,123609,1,0,0:0:0:0:
192,192,123659,1,0,0:0:0:0:
64,192,123709,1,0,0:0:0:0:
320,192,123759,1,0,0:0:0:0:
448,192,123759,1,0,0:0:0:0:
192,192,123809,1,0,0:0:0:0:
320,192,123859,1,0,0:0:0:0:
448,192,123909,1,0,0:0:0:0:
64,192,123959,1,0,0:0:0:0:
192,192,123959,1,0,0:0:0:0:
320,192,124009,1,0,0:0:0:0:
64,192,124059,1,0,0:0:0:0:
192,192,124109,1,0,0:0:0:0:
320,192,124159,1,0,0:0:0:0:
448,192,124159,1,0,0:0:0:0:
64,192,124209,1,0,0:0:0:0:
192,192,124259,1,0,0:0:0:0:
320,192,124309,1,0,0:0:0:0:
448,192,124359,1,0,0:0:0:0:
64,192,124359,1,0,0:0:0:0:
192,192,124459,1,0,0:0:0:0:
448,192,124459,1,0,0:0:0:0:
320,192,124559,1,0,0:0:0:0:
448,192,124559,1,0,0:0:0:0:
64,192,124659,1,0,0:0:0:0:
320,192,124759,1,0,0:0:0:0:
448,192,124759,1,0,0:0:0:0:
192,192,124809,1,0,0:0:0:0:
64,192,124859,1,0,0:0:0:0:
192,192,124909,1,0,0:0:0:0:
320,192,124959,1,0,0:0:0:0:
448,192,124959,1,0,0:0:0:0:
64,192,125009,1,0,0:0:0:0:
192,192,125059,1,0,0:0:0:0:
320,192,125109,1,0,0:0:0:0:
448,192,125159,1,0,0:0:0:0:
64,192,125159,1,0,0:0:0:0:
320,192,125209,1,0,0:0:0:0:
192,192,125259,1,0,0:0:0:0:
448,192,125309,1,0,0:0:0:0:
320,192,125359,1,0,0:0:0:0:
64,192,125359,1,0,0:0:0:0:
448,192,125409,1,0,0:0:0:0:
192,192,125459,1,0,0:0:0:0:
64,192,125509,1,0,0:0:0:0:
320,192,125559,1,0,0:0:0:0:
448,192,125559,1,0,0:0:0:0:
192,192,125609,1,0,0:0:0:0:
64,192,125659,1,0,0:0:0:0:
320,192,125709,1,0,0:0:0:0:
192,192,125759,1,0,0:0:0:0:
448,192,125759,1,0,0:0:0:0:
64,192,125809,1,0,0:0:0:0:
320,192,125859,1,0,0:0:0:0:
192,192,125909,1,0,0:0:0:0:
320,192,125959,1,0,0:0:0:0:
448,192,125959,1,0,0:0:0:0:
64,192,126009,1,0,0:0:0:0:
192,192,126059,1,0,0:0:0:0:
320,192,126109,1,0,0:0:0:0:
448,192,126159,1,0,0:0:0:0:
64,192,126159,1,0,0:0:0:0:
192,192,126209,1,0,0:0:0:0:
320,192,126259,1,0,0:0:0:0:
64,192,126309,1,0,0:0:0:0:
192,192,126359,1,0,0:0:0:0:
448,192,126359,1,0,0:0:0:0:
64,192,126409,1,0,0:0:0:0:
320,192,126459,1,0,0:0:0:0:
192,192,126509,1,0,0:0:0:0:
64,192,126559,1,0,0:0:0:0:
448,192,126559,1,0,0:0:0:0:
320,192,126609,1,0,0:0:0:0:
192,192,126659,1,0,0:0:0:0:
448,192,126709,1,0,0:0:0:0:
64,192,126759,1,0,0:0:0:0:
320,192,126759,1,0,0:0:0:0:
448,192,126809,1,0,0:0:0:0:
192,192,126859,1,0,0:0:0:0:
320,192,126909,1,0,0:0:0:0:
64,192,126959,1,0,0:0:0:0:
192,192,126959,1,0,0:0:0:0:
448,192,127009,1,0,0:0:0:0:
64,192,127059,1,0,0:0:0:0:
320,192,127109,1,0,0:0:0:0:
448,192,127159,1,0,0:0:0:0:
192,192,127159,1,0,0:0:0:0:
64,192,127209,1,0,0:0:0:0:
320,192,127259,1,0,0:0:0:0:
192,192,127309,1,0,0:0:0:0:
64,192,127359,1,0,0:0:0:0:
448,192,127359,1,0,0:0:0:0:
320,192,127409,1,0,0:0:0:0:
192,192,127459,1,0,0:0:0:0:
320,192,127509,1,0,0:0:0:0:
448,192,127559,1,0,0:0:0:0:
64,192,127559,1,0,0:0:0:0:
192,192,127609,1,0,0:0:0:0:
320,192,127659,1,0,0:0:0:0:
448,192,127709,1,0,0:0:0:0:
192,192,127759,1,0,0:0:0:0:
64,192,127759,1,0,0:0:0:0:
320,192,127809,1,0,0:0:0:0:
192,192,127859,1,0,0:0:0:0:
448,192,127909,1,0,0:0:0:0:
64,192,127959,1,0,0:0:0:0:
320,192,127959,1,0,0:0:0:0:
448,192,128009,1,0,0:0:0:0:
192,192,128059,1,0,0:0:0:0:
64,192,128109,1,0,0:0:0:0:
320,192,128159,1,0,0:0:0:0:
448,192,128159,1,0,0:0:0:0:
192,192,128209,1,0,0:0:0:0:
320,192,128259,1,0,0:0:0:0:
64,192,128309,1,0,0:0:0:0:
192,192,128359,1,0,0:0:0:0:
448,192,128359,1,0,0:0:0:0:
320,192,128409,1,0,0:0:0:0:
192,192,128459,1,0,0:0:0:0:
64,192,128509,1,0,0:0:0:0:
320,192,128559,1,0,0:0:0:0:
448,192,128559,1,0,0:0:0:0:
192,192,128609,1,0,0:0:0:0:
64,192,128659,1,0,0:0:0:0:
192,192,128709,1,0,0:0:0:0:
320,192,128759,1,0,0:0:0:0:
448,192,128759,1,0,0:0:0:0:
64,192,128809,1,0,0:0:0:0:
320,192,128859,1,0,0:0:0:0:
192,192,128909,1,0,0:0:0:0:
64,192,128959,1,0,0:0:0:0:
448,192,128959,1,0,0:0:0:0:
320,192,129009,1,0,0:0:0:0:
192,192,129059,1,0,0:0:0:0:
448,192,129109,1,0,0:0:0:0:
192,192,129159,1,0,0:0:0:0:
64,192,129159,1,0,0:0:0:0:
320,192,129209,1,0,0:0:0:0:
448,192,129259,1,0,0:0:0:0:
320,192,129309,1,0,0:0:0:0:
192,192,129359,1,0,0:0:0:0:
64,192,129359,1,0,0:0:0:0:
448,192,129459,1,0,0:0:0:0:
320,192,129559,1,0,0:0:0:0:
64,192,129559,1,0,0:0:0:0:
192,192,129659,1,0,0:0:0:0:
320,192,129759,1,0,0:0:0:0:
448,192,129759,1,0,0:0:0:0:
64,192,129859,1,0,0:0:0:0:
192,192,129959,1,0,0:0:0:0:
448,192,129959,1,0,0:0:0:0:
64,192,130059,1,0,0:0:0:0:
320,192,130159,1,0,0:0:0:0:
448,192,130159,1,0,0:0:0:0:
192,192,130259,1,0,0:0:0:0:
320,192,130359,1,0,0:0:0:0:
64,192,130359,1,0,0:0:0:0:
448,192,130459,1,0,0:0:0:0:
64,192,130559,1,0,0:0:0:0:
192,192,130559,1,0,0:0:0:0:
320,192,130659,1,0,0:0:0:0:
448,192,130759,1,0,0:0:0:0:
64,192,130759,1,0,0:0:0:0:
192,192,130859,1,0,0:0:0:0:
320,192,130959,1,0,0:0:0:0:
448,192,130959,1,0,0:0:0:0:
64,192,131059,1,0,0:0:0:0:
448,192,131159,1,0,0:0:0:0:
192,192,131159,1,0,0:0:0:0:
320,192,131259,1,0,0:0:0:0:
448,192,131359,1,0,0:0:0:0:
64,192,131359,1,0,0:0:0:0:
192,192,131409,1,0,0:0:0:0:
320,192,131459,1,0,0:0:0:0:
448,192,131509,1,0,0:0:0:0:
320,192,131559,1,0,0:0:0:0:
192,192,131559,1,0,0:0:0:0:
64,192,131609,1,0,0:0:0:0:
448,192,131659,1,0,0:0:0:0:
192,192,131709,1,0,0:0:0:0:
320,192,131759,1,0,0:0:0:0:
448,192,131759,1,0,0:0:0:0:
64,192,131809,1,0,0:0:0:0:
192,192,131859,1,0,0:0:0:0:
320,192,131909,1,0,0:0:0:0:
192,192,131959,1,0,0:0:0:0:
64,192,131959,1,0,0:0:0:0:
448,192,132009,1,0,0:0:0:0:
64,192,132059,1,0,0:0:0:0:
320,192,132109,1,0,0:0:0:0:
192,192,132159,1,0,0:0:0:0:
448,192,132159,1,0,0:0:0:0:
64,192,132209,1,0,0:0:0:0:
320,192,132259,1,0,0:0:0:0:
192,192,132309,1,0,0:0:0:0:
64,192,132359,1,0,0:0:0:0:
320,192,132359,1,0,0:0:0:0:
448,192,132409,1,0,0:0:0:0:
192,192,132459,1,0,0:0:0:0:
320,192,132509,1,0,0:0:0:0:
64,192,132559,1,0,0:0:0:0:
448,192,132559,1,0,0:0:0:0:
192,192,132609,1,0,0:0:0:0:
320,192,132659,1,0,0:0:0:0:
64,192,132709,1,0,0:0:0:0:
192,192,132759,1,0,0:0:0:0:
448,192,132759,1,0,0:0:0:0:
64,192,132809,1,0,0:0:0:0:
320,192,132859,1,0,0:0:0:0:
192,192,132909,1,0,0:0:0:0:
64,192,132959,1,0,0:0:0:0:
448,192,132959,1,0,0:0:0:0:
320,192,133009,1,0,0:0:0:0:
192,192,133059,1,0,0:0:0:0:
64,192,133109,1,0,0:0:0:0:
320,192,133159,1,0,0:0:0:0:
448,192,133159,1,0,0:0:0:0:
192,192,133209,1,0,0:0:0:0:
64,192,133259,1,0,0:0:0:0:
192,192,133309,1,0,0:0:0:0:
320,192,133359,1,0,0:0:0:0:
448,192,133359,1,0,0:0:0:0:
64,192,133409,1,0,0:0:0:0:
192,192,133459,1,0,0:0:0:0:
320,192,133509,1,0,0:0:0:0:
448,192,133559,1,0,0:0:0:0:
64,192,133559,1,0,0:0:0:0:
320,192,133609,1,0,0:0:0:0:
192,192,133659,1,0,0:0:0:0:
64,192,133709,1,0,0:0:0:0:
320,192,133759,1,0,0:0:0:0:
448,192,133759,1,0,0:0:0:0:
192,192,133809,1,0,0:0:0:0:
448,192,133859,1,0,0:0:0:0:
320,192,133909,1,0,0:0:0:0:
192,192,133959,1,0,0:0:0:0:
64,192,133959,1,0,0:0:0:0:
64,192,134059,1,0,0:0:0:0:
448,192,134059,1,0,0:0:0:0:
320,192,134159,1,0,0:0:0:0:
448,192,134159,1,0,0:0:0:0:
192,192,134259,1,0,0:0:0:0:
320,192,134259,1,0,0:0:0:0:
192,192,134359,1,0,0:0:0:0:
64,192,134359,1,0,0:0:0:0:
448,192,134409,1,0,0:0:0:0:
320,192,134459,1,0,0:0:0:0:
192,192,134509,1,0,0:0:0:0:
64,192,134559,1,0,0:0:0:0:
448,192,134559,1,0,0:0:0:0:
320,192,134609,1,0,0:0:0:0:
448,192,134659,1,0,0:0:0:0:
192,192,134709,1,0,0:0:0:0:
320,192,134759,1,0,0:0:0:0:
64,192,134809,1,0,0:0:0:0:
192,192,134859,1,0,0:0:0:0:
448,192,134859,1,0,0:0:0:0:
64,192,134909,1,0,0:0:0:0:
320,192,134959,1,0,0:0:0:0:
448,192,134959,1,0,0:0:0:0:
192,192,135009,1,0,0:0:0:0:
64,192,135059,1,0,0:0:0:0:
320,192,135109,1,0,0:0:0:0:
192,192,135159,1,0,0:0:0:0:
448,192,135159,1,0,0:0:0:0:
64,192,135209,1,0,0:0:0:0:
320,192,135259,1,0,0:0:0:0:
192,192,135309,1,0,0:0:0:0:
448,192,135359,1,0,0:0:0:0:
64,192,135359,1,0,0:0:0:0:
320,192,135409,1,0,0:0:0:0:
192,192,135459,1,0,0:0:0:0:
448,192,135509,1,0,0:0:0:0:
192,192,135559,1,0,0:0:0:0:
64,192,135559,1,0,0:0:0:0:
320,192,135609,1,0,0:0:0:0:
448,192,135659,1,0,0:0:0:0:
64,192,135709,1,0,0:0:0:0:
320,192,135759,1,0,0:0:0:0:
448,192,135759,1,0,0:0:0:0:
192,192,135809,1,0,0:0:0:0:
64,192,135859,1,0,0:0:0:0:
320,192,135909,1,0,0:0:0:0:
192,192,135959,1,0,0:0:0:0:
448,192,135959,1,0,0:0:0:0:
64,192,136009,1,0,0:0:0:0:
192,192,136059,1,0,0:0:0:0:
320,192,136109,1,0,0:0:0:0:
64,192,136159,1,0,0:0:0:0:
448,192,136159,1,0,0:0:0:0:
64,192,136259,1,0,0:0:0:0:
192,192,136259,1,0,0:0:0:0:
192,192,136359,1,0,0:0:0:0:
320,192,136359,1,0,0:0:0:0:
64,192,136459,1,0,0:0:0:0:
448,192,136459,1,0,0:0:0:0:
320,192,136559,1,0,0:0:0:0:
448,192,136559,1,0,0:0:0:0:
192,192,136659,1,0,0:0:0:0:
64,192,136659,1,0,0:0:0:0:
192,192,136759,1,0,0:0:0:0:
320,192,136759,1,0,0:0:0:0:
320,192,136859,1,0,0:0:0:0:
448,192,136859,1,0,0:0:0:0:
64,192,136959,1,0,0:0:0:0:
448,192,136959,1,0,0:0:0:0:
64,192,137059,1,0,0:0:0:0:
320,192,137059,1,0,0:0:0:0:
192,192,137159,1,0,0:0:0:0:
448,192,137159,1,0,0:0:0:0:
320,192,137259,1,0,0:0:0:0:
448,192,137259,1,0,0:0:0:0:
192,192,137359,1,0,0:0:0:0:
64,192,137359,1,0,0:0:0:0:
448,192,137459,1,0,0:0:0:0:
320,192,137559,1,0,0:0:0:0:
64,192,137559,1,0,0:0:0:0:
448,192,137609,1,0,0:0:0:0:
192,192,137659,1,0,0:0:0:0:
64,192,137709,1,0,0:0:0:0:
320,192,137759,1,0,0:0:0:0:
448,192,137759,1,0,0:0:0:0:
192,192,137809,1,0,0:0:0:0:
320,192,137859,1,0,0:0:0:0:
64,192,137909,1,0,0:0:0:0:
192,192,137959,1,0,0:0:0:0:
448,192,137959,1,0,0:0:0:0:
64,192,138009,1,0,0:0:0:0:
320,192,138059,1,0,0:0:0:0:
192,192,138109,1,0,0:0:0:0:
448,192,138159,1,0,0:0:0:0:
64,192,138159,1,0,0:0:0:0:
320,192,138209,1,0,0:0:0:0:
192,192,138259,1,0,0:0:0:0:
320,192,138309,1,0,0:0:0:0:
448,192,138359,1,0,0:0:0:0:
64,192,138359,1,0,0:0:0:0:
192,192,138409,1,0,0:0:0:0:
320,192,138459,1,0,0:0:0:0:
192,192,138509,1,0,0:0:0:0:
64,192,138559,1,0,0:0:0:0:
448,192,138559,1,0,0:0:0:0:
320,192,138609,1,0,0:0:0:0:
192,192,138659,1,0,0:0:0:0:
448,192,138709,1,0,0:0:0:0:
64,192,138759,1,0,0:0:0:0:
192,192,138759,1,0,0:0:0:0:
320,192,138809,1,0,0:0:0:0:
448,192,138859,1,0,0:0:0:0:
64,192,138909,1,0,0:0:0:0:
320,192,138959,1,0,0:0:0:0:
448,192,138959,1,0,0:0:0:0:
192,192,139009,1,0,0:0:0:0:
64,192,139059,1,0,0:0:0:0:
320,192,139109,1,0,0:0:0:0:
192,192,139159,1,0,0:0:0:0:
448,192,139159,1,0,0:0:0:0:
64,192,139209,1,0,0:0:0:0:
192,192,139259,1,0,0:0:0:0:
320,192,139309,1,0,0:0:0:0:
448,192,139359,1,0,0:0:0:0:
64,192,139359,1,0,0:0:0:0:
320,192,139409,1,0,0:0:0:0:
192,192,139459,1,0,0:0:0:0:
64,192,139509,1,0,0:0:0:0:
320,192,139559,1,0,0:0:0:0:
448,192,139559,1,0,0:0:0:0:
192,192,139609,1,0,0:0:0:0:
448,192,139659,1,0,0:0:0:0:
320,192,139709,1,0,0:0:0:0:
64,192,139759,1,0,0:0:0:0:
192,192,139759,1,0,0:0:0:0:
448,192,139809,1,0,0:0:0:0:
64,192,139859,1,0,0:0:0:0:
320,192,139909,1,0,0:0:0:0:
192,192,139959,1,0,0:0:0:0:
448,192,139959,1,0,0:0:0:0:
64,192,140009,1,0,0:0:0:0:
320,192,140059,1,0,0:0:0:0:
192,192,140109,1,0,0:0:0:0:
64,192,140159,1,0,0:0:0:0:
448,192,140159,1,0,0:0:0:0:
320,192,140209,1,0,0:0:0:0:
192,192,140259,1,0,0:0:0:0:
448,192,140309,1,0,0:0:0:0:
64,192,140359,1,0,0:0:0:0:
320,192,140359,1,0,0:0:0:0:
448,192,140409,1,0,0:0:0:0:
192,192,140459,1,0,0:0:0:0:
320,192,140509,1,0,0:0:0:0:
192,192,140559,1,0,0:0:0:0:
64,192,140559,128,0,140625:0:0:0:0:
448,192,140609,1,0,0:0:0:0:
320,192,140659,1,0,0:0:0:0:
192,192,140709,1,0,0:0:0:0:
64,192,140759,1,0,0:0:0:0:
448,192,140759,1,0,0:0:0:0:
192,192,140809,1,0,0:0:0:0:
320,192,140859,1,0,0:0:0:0:
448,192,140909,1,0,0:0:0:0:
192,192,140959,1,0,0:0:0:0:
64,192,140959,128,0,141025:0:0:0:0:
320,192,141009,1,0,0:0:0:0:
448,192,141059,1,0,0:0:0:0:
64,192,141109,1,0,0:0:0:0:
320,192,141159,1,0,0:0:0:0:
448,192,141159,1,0,0:0:0:0:
192,192,141259,1,0,0:0:0:0:
64,192,141359,128,0,141425:0:0:0:0:
448,192,141359,1,0,0:0:0:0:
320,192,141459,1,0,0:0:0:0:
192,192,141559,1,0,0:0:0:0:
64,192,141559,1,0,0:0:0:0:
448,192,141659,1,0,0:0:0:0:
64,192,141759,128,0,141825:0:0:0:0:
320,192,141759,1,0,0:0:0:0:
448,192,141859,1,0,0:0:0:0:
64,192,141959,1,0,0:0:0:0:
192,192,141959,1,0,0:0:0:0:
320,192,142059,1,0,0:0:0:0:
448,192,142159,1,0,0:0:0:0:
64,192,142159,128,0,142225:0:0:0:0:
192,192,142159,1,0,0:0:0:0:
192,192,142259,1,0,0:0:0:0:
64,192,142359,1,0,0:0:0:0:
320,192,142359,1,0,0:0:0:0:
192,192,142459,1,0,0:0:0:0:
448,192,142559,1,0,0:0:0:0:
64,192,142559,128,0,142625:0:0:0:0:
320,192,142659,1,0,0:0:0:0:
192,192,142759,1,0,0:0:0:0:
448,192,142759,1,0,0:0:0:0:
320,192,142825,1,0,0:0:0:0:
192,192,142892,1,0,0:0:0:0:
64,192,142959,128,0,143025:0:0:0:0:
320,192,142959,1,0,0:0:0:0:
192,192,143025,1,0,0:0:0:0:
320,192,143092,1,0,0:0:0:0:
64,192,143159,1,0,0:0:0:0:
192,192,143159,1,0,0:0:0:0:
448,192,143259,1,0,0:0:0:0:
320,192,143359,1,0,0:0:0:0:
64,192,143359,128,0,143425:0:0:0:0:
192,192,143459,1,0,0:0:0:0:
320,192,143559,1,0,0:0:0:0:
448,192,143559,1,0,0:0:0:0:
192,192,143659,1,0,0:0:0:0:
320,192,143759,1,0,0:0:0:0:
448,192,143759,1,0,0:0:0:0:
64,192,143759,128,0,143825:0:0:0:0:
320,192,143859,1,0,0:0:0:0:
192,192,143959,1,0,0:0:0:0:
448,192,143959,1,0,0:0:0:0:
320,192,144059,1,0,0:0:0:0:
64,192,144159,128,0,144225:0:0:0:0:
192,192,144159,1,0,0:0:0:0:
320,192,144259,1,0,0:0:0:0:
448,192,144359,1,0,0:0:0:0:
64,192,144359,1,0,0:0:0:0:
192,192,144425,1,0,0:0:0:0:
448,192,144492,1,0,0:0:0:0:
192,192,144559,1,0,0:0:0:0:
64,192,144559,128,0,144625:0:0:0:0:
448,192,144625,1,0,0:0:0:0:
192,192,144692,1,0,0:0:0:0:
320,192,144759,1,0,0:0:0:0:
64,192,144759,1,0,0:0:0:0:
448,192,144859,1,0,0:0:0:0:
192,192,144959,1,0,0:0:0:0:
64,192,144959,128,0,145025:0:0:0:0:
320,192,145059,1,0,0:0:0:0:
448,192,145159,1,0,0:0:0:0:
192,192,145159,1,0,0:0:0:0:
320,192,145259,1,0,0:0:0:0:
64,192,145359,1,0,0:0:0:0:
192,192,145359,1,0,0:0:0:0:
448,192,145359,1,0,0:0:0:0:
192,192,145459,1,0,0:0:0:0:
320,192,145559,1,0,0:0:0:0:
448,192,145559,1,0,0:0:0:0:
64,192,145659,1,0,0:0:0:0:
192,192,145759,1,0,0:0:0:0:
448,192,145759,1,0,0:0:0:0:
64,192,145809,1,0,0:0:0:0:
320,192,145859,1,0,0:0:0:0:
192,192,145909,1,0,0:0:0:0:
64,192,145959,1,0,0:0:0:0:
448,192,145959,1,0,0:0:0:0:
320,192,146009,1,0,0:0:0:0:
192,192,146059,1,0,0:0:0:0:
448,192,146109,1,0,0:0:0:0:
320,192,146159,1,0,0:0:0:0:
64,192,146159,1,0,0:0:0:0:
192,192,146209,1,0,0:0:0:0:
320,192,146259,1,0,0:0:0:0:
448,192,146309,1,0,0:0:0:0:
192,192,146359,1,0,0:0:0:0:
64,192,146359,1,0,0:0:0:0:
320,192,146409,1,0,0:0:0:0:
448,192,146459,1,0,0:0:0:0:
192,192,146509,1,0,0:0:0:0:
64,192,146559,1,0,0:0:0:0:
320,192,146559,1,0,0:0:0:0:
448,192,146609,1,0,0:0:0:0:
320,192,146659,1,0,0:0:0:0:
192,192,146709,1,0,0:0:0:0:
64,192,146759,1,0,0:0:0:0:
448,192,146759,1,0,0:0:0:0:
320,192,146809,1,0,0:0:0:0:
192,192,146859,1,0,0:0:0:0:
64,192,146909,1,0,0:0:0:0:
448,192,146959,1,0,0:0:0:0:
192,192,146959,1,0,0:0:0:0:
320,192,146959,1,0,0:0:0:0:
64,192,147058,1,0,0:0:0:0:
320,192,147157,1,0,0:0:0:0:
448,192,147157,1,0,0:0:0:0:
192,192,147257,1,0,0:0:0:0:
64,192,147356,1,0,0:0:0:0:
448,192,147356,1,0,0:0:0:0:
320,192,147406,1,0,0:0:0:0:
192,192,147455,1,0,0:0:0:0:
64,192,147505,1,0,0:0:0:0:
192,192,147555,1,0,0:0:0:0:
448,192,147555,1,0,0:0:0:0:
320,192,147604,1,0,0:0:0:0:
64,192,147654,1,0,0:0:0:0:
192,192,147704,1,0,0:0:0:0:
320,192,147753,1,0,0:0:0:0:
448,192,147753,1,0,0:0:0:0:
64,192,147803,1,0,0:0:0:0:
448,192,147853,1,0,0:0:0:0:
192,192,147902,1,0,0:0:0:0:
320,192,147952,1,0,0:0:0:0:
64,192,147952,1,0,0:0:0:0:
448,192,148002,1,0,0:0:0:0:
192,192,148051,1,0,0:0:0:0:
320,192,148101,1,0,0:0:0:0:
192,192,148151,1,0,0:0:0:0:
64,192,148151,1,0,0:0:0:0:
448,192,148200,1,0,0:0:0:0:
320,192,148250,1,0,0:0:0:0:
192,192,148300,1,0,0:0:0:0:
64,192,148349,1,0,0:0:0:0:
448,192,148349,1,0,0:0:0:0:
192,192,148449,1,0,0:0:0:0:
320,192,148548,1,0,0:0:0:0:
448,192,148548,1,0,0:0:0:0:
64,192,148648,1,0,0:0:0:0:
448,192,148748,1,0,0:0:0:0:
320,192,148748,1,0,0:0:0:0:
192,192,148848,1,0,0:0:0:0:
64,192,148948,1,0,0:0:0:0:
192,192,148948,1,0,0:0:0:0:
448,192,148998,1,0,0:0:0:0:
320,192,149048,1,0,0:0:0:0:
192,192,149098,1,0,0:0:0:0:
320,192,149148,1,0,0:0:0:0:
448,192,149148,1,0,0:0:0:0:
64,192,149198,1,0,0:0:0:0:
192,192,149248,1,0,0:0:0:0:
320,192,149298,1,0,0:0:0:0:
192,192,149348,1,0,0:0:0:0:
64,192,149348,1,0,0:0:0:0:
448,192,149398,1,0,0:0:0:0:
64,192,149448,1,0,0:0:0:0:
320,192,149498,1,0,0:0:0:0:
192,192,149548,1,0,0:0:0:0:
448,192,149548,1,0,0:0:0:0:
64,192,149598,1,0,0:0:0:0:
320,192,149648,1,0,0:0:0:0:
192,192,149698,1,0,0:0:0:0:
64,192,149748,1,0,0:0:0:0:
320,192,149748,1,0,0:0:0:0:
448,192,149798,1,0,0:0:0:0:
192,192,149848,1,0,0:0:0:0:
320,192,149898,1,0,0:0:0:0:
192,192,149948,1,0,0:0:0:0:
448,192,149948,1,0,0:0:0:0:
64,192,149998,1,0,0:0:0:0:
320,192,150048,1,0,0:0:0:0:
192,192,150098,1,0,0:0:0:0:
64,192,150148,1,0,0:0:0:0:
448,192,150148,1,0,0:0:0:0:
320,192,150198,1,0,0:0:0:0:
192,192,150248,1,0,0:0:0:0:
448,192,150298,1,0,0:0:0:0:
64,192,150348,1,0,0:0:0:0:
320,192,150348,1,0,0:0:0:0:
448,192,150398,1,0,0:0:0:0:
192,192,150448,1,0,0:0:0:0:
320,192,150498,1,0,0:0:0:0:
448,192,150548,1,0,0:0:0:0:
64,192,150548,1,0,0:0:0:0:
192,192,150598,1,0,0:0:0:0:
320,192,150648,1,0,0:0:0:0:
192,192,150698,1,0,0:0:0:0:
64,192,150748,1,0,0:0:0:0:
448,192,150748,1,0,0:0:0:0:
320,192,150798,1,0,0:0:0:0:
192,192,150848,1,0,0:0:0:0:
320,192,150898,1,0,0:0:0:0:
448,192,150948,1,0,0:0:0:0:
64,192,150948,1,0,0:0:0:0:
192,192,150998,1,0,0:0:0:0:
320,192,151048,1,0,0:0:0:0:
192,192,151098,1,0,0:0:0:0:
320,192,151148,1,0,0:0:0:0:
448,192,151148,1,0,0:0:0:0:
64,192,151198,1,0,0:0:0:0:
448,192,151248,1,0,0:0:0:0:
192,192,151298,1,0,0:0:0:0:
64,192,151348,1,0,0:0:0:0:
320,192,151348,1,0,0:0:0:0:
448,192,151398,1,0,0:0:0:0:
192,192,151448,1,0,0:0:0:0:
320,192,151498,1,0,0:0:0:0:
192,192,151548,1,0,0:0:0:0:
64,192,151548,1,0,0:0:0:0:
448,192,151598,1,0,0:0:0:0:
64,192,151648,1,0,0:0:0:0:
192,192,151698,1,0,0:0:0:0:
320,192,151748,1,0,0:0:0:0:
448,192,151748,1,0,0:0:0:0:
