osu file format v14

[General]
AudioFilename: audio.mp3
AudioLeadIn: 0
PreviewTime: 65661
Countdown: 0
SampleSet: None
StackLeniency: 0.7
Mode: 3
LetterboxInBreaks: 0
SpecialStyle: 0
WidescreenStoryboard: 0

[Editor]
DistanceSpacing: 1
BeatDivisor: 4
GridSize: 4
TimelineZoom: 2.4

[Metadata]
Title:Makes Bad
TitleUnicode:Makes Bad
Artist:Fail Emotions
ArtistUnicode:Fail Emotions
Creator:puxtu
Version:testing
Source:
Tags:Fatal FE Transformation Russian djent metal trancecore Posthardcore
BeatmapID:1582305
BeatmapSetID:751622

[Difficulty]
HPDrainRate:8.5
CircleSize:4
OverallDifficulty:8.5
ApproachRate:5
SliderMultiplier:1.4
SliderTickRate:1

[Events]
//Background and Video events
0,0,"66002656_p0.jpg",0,0
//Break Periods
2,33118,64633
2,76833,120861
2,127576,142804
2,166147,222347
//Storyboard Layer 0 (Background)
//Storyboard Layer 1 (Fail)
//Storyboard Layer 2 (Pass)
//Storyboard Layer 3 (Foreground)
//Storyboard Sound Samples

[TimingPoints]
10976,342.857142857143,4,3,1,50,1,0

[HitObjects]
320,192,10975,5,0,0:0:0:0:
64,192,10975,1,2,0:0:0:0:
320,192,11147,1,0,0:0:0:0:
64,192,11318,1,0,0:0:0:0:
320,192,11318,1,8,0:0:0:0:
320,192,11833,1,0,0:0:0:0:
320,192,12004,1,8,0:0:0:0:
64,192,12004,1,0,0:0:0:0:
320,192,12347,1,0,0:0:0:0:
320,192,12518,1,0,0:0:0:0:
64,192,12690,1,0,0:0:0:0:
320,192,12690,1,8,0:0:0:0:
320,192,13204,1,0,0:0:0:0:
320,192,13375,1,8,0:0:0:0:
64,192,13375,1,0,0:0:0:0:
320,192,13718,1,0,0:0:0:0:
320,192,13890,1,0,0:0:0:0:
64,192,14061,1,0,0:0:0:0:
320,192,14061,1,8,0:0:0:0:
320,192,14233,1,0,0:0:0:0:
320,192,14575,1,0,0:0:0:0:
320,192,14747,1,8,0:0:0:0:
64,192,14747,1,0,0:0:0:0:
320,192,15090,1,0,0:0:0:0:
320,192,15261,1,0,0:0:0:0:
64,192,15433,1,0,0:0:0:0:
320,192,15433,1,8,0:0:0:0:
320,192,15947,1,0,0:0:0:0:
320,192,16118,1,8,0:0:0:0:
64,192,16118,1,0,0:0:0:0:
320,192,16290,1,0,0:0:0:0:
320,192,16461,1,0,0:0:0:0:
64,192,16804,1,0,0:0:0:0:
320,192,16804,1,8,0:0:0:0:
320,192,17318,1,0,0:0:0:0:
320,192,17490,1,8,0:0:0:0:
64,192,17490,1,0,0:0:0:0:
320,192,17833,1,0,0:0:0:0:
320,192,18004,1,0,0:0:0:0:
64,192,18176,1,0,0:0:0:0:
320,192,18176,1,8,0:0:0:0:
320,192,18690,1,0,0:0:0:0:
320,192,18861,1,8,0:0:0:0:
64,192,18861,1,0,0:0:0:0:
320,192,19204,1,0,0:0:0:0:
320,192,19376,1,0,0:0:0:0:
64,192,19547,1,0,0:0:0:0:
320,192,19547,1,8,0:0:0:0:
320,192,19718,1,0,0:0:0:0:
320,192,20061,1,0,0:0:0:0:
320,192,20233,1,8,0:0:0:0:
64,192,20233,1,0,0:0:0:0:
320,192,20404,1,0,0:0:0:0:
64,192,20576,1,0,0:0:0:0:
320,192,20576,1,8,0:0:0:0:
320,192,21433,1,8,0:0:0:0:
64,192,21433,1,0,0:0:0:0:
192,192,21604,1,0,0:0:0:0:
320,192,21690,1,0,0:0:0:0:
448,192,21776,1,0,0:0:0:0:
64,192,21947,1,4,0:0:0:0:
192,192,22033,1,4,0:0:0:0:
320,192,22118,1,4,0:0:0:0:
448,192,22204,1,4,0:0:0:0:
64,192,22290,1,4,0:0:0:0:
192,192,22461,1,4,0:0:0:0:
64,192,22633,1,0,0:0:0:0:
320,192,22633,1,8,0:0:0:0:
192,192,22804,1,4,0:0:0:0:
320,192,22976,1,4,0:0:0:0:
192,192,23061,1,4,0:0:0:0:
64,192,23147,1,4,0:0:0:0:
320,192,23490,1,4,0:0:0:0:
192,192,23576,1,4,0:0:0:0:
64,192,23661,1,4,0:0:0:0:
448,192,23833,1,4,0:0:0:0:
320,192,24004,1,8,0:0:0:0:
64,192,24004,1,0,0:0:0:0:
192,192,24176,1,4,0:0:0:0:
320,192,24347,1,4,0:0:0:0:
192,192,24518,1,4,0:0:0:0:
448,192,24690,1,4,0:0:0:0:
320,192,24776,1,4,0:0:0:0:
192,192,24861,1,4,0:0:0:0:
64,192,24947,1,4,0:0:0:0:
448,192,25033,1,4,0:0:0:0:
320,192,25204,1,4,0:0:0:0:
448,192,25376,1,0,0:0:0:0:
192,192,25376,1,8,0:0:0:0:
320,192,25547,1,4,0:0:0:0:
192,192,25718,1,4,0:0:0:0:
320,192,25804,1,4,0:0:0:0:
448,192,25890,1,4,0:0:0:0:
192,192,26233,1,4,0:0:0:0:
320,192,26318,1,4,0:0:0:0:
448,192,26404,1,4,0:0:0:0:
64,192,26576,1,4,0:0:0:0:
192,192,26747,1,8,0:0:0:0:
448,192,26747,1,0,0:0:0:0:
320,192,26918,1,4,0:0:0:0:
320,192,27261,1,4,0:0:0:0:
448,192,27433,1,4,0:0:0:0:
320,192,27518,1,4,0:0:0:0:
192,192,27604,1,4,0:0:0:0:
64,192,27690,1,4,0:0:0:0:
448,192,27776,1,4,0:0:0:0:
320,192,27947,1,4,0:0:0:0:
192,192,28118,1,8,0:0:0:0:
448,192,28118,1,0,0:0:0:0:
320,192,28290,1,4,0:0:0:0:
192,192,28461,1,4,0:0:0:0:
320,192,28547,1,4,0:0:0:0:
448,192,28633,1,4,0:0:0:0:
192,192,28976,1,4,0:0:0:0:
320,192,29061,1,4,0:0:0:0:
448,192,29147,1,4,0:0:0:0:
64,192,29318,1,4,0:0:0:0:
448,192,29490,1,0,0:0:0:0:
192,192,29490,1,8,0:0:0:0:
320,192,29661,1,4,0:0:0:0:
192,192,29833,1,4,0:0:0:0:
320,192,30004,1,4,0:0:0:0:
448,192,30176,1,4,0:0:0:0:
320,192,30261,1,4,0:0:0:0:
192,192,30347,1,4,0:0:0:0:
64,192,30433,1,4,0:0:0:0:
448,192,30518,1,4,0:0:0:0:
320,192,30690,1,4,0:0:0:0:
448,192,30861,1,0,0:0:0:0:
192,192,30861,1,8,0:0:0:0:
320,192,31033,1,4,0:0:0:0:
192,192,31204,1,4,0:0:0:0:
320,192,31290,1,4,0:0:0:0:
448,192,31376,1,4,0:0:0:0:
192,192,31718,1,4,0:0:0:0:
320,192,31804,1,4,0:0:0:0:
448,192,31890,1,4,0:0:0:0:
64,192,32061,1,4,0:0:0:0:
192,192,32233,1,8,0:0:0:0:
448,192,32233,1,0,0:0:0:0:
320,192,32404,1,4,0:0:0:0:
192,192,32576,1,8,0:0:0:0:
64,192,32576,1,0,0:0:0:0:
448,192,32661,1,0,0:0:0:0:
320,192,32661,1,8,0:0:0:0:
192,192,32747,1,0,0:0:0:0:
64,192,32747,1,8,0:0:0:0:
320,192,32833,1,8,0:0:0:0:
448,192,32833,1,0,0:0:0:0:
192,192,32918,1,2,0:0:0:0:
64,192,32918,1,0,0:0:0:0:
64,192,65833,5,0,0:0:0:0:
192,192,65833,1,4,0:0:0:0:
192,192,66090,1,4,0:0:0:0:
320,192,66090,1,0,0:0:0:0:
320,192,66347,1,0,0:0:0:0:
448,192,66347,1,4,0:0:0:0:
448,192,66518,1,4,0:0:0:0:
64,192,66518,1,0,0:0:0:0:
192,192,66518,1,8,0:0:0:0:
320,192,66690,1,4,0:0:0:0:
64,192,66690,1,0,0:0:0:0:
192,192,66861,1,0,0:0:0:0:
448,192,66861,1,4,0:0:0:0:
448,192,67033,1,4,0:0:0:0:
64,192,67033,1,0,0:0:0:0:
64,192,67204,1,0,0:0:0:0:
320,192,67204,1,4,0:0:0:0:
448,192,67461,1,4,0:0:0:0:
192,192,67461,1,0,0:0:0:0:
64,192,67718,1,0,0:0:0:0:
192,192,67718,1,4,0:0:0:0:
448,192,67890,1,4,0:0:0:0:
64,192,67890,1,0,0:0:0:0:
320,192,67890,1,8,0:0:0:0:
448,192,68061,1,4,0:0:0:0:
192,192,68061,1,0,0:0:0:0:
64,192,68233,1,0,0:0:0:0:
192,192,68233,1,4,0:0:0:0:
448,192,68404,1,4,0:0:0:0:
320,192,68404,1,0,0:0:0:0:
192,192,68576,1,4,0:0:0:0:
64,192,68576,1,0,0:0:0:0:
320,192,68661,1,4,0:0:0:0:
192,192,68747,1,4,0:0:0:0:
448,192,68918,1,4,0:0:0:0:
64,192,68918,1,0,0:0:0:0:
320,192,69004,1,4,0:0:0:0:
192,192,69090,1,4,0:0:0:0:
320,192,69261,1,8,0:0:0:0:
64,192,69261,1,0,0:0:0:0:
448,192,69261,1,4,0:0:0:0:
192,192,69433,1,0,0:0:0:0:
448,192,69433,1,4,0:0:0:0:
320,192,69518,1,4,0:0:0:0:
192,192,69604,1,4,0:0:0:0:
64,192,69776,1,0,0:0:0:0:
320,192,69776,1,4,0:0:0:0:
192,192,70118,1,0,0:0:0:0:
448,192,70118,1,4,0:0:0:0:
64,192,70204,1,4,0:0:0:0:
320,192,70290,1,4,0:0:0:0:
64,192,70461,1,0,0:0:0:0:
192,192,70461,1,4,0:0:0:0:
64,192,70633,1,0,0:0:0:0:
320,192,70633,1,8,0:0:0:0:
448,192,70633,1,4,0:0:0:0:
192,192,70718,1,4,0:0:0:0:
320,192,70804,1,4,0:0:0:0:
64,192,70976,1,0,0:0:0:0:
192,192,70976,1,4,0:0:0:0:
320,192,71061,1,4,0:0:0:0:
448,192,71147,1,4,0:0:0:0:
320,192,71318,1,0,0:0:0:0:
192,192,71318,1,4,0:0:0:0:
192,192,71576,1,4,0:0:0:0:
64,192,71576,1,0,0:0:0:0:
320,192,71833,1,0,0:0:0:0:
448,192,71833,1,4,0:0:0:0:
448,192,72004,1,4,0:0:0:0:
64,192,72004,1,0,0:0:0:0:
192,192,72004,1,8,0:0:0:0:
320,192,72176,1,4,0:0:0:0:
64,192,72176,1,0,0:0:0:0:
192,192,72347,1,0,0:0:0:0:
448,192,72347,1,4,0:0:0:0:
192,192,72518,1,4,0:0:0:0:
64,192,72518,1,0,0:0:0:0:
320,192,72690,1,0,0:0:0:0:
448,192,72690,1,4,0:0:0:0:
320,192,72947,1,4,0:0:0:0:
192,192,72947,1,0,0:0:0:0:
64,192,73204,1,0,0:0:0:0:
448,192,73204,1,4,0:0:0:0:
192,192,73376,1,4,0:0:0:0:
64,192,73376,1,0,0:0:0:0:
320,192,73376,1,8,0:0:0:0:
448,192,73547,1,4,0:0:0:0:
320,192,73547,1,0,0:0:0:0:
64,192,73718,1,0,0:0:0:0:
192,192,73718,1,4,0:0:0:0:
320,192,73890,1,4,0:0:0:0:
192,192,73890,1,0,0:0:0:0:
448,192,74061,1,4,0:0:0:0:
64,192,74061,1,0,0:0:0:0:
192,192,74147,1,4,0:0:0:0:
320,192,74233,1,4,0:0:0:0:
448,192,74404,1,4,0:0:0:0:
64,192,74404,1,0,0:0:0:0:
320,192,74490,1,4,0:0:0:0:
192,192,74576,1,4,0:0:0:0:
320,192,74747,1,8,0:0:0:0:
64,192,74747,1,0,0:0:0:0:
448,192,74747,1,4,0:0:0:0:
192,192,74918,1,0,0:0:0:0:
448,192,74918,1,4,0:0:0:0:
320,192,75004,1,4,0:0:0:0:
192,192,75090,1,4,0:0:0:0:
64,192,75261,1,0,0:0:0:0:
320,192,75261,1,4,0:0:0:0:
64,192,75604,1,0,0:0:0:0:
448,192,75604,1,4,0:0:0:0:
320,192,75690,1,4,0:0:0:0:
192,192,75776,1,4,0:0:0:0:
64,192,75947,1,0,0:0:0:0:
448,192,75947,1,4,0:0:0:0:
64,192,76118,1,0,0:0:0:0:
320,192,76118,1,8,0:0:0:0:
448,192,76118,1,4,0:0:0:0:
192,192,76204,1,4,0:0:0:0:
320,192,76290,1,4,0:0:0:0:
64,192,76461,1,0,0:0:0:0:
448,192,76461,1,4,0:0:0:0:
320,192,76547,1,4,0:0:0:0:
192,192,76633,1,4,0:0:0:0:
448,192,122061,5,4,0:0:0:0:
320,192,122147,1,4,0:0:0:0:
192,192,122233,1,4,0:0:0:0:
64,192,122318,1,4,0:0:0:0:
448,192,122404,1,4,0:0:0:0:
320,192,122576,1,4,0:0:0:0:
448,192,122747,1,0,0:0:0:0:
192,192,122747,1,8,0:0:0:0:
320,192,122918,1,4,0:0:0:0:
192,192,123090,1,4,0:0:0:0:
320,192,123176,1,4,0:0:0:0:
448,192,123261,1,4,0:0:0:0:
192,192,123604,1,4,0:0:0:0:
320,192,123690,1,4,0:0:0:0:
448,192,123776,1,4,0:0:0:0:
64,192,123947,1,4,0:0:0:0:
192,192,124118,1,8,0:0:0:0:
448,192,124118,1,0,0:0:0:0:
320,192,124290,1,4,0:0:0:0:
192,192,124461,1,4,0:0:0:0:
320,192,124633,1,4,0:0:0:0:
64,192,124804,1,4,0:0:0:0:
192,192,124890,1,4,0:0:0:0:
320,192,124976,1,4,0:0:0:0:
448,192,125061,1,4,0:0:0:0:
64,192,125147,1,4,0:0:0:0:
192,192,125318,1,4,0:0:0:0:
64,192,125490,1,0,0:0:0:0:
320,192,125490,1,8,0:0:0:0:
192,192,125661,1,4,0:0:0:0:
320,192,125833,1,4,0:0:0:0:
192,192,125918,1,4,0:0:0:0:
64,192,126004,1,4,0:0:0:0:
320,192,126347,1,4,0:0:0:0:
192,192,126433,1,4,0:0:0:0:
64,192,126518,1,4,0:0:0:0:
448,192,126690,1,4,0:0:0:0:
320,192,126861,1,8,0:0:0:0:
64,192,126861,1,0,0:0:0:0:
192,192,127033,1,4,0:0:0:0:
192,192,127376,1,4,0:0:0:0:
320,192,144004,5,2,0:0:0:0:
448,192,144004,1,0,0:0:0:0:
192,192,144090,1,0,0:0:0:0:
320,192,144176,1,4,0:0:0:0:
64,192,144176,1,0,0:0:0:0:
448,192,144261,1,0,0:0:0:0:
64,192,144347,1,8,0:0:0:0:
192,192,144347,1,0,0:0:0:0:
448,192,144433,1,0,0:0:0:0:
320,192,144518,1,0,0:0:0:0:
64,192,144518,1,4,0:0:0:0:
192,192,144604,1,0,0:0:0:0:
448,192,144690,1,0,0:0:0:0:
64,192,144690,1,4,0:0:0:0:
320,192,144776,1,0,0:0:0:0:
192,192,144861,1,4,0:0:0:0:
448,192,144861,1,0,0:0:0:0:
64,192,144947,1,0,0:0:0:0:
320,192,145033,1,0,0:0:0:0:
448,192,145033,1,8,0:0:0:0:
64,192,145118,1,0,0:0:0:0:
448,192,145204,1,4,0:0:0:0:
192,192,145204,1,0,0:0:0:0:
320,192,145290,1,0,0:0:0:0:
448,192,145376,1,4,0:0:0:0:
64,192,145376,1,0,0:0:0:0:
192,192,145461,1,0,0:0:0:0:
64,192,145547,1,0,0:0:0:0:
320,192,145547,1,4,0:0:0:0:
448,192,145633,1,0,0:0:0:0:
192,192,145718,1,0,0:0:0:0:
64,192,145718,1,8,0:0:0:0:
448,192,145804,1,0,0:0:0:0:
64,192,145890,1,4,0:0:0:0:
320,192,145890,1,0,0:0:0:0:
192,192,145976,1,0,0:0:0:0:
64,192,146061,1,4,0:0:0:0:
448,192,146061,1,0,0:0:0:0:
320,192,146147,1,0,0:0:0:0:
448,192,146233,1,0,0:0:0:0:
192,192,146233,1,4,0:0:0:0:
64,192,146318,1,0,0:0:0:0:
448,192,146404,1,8,0:0:0:0:
320,192,146404,1,0,0:0:0:0:
64,192,146490,1,0,0:0:0:0:
192,192,146576,1,0,0:0:0:0:
448,192,146576,1,4,0:0:0:0:
320,192,146661,1,0,0:0:0:0:
64,192,146747,1,0,0:0:0:0:
448,192,146747,1,4,0:0:0:0:
192,192,146833,1,0,0:0:0:0:
320,192,146918,1,4,0:0:0:0:
64,192,146918,1,0,0:0:0:0:
448,192,147004,1,0,0:0:0:0:
64,192,147090,1,8,0:0:0:0:
192,192,147090,1,0,0:0:0:0:
448,192,147176,1,0,0:0:0:0:
320,192,147261,1,0,0:0:0:0:
64,192,147261,1,4,0:0:0:0:
192,192,147347,1,0,0:0:0:0:
448,192,147433,1,0,0:0:0:0:
64,192,147433,1,4,0:0:0:0:
320,192,147518,1,0,0:0:0:0:
192,192,147604,1,4,0:0:0:0:
448,192,147604,1,0,0:0:0:0:
64,192,147690,1,0,0:0:0:0:
320,192,147776,1,0,0:0:0:0:
448,192,147776,1,8,0:0:0:0:
64,192,147861,1,0,0:0:0:0:
448,192,147947,1,4,0:0:0:0:
192,192,147947,1,0,0:0:0:0:
320,192,148033,1,0,0:0:0:0:
448,192,148118,1,4,0:0:0:0:
64,192,148118,1,0,0:0:0:0:
192,192,148204,1,0,0:0:0:0:
64,192,148290,1,0,0:0:0:0:
320,192,148290,1,4,0:0:0:0:
448,192,148376,1,0,0:0:0:0:
192,192,148461,1,0,0:0:0:0:
64,192,148461,1,8,0:0:0:0:
448,192,148547,1,0,0:0:0:0:
64,192,148633,1,4,0:0:0:0:
320,192,148633,1,0,0:0:0:0:
192,192,148718,1,0,0:0:0:0:
64,192,148804,1,4,0:0:0:0:
448,192,148804,1,0,0:0:0:0:
320,192,148890,1,0,0:0:0:0:
448,192,148976,1,0,0:0:0:0:
192,192,148976,1,4,0:0:0:0:
64,192,149061,1,0,0:0:0:0:
448,192,149147,1,8,0:0:0:0:
320,192,149147,1,0,0:0:0:0:
64,192,149233,1,0,0:0:0:0:
192,192,149318,1,0,0:0:0:0:
448,192,149318,1,4,0:0:0:0:
320,192,149404,1,0,0:0:0:0:
64,192,149490,1,0,0:0:0:0:
448,192,149490,1,4,0:0:0:0:
192,192,149576,1,0,0:0:0:0:
320,192,149661,1,4,0:0:0:0:
64,192,149661,1,0,0:0:0:0:
448,192,149747,1,0,0:0:0:0:
64,192,149833,1,8,0:0:0:0:
192,192,149833,1,0,0:0:0:0:
448,192,149918,1,0,0:0:0:0:
320,192,150004,1,0,0:0:0:0:
64,192,150004,1,4,0:0:0:0:
192,192,150090,1,0,0:0:0:0:
448,192,150176,1,0,0:0:0:0:
64,192,150176,1,4,0:0:0:0:
320,192,150261,1,0,0:0:0:0:
192,192,150347,1,4,0:0:0:0:
448,192,150347,1,0,0:0:0:0:
64,192,150433,1,0,0:0:0:0:
320,192,150518,1,0,0:0:0:0:
448,192,150518,1,8,0:0:0:0:
64,192,150604,1,0,0:0:0:0:
448,192,150690,1,4,0:0:0:0:
192,192,150690,1,0,0:0:0:0:
320,192,150776,1,0,0:0:0:0:
448,192,150861,1,4,0:0:0:0:
64,192,150861,1,0,0:0:0:0:
192,192,150947,1,0,0:0:0:0:
64,192,151033,1,0,0:0:0:0:
320,192,151033,1,4,0:0:0:0:
448,192,151118,1,0,0:0:0:0:
192,192,151204,1,0,0:0:0:0:
64,192,151204,1,8,0:0:0:0:
448,192,151290,1,0,0:0:0:0:
64,192,151376,1,4,0:0:0:0:
320,192,151376,1,0,0:0:0:0:
192,192,151461,1,0,0:0:0:0:
64,192,151547,1,4,0:0:0:0:
448,192,151547,1,0,0:0:0:0:
320,192,151633,1,0,0:0:0:0:
448,192,151718,1,0,0:0:0:0:
192,192,151718,1,4,0:0:0:0:
64,192,151804,1,0,0:0:0:0:
448,192,151890,1,8,0:0:0:0:
320,192,151890,1,0,0:0:0:0:
64,192,151976,1,0,0:0:0:0:
192,192,152061,1,0,0:0:0:0:
448,192,152061,1,4,0:0:0:0:
320,192,152147,1,0,0:0:0:0:
64,192,152233,1,0,0:0:0:0:
448,192,152233,1,4,0:0:0:0:
192,192,152318,1,0,0:0:0:0:
320,192,152404,1,4,0:0:0:0:
64,192,152404,1,0,0:0:0:0:
448,192,152490,1,0,0:0:0:0:
64,192,152576,1,8,0:0:0:0:
192,192,152576,1,0,0:0:0:0:
448,192,152661,1,0,0:0:0:0:
320,192,152747,1,0,0:0:0:0:
64,192,152747,1,4,0:0:0:0:
192,192,152833,1,0,0:0:0:0:
448,192,152918,1,0,0:0:0:0:
64,192,152918,1,4,0:0:0:0:
320,192,153004,1,0,0:0:0:0:
192,192,153090,1,4,0:0:0:0:
448,192,153090,1,0,0:0:0:0:
64,192,153176,1,0,0:0:0:0:
320,192,153261,1,0,0:0:0:0:
448,192,153261,1,8,0:0:0:0:
64,192,153347,1,0,0:0:0:0:
448,192,153433,1,4,0:0:0:0:
192,192,153433,1,0,0:0:0:0:
320,192,153518,1,0,0:0:0:0:
448,192,153604,1,4,0:0:0:0:
64,192,153604,1,0,0:0:0:0:
192,192,153690,1,0,0:0:0:0:
64,192,153776,1,0,0:0:0:0:
320,192,153776,1,4,0:0:0:0:
448,192,153861,1,0,0:0:0:0:
192,192,153947,1,0,0:0:0:0:
64,192,153947,1,8,0:0:0:0:
448,192,154033,1,0,0:0:0:0:
64,192,154118,1,4,0:0:0:0:
320,192,154118,1,0,0:0:0:0:
192,192,154204,1,0,0:0:0:0:
64,192,154290,1,4,0:0:0:0:
448,192,154290,1,0,0:0:0:0:
320,192,154376,1,0,0:0:0:0:
448,192,154461,1,0,0:0:0:0:
192,192,154461,1,4,0:0:0:0:
64,192,154547,1,0,0:0:0:0:
448,192,154633,1,8,0:0:0:0:
320,192,154633,1,0,0:0:0:0:
64,192,154718,1,0,0:0:0:0:
192,192,154804,1,0,0:0:0:0:
448,192,154804,1,4,0:0:0:0:
320,192,154890,1,0,0:0:0:0:
64,192,154976,1,0,0:0:0:0:
448,192,154976,1,4,0:0:0:0:
192,192,155061,1,0,0:0:0:0:
320,192,155147,1,4,0:0:0:0:
64,192,155147,1,0,0:0:0:0:
448,192,155233,1,0,0:0:0:0:
64,192,155318,1,8,0:0:0:0:
192,192,155318,1,0,0:0:0:0:
448,192,155404,1,0,0:0:0:0:
64,192,155490,1,4,0:0:0:0:
320,192,155490,1,0,0:0:0:0:
192,192,155576,1,0,0:0:0:0:
64,192,155661,1,4,0:0:0:0:
448,192,155661,1,0,0:0:0:0:
320,192,155747,1,0,0:0:0:0:
448,192,155833,1,0,0:0:0:0:
192,192,155833,1,4,0:0:0:0:
64,192,155918,1,0,0:0:0:0:
448,192,156004,1,8,0:0:0:0:
320,192,156004,1,0,0:0:0:0:
64,192,156090,1,0,0:0:0:0:
192,192,156176,1,0,0:0:0:0:
448,192,156176,1,4,0:0:0:0:
320,192,156261,1,0,0:0:0:0:
64,192,156347,1,0,0:0:0:0:
448,192,156347,1,4,0:0:0:0:
192,192,156433,1,0,0:0:0:0:
320,192,156518,1,4,0:0:0:0:
64,192,156518,1,0,0:0:0:0:
448,192,156604,1,0,0:0:0:0:
64,192,156690,1,8,0:0:0:0:
192,192,156690,1,0,0:0:0:0:
448,192,156776,1,0,0:0:0:0:
320,192,156861,1,0,0:0:0:0:
64,192,156861,1,4,0:0:0:0:
192,192,156947,1,0,0:0:0:0:
448,192,157033,1,0,0:0:0:0:
64,192,157033,1,4,0:0:0:0:
320,192,157118,1,0,0:0:0:0:
192,192,157204,1,4,0:0:0:0:
448,192,157204,1,0,0:0:0:0:
64,192,157290,1,0,0:0:0:0:
320,192,157376,1,0,0:0:0:0:
448,192,157376,1,8,0:0:0:0:
64,192,157461,1,0,0:0:0:0:
448,192,157547,1,4,0:0:0:0:
192,192,157547,1,0,0:0:0:0:
320,192,157633,1,0,0:0:0:0:
448,192,157718,1,4,0:0:0:0:
64,192,157718,1,0,0:0:0:0:
192,192,157804,1,0,0:0:0:0:
64,192,157890,1,0,0:0:0:0:
320,192,157890,1,4,0:0:0:0:
448,192,157976,1,0,0:0:0:0:
192,192,158061,1,0,0:0:0:0:
64,192,158061,1,8,0:0:0:0:
448,192,158147,1,0,0:0:0:0:
64,192,158233,1,4,0:0:0:0:
320,192,158233,1,0,0:0:0:0:
192,192,158318,1,0,0:0:0:0:
64,192,158404,1,4,0:0:0:0:
448,192,158404,1,0,0:0:0:0:
320,192,158490,1,0,0:0:0:0:
448,192,158576,1,0,0:0:0:0:
192,192,158576,1,4,0:0:0:0:
64,192,158661,1,0,0:0:0:0:
448,192,158747,1,8,0:0:0:0:
320,192,158747,1,0,0:0:0:0:
64,192,158833,1,0,0:0:0:0:
192,192,158918,1,0,0:0:0:0:
448,192,158918,1,4,0:0:0:0:
320,192,159004,1,0,0:0:0:0:
64,192,159090,1,0,0:0:0:0:
448,192,159090,1,4,0:0:0:0:
192,192,159176,1,0,0:0:0:0:
320,192,159261,1,4,0:0:0:0:
64,192,159261,1,0,0:0:0:0:
448,192,159347,1,0,0:0:0:0:
64,192,159433,1,8,0:0:0:0:
192,192,159433,1,0,0:0:0:0:
448,192,159518,1,0,0:0:0:0:
320,192,159604,1,0,0:0:0:0:
64,192,159604,1,4,0:0:0:0:
192,192,159690,1,0,0:0:0:0:
448,192,159776,1,0,0:0:0:0:
64,192,159776,1,4,0:0:0:0:
320,192,159861,1,0,0:0:0:0:
192,192,159947,1,4,0:0:0:0:
448,192,159947,1,0,0:0:0:0:
64,192,160033,1,0,0:0:0:0:
320,192,160118,1,0,0:0:0:0:
448,192,160118,1,8,0:0:0:0:
64,192,160204,1,0,0:0:0:0:
448,192,160290,1,4,0:0:0:0:
192,192,160290,1,0,0:0:0:0:
320,192,160376,1,0,0:0:0:0:
448,192,160461,1,4,0:0:0:0:
64,192,160461,1,0,0:0:0:0:
192,192,160547,1,0,0:0:0:0:
64,192,160633,1,0,0:0:0:0:
320,192,160633,1,4,0:0:0:0:
448,192,160718,1,0,0:0:0:0:
192,192,160804,1,0,0:0:0:0:
64,192,160804,1,8,0:0:0:0:
448,192,160890,1,0,0:0:0:0:
320,192,160976,1,0,0:0:0:0:
64,192,160976,1,4,0:0:0:0:
192,192,161061,1,0,0:0:0:0:
448,192,161147,1,0,0:0:0:0:
64,192,161147,1,4,0:0:0:0:
320,192,161233,1,0,0:0:0:0:
192,192,161318,1,4,0:0:0:0:
448,192,161318,1,0,0:0:0:0:
64,192,161404,1,0,0:0:0:0:
320,192,161490,1,0,0:0:0:0:
448,192,161490,1,8,0:0:0:0:
64,192,161576,1,0,0:0:0:0:
448,192,161661,1,4,0:0:0:0:
192,192,161661,1,0,0:0:0:0:
320,192,161747,1,0,0:0:0:0:
448,192,161833,1,4,0:0:0:0:
64,192,161833,1,0,0:0:0:0:
192,192,161918,1,0,0:0:0:0:
64,192,162004,1,0,0:0:0:0:
320,192,162004,1,4,0:0:0:0:
448,192,162090,1,0,0:0:0:0:
192,192,162176,1,0,0:0:0:0:
64,192,162176,1,8,0:0:0:0:
448,192,162261,1,0,0:0:0:0:
64,192,162347,1,4,0:0:0:0:
320,192,162347,1,0,0:0:0:0:
192,192,162433,1,0,0:0:0:0:
64,192,162518,1,4,0:0:0:0:
448,192,162518,1,0,0:0:0:0:
320,192,162604,1,0,0:0:0:0:
448,192,162690,1,0,0:0:0:0:
192,192,162690,1,4,0:0:0:0:
64,192,162776,1,0,0:0:0:0:
448,192,162861,1,8,0:0:0:0:
320,192,162861,1,0,0:0:0:0:
64,192,162947,1,0,0:0:0:0:
192,192,163033,1,0,0:0:0:0:
448,192,163033,1,4,0:0:0:0:
320,192,163118,1,0,0:0:0:0:
64,192,163204,1,0,0:0:0:0:
448,192,163204,1,4,0:0:0:0:
192,192,163290,1,0,0:0:0:0:
320,192,163376,1,4,0:0:0:0:
64,192,163376,1,0,0:0:0:0:
448,192,163461,1,0,0:0:0:0:
64,192,163547,1,8,0:0:0:0:
192,192,163547,1,0,0:0:0:0:
448,192,163633,1,0,0:0:0:0:
320,192,163718,1,0,0:0:0:0:
64,192,163718,1,4,0:0:0:0:
192,192,163804,1,0,0:0:0:0:
448,192,163890,1,0,0:0:0:0:
64,192,163890,1,4,0:0:0:0:
320,192,163976,1,0,0:0:0:0:
192,192,164061,1,4,0:0:0:0:
448,192,164061,1,0,0:0:0:0:
64,192,164147,1,0,0:0:0:0:
320,192,164233,1,0,0:0:0:0:
448,192,164233,1,8,0:0:0:0:
64,192,164318,1,0,0:0:0:0:
448,192,164404,1,4,0:0:0:0:
192,192,164404,1,0,0:0:0:0:
320,192,164490,1,0,0:0:0:0:
192,192,164576,1,8,0:0:0:0:
64,192,164576,1,0,0:0:0:0:
320,192,164661,1,0,0:0:0:0:
64,192,164747,1,0,0:0:0:0:
192,192,164747,1,4,0:0:0:0:
448,192,164833,1,0,0:0:0:0:
192,192,164918,1,0,0:0:0:0:
64,192,164918,1,8,0:0:0:0:
448,192,165004,1,0,0:0:0:0:
64,192,165090,1,4,0:0:0:0:
320,192,165090,1,0,0:0:0:0:
192,192,165176,1,0,0:0:0:0:
320,192,165261,1,8,0:0:0:0:
448,192,165261,1,0,0:0:0:0:
192,192,165347,1,0,0:0:0:0:
448,192,165433,1,0,0:0:0:0:
320,192,165433,1,4,0:0:0:0:
64,192,165518,1,0,0:0:0:0:
448,192,165604,1,8,0:0:0:0:
320,192,165604,1,0,0:0:0:0:
64,192,165690,1,0,0:0:0:0:
192,192,165776,1,0,0:0:0:0:
448,192,165776,1,4,0:0:0:0:
320,192,165861,1,0,0:0:0:0:
64,192,165947,1,0,0:0:0:0:
448,192,165947,1,4,0:0:0:0:
192,192,165947,1,2,0:0:0:0:
448,192,223547,132,0,223718:0:0:0:0:
320,192,223718,128,0,223890:0:0:0:0:
192,192,223890,128,0,224061:0:0:0:0:
64,192,224061,128,0,224404:0:0:0:0:
320,192,224404,128,0,224576:0:0:0:0:
448,192,224576,128,0,224747:0:0:0:0:
192,192,224747,128,0,225090:0:0:0:0:
64,192,225090,128,0,225261:0:0:0:0:
320,192,225261,128,0,225433:0:0:0:0:
192,192,225433,128,0,225776:0:0:0:0:
448,192,225776,128,0,225947:0:0:0:0:
64,192,225947,128,0,226290:0:0:0:0:
320,192,226290,128,0,226376:0:0:0:0:
448,192,226376,128,0,226461:0:0:0:0:
64,192,226461,128,0,226547:0:0:0:0:
192,192,226547,128,0,226633:0:0:0:0:
320,192,226633,128,0,226718:0:0:0:0:
448,192,226718,128,0,226804:0:0:0:0:
192,192,226804,128,0,226890:0:0:0:0:
64,192,226890,128,0,226976:0:0:0:0:
320,192,226976,128,0,227147:0:0:0:0:
448,192,227147,128,0,227318:0:0:0:0:
192,192,227318,128,0,227490:0:0:0:0:
64,192,227490,128,0,227833:0:0:0:0:
320,192,227833,128,0,228004:0:0:0:0:
192,192,228004,128,0,228176:0:0:0:0:
448,192,228176,128,0,229033:0:0:0:0:
192,192,229033,128,0,229118:0:0:0:0:
320,192,229118,128,0,229204:0:0:0:0:
64,192,229204,128,0,229290:0:0:0:0:
448,192,229290,128,0,229376:0:0:0:0:
192,192,229376,128,0,229461:0:0:0:0:
320,192,229461,128,0,229547:0:0:0:0:
64,192,229547,128,0,229633:0:0:0:0:
448,192,229633,128,0,229718:0:0:0:0:
192,192,229718,128,0,229804:0:0:0:0:
64,192,229804,128,0,229890:0:0:0:0:
320,192,229890,128,0,229976:0:0:0:0:
192,192,229976,128,0,230061:0:0:0:0:
448,192,230061,128,0,230147:0:0:0:0:
320,192,230147,128,0,230233:0:0:0:0:
192,192,230233,128,0,230318:0:0:0:0:
64,192,230318,128,0,230404:0:0:0:0:
320,192,230404,128,0,230490:0:0:0:0:
448,192,230490,128,0,230576:0:0:0:0:
192,192,230576,128,0,230661:0:0:0:0:
64,192,230661,128,0,230747:0:0:0:0:
320,192,230747,128,0,230833:0:0:0:0:
448,192,230833,128,0,230918:0:0:0:0:
64,192,230918,128,0,231004:0:0:0:0:
320,192,231004,128,0,231090:0:0:0:0:
192,192,231090,128,0,231176:0:0:0:0:
448,192,231176,128,0,231261:0:0:0:0:
64,192,231261,128,0,231347:0:0:0:0:
320,192,231347,128,0,231433:0:0:0:0:
192,192,231433,128,0,231518:0:0:0:0:
448,192,231518,128,0,231604:0:0:0:0:
64,192,231604,128,0,231690:0:0:0:0:
320,192,231690,128,0,231776:0:0:0:0:
192,192,231776,128,0,232461:0:0:0:0:
448,192,232461,1,0,0:0:0:0:
448,192,232547,1,0,0:0:0:0:
448,192,232633,1,0,0:0:0:0:
192,192,232804,1,0,0:0:0:0:
192,192,232890,1,0,0:0:0:0:
192,192,232976,1,0,0:0:0:0:
320,192,233147,1,0,0:0:0:0:
320,192,233233,1,0,0:0:0:0:
320,192,233318,1,0,0:0:0:0:
64,192,233490,1,0,0:0:0:0:
64,192,233576,1,0,0:0:0:0:
64,192,233661,1,0,0:0:0:0:
448,192,233833,1,0,0:0:0:0:
448,192,233918,1,0,0:0:0:0:
448,192,234004,1,0,0:0:0:0:
192,192,234176,1,0,0:0:0:0:
192,192,234261,1,0,0:0:0:0:
192,192,234347,1,0,0:0:0:0:
448,192,234518,128,0,235890:0:0:0:0:
