osu file format v14

[General]
AudioFilename: Pika.mp3
AudioLeadIn: 0
PreviewTime: 33882
Countdown: 0
SampleSet: Soft
StackLeniency: 0.7
Mode: 0
LetterboxInBreaks: 0
WidescreenStoryboard: 1

[Editor]
Bookmarks: 11956,22792,34982,45818,56654,68844,79680,90516
DistanceSpacing: 1
BeatDivisor: 4
GridSize: 4
TimelineZoom: 1.3

[Metadata]
Title:Cari Pokemon (Speed Up Ver.)
TitleUnicode:Cari Pokemon (Speed Up Ver.)
Artist:Faiha
ArtistUnicode:Faiha
Creator:ezek
Version:Normal
Source:
Tags:indonesian go cut nintendo pikachu song children kids sani music indonesia Tjahjadi Djajanata ishak
BeatmapID:1298076
BeatmapSetID:613128

[Difficulty]
HPDrainRate:4.5
CircleSize:3
OverallDifficulty:4.5
ApproachRate:5
SliderMultiplier:1.3
SliderTickRate:1

[Events]
//Background and Video events
0,0,"Bakari's minions.png",0,0
//Break Periods
//Storyboard Layer 0 (Background)
//Storyboard Layer 1 (Fail)
//Storyboard Layer 2 (Pass)
//Storyboard Layer 3 (Foreground)
//Storyboard Sound Samples

[TimingPoints]
1109,338.696020321761,4,2,0,100,1,0
24140,-100,4,2,0,100,0,1
33623,-100,4,2,0,100,0,0
34978,-100,4,2,0,100,0,1
45816,-100,4,2,0,100,0,0
68848,-100,4,2,0,100,0,1
78331,-100,4,2,0,100,0,0
79686,-100,4,2,0,100,0,1
90524,-100,4,2,0,100,0,0

[Colours]
Combo1 : 70,201,14
Combo2 : 252,221,3
Combo3 : 28,157,244
Combo4 : 249,91,6

[HitObjects]
256,312,1109,6,0,L|256:376,2,65,2|0|0,0:0|0:0|0:0,0:0:0:0:
320,200,1786,1,0,0:0:0:0:
192,200,2125,1,0,0:0:0:0:
256,88,2463,6,0,L|256:24,2,65,2|0|0,0:0|0:0|0:0,0:0:0:0:
320,200,3141,1,0,0:0:0:0:
192,200,3479,1,0,0:0:0:0:
120,308,3818,6,0,L|56:308,2,65,2|0|0,0:0|0:0|0:0,0:0:0:0:
244,344,4495,2,0,B|288:344|288:344|324:360|324:360|372:360,1,130
432,248,5173,6,0,L|496:268,2,65,2|0|2,0:0|0:0|0:0,0:0:0:0:
392,196,5681,1,0,0:0:0:0:
356,144,5850,2,0,L|232:104,1,130,2|0,0:0|0:0,0:0:0:0:
136,192,6528,6,0,L|72:192,2,65,4|0|4,3:0|0:0|3:0,0:0:0:0:
192,312,7205,1,4,3:0:0:0:
320,312,7544,1,4,3:0:0:0:
376,192,7882,6,0,L|440:192,2,65,4|0|4,3:0|0:0|3:0,0:0:0:0:
320,72,8560,1,4,3:0:0:0:
192,72,8899,1,4,3:0:0:0:
256,184,9237,6,0,L|256:256,2,65,4|0|4,3:0|0:0|3:0,0:0:0:0:
256,52,9915,1,4,3:0:0:0:
256,52,10253,1,4,3:0:0:0:
368,116,10592,6,0,P|424:92|488:116,1,130,4|2,3:2|0:0,0:0:0:0:
428,232,11269,1,2,0:0:0:0:
188,336,11947,6,0,B|136:336|136:336|96:336|68:300,1,130,2|8,0:0|0:0,0:0:0:0:
40,244,12455,1,0,0:0:0:0:
40,244,12624,2,0,L|40:112,1,130,2|8,0:0|0:0,0:0:0:0:
144,36,13302,1,2,0:0:0:0:
248,112,13640,2,0,L|312:112,2,65,8|0|2,0:0|0:0|0:0,0:0:0:0:
144,192,14318,1,8,0:0:0:0:
144,320,14656,6,0,B|208:320|208:320|272:352,1,130,2|8,0:0|0:0,0:0:0:0:
332,352,15164,1,0,0:0:0:0:
332,352,15334,2,0,L|464:352,1,130,2|8,0:0|0:0,0:0:0:0:
496,228,16011,1,2,0:0:0:0:
464,104,16350,2,0,L|464:40,2,65,8|0|2,0:0|0:0|0:0,0:0:0:0:
360,180,17027,1,8,0:0:0:0:
256,104,17366,6,0,B|204:104|204:104|160:104|136:72,1,130,2|8,0:0|0:0,0:0:0:0:
88,28,17874,1,0,0:0:0:0:
88,28,18043,2,0,L|88:160,1,130,2|8,0:0|0:0,0:0:0:0:
92,288,18721,1,2,0:0:0:0:
220,316,19059,2,0,L|220:380,2,65,8|0|2,0:0|0:0|0:0,0:0:0:0:
220,184,19737,1,8,0:0:0:0:
332,252,20075,6,0,B|400:252|400:252|452:288,1,130,2|8,0:0|0:0,0:0:0:0:
492,340,20584,1,0,0:0:0:0:
492,340,20753,2,0,P|476:280|492:216,1,130,2|8,0:0|0:0,0:0:0:0:
428,100,21430,1,2,0:0:0:0:
300,100,21769,2,0,L|308:36,2,65,8|0|2,0:0|0:0|0:0,0:0:0:0:
176,144,22446,2,0,L|168:208,1,65,8|0,0:0|0:0,0:0:0:0:
160,272,22785,5,2,3:0:0:0:
464,344,24140,6,0,P|488:280|464:224,2,130,6|8|2,0:0|0:0|0:0,0:0:0:0:
340,312,25156,1,8,0:0:0:0:
212,284,25495,2,0,P|188:220|212:164,1,130,2|8,0:0|0:0,0:0:0:0:
256,116,26003,1,0,0:0:0:0:
256,116,26172,2,0,L|128:140,1,130,2|8,0:0|0:0,0:0:0:0:
24,60,26849,6,0,L|152:36,1,130,2|8,0:0|0:0,0:0:0:0:
216,20,27357,1,0,0:0:0:0:
216,20,27527,2,0,B|280:20|280:20|340:56,1,130,2|8,0:0|0:0,0:0:0:0:
448,120,28204,1,2,0:0:0:0:
416,248,28543,2,0,P|448:252|480:248,2,65,8|0|2,0:0|0:0|0:0,0:0:0:0:
292,208,29220,2,0,P|260:204|228:208,1,65,8|0,0:0|0:0,0:0:0:0:
164,228,29559,6,0,L|180:360,2,130,2|8|2,0:0|0:0|0:0,0:0:0:0:
60,152,30575,1,8,0:0:0:0:
156,64,30914,2,0,P|216:48|280:64,1,130,2|8,0:0|0:0,0:0:0:0:
328,112,31422,1,0,0:0:0:0:
328,112,31591,2,0,L|312:244,1,130,2|8,0:0|0:0,0:0:0:0:
360,360,32269,6,0,P|424:376|484:360,1,130,2|8,0:0|0:0,0:0:0:0:
508,300,32777,1,0,0:0:0:0:
508,300,32946,2,0,L|508:168,1,130,2|8,0:0|0:0,0:0:0:0:
412,84,33623,1,4,1:2:0:0:
196,328,34978,6,0,B|256:352|256:352|316:328,2,130,6|8|2,0:0|0:0|0:0,0:0:0:0:
256,212,35994,1,8,0:0:0:0:
316,96,36333,2,0,B|256:72|256:72|196:96,1,130,2|8,0:0|0:0,0:0:0:0:
136,124,36841,1,0,0:0:0:0:
136,124,37010,2,0,L|104:252,1,130,2|8,0:0|0:0,0:0:0:0:
204,332,37688,6,0,L|236:204,1,130,2|8,0:0|0:0,0:0:0:0:
260,148,38196,1,0,0:0:0:0:
260,148,38365,2,0,B|328:148|328:148|376:188,1,130,2|8,0:0|0:0,0:0:0:0:
472,276,39042,1,2,0:0:0:0:
472,144,39381,2,0,L|536:132,2,65,8|0|2,0:0|0:0|0:0,0:0:0:0:
356,88,40059,2,0,L|292:100,1,65,8|0,0:0|0:0,0:0:0:0:
228,112,40397,6,0,P|172:96|104:112,2,130,2|8|2,0:0|0:0|0:0,0:0:0:0:
167,227,41413,1,8,0:0:0:0:
105,341,41752,2,0,P|167:357|229:341,1,130,2|8,0:0|0:0,0:0:0:0:
284,304,42260,1,0,0:0:0:0:
284,304,42429,2,0,P|346:287|408:304,1,130,2|8,0:0|0:0,0:0:0:0:
488,204,43107,2,0,B|468:140|508:140|488:76,1,130,2|8,0:0|0:0,0:0:0:0:
448,32,43615,1,0,0:0:0:0:
448,32,43784,2,0,L|316:32,1,130,2|8,0:0|0:0,0:0:0:0:
256,144,44462,5,2,3:0:0:0:
128,140,44800,2,0,L|84:68,2,65,2|0|2,3:0|0:0|3:0,0:0:0:0:
60,252,45478,2,0,L|93:307,1,65,4|0,3:0|0:0,0:0:0:0:
136,356,45816,2,0,B|192:328|192:328|260:328,1,130,4|4,3:0|3:0,0:0:0:0:
324,328,46324,1,0,0:0:0:0:
324,328,46494,1,4,3:0:0:0:
436,260,46832,1,4,3:0:0:0:
324,196,47171,5,4,3:0:0:0:
436,132,47510,2,0,L|500:132,2,65,4|0|4,3:0|0:0|3:0,0:0:0:0:
328,60,48187,2,0,P|296:56|264:60,1,65,4|4,3:0|3:0,0:0:0:0:
212,96,48526,2,0,P|179:100|147:96,1,65,4|0,3:0|0:0,0:0:0:0:
92,60,48865,2,0,L|92:192,1,130,4|4,3:0|3:0,0:0:0:0:
92,320,49542,2,0,B|124:320|124:320|152:336,1,65,4|4,3:0|3:0,0:0:0:0:
208,368,49881,5,4,3:0:0:0:
256,248,50219,2,0,L|256:184,2,65,4|0|4,3:0|0:0|3:0,0:0:0:0:
304,368,50897,2,0,P|336:372|368:368,1,65,4|4,3:0|3:0,0:0:0:0:
424,332,51236,2,0,L|452:204,1,130,4|4,3:2|3:0,0:0:0:0:
464,140,51744,1,0,0:0:0:0:
464,140,51913,1,4,3:0:0:0:
360,60,52252,1,4,3:0:0:0:
260,140,52590,5,4,3:0:0:0:
156,60,52929,2,0,P|124:56|92:60,2,65,4|0|4,3:0|0:0|3:0,0:0:0:0:
124,188,53606,2,0,P|120:220|124:252,1,65,4|4,3:0|3:0,0:0:0:0:
156,308,53945,2,0,P|189:312|221:308,1,65,4|0,3:0|0:0,0:0:0:0:
272,268,54284,2,0,B|316:268|316:268|356:280|356:280|400:280,1,130,4|4,3:0|3:0,0:0:0:0:
488,184,54961,2,0,L|488:120,1,65,4|4,3:0|3:0,0:0:0:0:
488,52,55300,5,4,3:0:0:0:
324,336,56655,6,0,B|376:336|376:336|416:336|444:300,1,130,2|8,0:0|0:0,0:0:0:0:
472,243,57163,1,0,0:0:0:0:
472,243,57332,2,0,L|472:112,1,130,2|8,0:0|0:0,0:0:0:0:
368,36,58009,1,2,0:0:0:0:
264,112,58348,2,0,L|200:111,2,65,8|0|2,0:0|0:0|0:0,0:0:0:0:
368,192,59026,1,8,0:0:0:0:
368,320,59364,6,0,B|304:320|304:320|240:352,1,130,2|8,0:0|0:0,0:0:0:0:
180,352,59872,1,0,0:0:0:0:
180,352,60042,2,0,L|48:352,1,130,2|8,0:0|0:0,0:0:0:0:
16,228,60719,1,2,0:0:0:0:
48,104,61058,2,0,L|48:39,2,65,8|0|2,0:0|0:0|0:0,0:0:0:0:
152,179,61735,1,8,0:0:0:0:
256,104,62074,6,0,B|308:103|308:103|351:103|376:72,1,130,2|8,0:0|0:0,0:0:0:0:
424,28,62582,1,0,0:0:0:0:
424,28,62751,2,0,L|424:160,1,130,2|8,0:0|0:0,0:0:0:0:
420,288,63429,1,0,0:0:0:0:
292,316,63767,2,0,L|292:380,2,65,8|0|2,0:0|0:0|0:0,0:0:0:0:
292,184,64445,1,8,0:0:0:0:
180,251,64783,6,0,B|112:252|112:252|60:288,1,130,2|8,0:0|0:0,0:0:0:0:
20,340,65291,1,0,0:0:0:0:
20,340,65461,2,0,P|36:280|19:215,1,130,2|8,0:0|0:0,0:0:0:0:
84,100,66138,1,2,0:0:0:0:
212,100,66477,2,0,L|203:36,2,65,8|0|2,0:0|0:0|0:0,0:0:0:0:
336,143,67154,2,0,L|344:207,1,65,8|0,0:0|0:0,0:0:0:0:
352,272,67493,5,2,3:0:0:0:
212,100,68848,6,0,P|149:83|87:99,2,130,6|8|2,0:0|0:0|0:0,0:0:0:0:
304,192,69864,1,8,0:0:0:0:
212,284,70202,2,0,P|149:300|87:284,1,130,2|8,0:0|0:0,0:0:0:0:
40,240,70711,1,0,0:0:0:0:
40,240,70880,2,0,L|40:104,1,130,2|8,0:0|0:0,0:0:0:0:
152,44,71557,6,0,B|216:24|216:24|276:44,1,130,2|8,0:0|0:0,0:0:0:0:
332,76,72065,1,0,0:0:0:0:
332,76,72235,2,0,L|332:208,1,130,2|8,0:0|0:0,0:0:0:0:
452,256,72912,1,2,0:0:0:0:
336,312,73251,2,0,L|344:376,2,65,8|0|2,0:0|0:0|0:0,0:0:0:0:
220,256,73928,2,0,L|212:192,1,65,8|0,0:0|0:0,0:0:0:0:
188,132,74267,6,0,P|136:116|64:132,2,130,2|8|2,0:0|0:0|0:0,0:0:0:0:
126,246,75283,1,8,0:0:0:0:
68,364,75622,2,0,B|136:384|128:344|196:364,1,130,2|8,0:0|0:0,0:0:0:0:
260,360,76130,1,0,0:0:0:0:
260,360,76299,2,0,L|288:228,1,130,2|8,0:0|0:0,0:0:0:0:
400,168,76976,6,0,L|372:300,1,130,2|8,0:0|0:0,0:0:0:0:
404,352,77484,1,0,0:0:0:0:
404,352,77654,2,0,P|460:368|528:352,1,130,2|8,0:0|0:0,0:0:0:0:
466,237,78331,1,4,0:0:0:0:
124,140,79686,6,0,P|128:92|196:48,1,130,4|8,0:0|0:0,0:0:0:0:
320,48,80363,2,0,P|375:78|387:139,1,130,2|8,0:0|0:0,0:0:0:0:
312,248,81041,2,0,B|280:248|256:276|256:276|232:248|200:248,1,130,2|8,0:0|0:0,0:0:0:0:
136,244,81549,1,0,0:0:0:0:
136,244,81718,2,0,L|100:372,1,130,0|8,0:0|0:0,0:0:0:0:
12,272,82396,6,0,L|48:144,1,130,2|8,0:0|0:0,0:0:0:0:
64,84,82904,1,0,0:0:0:0:
64,84,83073,2,0,P|116:60|184:84,1,130,2|8,0:0|0:0,0:0:0:0:
256,188,83750,1,2,0:0:0:0:
332,84,84089,2,0,P|336:52|332:20,2,65,8|0|2,0:0|0:0|0:0,0:0:0:0:
256,188,84766,2,0,P|252:220|256:252,1,65,8|0,0:0|0:0,0:0:0:0:
300,300,85105,6,0,B|364:300|364:300|424:332,2,130,2|8|2,0:0|0:0|0:0,0:0:0:0:
168,300,86121,1,8,0:0:0:0:
236,188,86460,2,0,P|256:136|236:64,1,130,2|8,0:0|0:0,0:0:0:0:
180,40,86968,1,0,0:0:0:0:
180,40,87137,2,0,L|48:40,1,130,2|8,0:0|0:0,0:0:0:0:
48,172,87815,5,2,0:0:0:0:
52,304,88153,2,0,B|84:304|84:304|112:324,1,65,8|0,0:0|0:0,0:0:0:0:
164,360,88492,2,0,B|208:360|208:360|248:348|248:348|292:348,1,130,2|8,0:0|0:0,0:0:0:0:
424,348,89169,1,4,0:0:0:0:
256,72,90524,6,0,L|256:8,2,65,4|0|4,3:0|0:0|3:0,0:0:0:0:
320,184,91202,1,4,3:0:0:0:
192,184,91540,1,4,3:0:0:0:
256,296,91879,6,0,L|256:360,2,65,4|0|4,3:0|0:0|3:0,0:0:0:0:
320,184,92556,1,4,3:0:0:0:
192,184,92895,1,4,3:0:0:0:
120,76,93234,6,0,L|56:76,2,65,4|0|4,3:0|0:0|3:0,0:0:0:0:
244,40,93911,2,0,B|284:40|284:40|320:24|320:24|372:24,1,130,4|4,3:0|3:0,0:0:0:0:
432,136,94589,6,0,L|496:116,2,65,4|0|4,3:0|0:0|3:0,0:0:0:0:
392,188,95097,1,0,0:0:0:0:
356,240,95266,2,0,L|232:280,1,130,4|4,3:0|3:0,0:0:0:0:
136,192,95943,6,0,L|72:192,2,65,2|0|2,0:0|0:0|0:0,0:0:0:0:
192,72,96621,1,2,0:0:0:0:
320,72,96959,1,2,0:0:0:0:
376,192,97298,6,0,L|440:192,2,65,2|0|2,0:0|0:0|0:0,0:0:0:0:
320,312,97976,1,0,0:0:0:0:
192,312,98314,1,0,0:0:0:0:
256,192,98653,12,2,100685,0:0:0:0:
