osu file format v14

[General]
AudioFilename: Pika.mp3
AudioLeadIn: 0
PreviewTime: 33882
Countdown: 0
SampleSet: Soft
StackLeniency: 0.7
Mode: 0
LetterboxInBreaks: 0
WidescreenStoryboard: 1

[Editor]
Bookmarks: 11956,22792,34982,56654,68844,79680,90516
DistanceSpacing: 1
BeatDivisor: 4
GridSize: 4
TimelineZoom: 1.3

[Metadata]
Title:Cari Pokemon (Speed Up Ver.)
TitleUnicode:Cari Pokemon (Speed Up Ver.)
Artist:Faiha
ArtistUnicode:Faiha
Creator:ezek
Version:Hard
Source:
Tags:indonesian go cut nintendo pikachu song children kids sani music indonesia Tjahjadi Djajanata ishak
BeatmapID:1298075
BeatmapSetID:613128

[Difficulty]
HPDrainRate:6
CircleSize:4
OverallDifficulty:6
ApproachRate:7
SliderMultiplier:1.5
SliderTickRate:1

[Events]
//Background and Video events
0,0,"Bakari's minions.png",0,0
//Break Periods
//Storyboard Layer 0 (Background)
//Storyboard Layer 1 (Fail)
//Storyboard Layer 2 (Pass)
//Storyboard Layer 3 (Foreground)
//Storyboard Sound Samples

[TimingPoints]
1109,338.696020321761,4,2,0,100,1,0
24140,-100,4,2,0,100,0,1
33623,-100,4,2,0,100,0,0
34978,-100,4,2,0,100,0,1
45816,-100,4,2,0,100,0,0
68848,-100,4,2,0,100,0,1
78331,-100,4,2,0,100,0,0
79686,-100,4,2,0,100,0,1
90524,-100,4,2,0,100,0,0

[Colours]
Combo1 : 70,201,14
Combo2 : 252,221,3
Combo3 : 28,157,244
Combo4 : 249,91,6

[HitObjects]
260,64,1109,5,2,0:0:0:0:
260,64,1278,1,0,0:0:0:0:
260,64,1447,1,0,0:0:0:0:
192,196,1786,2,0,B|216:216|256:235|256:235|296:216|320:196,1,150,0|0,0:0|0:0,0:0:0:0:
260,64,2463,5,2,0:0:0:0:
260,64,2633,1,0,0:0:0:0:
260,64,2802,1,0,0:0:0:0:
320,196,3141,2,0,B|296:216|256:235|256:235|216:216|192:196,1,150,0|0,0:0|0:0,0:0:0:0:
92,84,3818,5,2,0:0:0:0:
92,84,3987,1,0,0:0:0:0:
92,84,4157,1,0,0:0:0:0:
28,220,4495,2,0,B|28:272|28:272|48:308|48:308|48:368,1,150,0|0,0:0|0:0,0:0:0:0:
192,320,5173,6,0,B|192:280|192:280|218:257,1,75,2|0,0:0|0:0,0:0:0:0:
294,257,5512,2,0,B|320:280|320:280|320:320,1,75,2|0,0:0|0:0,0:0:0:0:
256,360,5850,2,0,L|256:208,1,150,2|0,0:0|0:0,0:0:0:0:
204,68,6528,5,4,3:0:0:0:
256,16,6697,1,0,0:0:0:0:
308,68,6866,1,4,3:0:0:0:
176,140,7205,1,4,3:0:0:0:
336,140,7544,1,4,3:0:0:0:
204,212,7882,5,4,3:0:0:0:
256,264,8052,1,0,0:0:0:0:
308,212,8221,1,4,3:0:0:0:
176,140,8560,1,4,3:0:0:0:
336,140,8899,1,4,3:0:0:0:
256,16,9237,6,0,L|256:96,1,75,4|0,3:0|0:0,0:0:0:0:
256,168,9576,1,4,3:0:0:0:
336,296,9915,1,4,3:0:0:0:
176,296,10253,1,4,3:0:0:0:
255,92,10592,5,4,3:2:0:0:
412,341,10931,1,2,0:0:0:0:
99,341,11269,1,2,0:0:0:0:
99,341,11947,6,0,P|108:304|100:268,1,75,2|0,0:0|0:0,0:0:0:0:
52,212,12285,2,0,P|43:175|51:139,1,75,8|0,0:0|0:0,0:0:0:0:
92,76,12624,2,0,B|152:40|152:40|232:40,1,150,2|8,0:0|0:0,0:0:0:0:
308,40,13132,1,0,0:0:0:0:
308,40,13302,5,2,0:0:0:0:
304,188,13640,1,8,0:0:0:0:
380,188,13810,1,0,0:0:0:0:
456,188,13979,2,0,P|480:244|456:328,1,150,2|8,0:0|0:0,0:0:0:0:
380,332,14487,1,0,0:0:0:0:
316,292,14656,6,0,B|288:272|288:272|248:272,1,75,2|0,0:0|0:0,0:0:0:0:
208,336,14995,2,0,B|168:336|168:336|140:316,1,75,8|0,0:0|0:0,0:0:0:0:
108,248,15334,2,0,B|64:276|68:320|68:320|4:312,1,150,2|8,0:0|0:0,0:0:0:0:
52,168,16011,6,0,B|96:140|92:96|92:96|156:104,1,150,2|8,0:0|0:0,0:0:0:0:
228,112,16519,1,0,0:0:0:0:
200,40,16689,1,2,0:0:0:0:
348,48,17027,1,8,0:0:0:0:
424,56,17197,1,0,0:0:0:0:
380,116,17366,6,0,P|372:148|380:188,1,75,2|0,0:0|0:0,0:0:0:0:
412,256,17705,2,0,P|420:292|412:328,1,75,8|0,0:0|0:0,0:0:0:0:
348,292,18043,2,0,L|504:292,1,150,2|8,0:0|0:0,0:0:0:0:
504,216,18551,1,0,0:0:0:0:
504,216,18721,5,2,0:0:0:0:
428,88,19059,2,0,B|392:88|392:88|360:64,1,75,8|0,0:0|0:0,0:0:0:0:
304,16,19398,2,0,B|224:16|224:16|172:64,1,150,2|8,0:0|0:0,0:0:0:0:
111,108,19906,1,0,0:0:0:0:
52,156,20075,6,0,P|44:192|52:228,1,75,2|0,0:0|0:0,0:0:0:0:
120,192,20414,2,0,B|160:192|160:192|188:216,2,75,8|0|2,0:0|0:0|0:0,0:0:0:0:
124,272,20922,1,0,0:0:0:0:
124,272,21007,1,0,0:0:0:0:
124,272,21092,2,0,L|184:316,1,75,8|0,0:0|0:0,0:0:0:0:
256,344,21430,5,2,0:0:0:0:
256,344,21600,1,0,0:0:0:0:
328,316,21769,2,0,L|388:272,1,75,8|0,0:0|0:0,0:0:0:0:
452,228,22108,2,0,L|520:180,2,75,2|0|8,0:0|0:0|0:0,0:0:0:0:
388,272,22616,1,0,0:0:0:0:
380,196,22785,6,0,B|380:156|380:156|396:124|396:124|396:88,1,112.5,2|2,3:0|3:0,0:0:0:0:
396,48,23124,1,2,3:0:0:0:
396,48,23293,1,2,3:0:0:0:
396,48,23462,1,0,0:0:0:0:
244,44,23801,1,2,3:0:0:0:
244,44,23970,1,2,3:0:0:0:
244,44,24140,6,0,L|164:32,1,75,6|0,0:0|0:0,0:0:0:0:
108,76,24479,2,0,L|96:152,1,75,8|0,0:0|0:0,0:0:0:0:
140,212,24817,2,0,L|220:224,1,75,2|0,0:0|0:0,0:0:0:0:
204,296,25156,1,8,0:0:0:0:
340,360,25495,6,0,P|412:376|488:360,1,150,2|8,0:0|0:0,0:0:0:0:
444,300,26003,1,0,0:0:0:0:
488,240,26172,2,0,P|496:204|488:168,1,75,2|0,0:0|0:0,0:0:0:0:
444,108,26511,2,0,P|436:72|444:36,1,75,8|0,0:0|0:0,0:0:0:0:
512,72,26849,6,0,L|360:72,1,150,2|8,0:0|0:0,0:0:0:0:
288,72,27357,1,0,0:0:0:0:
288,72,27527,1,2,0:0:0:0:
212,68,27696,1,0,0:0:0:0:
212,68,27865,2,0,L|88:68,1,112.5,8|0,0:0|0:0,0:0:0:0:
60,68,28204,6,0,B|48:104|48:104|60:140,1,75,2|0,0:0|0:0,0:0:0:0:
116,192,28543,1,8,0:0:0:0:
60,244,28712,1,0,0:0:0:0:
116,292,28882,1,2,0:0:0:0:
256,348,29220,1,8,0:0:0:0:
312,296,29390,1,0,0:0:0:0:
256,248,29559,6,0,B|244:212|244:212|256:176,1,75,2|0,0:0|0:0,0:0:0:0:
296,112,29898,2,0,B|308:76|308:76|296:40,1,75,8|0,0:0|0:0,0:0:0:0:
232,80,30236,2,0,L|388:80,1,150,2|8,0:0|0:0,0:0:0:0:
508,160,30914,6,0,B|472:192|432:176|432:176|432:244,1,150,2|8,0:0|0:0,0:0:0:0:
432,320,31422,1,0,0:0:0:0:
368,284,31591,1,2,0:0:0:0:
224,360,31930,1,8,0:0:0:0:
224,360,32269,6,0,B|176:360|176:360|128:376|128:376|76:376,1,150,2|8,0:0|0:0,0:0:0:0:
56,304,32777,1,0,0:0:0:0:
36,232,32946,1,2,0:0:0:0:
104,100,33285,2,0,L|120:176,1,75,8|0,0:0|0:0,0:0:0:0:
140,248,33623,5,4,1:2:0:0:
256,344,33962,2,0,P|292:352|328:344,1,75,2|8,0:0|0:0,0:0:0:0:
292,276,34301,1,2,0:0:0:0:
436,236,34639,2,0,P|400:228|364:236,1,75,8|0,0:0|0:0,0:0:0:0:
400,304,34978,6,0,P|436:312|472:304,1,75,6|0,0:0|0:0,0:0:0:0:
436,236,35317,2,0,L|432:160,1,75,8|0,0:0|0:0,0:0:0:0:
360,140,35655,2,0,L|356:64,1,75,2|0,0:0|0:0,0:0:0:0:
292,28,35994,1,8,0:0:0:0:
160,96,36333,6,0,B|160:140|160:140|136:192|136:192|136:240,1,150,2|8,0:0|0:0,0:0:0:0:
136,316,36841,1,0,0:0:0:0:
60,316,37010,2,0,P|20:324|-12:316,1,75,2|0,0:0|0:0,0:0:0:0:
24,248,37349,2,0,P|16:216|24:176,1,75,8|0,0:0|0:0,0:0:0:0:
92,212,37688,6,0,L|244:212,1,150,2|8,0:0|0:0,0:0:0:0:
296,272,38196,1,0,0:0:0:0:
296,272,38365,1,2,0:0:0:0:
348,332,38534,1,0,0:0:0:0:
348,332,38704,2,0,B|392:332|392:332|416:340|416:340|464:340,1,112.5,8|0,0:0|0:0,0:0:0:0:
476,308,39042,6,0,P|484:276|476:236,1,75,2|0,0:0|0:0,0:0:0:0:
412,196,39381,1,8,0:0:0:0:
428,124,39550,1,0,0:0:0:0:
444,52,39720,1,2,0:0:0:0:
296,84,40059,1,8,0:0:0:0:
280,156,40228,1,0,0:0:0:0:
264,228,40397,6,0,L|188:228,1,75,2|0,0:0|0:0,0:0:0:0:
112,228,40736,2,0,L|112:304,1,75,8|0,0:0|0:0,0:0:0:0:
108,380,41075,2,0,L|28:380,1,75,2|0,0:0|0:0,0:0:0:0:
32,304,41413,1,8,0:0:0:0:
176,344,41752,6,0,B|252:344|252:344|312:296,1,150,2|8,0:0|0:0,0:0:0:0:
364,244,42260,1,0,0:0:0:0:
420,296,42429,1,2,0:0:0:0:
364,348,42599,1,0,0:0:0:0:
309,297,42768,2,0,L|253:245,1,75,8|0,0:0|0:0,0:0:0:0:
300,188,43107,6,0,L|360:128,1,75,2|0,0:0|0:0,0:0:0:0:
404,76,43446,2,0,L|348:24,2,75,8|0|2,0:0|0:0|0:0,0:0:0:0:
504,188,44123,1,8,0:0:0:0:
404,300,44462,5,2,3:0:0:0:
300,192,44800,1,2,3:0:0:0:
224,192,44970,1,0,0:0:0:0:
224,192,45054,1,0,0:0:0:0:
224,192,45139,1,2,3:0:0:0:
148,236,45308,1,4,3:0:0:0:
148,148,45478,1,4,3:0:0:0:
72,192,45647,1,0,0:0:0:0:
72,192,45816,6,0,P|52:256|72:336,1,150,4|4,3:0|3:0,0:0:0:0:
152,360,46324,1,0,0:0:0:0:
152,360,46409,1,0,0:0:0:0:
152,360,46494,2,0,L|228:360,1,75,4|0,3:0|0:0,0:0:0:0:
296,328,46832,2,0,L|372:328,1,75,4|4,3:0|3:0,0:0:0:0:
440,300,47171,6,0,P|460:236|440:156,1,150,4|4,3:0|3:0,0:0:0:0:
384,104,47679,1,0,0:0:0:0:
384,104,47764,1,0,0:0:0:0:
384,104,47849,2,0,B|344:104|344:104|316:84,1,75,4|0,3:0|0:0,0:0:0:0:
252,44,48187,2,0,B|224:24|224:24|184:24,1,75,4|4,3:0|3:0,0:0:0:0:
124,68,48526,5,4,3:0:0:0:
76,124,48695,1,0,0:0:0:0:
24,180,48865,1,4,3:0:0:0:
24,180,48949,1,0,0:0:0:0:
24,180,49034,1,0,0:0:0:0:
76,236,49203,2,0,P|68:272|76:308,1,75,4|0,3:0|0:0,0:0:0:0:
144,272,49542,2,0,L|220:272,1,75,4|4,3:0|3:0,0:0:0:0:
296,272,49881,5,4,3:0:0:0:
424,352,50219,1,4,3:0:0:0:
424,276,50389,1,0,0:0:0:0:
424,276,50473,1,0,0:0:0:0:
424,276,50558,2,0,L|424:200,1,75,4|0,3:0|0:0,0:0:0:0:
388,136,50897,2,0,P|424:144|460:136,1,75,4|4,3:0|3:0,0:0:0:0:
332,88,51236,6,0,P|268:68|188:88,1,150,4|4,3:2|3:0,0:0:0:0:
120,116,51744,1,0,0:0:0:0:
120,116,51828,1,0,0:0:0:0:
120,116,51913,2,0,L|44:100,1,75,4|0,3:0|0:0,0:0:0:0:
16,168,52252,2,0,L|92:184,1,75,4|4,3:0|3:0,0:0:0:0:
164,196,52590,6,0,B|180:232|160:268|160:268|144:300|164:340,1,150,4|4,3:0|3:0,0:0:0:0:
236,308,53098,1,0,0:0:0:0:
236,308,53183,1,0,0:0:0:0:
236,308,53268,2,0,L|312:308,1,75,4|0,3:0|0:0,0:0:0:0:
380,340,53606,2,0,P|372:304|380:268,1,75,4|4,3:0|3:0,0:0:0:0:
424,136,53945,6,0,P|432:172|424:208,1,75,4|0,3:0|0:0,0:0:0:0:
356,172,54284,1,4,3:0:0:0:
356,172,54368,1,0,0:0:0:0:
356,172,54453,1,0,0:0:0:0:
304,228,54622,2,0,L|224:228,1,75,4|0,3:0|0:0,0:0:0:0:
156,208,54961,2,0,P|147:171|155:135,1,75,4|4,3:0|3:0,0:0:0:0:
196,72,55300,5,4,3:0:0:0:
256,192,55385,12,4,56316,3:0:0:0:
413,43,56655,6,0,P|404:80|412:116,1,75,2|0,0:0|0:0,0:0:0:0:
460,172,56993,2,0,P|469:209|461:245,1,75,8|0,0:0|0:0,0:0:0:0:
420,308,57332,2,0,B|360:344|360:344|280:344,1,150,2|8,0:0|0:0,0:0:0:0:
204,344,57840,1,0,0:0:0:0:
204,344,58009,5,2,0:0:0:0:
208,196,58348,1,8,0:0:0:0:
132,196,58517,1,0,0:0:0:0:
56,196,58687,2,0,P|32:140|56:56,1,150,2|8,0:0|0:0,0:0:0:0:
132,52,59195,1,0,0:0:0:0:
196,92,59364,6,0,B|224:112|224:112|264:112,1,75,2|0,0:0|0:0,0:0:0:0:
304,48,59703,2,0,B|344:48|344:48|372:68,1,75,8|0,0:0|0:0,0:0:0:0:
404,136,60042,2,0,B|448:108|444:64|444:64|508:72,1,150,2|8,0:0|0:0,0:0:0:0:
460,216,60719,6,0,B|416:244|420:288|420:288|356:280,1,150,2|8,0:0|0:0,0:0:0:0:
284,272,61227,1,0,0:0:0:0:
312,344,61396,1,2,0:0:0:0:
164,336,61735,1,8,0:0:0:0:
88,328,61904,1,0,0:0:0:0:
132,268,62074,6,0,P|140:236|132:196,1,75,2|0,0:0|0:0,0:0:0:0:
100,128,62412,2,0,P|92:92|100:56,1,75,8|0,0:0|0:0,0:0:0:0:
164,92,62751,2,0,L|8:92,1,150,2|8,0:0|0:0,0:0:0:0:
8,168,63259,1,0,0:0:0:0:
8,168,63429,5,0,0:0:0:0:
84,296,63767,2,0,B|120:296|120:296|152:320,1,75,8|0,0:0|0:0,0:0:0:0:
212,368,64106,2,0,B|292:368|292:368|344:320,1,150,2|8,0:0|0:0,0:0:0:0:
400,272,64614,1,0,0:0:0:0:
460,228,64783,6,0,P|468:192|460:156,1,75,2|0,0:0|0:0,0:0:0:0:
392,192,65122,2,0,B|352:192|352:192|324:168,2,75,8|0|2,0:0|0:0|0:0,0:0:0:0:
388,112,65630,1,0,0:0:0:0:
388,112,65715,1,0,0:0:0:0:
388,112,65799,2,0,L|328:68,1,75,8|0,0:0|0:0,0:0:0:0:
256,40,66138,5,2,0:0:0:0:
256,40,66307,1,0,0:0:0:0:
184,68,66477,2,0,L|124:112,1,75,8|0,0:0|0:0,0:0:0:0:
60,156,66816,2,0,L|-8:204,2,75,2|0|8,0:0|0:0|0:0,0:0:0:0:
124,112,67324,1,0,0:0:0:0:
132,188,67493,6,0,B|132:228|132:228|116:260|116:260|116:296,1,112.5,2|2,3:0|3:0,0:0:0:0:
116,336,67832,1,2,3:0:0:0:
116,336,68001,1,2,3:0:0:0:
116,336,68170,1,0,0:0:0:0:
268,340,68509,1,2,3:0:0:0:
268,340,68678,1,2,3:0:0:0:
268,340,68848,6,0,P|308:348|340:340,1,75,6|0,0:0|0:0,0:0:0:0:
392,288,69186,2,0,P|428:279|464:287,1,75,8|0,0:0|0:0,0:0:0:0:
428,352,69525,2,0,L|428:200,1,150,2|8,0:0|0:0,0:0:0:0:
364,68,70202,6,0,B|292:48|292:48|220:68,1,150,2|8,0:0|0:0,0:0:0:0:
152,100,70711,1,0,0:0:0:0:
216,140,70880,1,2,0:0:0:0:
72,188,71219,1,8,0:0:0:0:
216,228,71557,6,0,B|216:276|216:276|204:320|204:320|204:376,1,150,2|8,0:0|0:0,0:0:0:0:
280,356,72065,1,0,0:0:0:0:
280,356,72235,2,0,P|332:344|388:356,1,112.5,2|0,0:0|0:0,0:0:0:0:
424,372,72573,2,0,L|424:292,1,75,8|0,0:0|0:0,0:0:0:0:
424,220,72912,5,2,0:0:0:0:
420,72,73251,1,8,0:0:0:0:
348,96,73420,1,0,0:0:0:0:
312,160,73589,1,2,0:0:0:0:
92,72,73928,1,8,0:0:0:0:
164,96,74097,1,0,0:0:0:0:
200,160,74267,6,0,B|212:196|212:196|200:232,1,75,2|0,0:0|0:0,0:0:0:0:
124,232,74606,2,0,B|112:196|112:196|124:160,1,75,8|0,0:0|0:0,0:0:0:0:
164,96,74944,2,0,L|232:56,1,75,2|0,0:0|0:0,0:0:0:0:
296,92,75283,2,0,L|360:53,1,75,8|0,0:0|0:0,0:0:0:0:
424,16,75622,5,2,0:0:0:0:
492,148,75960,2,0,P|500:184|492:220,1,75,8|0,0:0|0:0,0:0:0:0:
424,184,76299,1,2,0:0:0:0:
348,316,76638,1,8,0:0:0:0:
348,316,76976,6,0,B|292:264|292:264|216:264,1,150,2|8,0:0|0:0,0:0:0:0:
152,296,77484,1,0,0:0:0:0:
88,332,77654,1,2,0:0:0:0:
88,184,77992,1,8,0:0:0:0:
88,32,78331,5,4,0:0:0:0:
236,60,78670,1,2,3:0:0:0:
292,108,78839,1,0,0:0:0:0:
220,132,79009,1,2,0:0:0:0:
224,284,79347,1,2,3:0:0:0:
196,352,79517,1,0,0:0:0:0:
268,340,79686,6,0,L|348:352,1,75,4|0,0:0|0:0,0:0:0:0:
404,308,80025,2,0,L|416:232,1,75,8|0,0:0|0:0,0:0:0:0:
372,172,80363,2,0,L|292:160,1,75,2|0,0:0|0:0,0:0:0:0:
308,88,80702,1,8,0:0:0:0:
172,24,81041,6,0,P|100:8|24:24,1,150,2|8,0:0|0:0,0:0:0:0:
68,84,81549,1,0,0:0:0:0:
24,144,81718,2,0,P|16:180|24:216,1,75,0|0,0:0|0:0,0:0:0:0:
68,276,82057,2,0,P|76:312|68:348,1,75,8|0,0:0|0:0,0:0:0:0:
0,312,82396,6,0,L|152:312,1,150,2|8,0:0|0:0,0:0:0:0:
224,312,82904,1,0,0:0:0:0:
224,312,83073,1,2,0:0:0:0:
300,316,83242,1,0,0:0:0:0:
300,316,83412,2,0,L|412:316,1,112.5,8|0,0:0|0:0,0:0:0:0:
452,316,83750,6,0,B|464:280|464:280|452:244,1,75,2|0,0:0|0:0,0:0:0:0:
396,192,84089,1,8,0:0:0:0:
452,140,84258,1,0,0:0:0:0:
396,92,84428,1,2,0:0:0:0:
256,36,84766,1,8,0:0:0:0:
200,88,84936,1,0,0:0:0:0:
256,136,85105,6,0,B|268:172|268:172|256:208,1,75,2|0,0:0|0:0,0:0:0:0:
216,272,85444,2,0,B|204:308|204:308|216:344,1,75,8|0,0:0|0:0,0:0:0:0:
280,304,85783,2,0,L|124:304,1,150,2|8,0:0|0:0,0:0:0:0:
4,224,86460,6,0,B|40:192|80:208|80:208|80:140,1,150,2|8,0:0|0:0,0:0:0:0:
80,64,86968,1,0,0:0:0:0:
144,100,87137,1,2,0:0:0:0:
288,24,87476,1,8,0:0:0:0:
288,24,87815,6,0,B|336:24|336:24|372:8|372:8|436:8,1,150,2|8,0:0|0:0,0:0:0:0:
456,80,88323,1,2,0:0:0:0:
476,152,88492,1,2,0:0:0:0:
408,284,88831,2,0,L|392:208,1,75,8|0,0:0|0:0,0:0:0:0:
372,136,89169,5,4,0:0:0:0:
256,192,89254,12,4,90186,3:0:0:0:
256,360,90524,5,4,3:0:0:0:
256,360,90694,1,0,0:0:0:0:
256,360,90863,1,4,3:0:0:0:
188,228,91202,2,0,B|232:228|256:202|256:202|280:228|324:228,1,150,4|4,3:0|3:0,0:0:0:0:
256,360,91879,5,4,3:0:0:0:
256,360,92048,1,0,0:0:0:0:
256,360,92218,1,4,3:0:0:0:
324,228,92556,2,0,B|280:228|256:202|256:202|232:228|188:228,1,150,4|4,3:0|3:0,0:0:0:0:
92,344,93234,5,4,3:0:0:0:
92,344,93403,1,0,0:0:0:0:
92,344,93573,1,4,3:0:0:0:
28,208,93911,2,0,B|28:156|28:156|48:120|48:120|48:64,1,150,4|4,3:0|3:0,0:0:0:0:
192,108,94589,6,0,B|188:148|216:176,1,75,4|0,3:0|0:0,0:0:0:0:
296,176,94927,2,0,B|324:148|320:108,1,75,4|0,3:0|0:0,0:0:0:0:
256,68,95266,2,0,L|256:220,1,150,4|4,3:0|3:0,0:0:0:0:
204,316,95943,5,2,0:0:0:0:
256,368,96113,1,0,0:0:0:0:
308,316,96282,1,2,0:0:0:0:
176,244,96621,1,2,0:0:0:0:
336,244,96959,1,2,0:0:0:0:
204,172,97298,5,2,0:0:0:0:
256,120,97468,1,0,0:0:0:0:
308,172,97637,1,2,0:0:0:0:
176,244,97976,1,0,0:0:0:0:
336,244,98314,1,2,0:0:0:0:
256,368,98653,6,0,L|256:288,1,75,2|0,0:0|0:0,0:0:0:0:
256,216,98992,1,2,0:0:0:0:
336,88,99330,1,2,0:0:0:0:
176,88,99669,1,2,0:0:0:0:
255,292,100008,5,2,0:0:0:0:
412,43,100346,1,0,0:0:0:0:
99,43,100685,1,2,0:0:0:0:
