osu file format v14

[General]
AudioFilename: Pika.mp3
AudioLeadIn: 0
PreviewTime: 33882
Countdown: 0
SampleSet: Soft
StackLeniency: 0.7
Mode: 0
LetterboxInBreaks: 0
WidescreenStoryboard: 0

[Editor]
Bookmarks: 11956,22792,34982,56654,68844,79680,90516
DistanceSpacing: 1.2
BeatDivisor: 4
GridSize: 4
TimelineZoom: 1.3

[Metadata]
Title:Cari Pokemon (Speed Up Ver.)
TitleUnicode:Cari Pokemon (Speed Up Ver.)
Artist:Faiha
ArtistUnicode:Faiha
Creator:ezek
Version:Banyak Pokemon!
Source:
Tags:indonesian go cut nintendo pikachu song children kids sani music indonesia Tjahjadi Djajanata ishak
BeatmapID:1293720
BeatmapSetID:613128

[Difficulty]
HPDrainRate:6.5
CircleSize:4
OverallDifficulty:7
ApproachRate:8
SliderMultiplier:1.7
SliderTickRate:1

[Events]
//Background and Video events
0,0,"Bakari's minions.png",0,0
//Break Periods
//Storyboard Layer 0 (Background)
//Storyboard Layer 1 (Fail)
//Storyboard Layer 2 (Pass)
//Storyboard Layer 3 (Foreground)
//Storyboard Sound Samples

[TimingPoints]
1109,338.696020321761,4,2,0,100,1,0
24140,-100,4,2,0,100,0,1
33623,-100,4,2,0,100,0,0
34978,-100,4,2,0,100,0,1
45816,-100,4,2,0,100,0,0
68848,-100,4,2,0,100,0,1
78331,-100,4,2,0,100,0,0
79686,-100,4,2,0,100,0,1
90524,-100,4,2,0,100,0,0

[Colours]
Combo1 : 70,201,14
Combo2 : 252,221,3
Combo3 : 28,157,244
Combo4 : 249,91,6

[HitObjects]
292,128,1109,6,0,B|256:150|256:150|220:128,1,85,2|0,0:0|0:0,0:0:0:0:
256,32,1447,1,0,0:0:0:0:
256,236,1786,1,0,0:0:0:0:
256,236,2125,2,0,L|256:328,1,85
352,356,2463,6,0,P|360:324|392:284,1,85,2|0,0:0|0:0,0:0:0:0:
160,356,2802,2,0,P|152:324|120:284,1,85
256,156,3141,1,0,0:0:0:0:
256,156,3479,2,0,L|256:64,1,85
352,36,3818,6,0,P|360:68|392:108,1,85,2|0,0:0|0:0,0:0:0:0:
160,36,4157,2,0,P|152:68|120:108,1,85
256,236,4495,1,0,0:0:0:0:
256,236,4834,1,0,0:0:0:0:
204,324,5004,1,0,0:0:0:0:
308,324,5173,5,2,0:0:0:0:
356,232,5342,1,0,0:0:0:0:
308,144,5512,1,2,0:0:0:0:
204,144,5681,1,0,0:0:0:0:
156,232,5850,1,2,0:0:0:0:
156,232,6189,1,0,0:0:0:0:
388,52,6528,6,0,L|480:52,1,85,4|0,3:0|0:0,0:0:0:0:
320,128,6866,2,0,L|336:220,1,85,4|0,3:0|0:0,0:0:0:0:
192,128,7205,2,0,L|176:220,1,85,4|0,3:0|0:0,0:0:0:0:
124,52,7544,2,0,L|32:52,1,85,4|0,3:0|0:0,0:0:0:0:
256,32,7882,5,4,3:0:0:0:
256,32,8052,1,0,0:0:0:0:
256,32,8221,1,4,3:0:0:0:
204,304,8560,2,0,P|184:264|152:240,1,85,4|0,3:0|0:0,0:0:0:0:
308,304,8899,2,0,P|328:264|360:240,1,85,4|4,3:0|3:0,0:0:0:0:
256,108,9237,6,0,L|256:192,2,85,4|0|4,3:0|0:0|3:0,0:0:0:0:
204,20,9745,1,0,0:0:0:0:
308,20,9915,2,0,B|348:32|348:32|372:68,1,85,4|0,3:0|0:0,0:0:0:0:
204,20,10253,2,0,B|164:32|164:32|140:68,1,85,4|4,3:0|3:0,0:0:0:0:
8,192,10592,5,4,3:2:0:0:
256,376,10931,1,2,0:0:0:0:
504,192,11269,1,2,0:0:0:0:
256,8,11608,2,0,L|256:92,1,85,2|4,3:0|3:0,0:0:0:0:
296,228,11947,6,0,B|340:228|340:228|372:204,1,85,2|0,0:0|0:0,0:0:0:0:
216,228,12285,2,0,B|172:228|172:228|140:204,1,85,8|0,0:0|0:0,0:0:0:0:
180,108,12624,2,0,P|256:76|332:108,1,170,2|8,0:0|0:0,0:0:0:0:
256,176,13132,1,0,0:0:0:0:
256,176,13302,6,0,L|256:260,1,85,2|0,0:0|0:0,0:0:0:0:
180,332,13640,1,8,0:0:0:0:
332,332,13810,1,0,0:0:0:0:
180,332,13979,2,0,B|256:294|256:294|332:332,1,170,2|8,0:0|0:0,0:0:0:0:
428,292,14487,1,0,0:0:0:0:
336,244,14656,6,0,L|336:160,1,85,2|0,0:0|0:0,0:0:0:0:
256,40,14995,2,0,L|256:124,1,85,8|0,0:0|0:0,0:0:0:0:
176,244,15334,2,0,L|176:160,1,85,2|0,0:0|0:0,0:0:0:0:
256,0,15672,2,0,L|256:84,1,85,8|0,0:0|0:0,0:0:0:0:
256,228,16011,5,2,0:0:0:0:
172,284,16180,1,0,0:0:0:0:
256,344,16350,1,8,0:0:0:0:
340,284,16519,1,0,0:0:0:0:
340,184,16689,2,0,B|340:140|340:140|312:108,1,85,2|0,0:0|0:0,0:0:0:0:
172,184,17027,2,0,B|172:140|172:140|200:108,1,85,8|0,0:0|0:0,0:0:0:0:
304,32,17366,6,0,P|348:36|376:64,1,85,2|0,0:0|0:0,0:0:0:0:
208,32,17705,2,0,P|164:36|136:64,1,85,8|0,0:0|0:0,0:0:0:0:
100,216,18043,2,0,B|72:260|94:295|98:300|101:305|124:336|100:380,1,170,2|8,0:0|0:0,0:0:0:0:
20,296,18551,2,0,B|63:268|98:290|103:294|108:296|140:320|183:296,1,170
320,312,19059,5,8,0:0:0:0:
456,328,19229,1,0,0:0:0:0:
400,204,19398,2,0,P|388:164|400:124,1,85,2|0,0:0|0:0,0:0:0:0:
292,16,19737,2,0,P|304:56|292:96,1,85,8|0,0:0|0:0,0:0:0:0:
172,192,20075,5,2,0:0:0:0:
96,124,20245,1,0,0:0:0:0:
16,188,20414,1,8,0:0:0:0:
96,252,20584,1,0,0:0:0:0:
96,124,20753,1,2,0:0:0:0:
172,192,20922,1,0,0:0:0:0:
172,192,21007,1,0,0:0:0:0:
172,192,21092,2,0,L|256:192,1,85,8|0,0:0|0:0,0:0:0:0:
416,192,21430,6,0,L|332:192,1,85,2|0,0:0|0:0,0:0:0:0:
388,108,21769,1,8,0:0:0:0:
488,196,21938,1,0,0:0:0:0:
388,276,22108,1,2,0:0:0:0:
388,276,22277,1,0,0:0:0:0:
292,192,22446,1,8,0:0:0:0:
292,192,22616,1,0,0:0:0:0:
388,23,22785,6,0,L|388:152,1,127.5,2|2,3:0|3:0,0:0:0:0:
388,200,23124,1,2,3:0:0:0:
256,124,23293,1,2,3:0:0:0:
124,200,23462,1,0,0:0:0:0:
388,292,23801,1,2,3:0:0:0:
256,368,23970,1,2,3:0:0:0:
124,292,24140,6,0,B|80:292|80:292|44:312,1,85,6|0,0:0|0:0,0:0:0:0:
124,200,24479,2,0,B|80:200|80:200|44:180,1,85,8|0,0:0|0:0,0:0:0:0:
0,88,24817,1,2,0:0:0:0:
88,36,24987,1,0,0:0:0:0:
176,88,25156,1,8,0:0:0:0:
264,36,25325,1,0,0:0:0:0:
352,88,25495,6,0,P|320:156|352:240,1,170,2|8,0:0|0:0,0:0:0:0:
428,308,26003,1,0,0:0:0:0:
428,308,26172,1,2,0:0:0:0:
352,376,26341,1,0,0:0:0:0:
280,304,26511,2,0,P|240:292|200:304,1,85,8|0,0:0|0:0,0:0:0:0:
52,352,26849,6,0,P|92:364|132:352,1,85,2|0,0:0|0:0,0:0:0:0:
92,260,27188,1,8,0:0:0:0:
92,156,27357,1,0,0:0:0:0:
92,56,27527,1,2,0:0:0:0:
92,156,27696,1,0,0:0:0:0:
180,104,27865,1,8,0:0:0:0:
180,104,28035,1,0,0:0:0:0:
296,204,28204,6,0,P|256:216|216:204,1,85,2|0,0:0|0:0,0:0:0:0:
332,104,28543,1,8,0:0:0:0:
456,192,28712,1,0,0:0:0:0:
332,280,28882,1,2,0:0:0:0:
180,104,29220,1,8,0:0:0:0:
56,192,29390,1,0,0:0:0:0:
180,280,29559,6,0,B|180:324|180:324|156:356,1,85,2|0,0:0|0:0,0:0:0:0:
332,280,29898,2,0,B|332:324|332:324|356:356,1,85,8|0,0:0|0:0,0:0:0:0:
292,212,30236,2,0,P|328:200|372:212,1,85,2|0,0:0|0:0,0:0:0:0:
220,212,30575,2,0,P|184:200|140:212,1,85,8|0,0:0|0:0,0:0:0:0:
256,64,30914,6,0,L|256:152,1,85,2|0,0:0|0:0,0:0:0:0:
184,32,31252,1,8,0:0:0:0:
328,32,31422,1,0,0:0:0:0:
332,220,31591,2,0,P|255:252|179:220,1,170,2|8,0:0|0:0,0:0:0:0:
112,140,32099,1,0,0:0:0:0:
48,220,32269,6,0,L|56:304,1,85,2|0,0:0|0:0,0:0:0:0:
112,140,32607,2,0,L|104:56,2,85,8|0|2,0:0|0:0|0:0,0:0:0:0:
179,220,33115,1,0,0:0:0:0:
256,152,33285,1,8,0:0:0:0:
333,220,33454,1,0,0:0:0:0:
256,372,33623,5,4,1:2:0:0:
312,40,33962,6,0,P|324:80|356:112,1,85,2|8,0:0|0:0,0:0:0:0:
412,24,34301,1,2,0:0:0:0:
312,344,34639,2,0,P|324:304|356:272,1,85,8|0,0:0|0:0,0:0:0:0:
488,192,34978,6,0,L|400:192,1,85,6|0,0:0|0:0,0:0:0:0:
260,152,35317,2,0,P|288:184|328:192,1,85,8|0,0:0|0:0,0:0:0:0:
224,88,35655,2,0,P|196:56|156:48,1,85,2|0,0:0|0:0,0:0:0:0:
28,128,35994,2,0,P|68:119|96:88,1,85,8|0,0:0|0:0,0:0:0:0:
24,200,36333,6,0,P|100:184|164:112,1,170,2|8,0:0|0:0,0:0:0:0:
256,52,36841,1,0,0:0:0:0:
350,118,37010,1,2,0:0:0:0:
256,184,37180,1,0,0:0:0:0:
351,250,37349,2,0,B|352:292|352:292|380:324,1,85,8|0,0:0|0:0,0:0:0:0:
161,250,37688,6,0,B|160:292|160:292|132:324,1,85,2|0,0:0|0:0,0:0:0:0:
80,236,38026,2,0,B|81:194|81:194|109:162,1,85,8|0,0:0|0:0,0:0:0:0:
180,88,38365,1,2,0:0:0:0:
256,156,38534,1,0,0:0:0:0:
332,88,38704,1,8,0:0:0:0:
256,20,38873,1,0,0:0:0:0:
256,156,39042,6,0,L|256:252,1,85,2|0,0:0|0:0,0:0:0:0:
308,328,39381,1,8,0:0:0:0:
408,260,39550,1,0,0:0:0:0:
428,140,39720,1,2,0:0:0:0:
204,328,40059,1,8,0:0:0:0:
104,260,40228,1,0,0:0:0:0:
84,140,40397,6,0,P|108:92|132:72,1,85,2|0,0:0|0:0,0:0:0:0:
292,120,40736,2,0,B|256:142|256:142|220:120,1,85,8|0,0:0|0:0,0:0:0:0:
380,72,41075,2,0,P|411:101|428:140,1,85,2|0,0:0|0:0,0:0:0:0:
408,288,41413,2,0,P|377:259|360:220,1,85,8|0,0:0|0:0,0:0:0:0:
368,356,41752,6,0,P|304:288|284:216,1,170,2|8,0:0|0:0,0:0:0:0:
264,116,42260,1,0,0:0:0:0:
164,116,42429,1,2,0:0:0:0:
264,116,42599,1,0,0:0:0:0:
164,116,42768,2,0,L|80:116,1,85,8|0,0:0|0:0,0:0:0:0:
32,280,43107,6,0,L|204:280,1,170,2|8,0:0|0:0,0:0:0:0:
304,280,43615,1,0,0:0:0:0:
372,360,43784,1,2,0:0:0:0:
304,280,43954,1,0,0:0:0:0:
372,360,44123,2,0,P|412:372|452:360,1,85,8|0,0:0|0:0,0:0:0:0:
256,220,44462,5,4,3:2:0:0:
256,192,44546,12,2,45478,3:0:0:0:
256,272,45816,6,0,L|256:184,1,85,4|0,3:0|0:0,0:0:0:0:
296,336,46155,2,0,P|256:348|216:336,2,85,4|0|4,3:0|0:0|3:0,0:0:0:0:
332,240,46663,1,0,0:0:0:0:
180,240,46832,1,4,3:0:0:0:
188,140,47002,1,4,3:0:0:0:
324,140,47171,5,4,3:0:0:0:
332,240,47341,1,0,0:0:0:0:
468,236,47510,1,4,3:0:0:0:
468,132,47679,1,0,0:0:0:0:
468,132,47764,1,0,0:0:0:0:
468,132,47849,2,0,L|468:44,1,85,4|0,3:0|0:0,0:0:0:0:
324,55,48187,2,0,L|324:139,1,85,4|4,3:0|3:0,0:0:0:0:
188,140,48526,6,0,L|188:55,1,85,4|0,3:0|0:0,0:0:0:0:
44,47,48865,1,4,3:0:0:0:
44,47,48949,1,0,0:0:0:0:
44,47,49034,1,0,0:0:0:0:
84,208,49203,2,0,P|96:164|84:128,1,85,4|0,3:0|0:0,0:0:0:0:
44,276,49542,2,0,P|32:320|44:356,1,85,4|4,3:0|3:0,0:0:0:0:
176,316,49881,5,4,3:0:0:0:
176,316,50219,1,4,3:0:0:0:
256,252,50389,1,0,0:0:0:0:
256,252,50473,1,0,0:0:0:0:
256,252,50558,2,0,L|256:80,1,170,4|4,3:0|3:0,0:0:0:0:
376,16,51066,1,4,3:0:0:0:
496,80,51236,6,0,B|512:120|512:120|496:160,1,85,4|0,3:2|0:0,0:0:0:0:
420,320,51574,2,0,B|404:280|404:280|420:240,1,85,4|0,3:0|0:0,0:0:0:0:
456,204,51828,1,0,0:0:0:0:
456,204,51913,2,0,L|372:208,1,85,4|0,3:0|0:0,0:0:0:0:
224,176,52252,2,0,L|308:172,1,85,4|4,3:0|3:0,0:0:0:0:
168,220,52590,6,0,L|84:224,1,85,4|0,3:0|0:0,0:0:0:0:
48,320,52929,1,4,3:0:0:0:
44,144,53098,1,0,0:0:0:0:
44,144,53183,1,0,0:0:0:0:
44,144,53268,1,4,3:0:0:0:
96,56,53437,1,0,0:0:0:0:
256,152,53606,1,4,3:0:0:0:
256,16,53776,1,4,3:0:0:0:
172,84,53945,5,4,3:0:0:0:
340,84,54114,1,0,0:0:0:0:
256,236,54284,1,4,3:0:0:0:
256,236,54368,1,0,0:0:0:0:
256,236,54453,1,0,0:0:0:0:
316,320,54622,2,0,P|344:348|388:352,1,85,4|0,3:0|0:0,0:0:0:0:
196,320,54961,2,0,P|168:348|124:352,1,85,4|4,3:0|3:0,0:0:0:0:
256,236,55300,5,4,3:0:0:0:
256,192,55385,12,4,56316,3:0:0:0:
216,156,56655,6,0,P|176:168|136:156,1,85,2|0,0:0|0:0,0:0:0:0:
296,156,56993,2,0,P|336:168|376:156,1,85,8|0,0:0|0:0,0:0:0:0:
332,64,57332,2,0,P|255:31|179:63,1,170,2|8,0:0|0:0,0:0:0:0:
256,132,57840,1,0,0:0:0:0:
256,132,58009,6,0,L|256:216,1,85,2|0,0:0|0:0,0:0:0:0:
332,332,58348,1,8,0:0:0:0:
180,332,58517,1,0,0:0:0:0:
332,332,58687,2,0,B|256:294|256:294|180:332,1,170,2|8,0:0|0:0,0:0:0:0:
84,292,59195,1,0,0:0:0:0:
148,212,59364,6,0,B|160:192|160:192|176:164|168:132,1,85,2|0,0:0|0:0,0:0:0:0:
92,68,59703,2,0,B|80:88|80:88|64:116|72:148,1,85,8|0,0:0|0:0,0:0:0:0:
156,220,60042,2,0,B|168:200|168:200|184:172|176:140,1,85,2|0,0:0|0:0,0:0:0:0:
204,44,60380,1,8,0:0:0:0:
308,44,60550,1,0,0:0:0:0:
256,132,60719,5,2,0:0:0:0:
256,232,60888,1,0,0:0:0:0:
176,296,61058,1,8,0:0:0:0:
256,360,61227,1,0,0:0:0:0:
336,296,61396,2,0,L|424:296,1,85,2|0,0:0|0:0,0:0:0:0:
176,296,61735,2,0,L|88:296,1,85,8|0,0:0|0:0,0:0:0:0:
256,147,62074,6,0,L|256:235,1,85,2|0,0:0|0:0,0:0:0:0:
180,128,62412,1,8,0:0:0:0:
256,60,62582,1,0,0:0:0:0:
332,128,62751,2,0,B|332:212|332:212|388:276,1,170,2|8,0:0|0:0,0:0:0:0:
484,236,63259,2,0,B|484:152|484:152|428:88,1,170
292,64,63767,5,8,0:0:0:0:
160,32,63937,1,0,0:0:0:0:
56,120,64106,2,0,L|56:208,1,85,2|0,0:0|0:0,0:0:0:0:
160,296,64445,2,0,L|160:208,1,85,8|0,0:0|0:0,0:0:0:0:
252,120,64783,6,0,L|252:208,1,85,2|0,0:0|0:0,0:0:0:0:
308,292,65122,1,8,0:0:0:0:
380,364,65291,1,0,0:0:0:0:
484,364,65461,1,2,0:0:0:0:
412,248,65630,1,0,0:0:0:0:
412,248,65715,1,0,0:0:0:0:
412,248,65799,2,0,P|400:204|412:168,1,85,8|0,0:0|0:0,0:0:0:0:
312,40,66138,6,0,P|324:80|312:120,1,85,2|0,0:0|0:0,0:0:0:0:
124,80,66477,1,8,0:0:0:0:
252,80,66646,1,0,0:0:0:0:
124,80,66816,2,0,B|80:80|80:80|48:104,1,85,2|0,0:0|0:0,0:0:0:0:
48,240,67154,2,0,B|92:240|92:240|124:264,1,85,8|0,0:0|0:0,0:0:0:0:
352,348,67493,6,0,B|388:296|388:296|388:232,1,127.5,2|2,3:0|3:0,0:0:0:0:
388,184,67832,1,2,3:0:0:0:
256,260,68001,1,2,3:0:0:0:
124,184,68170,1,0,0:0:0:0:
388,92,68509,1,2,3:0:0:0:
256,16,68678,1,2,3:0:0:0:
124,92,68848,6,0,B|80:92|80:92|44:72,1,85,6|0,0:0|0:0,0:0:0:0:
124,184,69186,2,0,B|80:184|80:184|44:204,1,85,8|0,0:0|0:0,0:0:0:0:
204,232,69525,2,0,L|196:316,1,85,2|0,0:0|0:0,0:0:0:0:
308,232,69864,2,0,L|316:316,1,85,8|0,0:0|0:0,0:0:0:0:
388,184,70202,6,0,B|432:184|432:184|468:204,1,85,2|0,0:0|0:0,0:0:0:0:
388,92,70541,2,0,B|432:92|432:92|468:72,1,85,8|0,0:0|0:0,0:0:0:0:
348,24,70880,2,0,P|320:48|308:96,1,85,2|0,0:0|0:0,0:0:0:0:
164,24,71219,2,0,P|192:48|204:96,1,85,8|0,0:0|0:0,0:0:0:0:
332,192,71557,6,0,B|280:192|256:224|256:224|232:192|180:192,1,170,2|8,0:0|0:0,0:0:0:0:
88,232,72065,1,0,0:0:0:0:
160,304,72235,1,2,0:0:0:0:
256,340,72404,1,0,0:0:0:0:
352,304,72573,1,8,0:0:0:0:
424,232,72743,1,0,0:0:0:0:
352,160,72912,6,0,B|352:120|352:120|380:84,1,85,2|0,0:0|0:0,0:0:0:0:
256,32,73251,2,0,L|256:120,1,85,8|0,0:0|0:0,0:0:0:0:
160,160,73589,1,2,0:0:0:0:
160,160,73928,2,0,B|160:120|160:120|132:84,1,85,8|0,0:0|0:0,0:0:0:0:
256,32,74267,6,0,L|256:120,1,85,2|0,0:0|0:0,0:0:0:0:
256,220,74606,2,0,L|256:312,1,85,8|0,0:0|0:0,0:0:0:0:
356,284,74944,1,2,0:0:0:0:
308,372,75114,1,0,0:0:0:0:
208,372,75283,1,8,0:0:0:0:
156,284,75452,1,0,0:0:0:0:
256,220,75622,6,0,L|328:172,1,85,2|0,0:0|0:0,0:0:0:0:
256,220,75960,2,0,L|184:172,1,85,8|0,0:0|0:0,0:0:0:0:
256,48,76299,2,0,L|256:132,1,85,2|0,0:0|0:0,0:0:0:0:
392,24,76638,1,8,0:0:0:0:
120,24,76976,6,0,P|108:56|120:104,1,85,2|0,0:0|0:0,0:0:0:0:
184,236,77315,2,0,P|196:204|184:156,1,85,8|0,0:0|0:0,0:0:0:0:
120,288,77654,2,0,P|108:320|120:368,1,85,2|0,0:0|0:0,0:0:0:0:
192,236,77992,2,0,P|204:204|192:156,1,85,8|0,0:0|0:0,0:0:0:0:
256,372,78331,5,4,0:0:0:0:
256,32,78670,5,2,3:0:0:0:
132,124,78839,1,0,0:0:0:0:
8,216,79009,1,2,0:0:0:0:
256,32,79347,1,2,3:0:0:0:
380,124,79517,1,0,0:0:0:0:
504,216,79686,6,0,B|520:256|520:256|504:296,1,85,4|0,0:0|0:0,0:0:0:0:
368,344,80025,2,0,L|452:344,1,85,8|0,0:0|0:0,0:0:0:0:
216,296,80363,2,0,L|304:296,1,85,2|0,0:0|0:0,0:0:0:0:
64,244,80702,2,0,L|148:244,1,85,8|0,0:0|0:0,0:0:0:0:
16,316,81041,6,0,P|-24:248|16:172,1,170,2|8,0:0|0:0,0:0:0:0:
132,80,81549,2,0,P|112:124|80:148,1,85,0|2,0:0|0:0,0:0:0:0:
36,56,81888,1,0,0:0:0:0:
132,80,82057,2,0,L|220:80,1,85,8|0,0:0|0:0,0:0:0:0:
396,76,82396,5,2,0:0:0:0:
500,76,82565,1,0,0:0:0:0:
500,180,82734,1,8,0:0:0:0:
396,176,82904,1,0,0:0:0:0:
396,280,83073,2,0,L|396:364,1,85,2|0,0:0|0:0,0:0:0:0:
292,360,83412,1,8,0:0:0:0:
288,224,83581,1,0,0:0:0:0:
288,224,83666,1,0,0:0:0:0:
288,224,83750,6,0,L|204:224,1,85,2|0,0:0|0:0,0:0:0:0:
88,224,84089,1,8,0:0:0:0:
60,72,84258,1,0,0:0:0:0:
208,32,84428,1,2,0:0:0:0:
424,224,84766,1,8,0:0:0:0:
452,72,84936,1,0,0:0:0:0:
304,32,85105,6,0,B|304:76|304:76|324:112,1,85,2|0,0:0|0:0,0:0:0:0:
208,32,85444,2,0,B|208:76|208:76|188:112,1,85,8|0,0:0|0:0,0:0:0:0:
208,272,85783,2,0,B|208:228|208:228|188:192,1,85,2|0,0:0|0:0,0:0:0:0:
304,272,86121,2,0,B|304:228|304:228|324:192,1,85,8|0,0:0|0:0,0:0:0:0:
332,92,86460,6,0,B|280:92|256:60|256:60|232:92|180:92,1,170,2|8,0:0|0:0,0:0:0:0:
80,88,86968,1,0,0:0:0:0:
80,88,87137,1,2,0:0:0:0:
256,352,87476,1,8,0:0:0:0:
256,352,87815,5,2,0:0:0:0:
432,88,88153,1,8,0:0:0:0:
432,88,88323,1,2,0:0:0:0:
432,88,88492,2,0,L|344:88,1,85,2|0,0:0|0:0,0:0:0:0:
80,88,88831,2,0,L|168:88,1,85,8|0,0:0|0:0,0:0:0:0:
256,352,89169,5,4,0:0:0:0:
256,192,89254,12,4,90186,3:0:0:0:
292,256,90524,6,0,B|256:234|256:234|220:256,1,85,4|0,3:0|0:0,0:0:0:0:
256,352,90863,1,4,3:0:0:0:
256,148,91202,1,4,3:0:0:0:
256,148,91540,2,0,L|256:56,1,85,4|4,3:0|3:0,0:0:0:0:
352,28,91879,6,0,P|360:60|392:100,1,85,4|0,3:0|0:0,0:0:0:0:
160,28,92218,2,0,P|152:60|120:100,1,85,4|0,3:0|0:0,0:0:0:0:
256,228,92556,1,4,3:0:0:0:
256,228,92895,2,0,L|256:320,1,85,4|4,3:0|3:0,0:0:0:0:
352,348,93234,6,0,P|360:316|392:276,1,85,4|0,3:0|0:0,0:0:0:0:
160,348,93573,2,0,P|152:316|120:276,1,85,4|0,3:0|0:0,0:0:0:0:
256,148,93912,1,4,3:0:0:0:
256,148,94250,1,4,3:0:0:0:
204,60,94420,1,4,3:0:0:0:
308,60,94589,5,4,3:0:0:0:
356,152,94758,1,0,0:0:0:0:
308,240,94928,1,4,3:0:0:0:
204,240,95097,1,0,0:0:0:0:
156,152,95266,1,4,3:0:0:0:
156,152,95605,1,4,3:0:0:0:
388,332,95943,6,0,L|480:332,1,85,2|0,0:0|0:0,0:0:0:0:
320,256,96281,2,0,L|336:164,1,85,2|0,0:0|0:0,0:0:0:0:
192,256,96620,2,0,L|176:164,1,85,2|0,0:0|0:0,0:0:0:0:
124,332,96959,2,0,L|32:332,1,85,2|0,0:0|0:0,0:0:0:0:
256,352,97298,5,2,0:0:0:0:
256,352,97468,1,0,0:0:0:0:
256,352,97637,1,2,0:0:0:0:
204,80,97976,2,0,P|184:120|152:144,1,85,2|0,0:0|0:0,0:0:0:0:
308,80,98315,2,0,P|328:120|360:144,1,85,2|0,0:0|0:0,0:0:0:0:
256,292,98653,6,0,L|256:208,2,85,2|0|0,0:0|0:0|0:0,0:0:0:0:
204,364,99161,1,0,0:0:0:0:
308,364,99331,2,0,B|348:352|348:352|372:316,1,85,2|0,0:0|0:0,0:0:0:0:
204,364,99669,2,0,B|164:352|164:352|140:316,1,85,2|0,0:0|0:0,0:0:0:0:
8,192,100008,5,2,0:0:0:0:
256,8,100347,1,2,0:0:0:0:
504,192,100685,1,2,0:0:0:0:
