osu file format v14

[General]
AudioFilename: audio.mp3
AudioLeadIn: 0
PreviewTime: 43952
Countdown: 0
SampleSet: Soft
StackLeniency: 0.7
Mode: 0
LetterboxInBreaks: 0
EpilepsyWarning: 1
WidescreenStoryboard: 1

[Editor]
DistanceSpacing: 0.7
BeatDivisor: 4
GridSize: 8
TimelineZoom: 2.3

[Metadata]
Title:We are Number One (Remake)
TitleUnicode:We are Number One (Remake)
Artist:Face
ArtistUnicode:Face
Creator:A L I V E -
Version:BURGER ar10
Source:GEFALSHT
Tags:Expert Extreme Russian Remix Rap Fun
BeatmapID:1405639
BeatmapSetID:664139

[Difficulty]
HPDrainRate:7
CircleSize:4
OverallDifficulty:8
ApproachRate:10
SliderMultiplier:1.4
SliderTickRate:1

[Events]
//Background and Video events
0,0,"FaceBG.png",0,0
Video,0,"Face went to GUCCI shop in Lazy Town.mp4"
//Break Periods
2,18287,20340
2,42176,43982
2,72422,73364
//Storyboard Layer 0 (Background)
//Storyboard Layer 1 (Fail)
//Storyboard Layer 2 (Pass)
//Storyboard Layer 3 (Foreground)
//Storyboard Sound Samples

[TimingPoints]
6051,370.37037037037,4,2,2,60,1,0
6051,-50,4,2,3,60,0,1
8273,-66.6666666666667,4,2,3,60,0,1
8643,-66.6666666666667,4,2,3,60,0,1
9013,-100,4,2,3,60,0,1
9939,-50,4,2,3,60,0,1
14939,-66.6666666666667,4,2,3,60,0,1
15680,-50,4,2,3,60,0,1
17532,-200,4,2,3,60,0,1
17902,-200,4,2,3,60,0,0
20865,-66.6666666666667,4,2,2,80,0,0
26421,-125,4,2,2,80,0,0
26791,-50,4,2,2,80,0,0
31236,-100,4,2,2,80,0,0
31606,-66.6666666666667,4,2,2,80,0,0
31976,-50,4,2,2,80,0,0
35680,-66.6666666666667,4,2,1,80,0,0
44199,-33.3333333333333,4,2,2,60,0,1
44507,370.37037037037,4,2,3,60,1,1
45432,-40,4,2,3,60,0,1
46729,-66.6666666666667,4,2,3,60,0,1
47284,-40,4,2,3,60,0,1
50432,-40,4,2,3,60,0,1
52655,-66.6666666666667,4,2,3,60,0,1
53395,-66.6666666666667,4,2,3,60,0,1
57840,-40,4,2,3,60,0,1
60062,-66.6666666666667,4,2,3,60,0,1
61729,-40,4,2,3,60,0,1
63395,-66.6666666666667,4,2,3,60,0,0
64260,370.37037037037,4,2,2,60,1,0
64260,-66.6666666666667,4,2,2,60,0,0
64630,-50,4,2,4,80,0,0
73889,-50,4,2,2,60,0,0
75000,-50,4,1,2,60,0,0
76852,-66.6666666666667,4,1,2,60,0,0
78334,-50,4,1,2,60,0,0
80926,-40,4,1,2,60,0,0
83704,-40,4,1,2,60,0,0
83889,-40,4,1,2,60,0,0
86852,-40,4,2,2,60,0,1
89445,-66.6666666666667,4,2,2,60,0,1
90556,-40,4,2,2,60,0,1
98704,-40,4,1,2,80,0,1
113148,-66.6666666666667,4,1,2,80,0,1
113889,-40,4,1,2,80,0,1
119445,-66.6666666666667,4,1,2,80,0,1
119815,-40,4,1,2,80,0,1
122408,-40,4,1,2,70,0,1
122778,-40,4,1,2,75,0,1
123148,-40,4,1,2,80,0,1
123519,-40,4,1,2,85,0,1
123889,-40,4,1,2,90,0,1
124259,-40,4,1,2,100,0,1
125741,-40,4,1,2,100,0,0

[Colours]
Combo1 : 170,255,255
Combo2 : 255,170,170
Combo3 : 255,255,170
Combo4 : 213,255,170

[HitObjects]
152,36,6051,6,0,B|112:96|112:96|148:188,1,140,8|0,0:0|0:0,0:0:0:0:
464,304,6421,1,8,0:0:0:0:
208,104,6606,1,0,0:0:0:0:
512,208,6791,1,8,0:0:0:0:
208,224,6976,2,0,B|168:299|216:379,1,140,0|8,0:0|0:0,0:0:0:0:
400,32,7347,5,0,0:0:0:0:
272,304,7532,1,8,0:0:0:0:
512,232,7717,2,0,B|472:208|472:208|352:216,1,140,0|8,0:0|0:0,0:0:0:0:
164,228,8088,1,0,0:0:0:0:
72,136,8274,2,0,P|56:80|80:32,1,105.000004005432,8|0,0:0|0:0,0:0:0:0:
232,128,8643,1,8,0:0:0:0:
245,161,8735,1,0,0:0:0:0:
246,198,8828,1,0,0:0:0:0:
234,232,8920,1,0,0:0:0:0:
216,264,9013,2,0,P|189:292|157:308,1,70,8|0,0:0|0:0,0:0:0:0:
432,240,9384,5,8,0:0:0:0:
24,288,9569,1,0,0:0:0:0:
384,344,9754,1,8,0:0:0:0:
168,40,9939,2,0,B|248:40|248:40|320:72,1,140,0|8,0:0|0:0,0:0:0:0:
312,72,10310,1,0,0:0:0:0:
432,288,10495,5,12,0:0:0:0:
128,208,10680,1,0,0:0:0:0:
488,200,10865,1,12,0:0:0:0:
120,328,11050,1,0,0:0:0:0:
392,136,11236,2,0,P|327:110|259:120,1,140,12|0,0:0|0:0,0:0:0:0:
312,224,11606,6,0,B|248:256|248:256|132:228,1,140,12|0,0:0|0:0,0:0:0:0:
136,32,11976,2,0,P|172:128|140:212,1,140,12|0,0:0|0:0,0:0:0:0:
256,96,12347,6,0,B|272:76|272:76|440:76,1,140,8|0,0:0|0:0,0:0:0:0:
168,304,12717,1,8,0:0:0:0:
488,176,12902,1,0,0:0:0:0:
80,240,13088,1,8,0:0:0:0:
464,312,13273,2,0,P|384:304|312:256,1,140,0|8,0:0|0:0,0:0:0:0:
112,120,13643,1,0,0:0:0:0:
332,275,13828,6,0,B|404:267|404:267|460:219,1,140,8|0,0:0|0:0,0:0:0:0:
496,88,14199,2,0,B|424:96|424:96|372:139,1,140,8|0,0:0|0:0,0:0:0:0:
412,320,14569,5,10,0:0:0:0:
364,329,14661,1,0,0:0:0:0:
316,319,14754,1,0,0:0:0:0:
278,289,14846,1,0,0:0:0:0:
255,246,14939,2,0,P|240:184|284:112,1,105.000004005432,10|0,0:0|0:0,0:0:0:0:
172,39,15310,5,8,0:0:0:0:
330,328,15496,1,0,0:0:0:0:
64,336,15680,2,0,B|64:264|64:264|116:203,1,140,8|0,0:0|0:0,0:0:0:0:
229,2,16050,1,8,0:0:0:0:
282,365,16236,1,0,0:0:0:0:
128,144,16421,5,12,0:0:0:0:
384,240,16606,1,0,0:0:0:0:
128,240,16791,5,12,0:0:0:0:
384,144,16976,1,0,0:0:0:0:
63,144,17162,5,12,0:0:0:0:
448,240,17347,1,0,0:0:0:0:
63,240,17532,5,12,0:0:0:0:
448,144,17717,1,0,0:0:0:0:
23,144,17902,5,12,0:0:0:0:
486,240,18087,1,0,0:0:0:0:
72,144,20865,6,0,P|111:110|162:99,1,105.000004005432,8|0,0:0|0:0,0:0:0:0:
296,72,21236,2,0,B|312:128|312:128|296:184,1,105.000004005432,8|0,0:0|0:0,0:0:0:0:
156,98,21606,1,8,0:0:0:0:
384,168,21791,1,0,0:0:0:0:
160,320,21976,2,0,L|192:218,1,105.000004005432,8|0,0:0|0:0,0:0:0:0:
400,72,22347,6,0,P|344:56|288:72,1,105.000004005432,8|0,0:0|0:0,0:0:0:0:
203,244,22717,2,0,B|216:200|216:200|200:144,1,105.000004005432,8|0,0:0|0:0,0:0:0:0:
392,192,23088,2,0,L|496:232,2,105.000004005432,8|0|8,0:0|0:0|0:0,0:0:0:0:
248,344,23643,1,0,0:0:0:0:
328,80,23828,5,12,0:0:0:0:
352,304,24013,2,0,P|306:267|287:212,1,105.000004005432,0|8,0:0|0:0,0:0:0:0:
128,136,24384,2,0,B|174:131|174:131|226:156,1,105.000004005432,0|8,0:0|0:0,0:0:0:0:
432,120,24754,2,0,L|329:141,1,105.000004005432,0|8,0:0|0:0,0:0:0:0:
320,144,25125,1,0,0:0:0:0:
176,184,25310,6,12,P|154:136|113:105,1,105.000004005432,12|0,0:0|0:0,0:0:0:0:
238,252,25680,2,0,B|290:277|290:277|336:272,1,105.000004005432,12|0,0:0|0:0,0:0:0:0:
135,267,26051,2,0,L|32:288,1,105.000004005432,12|0,0:0|0:0,0:0:0:0:
135,267,26421,2,0,L|64:280,1,56,12|0,0:0|0:0,0:0:0:0:
216,64,26791,5,8,0:0:0:0:
120,184,26976,2,0,P|192:200|223:282,1,140,0|8,0:0|0:0,0:0:0:0:
144,256,27347,1,0,0:0:0:0:
400,168,27532,1,8,0:0:0:0:
368,264,27717,2,0,B|304:224|304:224|288:144,1,140,0|8,0:0|0:0,0:0:0:0:
280,24,28088,1,0,0:0:0:0:
40,128,28273,6,0,B|64:112|64:112|184:112,1,140,8|0,0:0|0:0,0:0:0:0:
384,112,28643,1,8,0:0:0:0:
232,224,28828,2,0,P|168:272|160:336,1,140,0|8,0:0|0:0,0:0:0:0:
240,304,29199,1,0,0:0:0:0:
480,256,29384,2,0,B|408:248|408:248|328:272,1,140,8|0,0:0|0:0,0:0:0:0:
176,200,29754,5,8,0:0:0:0:
64,328,29939,2,0,B|112:272|212:291,1,140,0|8,0:0|0:0,0:0:0:0:
368,304,30310,1,0,0:0:0:0:
197,198,30495,2,0,B|128:176|128:176|64:192,1,140,8|0,0:0|0:0,0:0:0:0:
56,88,30865,2,0,L|224:88,1,140,8|0,3:0|3:0,3:0:0:0:
336,56,31236,6,0,P|376:56|424:80,1,70,12|0,0:0|0:0,0:0:0:0:
336,160,31606,6,0,P|396:160|468:196,1,105.000004005432,12|0,0:0|0:0,0:0:0:0:
336,264,31976,6,0,P|420:264|521:314,1,140,12|0,0:0|0:0,0:0:0:0:
424,112,35680,6,0,B|384:96|368:72|368:72|368:112|344:128|344:128|304:120|264:168,1,210.000008010865
192,104,36236,2,0,B|160:144|154:280|312:288|356:218|356:218|368:224,1,315.000012016297
432,256,36976,6,0,B|456:240|488:240|488:240|440:176|440:88|440:88|400:112|344:104,1,315.000012016297
280,160,37717,2,0,B|247:114|272:64|272:64|224:88|200:40|200:40|184:112|96:80,1,315.000012016297
88,168,38458,6,0,B|112:192|136:200|136:200|96:256|111:305|111:305|160:288|192:328|192:328|208:312|240:296,1,315.000012016297
200,240,39199,2,0,B|216:208|208:176|208:176|248:168|280:200|280:200|296:136|368:112|432:160,1,315.000012016297
256,192,40125,12,4,41976,0:0:0:0:
232,48,44507,5,8,0:0:0:0:
128,368,44692,1,0,0:0:0:0:
16,160,44878,1,8,0:0:0:0:
408,296,45063,1,0,0:0:0:0:
408,296,45155,1,0,0:0:0:0:
408,296,45247,1,8,0:0:0:0:
88,288,45432,6,0,B|160:344|160:344|264:352,1,175,0|8,0:0|0:0,0:0:0:0:
88,160,45803,1,0,0:0:0:0:
472,320,45988,1,8,0:0:0:0:
152,24,46173,1,0,0:0:0:0:
280,352,46358,1,8,0:0:0:0:
344,64,46544,1,0,0:0:0:0:
64,152,46729,5,8,0:0:0:0:
100,151,46821,1,0,0:0:0:0:
136,157,46914,1,0,0:0:0:0:
170,171,47006,1,0,0:0:0:0:
201,191,47099,1,8,0:0:0:0:
440,352,47284,6,0,B|352:311|352:311|276:215,1,175,0|8,0:0|0:0,0:0:0:0:
64,56,47655,1,0,0:0:0:0:
64,56,47747,1,0,0:0:0:0:
64,56,47840,1,8,0:0:0:0:
208,368,48025,1,0,0:0:0:0:
408,56,48210,1,8,0:0:0:0:
48,336,48395,1,0,0:0:0:0:
224,24,48581,6,0,B|272:104|272:104|272:240,1,175,12|0,0:0|0:0,0:0:0:0:
416,96,48951,1,12,0:0:0:0:
72,320,49136,1,0,0:0:0:0:
328,24,49321,1,12,0:0:0:0:
248,264,49506,1,0,0:0:0:0:
440,160,49692,5,12,0:0:0:0:
49,230,49877,1,0,0:0:0:0:
398,77,50062,5,12,0:0:0:0:
94,333,50247,1,0,0:0:0:0:
223,33,50432,5,8,0:0:0:0:
288,350,50618,1,2,0:0:0:0:
148,70,50803,1,8,0:0:0:0:
363,313,50989,1,2,0:0:0:0:
102,140,51173,1,8,0:0:0:0:
409,243,51359,1,2,0:0:0:0:
97,224,51544,1,8,0:0:0:0:
414,159,51730,1,2,0:0:0:0:
134,299,51914,1,8,0:0:0:0:
377,84,52100,1,2,0:0:0:0:
204,345,52284,1,8,0:0:0:0:
307,38,52470,1,2,0:0:0:0:
80,224,52655,5,12,0:0:0:0:
91,258,52747,1,0,0:0:0:0:
111,289,52840,1,2,0:0:0:0:
140,312,52932,1,0,0:0:0:0:
173,327,53025,2,0,P|224:344|288:336,1,105.000004005432,12|0,0:0|0:0,0:0:0:0:
223,33,53395,5,8,0:0:0:0:
288,350,53581,1,2,0:0:0:0:
148,70,53766,1,8,0:0:0:0:
363,313,53952,1,2,0:0:0:0:
102,140,54136,1,8,0:0:0:0:
409,243,54322,1,2,0:0:0:0:
97,224,54506,1,8,0:0:0:0:
414,159,54693,1,2,0:0:0:0:
134,299,54877,1,8,0:0:0:0:
377,84,55063,1,2,0:0:0:0:
204,345,55247,1,8,0:0:0:0:
307,38,55433,1,2,0:0:0:0:
288,350,55618,1,0,0:0:0:0:
223,33,55803,1,0,0:0:0:0:
256,192,55988,12,4,57469,0:0:0:0:
472,272,57840,5,8,0:0:0:0:
136,152,58025,1,0,0:0:0:0:
432,112,58210,1,8,0:0:0:0:
64,288,58395,1,0,0:0:0:0:
64,288,58488,1,0,0:0:0:0:
64,288,58581,1,8,0:0:0:0:
480,264,58766,2,0,B|400:232|400:232|336:128,1,175,0|8,0:0|0:0,0:0:0:0:
168,56,59136,5,0,0:0:0:0:
72,352,59321,1,8,0:0:0:0:
392,88,59506,1,0,0:0:0:0:
8,184,59692,1,8,0:0:0:0:
8,184,59784,1,0,0:0:0:0:
8,184,59877,1,0,0:0:0:0:
296,344,60062,1,8,0:0:0:0:
332,339,60154,1,0,0:0:0:0:
364,321,60247,1,0,0:0:0:0:
385,292,60339,1,0,0:0:0:0:
395,257,60432,1,8,0:0:0:0:
416,24,60618,5,0,0:0:0:0:
128,352,60803,1,8,0:0:0:0:
200,88,60988,1,0,0:0:0:0:
200,88,61081,1,0,0:0:0:0:
200,88,61173,1,8,0:0:0:0:
456,184,61358,1,0,0:0:0:0:
16,200,61544,1,8,0:0:0:0:
304,64,61729,1,0,0:0:0:0:
208,368,61914,2,0,B|208:280|208:280|144:152,1,175,8|0,0:0|0:0,0:0:0:0:
32,56,62284,5,8,0:0:0:0:
488,176,62469,1,0,0:0:0:0:
248,40,62655,1,8,0:0:0:0:
248,40,62747,1,0,0:0:0:0:
248,40,62840,1,0,0:0:0:0:
200,352,63025,1,8,0:0:0:0:
352,32,63210,1,0,0:0:0:0:
408,96,63395,6,0,P|440:152|424:208,1,105.000004005432
434,189,63766,1,0,0:0:0:0:
424,272,63951,2,0,L|416:312,3,35.0000013351441
344,280,64260,2,0,P|288:264|232:280,1,105.000004005432
32,256,64630,6,0,P|112:216|184:240,1,140,8|0,0:0|0:0,0:0:0:0:
56,120,65000,1,8,0:0:0:0:
280,168,65185,1,0,0:0:0:0:
168,96,65371,6,0,B|232:72|232:72|304:80,1,140,8|0,0:0|0:0,0:0:0:0:
328,248,65741,1,8,0:0:0:0:
448,72,65926,1,0,0:0:0:0:
392,152,66111,6,0,L|456:280,1,140,8|0,0:0|0:0,0:0:0:0:
240,320,66482,1,8,0:0:0:0:
320,232,66667,2,0,P|240:200|176:208,1,140,0|8,0:0|0:0,0:0:0:0:
128,352,67037,5,0,0:0:0:0:
32,104,67222,1,8,0:0:0:0:
56,240,67408,2,0,B|120:208|120:208|160:144,1,140,0|8,0:0|0:0,0:0:0:0:
200,240,67778,5,0,0:0:0:0:
312,184,67963,2,0,P|344:256|336:328,1,140,8|0,0:0|0:0,0:0:0:0:
224,272,68334,5,8,0:0:0:0:
456,136,68519,2,0,P|399:104|320:96,1,140,0|8,0:0|0:0,0:0:0:0:
168,88,68889,2,8,B|160:152|160:152|96:112|96:112|80:184|80:184|16:128,1,280,0|0,0:0|0:0,0:0:0:0:
48,304,69630,2,0,B|96:224|256:320|304:192,1,280
256,192,70371,12,4,72222,0:0:0:0:
336,96,73889,6,0,P|408:64|480:92,1,140,8|0,0:0|0:0,0:0:0:0:
336,96,74259,6,0,B|411:117|411:117|448:185,1,140,8|0,0:0|0:0,0:0:0:0:
336,96,74630,6,0,L|364:237,1,140,8|0,0:0|0:0,0:0:0:0:
56,176,75000,5,8,0:0:0:0:
432,348,75185,1,0,0:0:0:0:
216,32,75371,1,10,0:0:0:0:
216,32,75463,1,2,0:0:0:0:
216,32,75556,1,2,0:0:0:0:
0,256,75741,1,8,0:0:0:0:
468,192,75926,1,0,0:0:0:0:
104,112,76111,1,8,0:0:0:0:
352,272,76297,1,0,0:0:0:0:
0,192,76482,5,8,0:0:0:0:
416,120,76667,1,0,0:0:0:0:
168,360,76852,1,10,0:0:0:0:
153,323,76944,1,2,0:0:0:0:
141,290,77037,1,2,0:0:0:0:
64,72,77222,1,8,0:0:0:0:
336,336,77408,5,0,0:0:0:0:
384,48,77593,1,8,0:0:0:0:
184,368,77778,1,0,0:0:0:0:
0,120,77963,1,8,0:0:0:0:
432,216,78148,1,0,0:0:0:0:
128,16,78334,5,10,0:0:0:0:
145,60,78427,1,2,0:0:0:0:
164,106,78519,1,2,0:0:0:0:
248,348,78704,1,8,0:0:0:0:
416,48,78889,1,0,0:0:0:0:
80,344,79074,1,8,0:0:0:0:
488,144,79259,1,0,0:0:0:0:
320,376,79445,1,8,0:0:0:0:
208,8,79630,1,0,0:0:0:0:
480,248,79815,5,8,0:0:0:0:
172,84,80000,1,0,0:0:0:0:
396,148,80185,1,8,0:0:0:0:
24,144,80371,1,0,0:0:0:0:
456,48,80556,1,8,0:0:0:0:
24,248,80741,1,0,0:0:0:0:
368,344,80926,6,0,B|320:272|320:272|304:160,1,175,12|0,0:0|0:0,0:0:0:0:
120,384,81297,1,8,0:0:0:0:
224,44,81482,1,0,0:0:0:0:
288,360,81667,1,8,0:0:0:0:
144,104,81852,1,0,0:0:0:0:
384,348,82037,1,8,0:0:0:0:
0,84,82222,1,0,0:0:0:0:
472,256,82408,6,0,B|376:272|376:272|288:336,1,175,12|0,0:0|0:0,0:0:0:0:
40,152,82778,1,8,0:0:0:0:
448,260,82963,1,0,0:0:0:0:
176,128,83148,1,8,0:0:0:0:
504,384,83334,1,0,0:0:0:0:
440,48,83519,1,8,0:0:0:0:
96,352,83704,1,0,0:0:0:0:
32,112,83889,6,0,B|120:96|120:96|235:126,1,175,12|0,0:0|0:0,0:0:0:0:
456,368,84259,1,8,0:0:0:0:
128,168,84445,1,0,0:0:0:0:
488,256,84630,1,8,0:0:0:0:
0,232,84815,1,0,0:0:0:0:
328,96,85000,2,0,B|376:168|376:168|384:292,1,175,8|0,0:0|0:0,0:0:0:0:
132,356,85371,5,12,0:0:0:0:
296,32,85556,1,0,0:0:0:0:
392,384,85741,1,12,0:0:0:0:
60,128,85926,1,0,0:0:0:0:
508,172,86111,1,12,0:0:0:0:
48,104,86297,1,0,0:0:0:0:
408,368,86482,1,12,0:0:0:0:
292,8,86667,1,0,0:0:0:0:
32,224,86852,6,0,B|120:256|120:256|176:344,1,175,12|0,0:0|0:0,0:0:0:0:
72,144,87222,1,8,0:0:0:0:
468,152,87408,1,0,0:0:0:0:
256,56,87593,1,8,0:0:0:0:
248,72,87686,1,0,0:0:0:0:
240,88,87778,1,0,0:0:0:0:
104,352,87963,1,8,0:0:0:0:
448,224,88148,5,0,0:0:0:0:
8,224,88334,1,8,0:0:0:0:
400,368,88519,1,0,0:0:0:0:
200,96,88704,1,8,0:0:0:0:
224,104,88796,1,0,0:0:0:0:
248,112,88889,1,0,0:0:0:0:
504,216,89074,1,8,0:0:0:0:
16,320,89259,1,0,0:0:0:0:
160,16,89445,1,8,0:0:0:0:
196,47,89537,1,0,0:0:0:0:
226,85,89630,1,0,0:0:0:0:
250,128,89722,1,0,0:0:0:0:
268,174,89815,2,0,P|288:224|288:288,1,105.000004005432,8|0,0:0|0:0,0:0:0:0:
64,64,90185,5,8,0:0:0:0:
438,333,90371,1,0,0:0:0:0:
432,80,90556,2,2,B|328:144|328:144|272:232,1,175,10|2,0:0|0:0,0:0:0:0:
48,320,90926,5,8,0:0:0:0:
437,40,91111,1,0,0:0:0:0:
480,368,91297,2,2,B|388:286|388:286|348:190,1,175,10|2,0:0|0:0,0:0:0:0:
360,16,91667,1,8,0:0:0:0:
144,312,91852,1,0,0:0:0:0:
480,108,92037,1,8,0:0:0:0:
32,196,92222,1,0,0:0:0:0:
476,264,92408,1,8,0:0:0:0:
448,256,92500,1,0,0:0:0:0:
424,248,92593,1,0,0:0:0:0:
44,112,92778,6,0,B|140:120|140:120|244:184,1,175,12|0,0:0|0:0,0:0:0:0:
472,336,93148,1,8,0:0:0:0:
104,20,93334,1,0,0:0:0:0:
280,348,93519,1,8,0:0:0:0:
500,132,93704,1,0,0:0:0:0:
100,312,93889,1,8,0:0:0:0:
368,36,94074,1,0,0:0:0:0:
360,96,94166,1,0,0:0:0:0:
353,157,94259,1,8,0:0:0:0:
16,296,94630,5,8,0:0:0:0:
448,204,94815,1,0,0:0:0:0:
68,136,95000,1,8,0:0:0:0:
484,340,95185,1,0,0:0:0:0:
0,228,95371,1,8,0:0:0:0:
32,218,95463,1,0,0:0:0:0:
65,209,95556,1,0,0:0:0:0:
472,64,95741,6,0,B|384:80|384:80|312:136,1,175,12|0,0:0|0:0,0:0:0:0:
72,300,96111,1,8,0:0:0:0:
484,208,96297,1,0,0:0:0:0:
76,84,96482,1,8,0:0:0:0:
464,340,96667,1,0,0:0:0:0:
48,168,96852,1,8,0:0:0:0:
56,172,96945,1,0,0:0:0:0:
64,176,97037,1,0,0:0:0:0:
245,332,97222,5,12,0:0:0:0:
413,91,97408,1,0,0:0:0:0:
120,64,97593,1,12,0:0:0:0:
444,76,97778,1,0,0:0:0:0:
242,366,97963,1,12,0:0:0:0:
92,45,98149,1,0,0:0:0:0:
464,56,98334,1,12,0:0:0:0:
240,384,98519,1,0,0:0:0:0:
248,40,98704,6,0,B|312:104|312:104|352:208,1,175,12|0,0:0|0:0,0:0:0:0:
216,384,99074,1,8,0:0:0:0:
512,248,99259,1,0,0:0:0:0:
40,192,99445,1,8,0:0:0:0:
64,184,99537,1,0,0:0:0:0:
88,176,99630,1,0,0:0:0:0:
416,48,99815,2,0,B|352:112|352:112|312:216,1,175,8|0,0:0|0:0,0:0:0:0:
288,384,100185,5,12,0:0:0:0:
200,0,100371,1,0,0:0:0:0:
0,268,100556,1,8,0:0:0:0:
20,260,100648,1,0,0:0:0:0:
40,252,100741,1,0,0:0:0:0:
464,96,100926,1,8,0:0:0:0:
56,136,101111,1,0,0:0:0:0:
512,208,101297,1,8,0:0:0:0:
136,48,101482,1,0,0:0:0:0:
208,360,101667,6,0,B|282:308|282:308|340:213,1,175,12|0,0:0|0:0,3:0:0:0:
264,8,102037,1,8,0:0:0:0:
488,312,102222,1,0,0:0:0:0:
104,136,102408,1,8,0:0:0:0:
132,136,102500,1,0,0:0:0:0:
160,136,102593,1,0,0:0:0:0:
512,128,102778,1,8,0:0:0:0:
72,312,102963,1,0,0:0:0:0:
384,48,103148,1,12,0:0:0:0:
256,328,103334,1,0,0:0:0:0:
164,36,103519,5,12,0:0:0:0:
196,376,103704,1,0,0:0:0:0:
348,32,103889,1,12,0:0:0:0:
384,364,104074,1,0,0:0:0:0:
160,56,104259,1,12,0:0:0:0:
216,368,104445,1,0,0:0:0:0:
504,112,104630,6,0,B|416:88|416:88|312:96,1,175,12|0,0:0|0:0,0:0:0:0:
64,104,105000,1,8,0:0:0:0:
444,308,105185,1,0,0:0:0:0:
0,252,105371,1,8,0:0:0:0:
32,248,105463,1,0,0:0:0:0:
64,244,105556,1,0,0:0:0:0:
468,168,105741,1,8,0:0:0:0:
232,352,105926,1,0,0:0:0:0:
60,132,106111,5,12,0:0:0:0:
460,184,106297,1,0,0:0:0:0:
72,316,106482,1,8,0:0:0:0:
464,76,106667,1,0,0:0:0:0:
224,356,106852,1,8,0:0:0:0:
227,330,106945,1,0,0:0:0:0:
231,305,107037,1,0,0:0:0:0:
288,16,107222,2,0,B|248:96|248:96|248:192,1,175,8|0,0:0|0:0,0:0:0:0:
264,16,107593,5,12,0:0:0:0:
456,240,107778,1,0,0:0:0:0:
48,56,107963,1,8,0:0:0:0:
456,120,108148,1,0,0:0:0:0:
8,176,108334,1,8,0:0:0:0:
328,8,108519,1,0,0:0:0:0:
56,344,108704,1,8,0:0:0:0:
432,136,108889,1,0,0:0:0:0:
184,8,109074,5,12,0:0:0:0:
368,360,109259,1,0,0:0:0:0:
209,91,109445,5,12,0:0:0:0:
303,291,109630,1,0,0:0:0:0:
303,41,109815,5,12,0:0:0:0:
209,340,110000,1,0,0:0:0:0:
209,41,110186,5,12,0:0:0:0:
303,340,110371,1,0,0:0:0:0:
303,10,110555,5,12,0:0:0:0:
209,370,110741,1,0,0:0:0:0:
88,0,110926,5,8,0:0:0:0:
440,232,111111,1,0,0:0:0:0:
64,176,111297,1,8,0:0:0:0:
84,168,111389,1,0,0:0:0:0:
104,160,111482,1,0,0:0:0:0:
424,8,111667,1,8,0:0:0:0:
240,352,111852,5,0,0:0:0:0:
160,8,112037,1,8,0:0:0:0:
440,360,112222,1,0,0:0:0:0:
80,120,112408,1,8,0:0:0:0:
80,120,112500,1,0,0:0:0:0:
80,120,112593,1,0,0:0:0:0:
448,160,112778,1,8,0:0:0:0:
0,264,112963,1,0,0:0:0:0:
480,304,113148,1,8,0:0:0:0:
424,279,113240,1,0,0:0:0:0:
373,244,113333,1,0,0:0:0:0:
331,200,113425,1,0,0:0:0:0:
297,149,113519,2,0,P|280:96|280:40,1,105.000004005432,8|0,0:0|0:0,0:0:0:0:
0,184,113889,5,8,0:0:0:0:
384,56,114074,1,0,0:0:0:0:
384,56,114167,1,0,0:0:0:0:
384,56,114259,1,8,0:0:0:0:
112,280,114445,1,0,0:0:0:0:
276,24,114630,1,8,0:0:0:0:
208,376,114815,1,0,0:0:0:0:
16,192,115000,5,12,0:0:0:0:
408,168,115185,1,0,0:0:0:0:
64,48,115371,1,12,0:0:0:0:
404,196,115556,1,0,0:0:0:0:
60,348,115741,1,12,0:0:0:0:
400,168,115926,1,0,0:0:0:0:
48,320,116111,6,0,B|107:257|107:257|209:234,1,175,12|0,0:0|0:0,0:0:0:0:
448,192,116482,2,0,B|388:129|388:129|286:106,1,175,12|0,0:0|0:0,0:0:0:0:
8,56,116852,5,8,0:0:0:0:
512,192,117037,1,0,0:0:0:0:
176,8,117222,1,8,0:0:0:0:
112,360,117408,1,0,0:0:0:0:
112,360,117500,1,0,0:0:0:0:
112,360,117593,1,8,0:0:0:0:
472,92,117778,1,0,0:0:0:0:
12,220,117963,1,8,0:0:0:0:
304,4,118148,1,0,0:0:0:0:
512,216,118334,5,8,0:0:0:0:
36,152,118519,1,0,0:0:0:0:
200,376,118704,1,8,0:0:0:0:
360,28,118889,1,0,0:0:0:0:
48,264,119074,1,8,0:0:0:0:
101,234,119166,1,0,0:0:0:0:
159,213,119259,1,0,0:0:0:0:
218,199,119351,1,0,0:0:0:0:
280,192,119445,2,0,P|336:192|392:208,1,105.000004005432,12|0,0:0|0:0,0:0:0:0:
176,16,119815,5,8,0:0:0:0:
448,200,120000,1,0,0:0:0:0:
16,192,120185,1,8,0:0:0:0:
328,32,120370,1,0,0:0:0:0:
256,352,120556,1,8,0:0:0:0:
192,24,120741,1,0,0:0:0:0:
16,240,120926,2,0,B|98:201|98:201|216:202,1,175,12|0,0:0|0:0,0:0:0:0:
448,216,121297,5,8,0:0:0:0:
32,104,121482,1,0,0:0:0:0:
336,16,121667,1,8,0:0:0:0:
256,360,121852,1,0,0:0:0:0:
192,16,122037,2,0,B|220:95|220:95|284:159,1,175,12|0,0:0|0:0,0:0:0:0:
448,312,122408,5,12,0:0:0:0:
56,152,122593,1,0,0:0:0:0:
464,184,122778,1,12,0:0:0:0:
32,280,122963,1,0,0:0:0:0:
256,24,123148,1,12,0:0:0:0:
328,328,123333,1,0,0:0:0:0:
48,224,123519,1,12,0:0:0:0:
424,176,123704,1,0,0:0:0:0:
32,112,123889,5,12,0:0:0:0:
432,288,124074,1,0,0:0:0:0:
184,48,124259,1,12,0:0:0:0:
216,352,124444,1,0,0:0:0:0:
416,112,124630,2,0,B|328:120|328:120|232:184,1,175,12|0,0:0|0:0,0:0:0:0:
72,288,125000,5,6,0:0:0:0:
464,176,125185,1,0,0:0:0:0:
96,144,125371,1,6,0:0:0:0:
472,328,125556,1,0,0:0:0:0:
