osu file format v14

[General]
AudioFilename: audio.mp3
AudioLeadIn: 0
PreviewTime: 10261
Countdown: 0
SampleSet: Soft
StackLeniency: 0.2
Mode: 0
LetterboxInBreaks: 0
WidescreenStoryboard: 1

[Editor]
Bookmarks: 10337,31649,42141,42796,52633,63124,71538,73616,94600,105092,115583,126075,136567,147059,156239
DistanceSpacing: 0.4
BeatDivisor: 4
GridSize: 32
TimelineZoom: 2.32

[Metadata]
Title:Fortnite Drip
TitleUnicode:Fortnite Drip
Artist:FabvL
ArtistUnicode:FabvL
Creator:wafer
Version:jamesjan's Extra
Source:
Tags:english video game hip-hop hip hop rap fortnite hiphop iwaifu hhjkl phynta yooh jamesjan3 blastthekidd kirito
BeatmapID:2436986
BeatmapSetID:1115216

[Difficulty]
HPDrainRate:6
CircleSize:4
OverallDifficulty:8
ApproachRate:9.2
SliderMultiplier:2
SliderTickRate:1

[Events]
//Background and Video events
0,0,"victory royale.jpg",0,0
//Break Periods
2,136773,146167
//Storyboard Layer 0 (Background)
//Storyboard Layer 1 (Fail)
//Storyboard Layer 2 (Pass)
//Storyboard Layer 3 (Foreground)
//Storyboard Layer 4 (Overlay)
//Storyboard Sound Samples

[TimingPoints]
180,327.868852459016,4,2,1,50,1,0
6655,-100,4,2,1,5,0,0
6737,-100,4,2,1,50,0,0
10261,-100,4,2,1,5,0,0
10343,-117.647058823529,4,2,1,80,0,0
10671,-50,4,2,1,80,0,1
10957,-50,4,2,1,5,0,1
10999,-50,4,2,1,80,0,1
11327,-50,4,2,1,80,0,1
13539,-50,4,2,1,5,0,1
13622,-50,4,2,1,80,0,1
15589,-133.333333333333,4,2,1,80,0,1
15917,-50,4,2,1,80,0,1
16163,-50,4,2,1,5,0,1
16245,-50,4,2,1,80,0,1
16819,-50,4,2,1,5,0,1
16901,-50,4,2,1,80,0,1
17475,-50,4,2,1,5,0,1
17557,-50,4,2,1,80,0,1
19442,-50,4,2,1,5,0,1
19524,-50,4,2,1,80,0,1
20835,-133.333333333333,4,2,1,80,0,1
21163,-50,4,2,1,80,0,1
21409,-50,4,2,1,5,0,1
21491,-50,4,2,1,80,0,1
22065,-50,4,2,1,5,0,1
22147,-50,4,2,1,80,0,1
22720,-50,4,2,1,5,0,1
22802,-50,4,2,1,80,0,1
24032,-50,4,2,1,5,0,1
24114,-50,4,2,1,80,0,1
26081,-133.333333333333,4,2,1,80,0,1
26409,-50,4,2,1,80,0,1
26655,-50,4,2,1,5,0,1
26737,-50,4,2,1,80,0,1
27311,-50,4,2,1,5,0,1
27393,-50,4,2,1,80,0,1
27966,-50,4,2,1,5,0,1
28048,-50,4,2,1,80,0,1
29934,-50,4,2,1,5,0,1
30016,-50,4,2,1,80,0,1
31327,-66.6666666666667,4,2,1,60,0,0
31655,-66.6666666666667,4,2,2,50,0,0
31983,-83.3333333333333,4,2,2,50,0,0
32966,-66.6666666666667,4,2,2,50,0,0
33950,-83.3333333333333,4,2,2,50,0,0
34934,-66.6666666666667,4,2,2,50,0,0
35015,-66.6666666666667,4,2,2,5,0,0
35098,-66.6666666666667,4,2,2,50,0,0
35179,-66.6666666666667,4,2,2,5,0,0
35261,-66.6666666666667,4,2,2,50,0,0
39196,-83.3333333333333,4,2,2,50,0,0
40179,-66.6666666666667,4,2,2,50,0,0
40507,-66.6666666666667,4,2,2,50,0,0
42147,-100,4,2,2,50,0,0
42167,-100,4,2,1,15,0,0
42229,-100,4,2,2,30,0,0
42310,-100,4,2,1,45,0,0
42393,-100,4,2,2,60,0,0
42474,-100,4,2,1,75,0,0
42802,-66.6666666666667,4,2,1,60,0,0
43130,-100,4,2,1,60,0,0
44442,-66.6666666666667,4,2,1,60,0,0
45670,-66.6666666666667,4,2,1,5,0,0
45753,-100,4,2,1,60,0,0
47065,-66.6666666666667,4,2,1,60,0,0
47228,-66.6666666666667,4,2,1,60,0,0
48293,-66.6666666666667,4,2,1,5,0,0
48376,-100,4,2,1,60,0,0
49688,-66.6666666666667,4,2,1,60,0,0
50916,-66.6666666666667,4,2,1,5,0,0
50999,-100,4,2,1,60,0,0
52639,-66.6666666666667,4,2,1,60,0,0
53458,-100,4,2,1,60,0,0
54606,-66.6666666666667,4,2,1,60,0,0
54688,-66.6666666666667,4,2,1,5,0,0
54770,-66.6666666666667,4,2,1,60,0,0
55589,-100,4,2,1,60,0,0
55917,-66.6666666666667,4,2,1,60,0,0
56573,-100,4,2,1,60,0,0
57229,-66.6666666666667,4,2,1,60,0,0
57311,-66.6666666666667,4,2,1,5,0,0
57393,-66.6666666666667,4,2,1,60,0,0
57475,-66.6666666666667,4,2,1,5,0,0
57557,-66.6666666666667,4,2,1,60,0,0
57966,-66.6666666666667,4,2,1,5,0,0
58048,-66.6666666666667,4,2,1,60,0,0
58211,-66.6666666666667,4,2,1,60,0,0
58704,-100,4,2,1,60,0,0
59196,-66.6666666666667,4,2,1,60,0,0
59441,-66.6666666666667,4,2,1,5,0,0
59524,-66.6666666666667,4,2,1,60,0,0
59934,-66.6666666666667,4,2,1,5,0,0
60016,-66.6666666666667,4,2,1,60,0,0
61327,-100,4,2,1,60,0,0
61409,-66.6666666666667,4,2,1,5,0,0
61491,-100,4,2,1,60,0,0
61819,-66.6666666666667,4,2,1,60,0,0
61983,-66.6666666666667,4,2,1,60,0,0
62065,-66.6666666666667,4,2,1,5,0,0
62147,-66.6666666666667,4,2,1,60,0,0
62802,-50,4,2,1,60,0,0
63047,-50,4,2,1,5,0,0
63130,-50,4,2,2,50,0,0
63458,-200,4,2,2,50,0,0
68950,-200,4,2,2,5,0,0
69031,-200,4,2,2,50,0,0
71244,-200,4,2,2,5,0,0
71327,-200,4,2,2,50,0,0
71901,-200,4,2,2,5,0,0
71983,-200,4,2,2,50,0,0
72557,-200,4,2,2,5,0,0
72639,-200,4,2,1,60,0,0
73294,-133.333333333333,4,2,1,80,0,0
73622,-50,4,2,1,80,0,1
73868,-50,4,2,1,5,0,1
73950,-50,4,2,1,80,0,1
74524,-50,4,2,1,5,0,1
74606,-50,4,2,1,80,0,1
75179,-50,4,2,1,5,0,1
75261,-50,4,2,1,80,0,1
75998,-50,4,2,1,5,0,1
76081,-50,4,2,1,80,0,1
76491,-50,4,2,1,5,0,1
76573,-50,4,2,1,80,0,1
78540,-133.333333333333,4,2,1,80,0,1
78868,-50,4,2,1,80,0,1
79114,-50,4,2,1,5,0,1
79196,-50,4,2,1,80,0,1
79770,-50,4,2,1,5,0,1
79852,-50,4,2,1,80,0,1
80425,-50,4,2,1,5,0,1
80507,-50,4,2,1,80,0,1
82393,-50,4,2,1,5,0,1
82475,-50,4,2,1,80,0,1
83786,-133.333333333333,4,2,1,80,0,1
84114,-50,4,2,1,80,0,1
84360,-50,4,2,1,5,0,1
84442,-50,4,2,1,80,0,1
85016,-50,4,2,1,5,0,1
85098,-50,4,2,1,80,0,1
85671,-50,4,2,1,5,0,1
85753,-50,4,2,1,80,0,1
86983,-50,4,2,1,5,0,1
87065,-50,4,2,1,80,0,1
89032,-133.333333333333,4,2,1,80,0,1
89360,-50,4,2,1,80,0,1
89606,-50,4,2,1,5,0,1
89688,-50,4,2,1,80,0,1
90261,-50,4,2,1,5,0,1
90343,-50,4,2,1,80,0,1
90917,-50,4,2,1,5,0,1
90999,-50,4,2,1,80,0,1
92884,-50,4,2,1,5,0,1
92966,-50,4,2,1,80,0,1
94278,-66.6666666666667,4,2,1,80,0,0
94524,-50,4,2,1,5,0,0
94606,-100,4,2,2,52,0,0
94852,-100,4,2,2,5,0,0
94934,-100,4,2,2,52,0,0
96245,-133.333333333333,4,2,2,52,0,0
96901,-100,4,2,2,52,0,0
97557,-133.333333333333,4,2,2,52,0,0
98540,-100,4,2,2,52,0,0
98868,-133.333333333333,4,2,2,52,0,0
99852,-100,4,2,2,52,0,0
100179,-133.333333333333,4,2,2,52,0,0
101163,-90.9090909090909,4,2,2,52,0,0
101491,-133.333333333333,4,2,2,52,0,0
102147,-83.3333333333333,4,2,2,52,0,0
102802,-133.333333333333,4,2,2,52,0,0
103786,-76.9230769230769,4,2,2,52,0,0
104114,-133.333333333333,4,2,2,52,0,0
104442,-71.4285714285714,4,2,1,52,0,0
104770,-71.4285714285714,4,2,1,60,0,0
105016,-100,4,2,2,5,0,0
105098,-66.6666666666667,4,2,1,60,0,0
105179,-100,4,2,2,5,0,0
105425,-66.6666666666667,4,2,1,60,0,0
105998,-66.6666666666667,4,2,1,5,0,0
106081,-66.6666666666667,4,2,1,60,0,0
106409,-133.333333333333,4,2,1,60,0,0
106737,-66.6666666666667,4,2,1,60,0,0
107639,-100,4,2,2,5,0,0
107720,-66.6666666666667,4,2,1,60,0,0
107802,-100,4,2,2,5,0,0
108048,-66.6666666666667,4,2,1,60,0,0
109032,-133.333333333333,4,2,1,60,0,0
109360,-66.6666666666667,4,2,1,60,0,0
110179,-66.6666666666667,4,2,1,60,0,0
110261,-100,4,2,2,5,0,0
110343,-66.6666666666667,4,2,1,60,0,0
110425,-100,4,2,2,5,0,0
110671,-66.6666666666667,4,2,1,60,0,0
111244,-66.6666666666667,4,2,1,5,0,0
111327,-66.6666666666667,4,2,1,60,0,0
111655,-133.333333333333,4,2,1,60,0,0
111983,-66.6666666666667,4,2,1,60,0,0
112884,-100,4,2,2,5,0,0
112966,-66.6666666666667,4,2,1,60,0,0
114524,-66.6666666666667,4,2,1,5,0,0
114605,-66.6666666666667,4,2,1,80,0,0
116409,-100,4,2,1,80,0,0
116491,-100,4,2,1,5,0,0
116573,-100,4,2,1,80,0,0
117557,-66.6666666666667,4,2,1,80,0,0
118457,-66.6666666666667,4,2,1,5,0,0
118540,-66.6666666666667,4,2,1,80,0,0
119032,-100,4,2,1,80,0,0
119113,-100,4,2,1,5,0,0
119196,-100,4,2,1,80,0,0
120179,-66.6666666666667,4,2,1,80,0,0
120507,-66.6666666666667,4,2,1,80,0,0
121655,-100,4,2,1,80,0,0
121737,-100,4,2,1,5,0,0
121819,-100,4,2,1,80,0,0
122147,-66.6666666666667,4,2,1,80,0,0
122392,-66.6666666666667,4,2,1,5,0,0
122475,-66.6666666666667,4,2,1,80,0,0
124278,-100,4,2,1,80,0,0
124360,-100,4,2,1,5,0,0
124442,-100,4,2,1,80,0,0
124605,-100,4,2,1,80,0,0
124770,-66.6666666666667,4,2,1,80,0,0
126081,-200,4,2,2,53,0,0
135589,-200,4,2,1,65,0,0
136245,-200,4,2,1,70,0,0
147065,-133.333333333333,4,2,1,67,0,0
151983,-200,4,2,1,67,0,0
152311,-133.333333333333,4,2,1,67,0,0

[Colours]
Combo1 : 255,186,117
Combo2 : 253,235,172
Combo3 : 113,184,255
Combo4 : 255,170,213

[HitObjects]
256,192,9688,12,0,10261,2:0:0:0:
72,244,10343,6,0,P|90:206|125:182,1,85.4845016212463,2|0,2:0|2:0,2:0:0:0:
124,182,10671,6,0,B|86:194|70:246|70:246|185:302|251:178|166:98,1,300,6|0,3:0|2:0,2:0:0:0:
97,102,10999,1,2,3:2:0:0:
0,325,11163,1,0,3:0:0:0:
181,362,11327,1,8,3:1:0:0:
302,124,11491,2,0,L|317:225,1,101.18,4|0,3:0|2:0,2:0:0:0:
437,375,11655,5,4,3:0:0:0:
442,355,11819,1,0,3:2:0:0:
181,362,11983,2,0,B|194:321|219:302|219:302|291:293|305:338|400:310|421:248,1,301.1,6|0,3:0|2:0,2:0:0:0:
512,255,12311,6,0,B|523:223|523:223|510:155,1,101.18,6|0,3:0|2:0,2:0:0:0:
505,234,12475,1,0,3:0:0:0:
211,277,12639,2,0,B|227:217|227:217|373:143,1,200,8|0,3:1|3:0,2:0:0:0:
217,0,12966,5,0,3:0:0:0:
180,35,13048,1,0,3:0:0:0:
182,87,13130,1,8,3:2:0:0:
37,12,13294,6,0,L|20:345,1,301.1,4|0,3:0|2:0,2:0:0:0:
94,346,13622,1,4,3:0:0:0:
305,220,13786,1,4,3:0:0:0:
282,81,13950,1,8,3:1:0:0:
219,341,14114,1,4,3:0:0:0:
453,214,14278,1,4,3:0:0:0:
453,214,14606,6,0,L|424:327,1,101.18,6|0,3:0|3:0,2:0:0:0:
421,338,14770,1,0,3:0:0:0:
191,138,14934,5,6,3:0:0:0:
203,186,15016,1,0,3:0:0:0:
215,234,15098,1,0,3:0:0:0:
508,35,15261,5,8,3:1:0:0:
453,214,15425,1,0,3:0:0:0:
235,17,15589,6,0,P|277:29|320:25,1,75.427502861023,2|0,3:2|2:0,2:0:0:0:
307,27,15917,6,0,B|267:35|235:16|235:16|190:77|192:140|192:140|256:155|275:83,1,301.1,6|0,3:0|2:0,2:0:0:0:
187,53,16245,1,2,3:2:0:0:
20,133,16409,1,0,3:0:0:0:
61,305,16573,1,8,3:1:0:0:
217,229,16737,2,0,L|201:360,1,101.18,4|0,3:0|2:0,2:0:0:0:
21,374,16901,5,4,3:0:0:0:
6,384,17065,1,8,3:2:0:0:
116,178,17229,2,0,B|153:171|188:184|188:184|218:230|218:230|291:190|321:259|418:200,1,301.1,6|0,3:0|2:0,2:0:0:0:
256,298,17557,5,2,3:0:0:0:
244,311,17720,1,0,3:0:0:0:
309,104,17884,2,0,P|370:130|502:129,1,201.14,8|0,3:1|3:3,2:0:0:0:
186,11,18212,5,4,3:0:0:0:
164,57,18294,1,0,3:0:0:0:
172,109,18376,1,0,3:0:0:0:
0,171,18540,6,0,B|-1:198|18:224|18:224|30:300|-23:280|0:370,1,201.14,4|0,3:0|3:0,2:0:0:0:
228,304,18868,1,4,3:0:0:0:
86,331,19032,1,4,3:0:0:0:
351,353,19196,1,8,3:1:0:0:
464,162,19360,2,0,P|463:218|438:269,1,101.18,4|0,3:0|2:0,2:0:0:0:
351,353,19524,1,4,3:0:0:0:
351,353,19852,6,0,L|333:247,1,101.18,6|0,3:0|3:0,2:0:0:0:
329,233,20016,1,0,3:0:0:0:
89,293,20179,5,6,3:0:0:0:
100,254,20261,1,0,3:0:0:0:
114,216,20343,1,0,3:0:0:0:
279,45,20507,5,8,3:2:0:0:
256,122,20589,1,8,3:2:0:0:
236,199,20671,1,8,3:2:0:0:
136,364,20835,6,0,P|173:340|208:336,1,75.427502861023,2|0,3:2|3:0,2:0:0:0:
202,335,21163,6,0,B|164:333|136:365|136:365|107:306|104:244|104:244|155:205|217:210,1,301.1,6|0,3:0|2:0,2:0:0:0:
262,266,21491,1,2,3:2:0:0:
79,195,21655,1,0,3:0:0:0:
173,128,21819,1,8,3:1:0:0:
13,35,21983,2,0,P|66:31|123:57,1,101.18,4|0,3:0|2:0,2:0:0:0:
271,130,22147,5,4,3:0:0:0:
259,141,22311,1,0,3:0:0:0:
414,24,22475,2,0,B|440:64|442:156|442:156|416:213|378:224|378:224|357:190|364:152,1,300,6|0,3:0|2:0,2:0:0:0:
338,87,22802,6,0,B|381:85|381:85|449:130,1,101.18,4|0,3:0|3:0,2:0:0:0:
350,75,22966,1,0,3:0:0:0:
510,239,23130,2,0,B|468:298|468:298|340:338,1,201.14,8|0,3:1|3:0,2:0:0:0:
145,309,23458,5,4,3:0:0:0:
194,293,23540,1,0,3:0:0:0:
232,324,23622,1,8,3:2:0:0:
5,363,23786,6,0,L|20:63,1,301.1,4|0,3:0|3:0,2:0:0:0:
99,12,24114,1,4,3:0:0:0:
251,125,24278,1,4,3:0:0:0:
105,194,24442,1,8,3:1:0:0:
232,4,24606,1,4,3:0:0:0:
428,116,24770,1,4,3:0:0:0:
428,116,25098,6,0,L|327:91,1,100,6|0,3:0|3:0,2:0:0:0:
308,83,25261,1,0,3:0:0:0:
510,271,25425,5,6,3:0:0:0:
472,283,25507,1,0,3:0:0:0:
434,297,25589,1,0,3:0:0:0:
443,310,25753,5,8,3:1:0:0:
256,246,25917,1,0,3:0:0:0:
489,112,26081,6,0,P|453:120|409:145,1,75.427502861023,2|0,3:2|3:0,2:0:0:0:
419,137,26409,6,0,B|446:117|490:111|490:111|434:81|373:82|373:82|303:143|322:203,1,301.1,6|0,3:0|2:0,2:0:0:0:
388,217,26737,1,2,3:2:0:0:
341,52,26901,1,0,3:0:0:0:
172,73,27065,1,8,3:1:0:0:
161,232,27229,2,0,P|146:184|114:146,1,101.18,4|0,3:0|2:0,2:0:0:0:
2,103,27393,5,4,3:0:0:0:
12,118,27557,1,8,3:1:0:0:
12,335,27720,2,0,B|46:339|89:325|89:325|107:354|132:372|132:372|212:369|310:317,1,301.1,6|0,3:0|2:0,2:0:0:0:
284,251,28048,5,6,3:0:0:0:
271,239,28212,1,0,3:0:0:0:
512,374,28376,2,0,P|456:357|360:243,1,201.14,8|4,3:1|3:0,2:0:0:0:
466,75,28704,5,6,3:0:0:0:
498,118,28786,1,0,3:0:0:0:
481,169,28868,1,0,3:0:0:0:
267,45,29032,6,0,B|281:-2|336:18|336:18|359:91|307:114|262:125,1,201.14,4|0,3:0|3:0,2:0:0:0:
120,129,29360,1,4,3:0:0:0:
340,191,29524,1,4,3:0:0:0:
93,302,29688,1,8,3:1:0:0:
321,369,29852,2,0,P|268:369|214:352,1,101.18,4|0,3:0|2:0,2:0:0:0:
93,302,30016,1,4,3:0:0:0:
93,302,30343,6,0,L|217:271,1,101.18,6|0,3:0|3:0,2:0:0:0:
218,269,30507,1,0,3:0:0:0:
42,65,30671,5,6,3:0:0:0:
80,75,30753,1,0,3:0:0:0:
118,85,30835,1,0,3:0:0:0:
133,80,30999,5,8,3:2:0:0:
80,140,31081,1,8,2:0:0:0:
26,199,31163,1,8,3:2:0:0:
275,128,31327,6,0,P|260:191|317:359,1,225.825008583069,8|0,2:1|2:0,2:0:0:0:
336,360,31655,1,0,2:0:0:0:
336,360,31983,2,0,L|400:349,1,60.7079981689453,0|0,2:0|2:0,2:0:0:0:
438,345,32147,1,0,2:0:0:0:
302,162,32311,5,8,2:0:0:0:
324,186,32475,1,0,2:0:0:0:
219,228,32639,5,0,2:0:0:0:
221,192,32802,1,0,2:0:0:0:
512,0,32966,6,0,L|490:170,2,150.397505722046,2|0|0,3:2|2:0|2:0,2:0:0:0:
411,309,33458,1,0,2:0:0:0:
306,0,33622,2,0,L|334:168,1,150.855005722046,8|0,2:0|2:0,2:0:0:0:
181,246,33950,2,0,L|245:257,1,60.7079981689453,0|0,2:0|2:0,2:0:0:0:
272,263,34114,1,0,2:0:0:0:
180,79,34278,5,2,3:2:0:0:
159,101,34442,1,0,2:0:0:0:
252,166,34606,5,0,2:0:0:0:
273,144,34770,1,0,2:0:0:0:
32,7,34934,6,0,L|22:95,1,75.885002861023,8|0,2:0|2:0,2:0:0:0:
47,283,35098,2,0,L|55:204,1,75.0000028610231,0|0,2:0|2:0,2:0:0:0:
159,101,35261,5,0,2:0:0:0:
174,123,35425,1,8,2:0:0:0:
176,209,35589,5,2,3:2:0:0:
156,228,35753,1,8,2:0:0:0:
296,384,35917,6,0,L|285:304,1,75.885002861023,0|0,2:0|2:0,2:0:0:0:
265,163,36081,1,0,2:0:0:0:
484,384,36245,2,0,L|507:226,1,150.855005722046,8|0,2:0|2:0,2:0:0:0:
473,94,36573,5,0,2:0:0:0:
454,118,36737,1,0,2:0:0:0:
164,27,36901,6,0,L|336:44,1,150.855005722046,2|0,3:2|2:0,2:0:0:0:
157,241,37229,2,0,L|116:151,1,75.885002861023,0|0,2:0|2:0,2:0:0:0:
94,99,37393,1,0,2:0:0:0:
365,140,37557,2,0,L|264:280,1,150.000005722046,8|0,2:0|2:0,2:0:0:0:
65,318,37884,5,0,2:0:0:0:
60,351,38048,1,0,2:0:0:0:
136,380,38212,5,2,3:2:0:0:
141,345,38376,1,0,2:0:0:0:
0,175,38540,5,0,2:0:0:0:
226,115,38704,1,0,2:0:0:0:
0,2,38868,2,0,L|158:25,1,150.855005722046,8|0,2:0|2:0,2:0:0:0:
354,92,39196,6,0,L|365:160,1,60.7079981689453,0|0,2:0|2:0,2:0:0:0:
370,179,39360,1,0,2:0:0:0:
217,200,39524,5,2,3:2:0:0:
262,192,39688,1,0,2:0:0:0:
206,281,39852,5,0,2:0:0:0:
242,305,40016,1,0,2:0:0:0:
512,364,40179,6,0,L|363:385,1,150.855005722046,8|0,2:0|2:0,2:0:0:0:
206,281,40507,5,0,2:0:0:0:
262,192,40671,1,8,2:0:0:0:
242,305,40835,5,0,3:0:0:0:
217,200,40999,1,8,2:0:0:0:
55,106,41163,6,0,L|44:184,1,75.885002861023,0|0,2:0|2:0,2:0:0:0:
31,283,41327,1,0,2:0:0:0:
194,44,41491,5,8,2:0:0:0:
203,121,41573,1,0,2:0:0:0:
217,200,41655,1,0,2:0:0:0:
349,12,41819,5,2,3:2:0:0:
349,12,41983,1,0,2:0:0:0:
349,12,42147,2,2,B|320:25|320:25|251:10,2,100.265,0|0|0,3:2|0:3|2:0,2:0:0:0:
440,273,42802,2,0,B|379:182|379:182|351:313,1,225.825008583069,12|0,3:2|2:0,2:0:0:0:
413,353,43130,2,0,P|461:353|514:369,1,100.57,2|8,3:0|3:2,2:0:0:0:
512,34,43458,5,4,3:0:0:0:
263,88,43622,1,0,3:0:0:0:
444,104,43786,1,2,3:0:0:0:
224,11,43950,1,4,3:0:0:0:
353,150,44114,1,8,3:2:0:0:
42,179,44442,6,0,L|30:264,1,75.885002861023,2|0,3:0|3:0,2:0:0:0:
17,366,44606,1,0,3:0:0:0:
257,354,44770,2,0,B|219:327|219:327|85:356,2,150.397505722046,4|0|2,3:0|3:0|3:0,2:0:0:0:
371,345,45261,1,4,2:3:0:0:
223,187,45425,2,0,B|284:96|284:96|312:227,1,225.825008583069,8|0,3:2|2:0,2:0:0:0:
248,268,45753,2,0,P|200:268|147:284,1,100.57,6|0,3:0|3:0,2:0:0:0:
84,20,46081,5,4,3:0:0:0:
290,8,46245,1,0,3:0:0:0:
84,20,46409,2,0,L|134:39,1,50.5899999999999,2|0,3:0|3:0,2:0:0:0:
219,74,46573,1,4,3:0:0:0:
7,82,46737,1,8,3:2:0:0:
7,82,46901,1,0,3:0:0:0:
1,261,47065,6,0,L|163:289,1,150.855005722046,6|0,3:0|3:0,2:0:0:0:
384,352,47393,2,0,B|346:325|346:325|212:354,1,150.855005722046,4|0,3:0|3:0,2:0:0:0:
511,248,47720,1,2,3:0:0:0:
496,297,47802,1,0,3:0:0:0:
484,345,47884,1,0,3:0:0:0:
314,212,48048,2,0,B|338:99|338:99|399:190,1,225.825008583069,8|0,3:2|2:0,2:0:0:0:
373,266,48376,2,0,P|324:254|281:229,1,100.57,6|0,3:0|3:0,2:0:0:0:
156,86,48704,5,4,3:0:0:0:
354,27,48868,1,0,3:0:0:0:
133,0,49032,2,0,L|250:15,1,100.57,2|0,3:0|3:0,2:0:0:0:
477,39,49360,1,8,3:2:0:0:
491,377,49688,6,0,L|417:364,1,75.885002861023,2|0,3:0|3:0,2:0:0:0:
307,346,49852,1,0,3:0:0:0:
67,358,50016,2,0,B|105:385|105:385|239:356,2,150.000005722046,4|0|2,3:0|3:0|3:0,2:0:0:0:
6,296,50507,1,4,3:0:0:0:
233,205,50671,2,0,B|209:92|209:92|148:183,1,225.825008583069,8|0,3:2|2:0,2:0:0:0:
174,259,50999,2,0,P|223:247|266:222,1,100.57,6|0,3:0|3:0,2:0:0:0:
512,89,51327,5,4,3:0:0:0:
327,0,51491,1,0,3:0:0:0:
512,89,51655,2,0,L|462:139,1,50.5899999999999,6|0,3:0|3:0,2:0:0:0:
391,194,51819,1,4,3:0:0:0:
477,9,51983,1,8,2:0:0:0:
477,9,52147,1,8,2:0:0:0:
223,31,52311,5,4,3:0:0:0:
186,65,52393,1,4,2:3:0:0:
197,113,52475,1,4,3:0:0:0:
242,133,52557,1,4,2:3:0:0:
280,101,52639,6,0,P|229:112|201:155,1,75.0000028610231,6|0,3:0|2:0,2:0:0:0:
204,209,52802,2,0,P|174:231|48:197,1,150.855005722046,0|2,3:0|3:2,2:0:0:0:
37,149,53048,1,0,3:0:0:0:
37,149,53130,1,0,3:0:0:0:
237,372,53294,5,8,3:2:0:0:
306,247,53458,2,0,L|314:296,1,50.5899999999999,4|0,3:0|2:0,2:0:0:0:
405,384,53622,2,0,L|422:281,1,100.57,4|8,3:0|3:2,2:0:0:0:
457,0,53950,5,4,3:0:0:0:
504,94,54114,1,0,3:0:0:0:
336,118,54278,1,2,3:0:0:0:
348,16,54442,1,0,3:0:0:0:
429,167,54606,6,0,P|399:189|362:192,1,75.885002861023,8|0,3:2|2:0,2:0:0:0:
284,226,54770,2,0,P|214:204|148:236,1,150.855005722046,4|0,3:0|3:0,2:0:0:0:
146,321,55016,1,0,3:0:0:0:
146,321,55098,1,0,3:0:0:0:
169,72,55261,5,4,3:0:0:0:
37,164,55425,1,0,3:0:0:0:
256,192,55589,2,0,L|256:298,1,100.57,2|4,3:2|3:0,2:0:0:0:
256,192,55917,2,0,L|256:36,1,150.855,8|4,3:2|3:0,2:0:0:0:
489,128,56245,5,4,3:0:0:0:
391,0,56409,1,8,3:2:0:0:
384,183,56573,2,0,L|425:293,1,100.57,6|0,3:0|3:0,2:0:0:0:
269,383,56901,2,0,L|326:375,1,50.5899999999999,6|0,3:0|3:0,2:0:0:0:
405,360,57065,1,4,3:0:0:0:
245,225,57229,6,0,P|214:246|200:280,1,75.885002861023,8|0,2:0|2:0,2:0:0:0:
147,348,57393,2,0,P|116:326|102:292,1,75.885002861023,4|0,3:0|2:0,2:0:0:0:
38,223,57557,1,2,3:2:0:0:
0,384,57720,1,0,3:0:0:0:
12,50,57884,6,0,P|42:71|56:105,1,75.885002861023,6|0,3:0|2:0,2:0:0:0:
110,173,58048,2,0,P|140:151|159:41,1,150.855005722046,0|2,3:0|3:2,2:0:0:0:
98,0,58294,1,0,3:0:0:0:
98,0,58376,1,0,3:0:0:0:
379,134,58540,5,8,3:2:0:0:
332,13,58704,2,0,L|323:62,1,50.5899999999999,4|0,3:0|2:0,2:0:0:0:
470,121,58868,2,0,L|452:18,1,100.57,4|8,3:0|3:2,2:0:0:0:
221,209,59196,2,0,P|177:129|266:143,1,225.825008583069,4|0,3:0|2:0,2:0:0:0:
304,217,59524,1,4,3:0:0:0:
102,227,59688,1,0,3:0:0:0:
300,300,59852,6,0,P|336:296|366:274,1,75.885002861023,8|0,3:2|2:0,2:0:0:0:
412,206,60016,2,0,P|393:276|429:341,1,150.000005722046,4|2,3:0|3:0,2:0:0:0:
512,359,60261,1,0,3:0:0:0:
512,359,60343,1,0,3:0:0:0:
368,73,60507,5,4,3:0:0:0:
243,164,60671,1,0,3:0:0:0:
290,98,60835,1,0,3:0:0:0:
255,245,60999,1,4,3:0:0:0:
156,44,61163,1,8,3:2:0:0:
130,205,61327,2,0,L|138:155,1,50.5899999999999,4|0,3:0|2:0,2:0:0:0:
0,32,61491,1,6,3:0:0:0:
23,193,61655,1,0,3:0:0:0:
58,358,61819,6,0,P|94:354|124:332,1,75.885002861023,6|0,3:0|3:0,2:0:0:0:
187,272,61983,2,0,P|223:275|282:333,1,75.885002861023,0|0,3:0|2:0,2:0:0:0:
303,365,62147,2,0,P|339:361|421:280,1,150.855005722046,6|0,3:0|3:0,2:0:0:0:
409,54,62475,5,8,3:2:0:0:
354,112,62557,1,0,3:0:0:0:
414,162,62639,1,8,3:2:0:0:
231,16,62802,6,0,B|181:40|181:40|162:85|181:122|181:122|182:114|182:114|205:151|181:198|181:198|112:229,1,301.1,8|0,3:2|2:0,2:0:0:0:
94,237,63130,5,0,3:0:0:0:
94,237,63458,2,0,L|111:346,1,100.265,0|8,2:0|2:0,2:0:0:0:
417,147,64114,5,2,2:0:0:0:
417,147,64442,2,0,P|419:97|405:50,1,100.265,0|0,3:0|2:0,2:0:0:0:
323,30,64934,1,0,2:0:0:0:
306,48,65098,2,0,L|299:104,1,50,8|0,2:1|2:0,2:0:0:0:
208,132,65425,1,0,2:0:0:0:
170,215,65589,1,0,2:0:0:0:
60,13,65753,5,0,3:0:0:0:
60,13,66081,2,0,L|77:122,1,100.265,0|8,2:0|2:0,2:0:0:0:
452,371,66737,5,2,2:0:0:0:
452,371,67065,2,0,P|454:321|439:273,1,100.265,0|0,3:0|2:0,2:0:0:0:
354,228,67557,1,0,2:0:0:0:
337,210,67720,2,0,L|330:154,1,50,8|0,2:1|2:0,2:0:0:0:
379,74,68048,1,0,2:0:0:0:
485,82,68212,1,0,2:0:0:0:
238,0,68376,5,0,3:0:0:0:
238,0,68704,2,0,L|255:109,1,100.265,0|8,2:0|2:0,2:0:0:0:
274,384,69360,5,2,2:0:0:0:
274,384,69688,2,0,P|276:334|261:286,1,100.265,0|0,3:0|2:0,2:0:0:0:
28,366,70343,1,8,2:1:0:0:
106,335,70507,1,0,2:0:0:0:
150,223,70671,1,0,2:0:0:0:
72,254,70835,1,0,2:0:0:0:
301,191,70999,6,0,L|316:278,1,75.2749999999999,0|0,3:0|2:0,2:0:0:0:
321,294,71327,2,0,P|358:301|371:315,1,50.2849999999999,0|0,2:0|2:0,2:0:0:0:
484,83,71655,6,0,L|469:170,1,75.2749999999999,8|0,2:0|2:0,2:0:0:0:
466,189,71983,1,2,2:0:0:0:
466,189,72147,1,0,2:0:0:0:
219,22,72311,6,0,L|234:109,1,75.2749999999999,0|0,3:0|2:0,2:0:0:0:
241,129,72639,1,2,3:2:0:0:
241,129,72802,1,8,3:2:0:0:
80,140,72966,5,8,3:1:0:0:
124,168,73048,1,8,3:1:0:0:
126,217,73130,1,8,3:1:0:0:
15,32,73294,6,0,P|53:18|101:22,1,75.427502861023,8|8,3:1|3:2,2:0:0:0:
87,19,73622,6,0,B|49:11|14:33|14:33|0:78|6:170|6:170|48:188|99:117,1,301.1,6|0,3:0|2:0,2:0:0:0:
146,78,73950,1,2,3:2:0:0:
0,200,74114,1,0,3:0:0:0:
94,363,74278,1,8,3:1:0:0:
254,217,74442,2,0,P|216:266|197:310,1,101.18,4|0,3:0|2:0,2:0:0:0:
299,383,74606,5,4,3:0:0:0:
313,368,74770,1,0,3:2:0:0:
474,150,74934,2,0,B|435:168|435:168|346:146|286:210|286:210|319:270|393:246,1,300,6|0,3:0|2:0,2:0:0:0:
432,290,75261,6,0,B|482:284|482:284|521:233,1,101.18,6|0,3:0|3:0,2:0:0:0:
452,278,75425,1,0,3:0:0:0:
482,41,75589,2,0,B|375:31|375:31|269:77,1,201.14,8|4,3:1|3:0,2:0:0:0:
155,163,75917,6,0,P|201:166|238:205,1,101.18,0|0,3:0|2:0,2:0:0:0:
241,228,76081,1,8,3:2:0:0:
112,9,76245,6,0,B|82:21|82:21|80:34|80:34|48:49|48:49|-2:129|-2:262,1,301.1,4|0,3:0|3:0,2:0:0:0:
46,342,76573,1,4,3:0:0:0:
214,322,76737,1,4,3:0:0:0:
155,163,76901,1,8,3:1:0:0:
133,380,77065,1,4,3:0:0:0:
239,116,77229,1,4,3:0:0:0:
239,116,77557,6,0,L|339:137,1,101.18,6|0,3:0|3:0,2:0:0:0:
358,143,77720,1,0,3:0:0:0:
449,354,77884,5,6,3:0:0:0:
437,311,77966,1,0,3:0:0:0:
427,264,78048,1,0,3:0:0:0:
434,253,78212,5,8,3:1:0:0:
256,210,78376,1,4,3:3:0:0:
356,16,78540,6,0,P|316:17|273:26,1,75.427502861023,2|0,3:2|3:0,2:0:0:0:
281,23,78868,6,0,B|325:11|358:19|358:19|352:93|280:113|280:113|218:107|184:70,1,301.1,6|0,3:0|2:0,2:0:0:0:
181,0,79196,1,2,3:2:0:0:
293,148,79360,1,0,3:0:0:0:
108,210,79524,1,8,3:1:0:0:
10,63,79688,2,0,P|54:88|81:134,1,101.18,4|0,3:0|2:0,2:0:0:0:
87,299,79852,5,4,3:0:0:0:
65,287,80016,1,8,3:2:0:0:
255,179,80179,2,0,B|197:196|211:248|211:248|266:275|305:235|305:235|369:222|376:152,1,301.1,6|0,3:0|2:0,2:0:0:0:
347,94,80507,5,2,3:0:0:0:
324,103,80671,1,0,3:0:0:0:
438,297,80835,2,0,P|446:240|519:98,1,201.14,8|4,3:1|3:0,2:0:0:0:
356,363,81163,5,4,3:0:0:0:
305,364,81245,1,0,3:0:0:0:
265,330,81327,1,0,3:0:0:0:
221,129,81491,5,4,3:0:0:0:
331,258,81655,1,0,3:0:0:0:
124,199,81819,1,4,3:0:0:0:
231,24,81983,1,4,3:0:0:0:
385,155,82147,1,8,3:1:0:0:
512,23,82311,2,0,P|502:81|473:118,1,101.18,4|0,3:0|2:0,2:0:0:0:
385,155,82475,1,4,3:0:0:0:
385,155,82802,6,0,L|406:255,1,101.18,6|0,3:0|3:0,2:0:0:0:
412,274,82966,1,0,3:0:0:0:
186,148,83130,5,6,3:0:0:0:
202,100,83212,1,0,3:0:0:0:
218,49,83294,1,0,3:0:0:0:
229,42,83458,5,8,3:1:0:0:
249,116,83540,1,0,3:1:0:0:
269,189,83622,1,8,3:1:0:0:
31,284,83786,6,0,P|95:282|114:287,1,75.427502861023,2|0,3:2|3:0,2:0:0:0:
105,284,84114,6,0,B|70:275|29:283|29:283|54:356|139:364|139:364|179:340|185:299,1,301.1,6|0,3:0|2:0,2:0:0:0:
169,218,84442,1,2,3:2:0:0:
0,182,84606,1,0,3:0:0:0:
120,46,84770,1,8,3:1:0:0:
304,87,84934,2,0,P|256:117|212:128,1,101.18,4|0,3:0|2:0,2:0:0:0:
97,138,85098,5,4,3:0:0:0:
110,157,85261,1,0,3:0:0:0:
409,84,85425,2,0,B|462:144|483:231|483:231|454:277|454:277|409:274|370:234,1,301.1,6|0,3:0|2:0,2:0:0:0:
330,181,85753,6,0,B|378:159|378:159|426:173,1,101.18,4|0,3:0|3:0,2:0:0:0:
343,166,85917,1,0,3:0:0:0:
214,127,86081,2,0,B|194:231|194:231|229:326,1,201.14,8|4,3:1|3:0,2:0:0:0:
428,349,86409,6,0,P|383:341|321:351,1,101.18,4|0,3:0|3:0,2:0:0:0:
304,366,86573,1,8,3:2:0:0:
44,183,86737,6,0,B|62:142|113:150|113:150|153:261|74:373,1,301.1,4|0,3:0|3:0,2:0:0:0:
7,379,87065,1,4,3:0:0:0:
218,220,87229,1,4,3:0:0:0:
51,79,87393,1,8,3:1:0:0:
34,286,87557,1,4,3:0:0:0:
318,240,87720,1,4,3:0:0:0:
318,240,88048,6,0,L|442:205,1,101.18,6|0,3:0|3:0,2:0:0:0:
455,200,88212,1,0,3:0:0:0:
469,185,88376,5,6,3:0:0:0:
479,134,88458,1,0,3:0:0:0:
489,82,88540,1,4,3:0:0:0:
504,68,88704,5,8,3:1:0:0:
308,11,88868,1,4,3:0:0:0:
185,170,89032,6,0,P|222:184|266:179,1,75.427502861023,2|0,3:2|3:0,2:0:0:0:
256,181,89360,6,0,B|215:190|184:171|184:171|228:114|304:110|304:110|341:159|336:197,1,301.1,6|0,3:0|2:0,2:0:0:0:
293,253,89688,1,2,3:2:0:0:
110,237,89852,1,0,3:0:0:0:
86,65,90016,1,8,3:1:0:0:
252,4,90179,2,0,P|263:42|262:105,1,101.18,4|0,3:0|2:0,2:0:0:0:
207,191,90343,5,4,3:0:0:0:
193,173,90507,1,8,3:1:0:0:
19,262,90671,2,0,B|39:315|83:344|83:344|132:337|132:337|196:367|290:342,1,301.1,6|0,3:0|2:0,2:0:0:0:
343,309,90999,5,6,3:0:0:0:
358,325,91163,1,0,3:0:0:0:
512,180,91327,2,0,P|474:169|302:154,1,201.14,8|4,3:1|3:0,2:0:0:0:
75,104,91655,6,0,P|137:113|195:133,1,101.18,6|0,3:0|3:0,2:0:0:0:
190,139,91819,1,0,3:0:0:0:
425,56,91983,5,4,3:0:0:0:
270,90,92147,1,0,3:0:0:0:
142,10,92311,1,4,3:0:0:0:
238,215,92475,1,4,3:0:0:0:
16,256,92639,1,8,3:1:0:0:
161,365,92802,2,0,P|136:318|91:274,1,101.18,4|0,3:0|2:0,2:0:0:0:
16,256,92966,1,4,3:0:0:0:
16,256,93294,6,0,L|135:234,1,101.18,6|0,3:0|3:0,2:0:0:0:
140,231,93458,1,0,3:0:0:0:
151,215,93622,5,6,3:0:0:0:
167,165,93704,1,0,3:0:0:0:
181,115,93786,1,0,3:0:0:0:
195,105,93950,5,8,3:2:0:0:
137,52,94032,1,0,3:0:0:0:
80,0,94114,1,8,3:2:0:0:
368,0,94278,6,0,P|314:82|293:208,1,225.825008583069,2|0,3:2|2:0,2:0:0:0:
311,237,94606,6,0,B|401:257|332:321|431:346,1,150.55,0|0,2:0|2:0,2:0:0:0:
425,337,94934,2,0,P|442:315|447:284,1,50.5899999999999,0|0,0:0|2:0,2:0:0:0:
426,217,95098,1,0,2:0:0:0:
512,28,95261,5,8,2:0:0:0:
461,90,95425,1,0,2:0:0:0:
382,103,95589,1,2,1:2:0:0:
310,66,95753,1,0,2:0:0:0:
230,66,95917,2,0,P|192:97|164:138,1,100.57,0|0,3:0|2:0,2:0:0:0:
310,66,96245,2,0,P|274:53|237:51,1,75.427502861023,0|0,3:0|2:0,2:0:0:0:
1,146,96573,5,8,2:0:0:0:
79,127,96737,1,0,2:0:0:0:
148,167,96901,2,0,P|165:189|170:220,1,50.5899999999999,2|0,1:2|2:0,2:0:0:0:
172,291,97065,1,0,2:0:0:0:
127,360,97229,2,0,P|177:340|234:363,1,100.57,0|0,3:0|2:0,2:0:0:0:
49,356,97557,2,0,P|81:326|130:317,1,75.0000028610231,0|0,3:0|2:0,2:0:0:0:
329,384,97884,5,8,2:0:0:0:
406,364,98048,1,0,2:0:0:0:
454,300,98212,1,2,1:2:0:0:
461,220,98376,1,0,2:0:0:0:
411,157,98540,2,0,P|413:205|452:258,1,100.57,0|0,3:0|2:0,2:0:0:0:
398,77,98868,2,0,P|382:114|381:141,1,37.9425014305115,0|0,3:0|2:0,2:0:0:0:
386,152,99032,1,0,2:0:0:0:
269,0,99196,5,8,2:0:0:0:
191,13,99360,1,0,2:0:0:0:
158,85,99524,1,2,1:2:0:0:
192,150,99688,1,0,2:0:0:0:
255,198,99852,2,0,P|268:252|256:315,1,100.57,0|0,3:0|2:0,2:0:0:0:
192,150,100179,2,0,P|230:158|248:169,1,37.9425014305115,0|0,3:0|2:0,2:0:0:0:
258,181,100343,1,0,2:0:0:0:
16,350,100507,5,8,2:0:0:0:
91,313,100671,1,0,2:0:0:0:
126,239,100835,1,2,1:2:0:0:
100,161,100999,1,0,2:0:0:0:
22,134,101163,2,0,P|46:167|135:206,1,110.627003356934,0|0,3:0|2:0,2:0:0:0:
21,52,101491,2,0,P|21:93|48:143,1,75.427502861023,0|0,3:0|2:0,2:0:0:0:
321,33,101819,5,8,2:0:0:0:
231,25,101983,1,0,2:0:0:0:
190,105,102147,2,0,P|202:130|229:160,1,60.7079981689453,2|0,1:2|2:0,2:0:0:0:
253,171,102311,1,0,2:0:0:0:
334,124,102475,2,0,P|287:156|259:226,1,120.683996337891,0|0,3:0|2:0,2:0:0:0:
413,151,102802,2,0,P|362:139|311:156,1,75.427502861023,0|0,3:0|2:0,2:0:0:0:
393,361,103130,5,8,2:0:0:0:
299,374,103294,1,0,2:0:0:0:
218,313,103458,1,2,1:2:0:0:
122,306,103622,1,0,2:0:0:0:
49,372,103786,2,0,P|112:363|175:326,1,130.740994049073,0|0,3:0|2:0,2:0:0:0:
29,232,104114,2,0,P|13:274|13:290,1,37.9425014305115,0|0,3:0|2:0,2:0:0:0:
8,344,104278,1,0,2:0:0:0:
204,26,104442,6,0,P|182:53|174:87,1,70.8259978637695,8|0,3:2|3:0,2:0:0:0:
193,165,104606,1,8,3:2:0:0:
318,262,104770,1,4,3:0:0:0:
492,211,104934,2,0,P|458:204|395:207,1,70.8259978637695,8|0,2:1|2:0,2:0:0:0:
169,330,105098,6,0,P|143:316|161:346,1,75.0000028610231,6|0,3:0|0:0,2:0:0:0:
169,330,105425,6,0,P|184:296|402:354,1,300.795011444092,2|8,3:2|2:0,2:0:0:0:
417,193,105917,2,0,P|380:192|348:211,1,75.885002861023,4|0,3:3|2:0,2:0:0:0:
282,344,106081,1,4,3:0:0:0:
293,356,106245,1,8,3:2:0:0:
61,194,106409,6,0,B|67:230|67:230|91:191,1,75.427502861023,4|0,3:0|3:0,2:0:0:0:
98,45,106737,6,0,P|137:83|274:114,1,150.855005722046,2|0,3:0|3:0,2:0:0:0:
341,48,107065,1,8,3:1:0:0:
241,122,107229,1,0,3:0:0:0:
354,37,107393,2,0,P|391:45|425:62,1,75.885002861023,0|0,3:0|3:0,2:0:0:0:
222,116,107557,2,0,P|211:151|209:189,1,75.885002861023,0|0,3:0|2:0,2:0:0:0:
427,292,107720,6,0,P|414:263|398:289,1,75.885002861023,6|0,3:0|0:0,2:0:0:0:
427,292,108048,6,0,P|256:347|161:242,1,300.795011444092,2|8,3:2|3:2,2:0:0:0:
142,118,108540,1,0,3:0:0:0:
286,247,108704,1,4,3:0:0:0:
277,259,108868,1,8,3:2:0:0:
351,46,109032,6,0,B|345:10|345:10|321:49,1,75.427502861023,4|0,3:0|3:0,2:0:0:0:
512,77,109360,6,0,P|476:91|439:133,1,75.885002861023,2|0,3:0|3:0,2:0:0:0:
418,188,109524,1,4,3:0:0:0:
231,109,109688,1,8,2:1:0:0:
398,199,109852,1,0,3:0:0:0:
232,92,110016,2,0,P|248:146|238:189,1,75.885002861023,0|0,3:0|3:0,2:0:0:0:
418,188,110179,2,0,P|365:210|338:245,1,75.885002861023,0|0,3:0|2:0,2:0:0:0:
207,382,110343,6,0,P|219:353|235:379,1,75.885002861023,6|0,3:0|0:0,2:0:0:0:
207,382,110671,6,0,P|185:267|16:206,1,300.795011444092,2|8,3:2|3:2,2:0:0:0:
80,301,111163,2,0,P|123:247|126:185,1,75.885002861023,4|0,2:3|2:0,2:0:0:0:
72,84,111327,1,4,3:0:0:0:
59,96,111491,1,8,3:2:0:0:
272,126,111655,6,0,B|266:162|266:162|242:123,1,75.427502861023,4|0,3:0|3:0,2:0:0:0:
447,0,111983,6,0,P|402:59|385:132,1,150.855005722046,2|0,3:0|3:0,2:0:0:0:
438,313,112311,1,8,3:1:0:0:
370,143,112475,1,4,3:0:0:0:
449,322,112639,2,0,P|405:357|395:382,1,75.0000028610231,0|0,3:0|3:0,2:0:0:0:
385,132,112802,2,0,P|328:133|305:120,1,75.885002861023,0|0,3:0|2:0,2:0:0:0:
147,333,112966,6,0,P|147:263|204:290,1,150.855005722046,6|0,3:0|3:0,2:0:0:0:
147,333,113294,6,0,P|86:262|139:81,1,300.795011444092,2|8,3:2|3:2,2:0:0:0:
68,168,113786,1,0,3:0:0:0:
271,158,113950,1,0,3:2:0:0:
258,169,114114,1,8,3:2:0:0:
406,34,114278,6,0,B|380:36|355:12|355:12|355:44|381:56|381:56|362:108|362:108|374:115|374:115|370:136|370:136|387:142|387:142|379:160|379:160|393:165|393:165|407:209,1,300.795011444092,4|0,3:2|2:0,2:0:0:0:
105,353,115589,6,0,P|182:269|233:281,1,150.855005722046,6|0,3:0|3:0,2:0:0:0:
211,359,115835,1,0,3:2:0:0:
187,350,115917,2,0,P|152:241|162:196,1,150.855005722046,0|0,3:0|3:0,2:0:0:0:
267,9,116245,5,8,3:2:0:0:
412,102,116409,2,0,L|362:95,1,50.5899999999999,4|0,3:0|2:0,2:0:0:0:
157,78,116573,2,0,P|180:107|143:97,1,100.57,4|0,3:0|3:0,2:0:0:0:
0,3,116901,5,4,3:0:0:0:
30,197,117065,1,0,3:0:0:0:
0,97,117229,1,2,3:0:0:0:
83,279,117393,1,0,3:0:0:0:
336,268,117557,6,0,P|270:255|211:314,1,150.000005722046,8|4,3:1|3:0,2:0:0:0:
292,334,117802,1,0,3:0:0:0:
309,351,117884,2,0,P|375:349|452:306,1,150.855005722046,0|0,3:0|3:0,2:0:0:0:
457,17,118212,6,0,P|452:84|314:115,1,225.825008583069,4|0,3:0|2:0,2:0:0:0:
375,50,118540,2,0,P|404:108|380:221,1,150.855005722046,0|4,3:0|3:0,2:0:0:0:
213,306,118868,1,8,3:2:0:0:
166,61,119032,2,0,L|222:71,1,50.5899999999999,4|0,3:0|2:0,2:0:0:0:
272,174,119196,5,4,3:3:0:0:
49,122,119360,1,8,3:2:0:0:
272,174,119524,6,0,L|154:197,1,100.57,6|0,3:0|3:0,2:0:0:0:
18,366,119852,2,0,L|26:312,1,50.5899999999999,6|0,3:0|3:0,2:0:0:0:
44,218,120016,1,4,3:3:0:0:
381,341,120179,6,0,P|315:354|256:295,1,150.855005722046,8|4,3:2|3:0,2:0:0:0:
304,198,120425,1,0,3:0:0:0:
325,207,120507,2,0,P|338:273|320:301,1,75.885002861023,2|0,3:0|3:0,2:0:0:0:
273,344,120671,1,0,3:0:0:0:
57,208,120835,6,0,P|123:221|182:162,1,150.855005722046,6|0,3:0|3:0,2:0:0:0:
98,0,121081,1,0,3:0:0:0:
77,9,121163,2,0,P|64:75|110:151,1,150.855005722046,0|0,3:0|3:0,2:0:0:0:
403,79,121491,5,8,3:1:0:0:
270,38,121655,2,0,L|324:30,1,50.5899999999999,4|0,3:0|2:0,2:0:0:0:
512,0,121819,2,0,L|500:100,1,100.57,4|0,3:0|3:0,2:0:0:0:
366,285,122147,2,0,P|390:197|444:271,1,225.825008583069,4|0,3:0|2:0,2:0:0:0:
419,350,122475,1,0,3:0:0:0:
512,179,122639,1,0,3:0:0:0:
337,358,122802,6,0,P|271:371|212:312,1,150.855005722046,8|4,3:2|3:0,2:0:0:0:
237,140,123048,1,0,3:0:0:0:
262,152,123130,2,0,P|290:209|287:306,1,150.855005722046,2|0,3:0|3:0,2:0:0:0:
68,354,123458,5,4,3:0:0:0:
13,207,123622,1,0,3:2:0:0:
11,292,123786,1,0,3:0:0:0:
46,128,123950,1,4,3:0:0:0:
145,264,124114,1,8,3:2:0:0:
177,71,124278,2,0,L|169:121,1,50.5899999999999,4|0,3:0|2:0,2:0:0:0:
300,246,124442,2,0,L|283:140,1,100.57,4|0,3:0|3:0,2:0:0:0:
328,356,124770,6,0,P|394:369|453:310,1,150.855005722046,2|0,3:0|3:0,2:0:0:0:
501,100,125016,1,0,3:0:0:0:
484,86,125098,2,0,P|436:120|388:208,1,150.000005722046,6|4,3:0|3:0,2:0:0:0:
203,340,125425,5,8,3:2:0:0:
308,43,125589,1,4,3:0:0:0:
106,138,125753,1,2,3:2:0:0:
404,244,125917,1,0,3:0:0:0:
256,192,126081,6,0,L|248:251,1,50.2849999999999,0|0,3:0|2:0,2:0:0:0:
198,315,126409,2,0,L|203:340,2,25.1425,0|0|0,2:0|2:0|2:0,2:0:0:0:
111,327,126737,1,8,2:0:0:0:
111,327,126901,1,0,2:0:0:0:
256,192,127065,6,0,L|263:132,1,50.2849999999999,2|0,2:0|2:0,2:0:0:0:
319,29,127393,2,0,L|328:87,1,50.2849999999999,0|0,3:0|2:0,2:0:0:0:
452,219,127720,5,0,2:0:0:0:
448,208,127884,1,0,2:0:0:0:
445,197,128048,2,0,P|423:184|398:182,1,50.2849999999999,8|0,2:0|2:0,2:0:0:0:
338,286,128376,2,0,L|339:251,1,25.295,2|0,2:0|2:0,2:0:0:0:
339,248,128540,1,0,2:0:0:0:
352,44,128704,6,0,L|302:37,1,50.2849999999999,0|0,3:0|2:0,2:0:0:0:
233,109,129032,2,0,L|183:115,1,50.2849999999999,0|0,2:0|2:0,2:0:0:0:
99,55,129360,1,8,2:0:0:0:
99,55,129524,1,0,2:0:0:0:
302,37,129688,6,0,L|308:86,1,50.2849999999999,2|0,2:0|2:0,2:0:0:0:
358,204,130016,2,0,L|364:154,1,50,0|0,3:0|2:0,2:0:0:0:
229,120,130343,6,0,L|237:158,2,25.1425,0|0|0,2:0|2:0|2:0,2:0:0:0:
197,225,130671,1,8,2:0:0:0:
192,236,130835,1,0,2:0:0:0:
186,250,130999,2,0,P|164:262|139:264,1,50.2849999999999,2|0,2:0|2:0,2:0:0:0:
56,157,131327,6,0,L|62:206,1,50.2849999999999,0|0,3:0|2:0,2:0:0:0:
12,283,131655,2,0,L|6:325,2,25.1425,0|0|0,2:0|2:0|2:0,2:0:0:0:
79,370,131983,1,8,2:0:0:0:
79,370,132147,1,0,2:0:0:0:
267,341,132311,6,0,L|217:334,1,50.2849999999999,2|0,2:0|2:0,2:0:0:0:
117,272,132639,2,0,L|166:265,3,50,0|0|0|0,3:0|2:0|2:0|2:0,2:0:0:0:
241,173,133294,5,8,2:0:0:0:
136,132,133458,1,0,2:0:0:0:
236,49,133622,2,0,L|220:88,1,25.295,2|0,2:0|2:0,2:0:0:0:
221,87,133786,1,0,2:0:0:0:
406,0,133950,6,0,L|422:66,1,50.2849999999999,0|0,3:0|2:0,2:0:0:0:
400,139,134278,2,0,P|375:137|351:130,1,50.2849999999999,0|0,2:0|2:0,2:0:0:0:
106,0,134606,6,0,L|90:66,1,50.2849999999999,8|0,2:0|2:0,2:0:0:0:
112,139,134934,1,2,2:0:0:0:
132,130,135098,1,0,2:0:0:0:
256,0,135261,6,0,L|256:168,1,150.245,0|0,3:0|3:0,2:0:0:0:
119,249,135917,5,8,3:1:0:0:
164,237,135999,1,8,3:1:0:0:
204,264,136081,1,8,3:1:0:0:
142,349,136245,1,8,3:1:0:0:
142,349,136409,1,8,3:2:0:0:
39,151,136573,5,4,3:0:0:0:
444,198,146737,6,0,P|402:189|377:189,1,50.2849999999999,2|0,2:0|2:0,2:0:0:0:
395,188,147065,6,0,P|465:211|522:295,2,150.000005722046,6|0|8,3:0|3:0|2:0,2:0:0:0:
318,216,147884,1,4,3:0:0:0:
280,288,148048,6,0,L|288:371,1,75.427502861023,2|0,3:2|2:0,2:0:0:0:
204,155,148376,1,4,3:0:0:0:
204,155,148704,6,0,L|196:229,1,75.427502861023,2|0,3:0|2:0,2:0:0:0:
259,39,149032,1,8,2:1:0:0:
10,170,149360,5,2,3:2:0:0:
5,85,149524,1,2,2:3:0:0:
0,0,149688,1,4,3:0:0:0:
259,39,150016,6,0,P|211:51|169:84,1,75.0000028610231,2|4,3:0|3:0,2:0:0:0:
109,184,150343,1,8,3:2:0:0:
198,153,150507,1,2,2:3:0:0:
189,64,150671,1,0,3:1:0:0:
189,64,150999,6,0,L|181:155,1,75.427502861023,6|0,3:0|2:0,2:0:0:0:
198,153,151327,2,0,L|115:193,1,75.427502861023,2|4,3:0|2:3,2:0:0:0:
109,184,151655,1,8,2:1:0:0:
336,351,151983,6,0,P|360:347|381:334,1,50.2849999999999,6|0,3:0|2:0,2:0:0:0:
381,334,152311,6,0,P|310:354|248:313,2,150.000005722046,6|0|8,3:0|3:2|2:0,2:0:0:0:
440,271,153130,1,4,3:0:0:0:
418,191,153294,6,0,L|494:178,1,75.427502861023,0|0,3:2|3:0,2:0:0:0:
250,130,153622,1,4,3:0:0:0:
250,130,153950,6,0,L|326:143,1,75.427502861023,2|4,3:0|3:0,2:0:0:0:
132,200,154278,1,8,3:1:0:0:
300,384,154606,6,0,P|288:348|262:322,1,75.427502861023,2|0,3:0|2:0,2:0:0:0:
121,314,154934,1,4,3:0:0:0:
188,369,155098,1,2,2:3:0:0:
262,322,155261,1,0,3:0:0:0:
240,237,155425,1,4,3:0:0:0:
442,288,155589,6,0,L|453:376,1,75.427502861023,8|0,3:2|2:0,2:0:0:0:
442,288,155917,1,2,2:0:0:0:
442,288,156245,1,4,2:0:0:0:
