osu file format v14

[General]
AudioFilename: audio.mp3
AudioLeadIn: 0
PreviewTime: 10261
Countdown: 0
SampleSet: Soft
StackLeniency: 1
Mode: 0
LetterboxInBreaks: 0
WidescreenStoryboard: 1

[Editor]
Bookmarks: 157557
DistanceSpacing: 1.5
BeatDivisor: 4
GridSize: 16
TimelineZoom: 3.699999

[Metadata]
Title:Fortnite Drip
TitleUnicode:Fortnite Drip
Artist:FabvL
ArtistUnicode:FabvL
Creator:wafer
Version:hhjkl's Insane
Source:
Tags:english video game hip-hop hip hop rap fortnite hiphop iwaifu hhjkl phynta yooh jamesjan3 blastthekidd kirito
BeatmapID:2446758
BeatmapSetID:1115216

[Difficulty]
HPDrainRate:4.8
CircleSize:4
OverallDifficulty:7.7
ApproachRate:9
SliderMultiplier:1.6
SliderTickRate:1

[Events]
//Background and Video events
0,0,"victory royale.jpg",0,0
//Break Periods
2,136773,146137
//Storyboard Layer 0 (Background)
//Storyboard Layer 1 (Fail)
//Storyboard Layer 2 (Pass)
//Storyboard Layer 3 (Foreground)
//Storyboard Layer 4 (Overlay)
//Storyboard Sound Samples

[TimingPoints]
180,327.868852459016,4,2,1,50,1,0
10343,-181.818181818181,4,2,1,80,0,0
10588,-181.818181818181,4,2,1,5,0,0
10671,-100,4,2,1,80,0,0
10998,-100,4,2,1,80,0,0
11326,-100,4,2,1,80,0,0
12229,-100,4,2,1,5,0,0
12311,-100,4,2,1,80,0,0
15589,-181.818181818181,4,2,1,80,0,0
15834,-181.818181818181,4,2,1,5,0,0
15917,-100,4,2,1,80,0,0
16983,-100,4,2,1,5,0,0
17065,-100,4,2,1,80,0,0
20835,-181.818181818181,4,2,1,80,0,0
21080,-181.818181818181,4,2,1,5,0,0
21163,-100,4,2,1,80,0,0
22720,-100,4,2,1,5,0,0
22802,-100,4,2,1,80,0,0
26081,-181.818181818181,4,2,1,80,0,0
26326,-181.818181818181,4,2,1,5,0,0
26409,-100,4,2,1,80,0,0
27475,-100,4,2,1,5,0,0
27557,-100,4,2,1,80,0,0
31327,-100,4,2,1,60,0,0
31654,-100,4,2,2,50,0,0
31983,-133.333333333333,4,2,2,50,0,0
40507,-133.333333333333,4,2,2,50,0,0
42147,-133.333333333333,4,2,1,50,0,0
42229,-133.333333333333,4,2,2,30,0,0
42310,-133.333333333333,4,2,1,45,0,0
42393,-133.333333333333,4,2,2,60,0,0
42474,-133.333333333333,4,2,1,75,0,0
42802,-133.333333333333,4,2,1,60,0,0
42884,-133.333333333333,4,2,1,5,0,0
42966,-133.333333333333,4,2,1,60,0,0
52639,-100,4,2,1,60,0,0
56818,-100,4,2,1,5,0,0
56901,-100,4,2,1,60,0,0
63047,-100,4,2,1,5,0,0
63130,-200,4,2,2,50,0,0
72639,-200,4,2,1,60,0,0
73294,-181.818181818182,4,2,1,80,0,0
73376,-181.818181818182,4,2,1,5,0,0
73458,-181.818181818182,4,2,1,80,0,0
73539,-181.818181818182,4,2,1,5,0,0
73622,-100,4,2,1,80,0,0
74852,-100,4,2,1,5,0,0
74934,-100,4,2,1,80,0,0
78458,-100,4,2,1,5,0,0
78540,-181.818181818181,4,2,1,80,0,0
78785,-181.818181818181,4,2,1,5,0,0
78868,-100,4,2,1,80,0,0
79934,-100,4,2,1,5,0,0
80016,-100,4,2,1,80,0,0
83786,-181.818181818181,4,2,1,80,0,0
84031,-181.818181818181,4,2,1,5,0,0
84114,-100,4,2,1,80,0,0
85179,-100,4,2,1,5,0,0
85261,-100,4,2,1,80,0,0
85671,-100,4,2,1,5,0,0
85753,-100,4,2,1,80,0,0
88950,-100,4,2,1,5,0,0
89032,-181.818181818181,4,2,1,80,0,0
89277,-181.818181818181,4,2,1,5,0,0
89360,-100,4,2,1,80,0,0
90425,-100,4,2,1,5,0,0
90507,-100,4,2,1,80,0,0
94605,-100,4,2,2,52,0,0
94934,-125,4,2,2,52,0,0
98785,-125,4,2,2,5,0,0
98868,-125,4,2,2,52,0,0
104031,-125,4,2,2,5,0,0
104114,-125,4,2,2,52,0,0
104442,-125,4,2,1,52,0,0
104770,-125,4,2,1,60,0,0
105098,-100,4,2,1,60,0,0
114606,-153.846153846153,4,2,1,80,0,0
115261,-222.222222222221,4,2,1,80,0,0
115507,-222.222222222221,4,2,1,5,0,0
115589,-100,4,2,1,80,0,0
116326,-100,4,2,1,5,0,0
116409,-100,4,2,1,80,0,0
118457,-100,4,2,1,5,0,0
118540,-100,4,2,1,80,0,0
120752,-100,4,2,1,5,0,0
120835,-100,4,2,1,80,0,0
122064,-100,4,2,1,5,0,0
122147,-100,4,2,1,80,0,0
126081,-181.818181818181,4,2,2,53,0,0
135589,-181.818181818181,4,2,1,65,0,0
136245,-133.333333333333,4,2,1,70,0,0
147065,-133.333333333333,4,2,1,67,0,0
147393,-117.647058823529,4,2,1,67,0,0

[Colours]
Combo1 : 255,186,117
Combo2 : 253,235,172
Combo3 : 113,184,255
Combo4 : 255,170,213

[HitObjects]
197,54,10343,6,0,L|199:126,1,66.2420020141601,2|0,2:0|2:0,2:0:0:0:
225,43,10671,2,0,L|230:205,1,160.424,6|2,3:0|3:2,2:0:0:0:
229,203,11163,2,0,P|263:219|263:256,1,80.4559999999999,0|8,3:0|3:1,2:0:0:0:
108,172,11491,1,4,3:0:0:0:
31,275,11655,2,0,P|17:320|9:373,1,80.4559999999999,4|0,3:0|3:2,2:0:0:0:
132,158,11983,6,0,L|127:31,1,120.44,6|0,3:0|2:0,2:0:0:0:
96,16,12311,2,0,P|34:10|5:22,1,80.4559999999999,6|0,3:0|3:0,2:0:0:0:
219,90,12639,2,0,P|249:113|292:120,1,80,8|0,3:1|3:0,2:0:0:0:
40,153,12966,1,0,3:0:0:0:
40,153,13048,1,0,3:0:0:0:
40,153,13130,1,8,3:2:0:0:
217,195,13294,6,0,P|284:230|285:306,1,160.424,4|4,3:0|3:0,2:0:0:0:
36,254,13786,1,4,3:0:0:0:
117,343,13950,2,0,P|68:352|38:376,1,80.4559999999999,8|4,3:1|3:0,2:0:0:0:
271,309,14278,2,0,P|294:274|328:255,1,80.4559999999999,4|0,3:0|3:0,2:0:0:0:
482,286,14606,2,0,L|503:92,2,160,6|6|8,3:0|3:0|3:1,2:0:0:0:
482,286,15425,1,0,3:0:0:0:
482,286,15589,2,0,P|452:272|420:261,1,66.2420020141601,2|0,3:2|2:0,2:0:0:0:
496,333,15917,6,0,P|437:306|312:276,1,160.424,6|2,3:0|3:2,2:0:0:0:
192,304,16409,1,0,3:0:0:0:
325,254,16573,2,0,P|350:225|352:186,1,80.4559999999999,8|4,3:1|3:0,2:0:0:0:
285,46,16901,2,0,L|275:-7,1,40.472,4|0,3:0|2:0,2:0:0:0:
426,73,17065,1,8,3:2:0:0:
231,149,17229,6,0,L|51:122,1,160.424,6|2,3:0|3:0,2:0:0:0:
108,24,17720,1,0,3:0:0:0:
0,99,17884,2,0,P|58:150|65:228,1,160.424,8|4,3:1|3:0,2:0:0:0:
79,384,18376,1,0,3:0:0:0:
157,223,18540,6,0,P|197:231|252:249,1,80.4559999999999,4|0,3:0|3:0,2:0:0:0:
301,143,18868,1,4,3:0:0:0:
339,351,19032,1,4,3:0:0:0:
446,181,19196,2,0,P|478:143|494:95,1,80.4559999999999,8|0,3:1|3:0,2:0:0:0:
232,229,19524,2,0,P|196:246|163:269,1,80.4559999999999,4|0,3:0|3:0,2:0:0:0:
312,62,19852,6,0,L|336:256,2,160,6|6|8,3:0|3:0|3:2,2:0:0:0:
312,62,20671,1,8,3:2:0:0:
312,62,20835,2,0,L|243:70,1,66.2420020141601,2|0,3:2|2:0,2:0:0:0:
326,25,21163,6,0,B|235:33|235:33|204:16|160:16,1,160.424,6|2,3:0|3:2,2:0:0:0:
169,16,21655,2,0,P|132:6|106:34,1,80.4559999999999,0|8,3:0|3:1,2:0:0:0:
219,190,21983,1,4,3:0:0:0:
55,132,22147,2,0,P|19:146|-10:173,1,80.4559999999999,4|0,3:0|3:0,2:0:0:0:
229,208,22475,2,0,P|287:201|334:235,1,120,6|0,3:0|2:0,2:0:0:0:
357,261,22802,2,0,P|401:244|441:244,1,80.4559999999999,4|0,3:0|3:0,2:0:0:0:
198,329,23130,2,0,L|113:340,1,80.4559999999999,8|0,3:1|3:0,2:0:0:0:
373,378,23458,1,4,3:0:0:0:
373,378,23540,1,0,3:0:0:0:
373,378,23622,1,8,3:2:0:0:
254,202,23786,6,0,B|263:96|263:96|286:36,1,160.424,4|4,3:0|3:0,2:0:0:0:
463,26,24278,1,0,3:0:0:0:
374,165,24442,2,0,L|388:251,1,80.4559999999999,8|4,3:1|3:0,2:0:0:0:
289,36,24770,2,0,L|189:8,1,80.4559999999999,4|0,3:0|3:0,2:0:0:0:
464,34,25098,6,0,B|470:96|486:128|486:128|494:190,2,160,6|6|8,3:0|3:0|3:1,2:0:0:0:
464,34,25917,1,0,3:0:0:0:
464,34,26081,2,0,P|437:27|390:37,1,66.2420020141601,0|0,3:2|2:0,2:0:0:0:
481,18,26409,6,0,P|403:8|331:40,1,160.424,6|2,3:0|3:2,2:0:0:0:
334,189,26901,1,0,3:0:0:0:
234,79,27065,2,0,P|227:54|189:12,1,80.4559999999999,8|4,3:1|3:0,2:0:0:0:
341,201,27393,2,0,L|384:186,1,40.472,4|0,3:0|2:0,2:0:0:0:
310,294,27557,1,8,3:1:0:0:
178,160,27720,6,0,L|-11:211,1,160.424,6|6,3:0|3:0,2:0:0:0:
81,71,28212,1,0,3:0:0:0:
99,262,28376,2,0,P|175:277|220:349,1,160.424,8|6,3:1|3:0,2:0:0:0:
310,215,28868,1,0,3:0:0:0:
365,360,29032,2,0,L|464:379,1,80.4559999999999,4|0,3:0|3:0,2:0:0:0:
308,208,29360,1,4,3:0:0:0:
175,242,29524,1,4,3:0:0:0:
264,87,29688,2,0,P|280:40|289:-2,1,80.4559999999999,8|0,3:1|3:0,2:0:0:0:
169,260,30016,2,0,P|161:309|168:354,1,80,4|0,3:0|3:0,2:0:0:0:
110,116,30343,6,0,P|78:48|1:-3,2,160.18,6|6|8,3:0|3:0|3:2,2:0:0:0:
110,116,31081,1,8,2:0:0:0:
110,116,31163,1,8,2:0:0:0:
180,174,31327,1,8,2:1:0:0:
249,137,31491,2,0,P|287:146|320:168,1,80.4559999999999,0|0,2:0|2:0,2:0:0:0:
320,168,31983,6,0,P|352:162|364:162,2,30.1710011444092,0|0|0,2:0|2:0|2:0,2:0:0:0:
247,239,32311,1,8,2:0:0:0:
301,313,32475,1,0,2:0:0:0:
301,313,32639,2,0,P|274:340|260:361,1,60.0000022888184,0|0,2:0|2:0,2:0:0:0:
429,250,32966,6,0,P|463:268|489:289,1,60.3420022888183,2|0,3:2|2:0,2:0:0:0:
225,193,33294,2,0,P|169:204|141:218,1,60.3420022888183,0|0,2:0|2:0,2:0:0:0:
417,105,33622,2,0,L|482:84,1,60.3420022888183,8|0,2:0|2:0,2:0:0:0:
337,66,33950,1,0,2:0:0:0:
337,66,34032,1,0,2:0:0:0:
337,66,34114,1,0,2:0:0:0:
291,162,34278,6,0,L|286:246,2,60.1590022888183,2|0|0,3:2|2:0|2:0,2:0:0:0:
287,53,34770,1,0,2:0:0:0:
108,49,34934,2,0,L|34:64,1,60.3420022888183,8|0,2:0|2:0,2:0:0:0:
299,20,35261,2,0,P|328:22|358:27,1,60.3420022888183,0|8,2:0|2:0,2:0:0:0:
165,118,35589,6,0,L|153:183,1,60.3420022888183,2|8,3:2|2:0,2:0:0:0:
295,199,35917,1,0,2:0:0:0:
272,291,36081,1,0,2:0:0:0:
113,256,36245,2,0,P|60:256|28:328,1,120.318004577637,8|0,2:0|2:0,2:0:0:0:
188,363,36737,1,0,2:0:0:0:
164,173,36901,6,0,L|159:87,1,60.3420022888183,2|0,3:2|2:0,2:0:0:0:
69,55,37229,2,0,L|15:82,1,60.3420022888183,0|0,2:0|2:0,2:0:0:0:
238,7,37557,2,0,P|281:13|320:94,1,120.000004577637,8|0,2:0|2:0,2:0:0:0:
339,157,38048,1,0,2:0:0:0:
427,127,38212,2,0,L|488:142,1,60.3420022888183,2|0,3:2|2:0,2:0:0:0:
250,101,38540,2,0,L|202:72,1,30.3540011444092,0|0,2:0|2:0,2:0:0:0:
424,41,38704,1,0,2:0:0:0:
344,182,38868,6,0,L|360:309,1,120.318004577637,8|0,2:0|2:0,2:0:0:0:
407,371,39360,1,0,2:0:0:0:
271,304,39524,6,0,L|210:321,1,60.3420022888183,2|0,3:2|2:0,2:0:0:0:
95,293,39852,1,0,2:0:0:0:
137,376,40016,1,0,2:0:0:0:
184,230,40179,2,0,P|195:203|201:173,1,60.3420022888183,8|0,2:0|2:0,2:0:0:0:
340,106,40507,2,0,P|359:156|372:186,1,60.3420022888183,0|8,2:0|2:0,2:0:0:0:
144,52,40835,6,0,L|71:68,1,60.3420022888183,2|8,3:2|2:0,2:0:0:0:
330,17,41163,2,0,L|401:4,1,60.3420022888183,0|0,2:0|2:0,2:0:0:0:
232,6,41491,2,0,L|221:153,1,120.318004577637,8|2,2:0|3:2,2:0:0:0:
159,187,41983,1,0,2:0:0:0:
214,265,42147,2,2,P|235:294|244:330,2,60.1590022888183,0|0|0,3:2|2:0|2:0,2:0:0:0:
214,265,42802,6,0,L|218:221,1,30.3540011444092,12|0,3:2|2:0,2:0:0:0:
137,303,42966,1,4,3:3:0:0:
310,239,43130,2,0,P|361:249|423:311,1,120.318004577637,2|4,3:0|3:0,2:0:0:0:
434,361,43622,1,0,3:0:0:0:
391,292,43786,1,2,3:0:0:0:
475,246,43950,1,4,3:0:0:0:
390,165,44114,2,0,L|414:82,1,60.3420022888183,8|4,3:2|3:3,2:0:0:0:
478,19,44442,2,0,L|513:36,2,30.1710011444092,2|0|0,3:0|3:0|3:0,2:0:0:0:
295,0,44770,5,4,3:0:0:0:
245,163,44934,1,0,3:0:0:0:
155,17,45098,2,0,P|115:24|74:42,1,60.0000022888184,2|4,3:0|3:0,2:0:0:0:
358,109,45425,2,0,P|405:135|429:195,1,120.318004577637,8|6,3:2|3:0,2:0:0:0:
395,273,45917,1,0,3:0:0:0:
484,331,46081,5,4,3:0:0:0:
404,295,46245,1,0,3:0:0:0:
236,216,46409,1,2,3:0:0:0:
313,255,46573,1,4,3:0:0:0:
265,341,46737,2,0,B|198:335|212:373|140:370,1,120.318004577637,8|6,3:2|3:0,2:0:0:0:
67,326,47229,1,0,3:0:0:0:
210,255,47393,5,4,3:0:0:0:
9,193,47557,1,0,3:0:0:0:
211,150,47720,2,0,L|259:162,2,30.1710011444092,2|0|0,3:0|3:0|3:0,2:0:0:0:
63,53,48048,2,0,P|19:68|-1:94,1,60.3420022888183,8|4,3:2|3:0,2:0:0:0:
105,181,48376,1,6,3:0:0:0:
105,181,48540,1,0,3:0:0:0:
163,9,48704,6,0,P|221:15|257:70,1,120.318004577637,4|2,3:0|3:0,2:0:0:0:
299,225,49196,1,0,3:0:0:0:
377,263,49360,2,0,L|399:126,1,120.318004577637,8|2,3:2|3:0,2:0:0:0:
382,4,49852,1,0,3:0:0:0:
292,131,50016,5,4,3:0:0:0:
482,111,50179,1,0,3:0:0:0:
292,131,50343,2,0,L|221:148,1,60.3420022888183,2|4,3:0|3:0,2:0:0:0:
430,225,50671,2,0,P|462:247|464:328,1,120.318004577637,8|6,3:2|3:0,2:0:0:0:
290,365,51163,1,0,3:0:0:0:
328,284,51327,6,0,L|322:217,1,60.3420022888183,4|0,3:0|3:0,2:0:0:0:
271,117,51655,1,6,3:0:0:0:
260,99,51737,1,0,3:0:0:0:
250,81,51819,1,4,3:0:0:0:
369,134,51983,1,8,2:0:0:0:
434,95,52147,1,8,2:0:0:0:
241,204,52311,1,4,3:0:0:0:
208,214,52393,1,4,2:3:0:0:
179,224,52475,1,4,3:0:0:0:
150,232,52557,1,4,2:3:0:0:
120,242,52639,6,0,B|62:98,1,120,6|0,3:0|2:0,2:0:0:0:
45,99,52966,2,0,L|51:48,2,40.228,2|0|0,3:2|3:0|3:0,2:0:0:0:
219,114,53294,2,0,P|247:85|261:48,1,80.4559999999999,8|4,3:2|3:0,2:0:0:0:
45,99,53622,6,0,L|27:265,1,160.424,4|4,3:0|3:0,2:0:0:0:
183,250,54114,1,0,3:0:0:0:
0,345,54278,1,2,3:0:0:0:
156,377,54442,1,0,3:0:0:0:
77,213,54606,2,0,P|63:165|33:108,1,80.4559999999999,8|4,3:2|3:0,2:0:0:0:
234,311,54934,1,0,3:0:0:0:
260,309,55016,1,0,3:0:0:0:
286,306,55098,1,0,3:0:0:0:
417,165,55261,6,0,P|430:114|442:75,1,80.4559999999999,4|0,3:0|3:0,2:0:0:0:
447,296,55589,2,0,L|467:378,1,80.4559999999999,2|4,3:2|3:0,2:0:0:0:
310,243,55917,2,0,P|242:230|221:138,1,160.424,8|4,3:2|3:0,2:0:0:0:
115,51,56409,1,8,3:2:0:0:
264,22,56573,6,0,B|338:35|294:70|384:81,1,120.44,6|0,3:0|2:0,2:0:0:0:
404,62,56901,2,0,P|434:48|468:45,2,40.228,6|0|4,3:0|3:0|3:0,2:0:0:0:
310,180,57229,1,8,2:0:0:0:
478,153,57393,1,4,3:0:0:0:
399,241,57557,2,0,P|414:286|415:336,1,80,2|0,3:2|3:0,2:0:0:0:
404,62,57884,6,0,P|349:87|221:108,1,160.424,6|2,3:0|3:2,2:0:0:0:
234,104,58294,1,0,3:0:0:0:
216,97,58376,1,0,3:0:0:0:
99,41,58540,2,0,P|63:57|58:94,1,80.4559999999999,8|4,3:2|3:0,2:0:0:0:
208,207,58868,2,0,L|292:194,1,80.4559999999999,4|8,3:0|3:2,2:0:0:0:
94,312,59196,6,0,B|16:325|16:325|-3:225,1,160.424,4|4,3:0|3:0,2:0:0:0:
123,118,59688,1,0,3:0:0:0:
189,293,59852,2,0,L|216:377,1,80.4559999999999,8|4,3:2|3:0,2:0:0:0:
269,165,60179,2,0,L|285:114,2,40.228,2|0|0,3:0|3:0|3:0,2:0:0:0:
366,330,60507,5,4,3:0:0:0:
454,347,60671,1,0,3:0:0:0:
383,220,60835,1,0,3:0:0:0:
296,241,60999,1,4,3:0:0:0:
469,196,61163,1,8,3:2:0:0:
366,330,61327,1,4,3:0:0:0:
301,145,61491,2,0,P|292:101|293:60,1,80.4559999999999,6|0,3:0|3:0,2:0:0:0:
205,313,61819,6,0,P|175:341|148:383,1,80.4559999999999,6|0,3:0|3:0,2:0:0:0:
385,253,62147,1,6,3:0:0:0:
406,263,62229,1,0,3:0:0:0:
424,271,62311,1,4,3:0:0:0:
226,221,62475,1,8,3:2:0:0:
150,198,62639,1,8,3:2:0:0:
301,311,62802,2,0,P|323:256|327:197,1,120.44,8|0,3:2|2:0,2:0:0:0:
314,155,63130,6,0,B|308:118|308:118|316:95|316:64,2,80.0899999999999,0|0|8,3:0|2:0|2:0,2:0:0:0:
260,251,64114,1,2,2:0:0:0:
391,301,64442,6,0,P|369:315|354:337,1,40.228,0|0,3:0|2:0,2:0:0:0:
192,354,64770,2,0,P|216:359|233:368,1,40.228,0|0,2:0|2:0,2:0:0:0:
125,304,65098,2,0,L|82:309,1,40,8|0,2:1|2:0,2:0:0:0:
168,229,65425,1,0,2:0:0:0:
179,152,65589,1,0,2:0:0:0:
189,73,65753,6,0,P|152:57|105:58,2,80.0899999999999,0|0|8,3:0|2:0|2:0,2:0:0:0:
244,192,66737,1,2,2:0:0:0:
320,58,67065,2,0,L|334:9,1,40.228,0|0,3:0|2:0,2:0:0:0:
366,220,67393,6,0,L|379:267,1,40.228,0|0,2:0|2:0,2:0:0:0:
449,175,67720,2,0,P|434:162|418:151,1,40.228,8|0,2:1|2:0,2:0:0:0:
216,90,68048,1,0,2:0:0:0:
323,147,68212,1,0,2:0:0:0:
169,194,68376,6,0,P|156:224|146:274,2,80.0899999999999,0|0|8,3:0|2:0|2:0,2:0:0:0:
252,99,69360,1,2,2:0:0:0:
285,233,69688,6,0,P|296:272|331:302,1,80.2119999999999,0|0,3:0|2:0,2:0:0:0:
481,180,70343,2,0,L|525:189,2,40.106,8|0|0,2:1|2:0|2:0,2:0:0:0:
329,168,70835,1,0,2:0:0:0:
452,77,70999,6,0,P|470:65|482:52,1,40.228,0|0,3:0|2:0,2:0:0:0:
360,46,71327,2,0,L|357:6,1,40.228,0|0,2:0|2:0,2:0:0:0:
260,62,71655,2,0,P|236:47|211:40,1,40.228,8|0,2:0|2:0,2:0:0:0:
216,148,71983,1,2,2:0:0:0:
65,105,72147,1,0,2:0:0:0:
134,201,72311,6,0,P|141:219|149:253,1,40.228,0|0,3:0|3:0,2:0:0:0:
110,360,72639,1,2,3:2:0:0:
225,319,72802,1,8,3:2:0:0:
39,249,72966,1,8,3:1:0:0:
39,249,73048,1,8,3:1:0:0:
39,249,73130,1,8,3:1:0:0:
225,145,73294,2,0,L|258:153,1,22.2596006713867,8|0,3:1|2:0,2:0:0:0:
127,122,73458,2,0,L|159:129,1,22.2596006713867,8|0,3:2|2:0,2:0:0:0:
284,122,73622,6,0,P|213:106|140:39,1,160.424,6|2,3:0|3:2,2:0:0:0:
147,51,74114,2,0,P|102:20|90:60,1,80.4559999999999,0|8,3:0|3:1,2:0:0:0:
60,151,74442,1,4,3:0:0:0:
254,35,74606,2,0,L|403:52,1,120.44,4|0,3:0|2:0,2:0:0:0:
421,58,74934,2,0,B|456:83|456:83|419:100,1,80.4559999999999,6|0,3:0|3:0,2:0:0:0:
243,159,75261,2,0,P|203:166|165:179,1,80.4559999999999,6|0,3:0|3:0,2:0:0:0:
424,219,75589,2,0,P|473:246|528:265,1,80.4559999999999,8|4,3:1|3:0,2:0:0:0:
327,108,75917,1,0,3:0:0:0:
327,108,75999,1,0,3:0:0:0:
327,108,76081,1,8,2:0:0:0:
354,325,76245,6,0,P|286:260|212:289,1,160.424,4|4,3:0|3:0,2:0:0:0:
46,219,76737,1,4,3:0:0:0:
157,360,76901,1,8,3:1:0:0:
186,164,77065,1,4,3:0:0:0:
55,304,77229,2,0,P|28:328|-2:363,1,80.4559999999999,4|0,3:0|3:0,2:0:0:0:
99,139,77557,6,0,P|81:62|42:-9,2,160,6|6|8,3:0|3:0|3:1,2:0:0:0:
95,143,78376,2,0,L|51:167,1,40.472,4|0,3:0|2:0,2:0:0:0:
203,93,78540,2,0,L|214:167,1,66.2420020141601,2|0,3:2|2:0,2:0:0:0:
266,47,78868,6,0,P|244:123|258:201,1,160.424,6|2,3:0|3:2,2:0:0:0:
400,234,79360,1,0,3:0:0:0:
214,284,79524,2,0,P|181:311|165:346,1,80.4559999999999,8|4,3:1|3:0,2:0:0:0:
403,256,79852,2,0,L|459:271,1,40.472,4|0,3:0|3:0,2:0:0:0:
291,329,80016,1,8,3:2:0:0:
313,145,80179,6,0,L|472:131,1,160.424,6|2,3:0|3:0,2:0:0:0:
402,59,80671,1,0,3:0:0:0:
376,236,80835,2,0,B|288:254|288:254|216:300,1,160.424,8|4,3:1|3:0,2:0:0:0:
125,179,81327,1,0,3:0:0:0:
57,355,81491,6,0,L|77:257,1,80.4559999999999,4|0,3:0|3:0,2:0:0:0:
37,64,81819,1,4,3:0:0:0:
125,179,81983,1,4,3:0:0:0:
167,39,82147,2,0,B|201:32|201:32|224:35|269:31,1,80.4559999999999,8|4,3:1|3:0,2:0:0:0:
320,147,82475,2,0,P|309:182|296:246,1,80.4559999999999,4|0,3:0|3:0,2:0:0:0:
408,15,82802,6,0,P|481:37|503:111,2,160.18,6|6|8,3:0|3:0|3:1,2:0:0:0:
404,19,83622,2,0,L|395:68,1,40.472,8|0,3:1|2:0,2:0:0:0:
357,126,83786,2,0,P|352:169|344:203,1,66.2420020141601,2|0,3:2|2:0,2:0:0:0:
393,150,84114,6,0,B|362:221|362:221|370:272|365:324,1,160.424,6|2,3:0|3:2,2:0:0:0:
276,210,84606,1,0,3:0:0:0:
464,247,84770,2,0,P|502:270|527:306,1,80.4559999999999,8|4,3:1|3:0,2:0:0:0:
275,384,85098,2,0,L|257:334,1,40,4|0,3:0|3:0,2:0:0:0:
231,268,85261,1,0,3:0:0:0:
52,343,85425,6,0,P|71:287|74:226,1,120.44,6|0,3:0|2:0,2:0:0:0:
44,193,85753,2,0,B|10:174|10:174|32:134,1,80.4559999999999,4|0,3:0|3:0,2:0:0:0:
230,36,86081,2,0,P|196:54|181:93,1,80.4559999999999,8|4,3:1|3:0,2:0:0:0:
211,285,86409,1,4,3:0:0:0:
211,285,86491,1,0,3:0:0:0:
211,285,86573,1,8,3:2:0:0:
320,127,86737,6,0,P|392:133|433:212,1,160.424,4|4,3:0|3:0,2:0:0:0:
371,384,87229,1,4,3:0:0:0:
314,205,87393,1,8,3:1:0:0:
468,331,87557,1,4,3:0:0:0:
281,299,87720,2,0,P|222:319|184:343,1,80.4559999999999,4|0,3:0|3:0,2:0:0:0:
433,203,88048,6,0,P|450:132|503:32,2,160.18,6|6|8,3:0|3:0|3:1,2:0:0:0:
429,207,88868,2,0,L|483:224,1,40.472,4|0,3:0|2:0,2:0:0:0:
352,170,89032,2,0,L|289:149,1,66.2420020141601,2|0,3:2|2:0,2:0:0:0:
358,113,89360,6,0,P|279:116|200:95,1,160.424,6|2,3:0|3:2,2:0:0:0:
69,0,89852,1,0,3:0:0:0:
0,144,90016,2,0,P|42:166|44:223,1,80,8|4,3:1|3:0,2:0:0:0:
195,301,90343,2,0,L|258:318,1,40.472,4|0,3:0|2:0,2:0:0:0:
87,365,90507,1,8,3:1:0:0:
142,203,90671,6,0,B|241:142|241:142|279:135|317:126,1,160.424,6|6,3:0|3:0,2:0:0:0:
334,65,91163,1,0,3:0:0:0:
417,232,91327,2,0,P|486:183|478:98,1,160.424,8|6,3:1|3:0,2:0:0:0:
295,181,91819,1,0,3:0:0:0:
415,86,91983,2,0,L|431:7,1,80.4559999999999,4|0,3:0|3:0,2:0:0:0:
286,189,92311,1,4,3:0:0:0:
315,293,92475,1,4,3:0:0:0:
247,86,92639,2,0,L|265:0,1,80,8|4,3:1|3:0,2:0:0:0:
198,231,92966,2,0,L|172:335,1,80.4559999999999,4|0,3:0|3:0,2:0:0:0:
130,103,93294,6,0,P|76:47|0:53,2,160.18,6|6|8,3:0|3:0|3:2,2:0:0:0:
130,103,94032,1,0,3:0:0:0:
130,103,94114,1,8,3:2:0:0:
176,192,94278,1,2,3:2:0:0:
262,172,94442,2,0,P|284:204|298:242,1,80.4559999999999,0|0,2:0|2:0,2:0:0:0:
298,242,94934,6,0,L|346:251,2,32.1824,0|0|0,0:0|2:0|2:0,2:0:0:0:
213,316,95261,1,8,2:0:0:0:
213,316,95425,1,0,2:0:0:0:
99,249,95589,2,0,P|66:267|39:295,1,64.3647999999999,2|0,1:2|2:0,2:0:0:0:
163,164,95917,6,0,P|163:77|176:22,1,128.3392,0|0,3:0|3:0,2:0:0:0:
171,37,96573,2,0,P|207:27|241:22,1,64.3647999999999,8|0,2:0|2:0,2:0:0:0:
312,62,96901,2,0,P|337:82|362:113,1,64.3647999999999,2|0,1:2|2:0,2:0:0:0:
493,31,97229,6,0,P|472:90|466:154,1,128.3392,0|0,3:0|3:0,2:0:0:0:
466,154,97884,2,0,P|495:167|522:185,2,64.1695999999999,8|0|2,2:0|2:0|1:2,2:0:0:0:
381,220,98376,1,0,2:0:0:0:
318,126,98540,6,0,B|266:138|266:138|244:158|221:163,1,96.3519999999999,0|0,3:0|2:0,2:0:0:0:
187,169,98868,2,0,P|180:204|162:232,1,64.3647999999999,0|0,3:0|2:0,2:0:0:0:
41,179,99196,1,8,2:0:0:0:
23,97,99360,1,0,2:0:0:0:
59,265,99524,1,2,1:2:0:0:
59,265,99688,1,0,2:0:0:0:
124,90,99852,6,0,P|158:39|225:25,1,128,0|0,3:0|3:0,2:0:0:0:
219,24,100507,2,0,L|226:95,1,64.3647999999999,8|0,2:0|2:0,2:0:0:0:
280,151,100835,2,0,L|272:235,1,64.3647999999999,2|0,1:2|2:0,2:0:0:0:
218,331,101163,6,0,L|356:359,1,128.3392,0|0,3:0|3:0,2:0:0:0:
343,355,101819,2,0,P|356:327|386:316,1,64.3647999999999,8|0,2:0|2:0,2:0:0:0:
456,259,102147,2,0,P|431:241|420:211,1,64.3647999999999,2|0,1:2|2:0,2:0:0:0:
442,46,102475,6,0,P|388:78|325:75,1,128,0|0,3:0|3:0,2:0:0:0:
324,74,103130,2,0,P|296:60|264:58,1,64.3647999999999,8|0,2:0|2:0,2:0:0:0:
185,101,103458,2,0,P|155:111|134:135,1,64.3647999999999,2|0,1:2|2:0,2:0:0:0:
218,231,103786,6,0,L|229:326,1,96.3519999999999,0|0,3:0|2:0,2:0:0:0:
235,368,104114,2,0,P|287:361|317:366,1,64.3647999999999,0|0,3:0|3:0,2:0:0:0:
129,218,104442,1,8,3:2:0:0:
39,206,104606,1,8,3:2:0:0:
218,231,104770,1,4,3:0:0:0:
307,245,104934,1,8,3:1:0:0:
99,300,105098,6,0,P|67:330|57:365,1,80,6|0,3:0|3:0,2:0:0:0:
217,184,105425,2,0,L|239:11,1,160.424,2|8,3:2|2:0,2:0:0:0:
303,135,105917,1,4,3:3:0:0:
133,39,106081,2,0,P|84:51|47:71,1,80.4559999999999,4|8,3:0|3:2,2:0:0:0:
55,234,106409,6,0,B|136:220|136:220|149:296,1,160.424,4|2,3:0|3:0,2:0:0:0:
82,358,106901,1,0,3:0:0:0:
244,326,107065,1,8,3:1:0:0:
206,164,107229,1,4,3:0:0:0:
295,148,107393,1,0,3:0:0:0:
318,145,107475,1,0,3:0:0:0:
341,142,107557,1,0,3:0:0:0:
303,57,107720,6,0,P|284:23|253:0,1,80.4559999999999,6|0,3:0|2:0,2:0:0:0:
489,69,108048,1,2,3:2:0:0:
431,138,108212,2,0,L|422:222,2,80.2119999999999,4|8|0,3:0|2:0|2:0,2:0:0:0:
190,111,108704,1,4,3:0:0:0:
328,141,108868,1,8,3:2:0:0:
206,204,109032,6,0,P|259:232|285:332,1,160.424,4|2,3:0|3:0,2:0:0:0:
287,323,109442,1,0,3:0:0:0:
287,323,109524,1,4,3:0:0:0:
392,347,109688,1,8,2:1:0:0:
192,282,109852,1,0,3:0:0:0:
396,249,110016,1,4,3:0:0:0:
377,154,110179,1,0,3:0:0:0:
170,185,110343,6,0,P|132:174|108:140,1,80.4559999999999,6|0,3:0|3:0,2:0:0:0:
34,358,110671,2,0,L|27:177,1,160.424,2|8,3:2|2:0,2:0:0:0:
58,26,111163,1,4,3:0:0:0:
218,105,111327,2,0,P|245:143|294:145,1,80.4559999999999,4|8,3:0|3:2,2:0:0:0:
406,233,111655,6,0,P|319:251|296:332,1,160.424,4|2,3:0|3:0,2:0:0:0:
369,374,112147,1,0,3:0:0:0:
196,353,112311,1,8,3:1:0:0:
222,188,112475,1,4,3:0:0:0:
116,164,112639,1,0,3:0:0:0:
123,137,112720,1,0,3:0:0:0:
130,110,112802,1,0,3:0:0:0:
162,7,112966,6,0,P|195:29|233:39,1,80.4559999999999,6|0,3:0|2:0,2:0:0:0:
367,141,113294,1,2,3:2:0:0:
272,158,113458,2,0,L|228:224,2,80.2119999999999,4|8|0,3:0|2:0|2:0,2:0:0:0:
489,119,113950,1,0,3:2:0:0:
317,49,114114,1,8,3:2:0:0:
418,24,114278,5,4,3:2:0:0:
418,24,114606,2,0,L|410:81,1,52.2963976196289,0|0,3:0|2:0,2:0:0:0:
354,137,114934,2,0,L|346:194,1,52.2963976196289,0|0,3:2|2:0,2:0:0:0:
387,261,115261,2,0,P|404:281|427:294,1,54.1979983520507,0|0,3:0|2:0,2:0:0:0:
434,319,115589,6,0,P|355:302|276:294,1,160.424,6|0,3:0|3:0,2:0:0:0:
276,294,115999,1,0,3:0:0:0:
276,294,116081,1,0,3:0:0:0:
169,261,116245,2,0,L|167:215,1,40.472,8|0,3:2|2:0,2:0:0:0:
134,341,116409,1,4,3:0:0:0:
22,230,116573,2,0,P|40:254|37:233,1,80.4559999999999,4|0,3:0|3:0,2:0:0:0:
68,88,116901,6,0,L|53:-8,1,80.4559999999999,4|0,3:0|3:0,2:0:0:0:
247,71,117229,1,2,3:0:0:0:
83,174,117393,1,0,3:0:0:0:
266,93,117557,2,0,L|272:172,1,80,8|4,3:1|3:0,2:0:0:0:
192,294,117884,1,0,3:0:0:0:
165,303,117966,1,0,3:0:0:0:
137,313,118048,1,0,3:0:0:0:
347,288,118212,6,0,P|400:311|424:364,1,120.44,4|0,3:0|2:0,2:0:0:0:
471,377,118540,2,0,L|495:293,1,80.4559999999999,0|4,3:0|3:0,2:0:0:0:
397,73,118868,1,8,3:2:0:0:
433,241,119032,1,4,3:0:0:0:
498,84,119196,1,4,3:3:0:0:
334,137,119360,1,8,3:2:0:0:
302,44,119524,6,0,P|250:31|224:11,1,80.4559999999999,6|0,3:0|3:0,2:0:0:0:
76,88,119852,1,6,3:0:0:0:
107,97,119934,1,0,3:0:0:0:
139,106,120016,1,4,3:3:0:0:
255,142,120179,1,8,3:2:0:0:
106,206,120343,1,4,3:0:0:0:
263,237,120507,2,0,P|276:293|232:356,1,120.44,6|0,3:0|2:0,2:0:0:0:
210,338,120835,6,0,P|165:320|115:323,1,80.4559999999999,6|0,3:0|3:0,2:0:0:0:
8,139,121163,2,0,L|105:128,1,80.4559999999999,0|0,3:0|3:0,2:0:0:0:
224,37,121491,1,8,3:1:0:0:
249,226,121655,1,4,3:0:0:0:
345,61,121819,2,0,P|398:83|414:139,1,120.44,4|0,3:0|2:0,2:0:0:0:
404,189,122147,6,0,L|491:213,1,80.4559999999999,4|0,3:0|2:0,2:0:0:0:
260,121,122475,2,0,L|170:97,1,80.4559999999999,4|0,3:0|3:0,2:0:0:0:
311,250,122802,1,8,3:2:0:0:
210,231,122966,1,4,3:0:0:0:
421,275,123130,6,0,B|330:290|384:335|287:349,1,160.424,2|4,3:0|3:0,2:0:0:0:
90,287,123622,1,0,3:2:0:0:
172,351,123786,1,0,3:0:0:0:
173,194,123950,1,4,3:0:0:0:
6,200,124114,2,0,P|-2:162|-3:122,1,80.4559999999999,8|4,3:2|3:0,2:0:0:0:
170,47,124442,1,4,3:0:0:0:
44,16,124606,1,0,3:0:0:0:
169,47,124770,6,0,P|188:121|260:149,1,160.424,6|6,3:0|3:0,2:0:0:0:
260,149,125179,1,0,3:0:0:0:
260,149,125261,1,4,3:0:0:0:
370,43,125425,1,8,3:2:0:0:
365,74,125507,1,0,3:0:0:0:
360,105,125589,1,4,3:0:0:0:
445,187,125753,1,2,3:2:0:0:
261,233,125917,1,0,3:0:0:0:
372,270,126081,6,0,P|411:315|403:348,1,88.2332026855469,0|0,3:0|2:0,2:0:0:0:
336,368,126737,1,8,2:0:0:0:
193,254,127065,2,0,P|220:265|233:276,1,44.2508013427735,2|0,2:0|2:0,2:0:0:0:
176,378,127393,6,0,L|168:277,1,88.000002685547,0|0,3:0|2:0,2:0:0:0:
106,247,127884,1,0,2:0:0:0:
182,207,128048,2,0,P|193:182|194:163,1,44.2508013427735,8|0,2:0|2:0,2:0:0:0:
117,125,128376,2,0,P|113:94|120:66,1,44.2508013427735,2|0,2:0|2:0,2:0:0:0:
178,0,128704,6,0,L|281:14,1,88.2332026855469,0|0,3:0|2:0,2:0:0:0:
326,64,129360,1,8,2:0:0:0:
470,142,129688,2,0,P|501:127|516:125,1,44.2508013427735,2|0,2:0|2:0,2:0:0:0:
426,201,130016,6,0,L|420:295,1,88.000002685547,0|0,3:0|2:0,2:0:0:0:
420,288,130425,1,0,2:0:0:0:
420,288,130507,1,0,2:0:0:0:
468,372,130671,1,8,2:0:0:0:
354,384,130835,1,0,2:0:0:0:
308,303,130999,2,0,L|306:243,1,44.2508013427735,2|0,2:0|2:0,2:0:0:0:
235,343,131327,6,0,P|203:338|171:345,1,66.2420020141601,0|0,3:0|2:0,2:0:0:0:
146,363,131655,2,0,L|111:350,2,22.1254006713867,0|0|0,2:0|2:0|2:0,2:0:0:0:
102,276,131983,2,0,L|117:227,1,44.2508013427735,8|0,2:0|2:0,2:0:0:0:
34,120,132311,2,0,P|53:135|79:144,1,44.2508013427735,2|0,2:0|2:0,2:0:0:0:
171,134,132639,6,0,P|192:97|234:86,1,88.000002685547,0|0,3:0|2:0,2:0:0:0:
381,149,133294,2,0,L|425:120,1,44.2508013427735,8|0,2:0|2:0,2:0:0:0:
449,55,133622,2,0,L|503:28,1,44.2508013427735,2|0,2:0|2:0,2:0:0:0:
370,17,133950,6,0,P|333:42|322:86,1,88.2332026855469,0|0,3:0|2:0,2:0:0:0:
295,159,134442,1,0,2:0:0:0:
355,212,134606,2,0,P|369:244|367:304,1,88.2332026855469,8|2,2:0|2:0,2:0:0:0:
298,341,135098,1,0,2:0:0:0:
434,364,135261,6,0,P|451:351|472:344,1,44.2508013427735,0|0,3:0|2:0,2:0:0:0:
288,249,135589,1,0,3:0:0:0:
215,269,135753,1,0,3:0:0:0:
400,229,135917,1,8,3:1:0:0:
400,229,135999,1,8,3:1:0:0:
400,229,136081,1,8,3:1:0:0:
273,109,136245,2,0,P|268:81|267:31,2,60.1590022888183,8|8|4,3:1|3:2|3:0,2:0:0:0:
392,266,146737,6,0,L|363:335,1,60.3420022888183,2|0,2:0|2:0,2:0:0:0:
467,235,147065,1,6,3:0:0:0:
286,196,147393,2,0,L|212:208,2,68.0000012969971,0|0|8,3:0|2:0|2:0,2:0:0:0:
331,124,147884,1,4,3:0:0:0:
374,52,148048,6,0,P|418:46|497:90,1,136.360402593994,2|4,3:2|3:0,2:0:0:0:
250,77,148704,1,2,3:0:0:0:
444,225,149032,1,8,2:1:0:0:
212,304,149360,2,0,L|139:314,1,68.387601296997,2|0,3:2|2:3,2:0:0:0:
68,253,149688,6,0,L|49:97,1,136.360402593994,4|2,3:0|3:0,2:0:0:0:
103,41,150179,1,4,3:0:0:0:
187,94,150343,2,0,P|188:137|213:174,1,68.387601296997,8|2,3:2|2:3,2:0:0:0:
293,192,150671,6,0,P|334:171|443:140,1,136.360402593994,0|6,3:1|3:0,2:0:0:0:
277,344,151327,1,2,3:0:0:0:
264,99,151655,1,8,2:1:0:0:
413,291,151983,2,0,L|438:361,1,68.387601296997,6|0,3:0|2:0,2:0:0:0:
351,247,152311,5,6,3:0:0:0:
149,265,152639,2,0,P|123:277|83:316,2,68.0000012969971,0|0|8,3:2|2:0|2:0,2:0:0:0:
239,277,153130,1,4,3:0:0:0:
197,197,153294,6,0,L|169:47,1,136.360402593994,0|4,3:2|3:0,2:0:0:0:
337,20,153950,2,0,P|383:12|428:16,2,68.180201296997,2|4|8,3:0|3:0|3:1,2:0:0:0:
147,62,154606,2,0,P|109:52|64:46,1,68.387601296997,2|0,3:0|2:0,2:0:0:0:
212,121,154934,6,0,L|286:118,1,68.387601296997,4|0,3:0|2:3,2:0:0:0:
140,185,155261,1,0,3:0:0:0:
209,238,155425,1,4,3:0:0:0:
144,294,155589,2,0,P|96:291|5:340,2,136.153002593994,8|2|4,3:2|2:0|2:0,2:0:0:0:
