osu file format v14

[General]
AudioFilename: audio.mp3
AudioLeadIn: 0
PreviewTime: 10261
Countdown: 0
SampleSet: Soft
StackLeniency: 0.7
Mode: 0
LetterboxInBreaks: 0
WidescreenStoryboard: 1

[Editor]
Bookmarks: 10337,31649,42141,42796,52633,63124,73616,94600,105092,115583,126075,136567,147059,156239
DistanceSpacing: 0.8
BeatDivisor: 4
GridSize: 8
TimelineZoom: 3.319999

[Metadata]
Title:Fortnite Drip
TitleUnicode:Fortnite Drip
Artist:FabvL
ArtistUnicode:FabvL
Creator:wafer
Version:Yooh's Hard
Source:
Tags:english video game hip-hop hip hop rap fortnite hiphop iwaifu hhjkl phynta yooh jamesjan3 blastthekidd kirito
BeatmapID:2436987
BeatmapSetID:1115216

[Difficulty]
HPDrainRate:4
CircleSize:3.7
OverallDifficulty:6
ApproachRate:8
SliderMultiplier:1.2
SliderTickRate:1

[Events]
//Background and Video events
0,0,"victory royale.jpg",0,0
//Break Periods
//Storyboard Layer 0 (Background)
//Storyboard Layer 1 (Fail)
//Storyboard Layer 2 (Pass)
//Storyboard Layer 3 (Foreground)
//Storyboard Layer 4 (Overlay)
//Storyboard Sound Samples

[TimingPoints]
180,327.868852459016,4,2,1,50,1,0
10343,-100,4,2,1,80,0,0
10588,-100,4,2,1,5,0,0
10671,-100,4,2,1,80,0,0
10999,-100,4,2,1,80,0,0
11327,-100,4,2,1,80,0,0
12884,-100,4,2,1,5,0,0
12966,-100,4,2,1,80,0,0
14524,-100,4,2,1,5,0,0
14606,-100,4,2,1,80,0,0
15179,-100,4,2,1,5,0,0
15261,-100,4,2,1,80,0,0
15834,-100,4,2,1,5,0,0
15917,-100,4,2,1,80,0,0
16491,-100,4,2,1,5,0,0
16573,-100,4,2,1,80,0,0
21080,-100,4,2,1,5,0,0
21163,-100,4,2,1,80,0,0
21737,-100,4,2,1,5,0,0
21819,-100,4,2,1,80,0,0
23376,-100,4,2,1,5,0,0
23458,-100,4,2,1,80,0,0
25016,-100,4,2,1,5,0,0
25098,-100,4,2,1,80,0,0
25671,-100,4,2,1,5,0,0
25753,-100,4,2,1,80,0,0
26326,-100,4,2,1,5,0,0
26409,-100,4,2,1,80,0,0
26983,-100,4,2,1,5,0,0
27065,-100,4,2,1,80,0,0
31327,-100,4,2,1,60,0,0
31983,-100,4,2,2,50,0,0
40507,-100,4,2,2,70,0,0
42147,-100,4,2,1,70,0,0
42229,-100,4,2,2,30,0,0
42311,-100,4,2,1,45,0,0
42393,-100,4,2,2,60,0,0
42475,-100,4,2,1,75,0,0
42557,-100,4,2,1,95,0,0
42720,-100,4,2,1,75,0,0
42802,-100,4,2,1,60,0,0
44360,-100,4,2,1,5,0,0
44442,-100,4,2,1,60,0,0
45343,-100,4,2,1,5,0,0
45425,-100,4,2,1,60,0,0
48294,-100,4,2,1,5,0,0
48376,-100,4,2,1,60,0,0
50589,-100,4,2,1,5,0,0
50671,-100,4,2,1,60,0,0
55835,-100,4,2,1,5,0,0
55917,-100,4,2,1,60,0,0
63130,-117.647058823529,4,2,2,50,0,0
71245,-117.647058823529,4,2,2,5,0,0
71327,-117.647058823529,4,2,2,50,0,0
71573,-117.647058823529,4,2,2,5,0,0
71655,-117.647058823529,4,2,2,50,0,0
72639,-117.647058823529,4,2,1,60,0,0
73294,-100,4,2,1,80,0,0
73539,-100,4,2,1,5,0,0
73622,-100,4,2,1,80,0,0
75835,-100,4,2,1,5,0,0
75917,-100,4,2,1,80,0,0
77475,-100,4,2,1,5,0,0
77557,-100,4,2,1,80,0,0
78130,-100,4,2,1,5,0,0
78212,-100,4,2,1,80,0,0
78785,-100,4,2,1,5,0,0
78868,-100,4,2,1,80,0,0
79442,-100,4,2,1,5,0,0
79524,-100,4,2,1,80,0,0
84031,-100,4,2,1,5,0,0
84114,-100,4,2,1,80,0,0
84688,-100,4,2,1,5,0,0
84770,-100,4,2,1,80,0,0
86327,-100,4,2,1,5,0,0
86409,-100,4,2,1,80,0,0
87966,-100,4,2,1,5,0,0
88048,-100,4,2,1,80,0,0
88622,-100,4,2,1,5,0,0
88704,-100,4,2,1,80,0,0
89277,-100,4,2,1,5,0,0
89360,-100,4,2,1,80,0,0
89934,-100,4,2,1,5,0,0
90016,-100,4,2,1,80,0,0
94934,-100,4,2,2,52,0,0
104442,-100,4,2,1,52,0,0
104770,-100,4,2,1,60,0,0
114278,-83.3333333333333,4,2,1,60,0,0
114606,-100,4,2,1,80,0,0
117802,-100,4,2,1,5,0,0
117884,-100,4,2,1,80,0,0
118457,-100,4,2,1,5,0,0
118540,-100,4,2,1,80,0,0
120425,-100,4,2,1,5,0,0
120507,-100,4,2,1,80,0,0
122393,-100,4,2,1,5,0,0
122475,-100,4,2,1,80,0,0
123048,-100,4,2,1,5,0,0
123130,-100,4,2,1,80,0,0
125016,-100,4,2,1,5,0,0
125098,-100,4,2,1,80,0,0
126081,-117.647058823529,4,2,2,53,0,0
126327,-117.647058823529,4,2,2,5,0,0
126409,-117.647058823529,4,2,2,53,0,0
131573,-117.647058823529,4,2,2,5,0,0
131655,-117.647058823529,4,2,2,53,0,0
135589,-117.647058823529,4,2,1,65,0,0
136245,-117.647058823529,4,2,1,70,0,0
136573,-133.333333333333,4,2,1,40,0,0
137147,-133.333333333333,4,2,1,5,0,0
137229,-133.333333333333,4,2,1,40,0,0
139442,-133.333333333333,4,2,1,5,0,0
139524,-133.333333333333,4,2,1,40,0,0
140425,-133.333333333333,4,2,1,5,0,0
140507,-133.333333333333,4,2,1,40,0,0
141081,-133.333333333333,4,2,1,5,0,0
141163,-133.333333333333,4,2,1,40,0,0
141737,-133.333333333333,4,2,1,5,0,0
141819,-133.333333333333,4,2,1,40,0,0
142393,-133.333333333333,4,2,1,5,0,0
142475,-133.333333333333,4,2,1,40,0,0
146983,-133.333333333333,4,2,1,5,0,0
147065,-133.333333333333,4,2,1,67,0,0
147393,-100,4,2,1,67,0,0
147639,-100,4,2,1,5,0,0
147720,-100,4,2,1,67,0,0
149934,-100,4,2,1,5,0,0
150016,-100,4,2,1,67,0,0
150917,-100,4,2,1,5,0,0
150999,-100,4,2,1,67,0,0
151573,-100,4,2,1,5,0,0
151655,-100,4,2,1,67,0,0
152229,-100,4,2,1,5,0,0
152311,-100,4,2,1,67,0,0
152884,-100,4,2,1,5,0,0
152966,-100,4,2,1,67,0,0

[Colours]
Combo1 : 255,186,117
Combo2 : 253,235,172
Combo3 : 113,184,255
Combo4 : 255,170,213

[HitObjects]
439,109,10343,6,0,B|459:117|463:139|463:139|455:203,1,90,2|0,2:0|2:0,2:0:0:0:
449,233,10671,2,0,L|508:240,1,60,6|0,3:0|2:0,2:0:0:0:
493,329,10999,2,0,L|433:322,1,60,2|0,3:2|3:0,2:0:0:0:
343,310,11327,1,8,3:1:0:0:
293,384,11491,6,0,P|264:351|254:322,2,60,4|4|0,3:0|3:0|3:2,2:0:0:0:
343,310,11983,2,0,L|335:247,1,60,6|0,3:0|3:0,2:0:0:0:
282,177,12311,2,0,P|257:206|247:247,1,60,6|0,3:0|3:0,2:0:0:0:
183,287,12639,2,0,P|121:259|90:224,1,90,8|0,3:1|2:0,2:0:0:0:
74,212,12966,5,0,3:0:0:0:
53,124,13130,1,8,3:2:0:0:
32,37,13294,2,0,L|92:44,1,60,4|0,3:0|3:0,2:0:0:0:
127,73,13622,2,0,L|187:65,1,60,4|4,3:0|3:0,2:0:0:0:
231,60,13868,1,0,3:0:0:0:
231,60,13950,2,0,P|250:0|251:-7,1,60,8|4,3:1|3:0,2:0:0:0:
337,23,14278,6,0,P|347:84|373:131,1,90,4|0,3:0|2:0,2:0:0:0:
385,146,14606,1,6,3:0:0:0:
460,309,14934,2,0,P|496:258|510:207,1,90,6|0,3:0|2:0,2:0:0:0:
512,188,15261,1,8,3:1:0:0:
338,234,15589,6,0,B|296:228|296:228|291:225|291:225|242:219,1,90,2|0,3:2|2:0,2:0:0:0:
204,213,15917,2,0,P|186:245|182:275,1,60,6|0,3:0|2:0,2:0:0:0:
206,354,16245,2,0,B|164:359|164:359|159:362|159:362|110:368,1,90,2|0,3:2|2:0,2:0:0:0:
72,375,16573,2,0,P|54:343|50:313,1,60,8|4,3:1|3:0,2:0:0:0:
64,230,16901,6,0,L|4:222,2,60,4|8|6,3:0|3:2|3:0,2:0:0:0:
207,120,17557,2,0,L|266:127,2,60,2|0|8,3:0|3:0|3:1,2:0:0:0:
35,63,18212,5,4,3:0:0:0:
100,4,18376,1,0,3:0:0:0:
185,31,18540,2,0,L|193:97,1,60,4|0,3:0|3:0,2:0:0:0:
282,79,18868,2,0,L|273:8,1,60,4|4,3:0|3:0,2:0:0:0:
363,3,19196,2,0,P|413:9|488:49,2,120,8|4|6,3:1|3:0|3:0,2:0:0:0:
238,132,20179,2,0,L|309:123,1,60,6|0,3:0|3:0,2:0:0:0:
373,174,20507,1,8,3:2:0:0:
373,174,20589,1,0,3:0:0:0:
373,174,20671,1,8,3:2:0:0:
463,172,20835,6,0,L|451:268,1,90,2|0,3:2|2:0,2:0:0:0:
443,306,21163,2,0,L|363:315,1,60,6|0,3:0|3:0,2:0:0:0:
298,344,21491,6,0,L|286:254,1,90,2|0,3:2|2:0,2:0:0:0:
250,227,21819,1,8,3:1:0:0:
160,235,21983,6,0,L|168:299,2,60,4|4|0,3:0|3:0|3:0,2:0:0:0:
149,145,22475,2,0,P|119:126|96:98,1,60,6|0,3:0|3:0,2:0:0:0:
13,121,22802,2,0,P|14:85|27:51,1,60,4|0,3:0|3:0,2:0:0:0:
99,16,23130,2,0,P|146:31|183:79,1,90,8|0,3:1|2:0,2:0:0:0:
210,86,23458,5,4,3:0:0:0:
297,64,23622,1,8,3:2:0:0:
384,42,23786,2,0,L|393:108,1,60,4|0,3:0|2:0,2:0:0:0:
401,146,24032,1,0,3:0:0:0:
402,147,24114,2,0,P|431:143|460:149,1,60,4|4,3:0|3:0,2:0:0:0:
484,234,24442,2,0,P|454:237|425:231,1,60,8|4,3:1|3:0,2:0:0:0:
337,209,24770,6,0,L|324:312,1,90,4|0,3:0|2:0,2:0:0:0:
320,343,25098,1,6,3:0:0:0:
145,384,25425,2,0,L|132:280,1,90,6|0,3:0|2:0,2:0:0:0:
128,250,25753,1,8,3:1:0:0:
111,70,26081,6,0,P|60:87|39:139,1,90,2|0,3:2|2:0,2:0:0:0:
58,158,26409,2,0,L|129:166,1,60,6|0,3:0|3:0,2:0:0:0:
207,179,26737,2,0,L|220:67,1,90,2|0,3:2|2:0,2:0:0:0:
227,45,27065,2,0,P|256:52|284:81,1,60,8|4,3:1|3:0,2:0:0:0:
304,158,27393,6,0,L|296:217,2,60,4|8|6,3:0|3:1|3:0,2:0:0:0:
455,60,28048,2,0,L|447:-3,2,60,6|0|8,3:0|3:0|3:1,2:0:0:0:
476,239,28704,5,6,3:0:0:0:
400,287,28868,1,0,3:0:0:0:
324,335,29032,2,0,L|252:326,1,60,4|0,3:0|3:0,2:0:0:0:
188,377,29360,2,0,L|116:385,1,60,4|4,3:0|3:0,2:0:0:0:
85,305,29688,2,0,P|74:265|28:192,2,120,8|4|6,3:1|3:0|3:0,2:0:0:0:
239,211,30671,6,0,P|260:171|275:155,1,60,6|0,3:0|3:0,2:0:0:0:
342,106,30999,1,8,3:2:0:0:
342,106,31081,1,8,2:0:0:0:
342,106,31163,1,8,2:0:0:0:
318,22,31327,1,8,2:1:0:0:
476,307,31983,6,0,L|505:310,2,30,0|0|0,2:0|2:0|2:0,2:0:0:0:
427,237,32311,2,0,P|396:277|391:305,1,60,8|0,2:0|2:0,2:0:0:0:
363,364,32639,1,0,2:0:0:0:
363,364,32802,1,0,2:0:0:0:
363,363,32966,2,0,P|337:348|318:326,1,60,2|0,3:2|2:0,2:0:0:0:
293,245,33294,2,0,L|221:253,1,60,0|0,2:0|2:0,2:0:0:0:
149,263,33622,1,8,2:0:0:0:
30,144,33950,6,0,L|0:147,2,30,0|0|0,2:0|2:0|2:0,2:0:0:0:
67,68,34278,2,0,L|136:76,1,60,2|0,3:2|2:0,2:0:0:0:
210,82,34606,2,0,L|279:90,1,60,0|0,2:0|2:0,2:0:0:0:
339,41,34934,1,8,2:0:0:0:
339,41,35098,1,0,2:0:0:0:
339,41,35261,2,0,L|402:33,1,60,0|8,2:0|2:0,2:0:0:0:
413,116,35589,2,0,L|353:123,1,60,2|8,3:2|2:0,2:0:0:0:
285,173,35917,2,0,L|255:170,2,30,0|0|0,2:0|2:0|2:0,2:0:0:0:
342,235,36245,1,8,2:0:0:0:
175,212,36573,6,0,P|151:244|145:276,1,60,0|0,2:0|2:0,2:0:0:0:
136,346,36901,2,0,B|78:338|78:338|74:341|74:341|17:334,2,120,2|0|8,3:2|2:0|2:0,2:0:0:0:
303,361,37884,2,0,P|333:346|350:319,1,60,0|0,2:0|2:0,2:0:0:0:
431,336,38212,2,0,P|433:302|418:274,1,60,2|0,3:2|2:0,2:0:0:0:
358,223,38540,1,0,2:0:0:0:
358,223,38704,1,0,2:0:0:0:
358,223,38868,1,8,2:0:0:0:
496,128,39196,6,0,P|482:153|479:169,2,30,0|0|0,2:0|2:0|2:0,2:0:0:0:
465,49,39524,2,0,L|401:41,1,60,2|0,3:2|2:0,2:0:0:0:
368,117,39852,2,0,L|304:124,1,60,0|0,2:0|2:0,2:0:0:0:
231,89,40179,1,8,2:0:0:0:
76,21,40507,6,0,L|135:27,1,60,0|8,2:0|2:0,2:0:0:0:
101,104,40835,2,0,L|93:167,1,60,2|8,3:2|2:0,2:0:0:0:
81,246,41163,2,0,L|76:285,2,30,0|0|0,2:0|2:0|2:0,2:0:0:0:
15,195,41491,1,8,2:0:0:0:
181,215,41819,6,0,L|174:278,1,60,2|0,3:2|2:0,2:0:0:0:
166,358,42147,2,2,B|192:378|192:378|375:356,1,210,0|0,3:2|2:0,2:0:0:0:
408,348,42802,1,12,3:2:0:0:
504,210,43130,6,0,L|440:202,1,60,2|0,3:0|2:0,2:0:0:0:
360,214,43458,2,0,L|368:150,1,60,4|0,3:0|3:0,2:0:0:0:
379,70,43786,1,2,3:0:0:0:
305,31,43950,1,4,3:0:0:0:
237,81,44114,2,0,L|141:92,1,90,8|0,3:2|2:0,2:0:0:0:
114,65,44442,6,0,P|90:92|83:126,1,60,2|0,3:0|3:0,2:0:0:0:
1,132,44770,2,0,P|12:166|38:189,1,60,4|0,3:0|3:0,2:0:0:0:
111,199,45098,2,0,L|98:307,1,90,2|0,3:0|2:0,2:0:0:0:
94,329,45425,1,8,3:2:0:0:
268,375,45753,6,0,L|204:383,1,60,6|0,3:0|3:0,2:0:0:0:
200,292,46081,2,0,L|259:285,1,60,4|0,3:0|3:0,2:0:0:0:
342,322,46409,1,4,3:0:0:0:
431,336,46573,1,2,3:0:0:0:
474,257,46737,2,0,P|468:221|444:189,1,60,8|0,3:2|3:0,2:0:0:0:
372,205,47065,6,0,L|364:141,1,60,6|0,3:0|3:0,2:0:0:0:
377,62,47393,1,4,3:0:0:0:
451,27,47557,2,0,L|538:16,2,60,0|2|0,3:0|3:0|3:0,2:0:0:0:
377,62,48048,2,0,L|265:48,1,90,8|0,3:2|2:0,2:0:0:0:
245,43,48376,6,0,P|212:55|189:76,1,60,6|0,3:0|3:0,2:0:0:0:
158,148,48704,1,4,3:0:0:0:
75,130,48868,1,0,3:0:0:0:
10,183,49032,2,0,P|31:211|42:307,1,120,2|8,3:0|3:2,2:0:0:0:
186,384,49688,5,2,3:0:0:0:
190,300,49852,1,0,3:0:0:0:
272,321,50016,2,0,L|335:313,1,60,4|0,3:0|3:0,2:0:0:0:
400,362,50343,2,0,P|414:324|462:291,1,90,2|0,3:0|2:0,2:0:0:0:
492,282,50671,1,8,3:2:0:0:
496,114,50999,6,0,L|488:173,1,60,6|0,3:0|3:0,2:0:0:0:
405,191,51327,1,4,3:0:0:0:
365,116,51491,1,0,3:0:0:0:
291,75,51655,2,0,L|283:16,2,60,6|4|8,3:0|3:0|2:0,2:0:0:0:
111,90,52311,6,0,L|107:119,3,30,4|4|4|4,3:0|2:3|3:0|2:3,2:0:0:0:
98,164,52639,1,6,3:0:0:0:
10,184,52802,1,0,3:0:0:0:
71,250,52966,2,0,L|74:279,2,30,2|0|0,3:2|3:0|3:0,2:0:0:0:
159,270,53294,5,8,3:2:0:0:
124,353,53458,2,0,L|44:362,2,60,4|4|0,3:0|3:0|3:0,2:0:0:0:
159,270,53950,2,0,L|222:262,1,60,4|0,3:0|3:0,2:0:0:0:
308,251,54278,1,2,3:0:0:0:
297,340,54442,1,0,3:0:0:0:
381,309,54606,2,0,L|440:316,1,60,8|4,3:2|3:0,2:0:0:0:
488,239,54934,2,0,L|520:261,2,30,0|0|0,3:0|3:0|3:0,2:0:0:0:
409,196,55261,5,4,3:0:0:0:
386,108,55425,1,0,3:0:0:0:
363,20,55589,2,0,P|322:28|271:66,1,90,2|0,3:2|2:0,2:0:0:0:
249,86,55917,1,8,3:2:0:0:
90,3,56245,5,4,3:0:0:0:
101,92,56409,1,8,3:2:0:0:
18,127,56573,2,0,L|10:190,1,60,6|0,3:0|3:0,2:0:0:0:
0,276,56901,2,0,L|59:268,1,60,6|4,3:0|3:0,2:0:0:0:
149,257,57229,2,0,L|156:320,1,60,8|4,2:0|3:0,2:0:0:0:
235,360,57557,5,2,3:2:0:0:
246,271,57720,1,0,3:0:0:0:
257,182,57884,2,0,P|285:163|320:164,1,60,6|0,3:0|2:0,2:0:0:0:
400,170,58212,2,0,L|431:173,2,30,2|0|0,3:2|3:0|3:0,2:0:0:0:
310,161,58540,5,8,3:2:0:0:
299,72,58704,1,4,3:0:0:0:
354,1,58868,2,0,L|433:10,1,60,4|8,3:0|3:2,2:0:0:0:
358,79,59196,2,0,L|298:71,1,60,4|0,3:0|3:0,2:0:0:0:
225,18,59524,2,0,L|165:25,1,60,4|0,3:0|3:0,2:0:0:0:
93,80,59852,1,8,3:2:0:0:
10,43,60016,1,4,3:0:0:0:
28,311,60507,6,0,L|88:304,1,60,4|0,3:0|3:0,2:0:0:0:
176,293,60835,1,0,3:0:0:0:
265,282,60999,1,4,3:0:0:0:
315,356,61163,2,0,P|344:323|354:294,2,60,8|4|6,3:2|3:0|3:0,2:0:0:0:
265,282,61655,1,0,3:0:0:0:
331,221,61819,2,0,L|402:229,1,60,6|0,3:0|3:0,2:0:0:0:
480,222,62147,2,0,P|465:180|445:157,1,60,6|4,3:0|3:0,2:0:0:0:
373,131,62475,2,0,L|365:71,1,60,8|8,3:2|3:2,2:0:0:0:
430,8,62802,1,8,3:2:0:0:
284,56,63130,6,0,B|238:50|238:50|232:45|232:45|173:38,1,102.000001945496,0|0,3:0|2:0,2:0:0:0:
32,19,63786,1,8,2:0:0:0:
0,169,64114,6,0,B|45:163|45:163|51:158|51:158|110:151,1,102.000001945496,2|0,2:0|3:0,2:0:0:0:
237,220,64770,2,0,L|181:226,1,51.0000009727478,0|0,2:0|2:0,2:0:0:0:
110,240,65098,2,0,P|93:257|76:303,2,51.0000009727478,8|0|0,2:1|2:0|2:0,2:0:0:0:
219,347,65753,6,0,L|322:359,1,102.000001945496,0|0,3:0|2:0,2:0:0:0:
472,376,66409,1,8,2:0:0:0:
510,227,66737,6,0,L|408:239,1,102.000001945496,2|0,2:0|3:0,2:0:0:0:
256,254,67393,2,0,L|247:182,1,51.0000009727478,0|0,2:0|2:0,2:0:0:0:
308,154,67720,2,0,L|316:82,1,51.0000009727478,8|0,2:1|2:0,2:0:0:0:
329,28,68048,2,0,P|366:19|388:21,2,51.0000009727478,0|0|0,2:0|2:0|3:0,2:0:0:0:
182,73,68704,2,0,P|136:72|93:23,1,102.000001945496,0|8,2:0|2:0,2:0:0:0:
48,180,69360,6,0,B|29:201|29:201|18:289,1,102.000001945496,2|0,2:0|3:0,2:0:0:0:
308,375,70343,6,0,L|301:319,1,51.0000009727478,8|0,2:1|2:0,2:0:0:0:
293,247,70671,2,0,L|343:253,1,51.0000009727478,0|0,2:0|2:0,2:0:0:0:
420,259,70999,2,0,L|431:163,1,76.5000014591217,0|0,3:0|2:0,2:0:0:0:
464,166,71327,2,0,P|436:102|422:93,1,76.5000014591217,0|0,2:0|2:0,2:0:0:0:
399,80,71655,1,8,2:0:0:0:
247,55,71983,6,0,L|240:0,2,51.0000009727478,2|0|0,2:0|2:0|3:0,2:0:0:0:
94,76,72639,2,0,L|87:131,1,51.0000009727478,2|8,3:2|3:2,2:0:0:0:
33,180,72966,2,0,P|17:184|-1:202,2,25.5000004863739,8|8|8,3:1|3:1|3:1,2:0:0:0:
121,199,73294,6,0,B|146:210|149:227|149:227|142:290,1,90,8|0,3:1|2:0,2:0:0:0:
134,319,73622,2,0,P|160:341|195:347,1,60,6|0,3:0|2:0,2:0:0:0:
266,309,73950,2,0,P|292:287|327:281,1,60,2|0,3:2|3:0,2:0:0:0:
405,290,74278,1,8,3:1:0:0:
494,300,74442,6,0,L|501:363,2,60,4|4|0,3:0|3:0|3:0,2:0:0:0:
405,290,74934,2,0,L|397:227,1,60,6|0,3:0|3:0,2:0:0:0:
473,182,75261,2,0,P|484:155|504:130,1,60,6|0,3:0|3:0,2:0:0:0:
431,75,75589,2,0,P|417:45|352:20,1,90,8|0,3:1|2:0,2:0:0:0:
323,28,75917,5,0,3:0:0:0:
257,88,76081,1,8,2:0:0:0:
175,50,76245,2,0,P|147:55|116:54,1,60,4|0,3:0|3:0,2:0:0:0:
70,50,76491,1,0,3:0:0:0:
70,50,76573,2,0,L|61:121,1,60,4|4,3:0|3:0,2:0:0:0:
0,175,76901,2,0,L|8:246,1,60,8|4,3:1|3:0,2:0:0:0:
79,289,77229,6,0,B|93:279|93:279|117:186,1,90,4|0,3:0|2:0,2:0:0:0:
123,165,77557,1,6,3:0:0:0:
268,60,77884,6,0,B|281:50|281:50|376:66,1,90,6|0,3:0|2:0,2:0:0:0:
399,70,78212,1,8,3:1:0:0:
500,219,78540,6,0,L|396:206,1,90,2|0,3:2|2:0,2:0:0:0:
365,202,78868,2,0,P|344:224|342:269,1,60,6|0,3:0|2:0,2:0:0:0:
353,341,79196,2,0,L|249:353,1,90,2|0,3:2|2:0,2:0:0:0:
218,358,79524,2,0,P|197:336|195:291,1,60,8|4,3:1|3:0,2:0:0:0:
197,217,79852,6,0,L|205:145,2,60,4|8|6,3:0|3:2|3:0,2:0:0:0:
52,324,80507,2,0,L|60:395,2,60,2|0|8,3:0|3:0|3:1,2:0:0:0:
36,144,81163,5,4,3:0:0:0:
125,155,81327,1,0,3:0:0:0:
173,79,81491,2,0,L|236:71,1,60,4|0,3:0|3:0,2:0:0:0:
322,58,81819,2,0,L|385:50,1,60,4|4,3:0|3:0,2:0:0:0:
446,113,82147,2,0,P|461:64|509:7,2,120,8|4|6,3:1|3:0|3:0,2:0:0:0:
498,285,83130,6,0,P|457:267|431:263,1,60,6|0,3:0|3:0,2:0:0:0:
351,265,83458,1,8,3:1:0:0:
351,265,83540,1,0,3:0:0:0:
351,265,83622,1,8,3:1:0:0:
337,354,83786,6,0,P|290:371|240:372,1,90,2|0,3:2|2:0,2:0:0:0:
204,369,84114,2,0,L|211:305,1,60,6|0,3:0|3:0,2:0:0:0:
220,219,84442,2,0,P|173:202|123:201,1,90,2|0,3:2|2:0,2:0:0:0:
88,205,84770,1,8,3:1:0:0:
55,288,84934,6,0,L|62:351,2,60,4|4|0,3:0|3:0|3:0,2:0:0:0:
88,205,85425,2,0,L|98:125,1,60,6|0,3:0|2:0,2:0:0:0:
44,70,85753,2,0,P|76:52|120:50,1,60,4|0,3:0|3:0,2:0:0:0:
173,98,86081,2,0,P|209:110|269:107,1,90,8|0,3:1|2:0,2:0:0:0:
286,71,86409,5,4,3:0:0:0:
376,82,86573,1,8,3:2:0:0:
466,93,86737,2,0,L|475:172,1,60,4|0,3:0|3:0,2:0:0:0:
438,182,86983,1,0,3:0:0:0:
438,182,87065,2,0,L|428:261,1,60,4|4,3:0|3:0,2:0:0:0:
448,330,87393,2,0,L|368:320,1,60,8|4,3:1|3:0,2:0:0:0:
310,368,87720,6,0,B|304:325|304:325|301:320|301:320|295:274,1,90,4|0,3:0|2:0,2:0:0:0:
289,234,88048,1,6,3:0:0:0:
115,187,88376,2,0,B|109:229|109:229|106:234|106:234|100:280,1,90,6|0,3:0|2:0,2:0:0:0:
94,321,88704,1,8,3:1:0:0:
252,236,89032,6,0,P|231:183|202:163,1,90,2|0,3:2|2:0,2:0:0:0:
160,156,89360,2,0,L|96:148,1,60,6|0,3:0|2:0,2:0:0:0:
10,138,89688,2,0,P|31:85|60:65,1,90,2|0,3:2|2:0,2:0:0:0:
102,58,90016,2,0,L|165:50,1,60,8|4,3:1|3:0,2:0:0:0:
251,25,90343,6,0,L|244:85,2,60,4|8|6,3:0|3:1|3:0,2:0:0:0:
428,59,90999,2,0,L|420:0,2,60,6|0|8,3:0|3:0|3:1,2:0:0:0:
449,238,91655,5,6,3:0:0:0:
360,227,91819,1,0,3:0:0:0:
289,282,91983,2,0,P|258:296|242:324,1,60,4|0,3:0|3:0,2:0:0:0:
153,311,92311,2,0,P|155:344|171:371,1,60,4|4,3:0|3:0,2:0:0:0:
244,317,92639,2,0,L|228:189,2,120,8|4|6,3:1|3:0|3:0,2:0:0:0:
73,258,93622,6,0,L|82:178,1,60,6|4,3:0|3:0,2:0:0:0:
91,109,93950,1,8,3:2:0:0:
91,109,94032,1,0,3:0:0:0:
91,109,94114,1,8,3:2:0:0:
38,36,94278,1,2,3:2:0:0:
446,55,94934,6,0,L|493:49,2,30,0|0|0,1:0|2:0|2:0,2:0:0:0:
363,38,95261,2,0,L|370:101,1,60,8|0,2:0|2:0,2:0:0:0:
443,139,95589,1,2,2:0:0:0:
443,139,95753,1,0,2:0:0:0:
443,139,95917,2,0,L|450:202,1,60,0|0,3:0|2:0,2:0:0:0:
463,281,96245,1,0,3:0:0:0:
303,333,96573,6,0,L|310:273,1,60,8|0,2:0|2:0,2:0:0:0:
236,232,96901,1,2,1:2:0:0:
236,232,97065,1,0,2:0:0:0:
236,232,97229,2,0,L|228:295,1,60,0|0,3:0|2:0,2:0:0:0:
216,374,97557,1,0,3:0:0:0:
49,352,97884,6,0,P|70:313|104:300,1,60,8|0,2:0|2:0,2:0:0:0:
140,244,98212,1,2,1:2:0:0:
140,244,98376,1,0,2:0:0:0:
140,244,98540,2,0,L|148:172,1,60,0|0,3:0|2:0,2:0:0:0:
79,133,98868,2,0,L|83:93,2,30,0|0|0,3:0|2:0|2:0,2:0:0:0:
147,184,99196,6,0,P|185:177|209:156,1,60,8|0,2:0|2:0,2:0:0:0:
215,81,99524,1,2,1:2:0:0:
215,81,99688,1,0,2:0:0:0:
215,81,99852,2,0,L|223:9,1,60,0|0,3:0|2:0,2:0:0:0:
303,1,100179,1,0,3:0:0:0:
433,106,100507,6,0,L|369:98,1,60,8|0,2:0|2:0,2:0:0:0:
293,124,100835,1,2,1:2:0:0:
293,124,100999,1,0,2:0:0:0:
293,124,101163,2,0,L|285:188,1,60,0|0,3:0|2:0,2:0:0:0:
273,267,101491,1,0,3:0:0:0:
393,384,101819,6,0,L|401:320,1,60,8|0,2:0|2:0,2:0:0:0:
332,274,102147,1,2,1:2:0:0:
332,274,102311,1,0,2:0:0:0:
332,274,102475,2,0,L|268:266,1,60,0|0,3:0|2:0,2:0:0:0:
189,254,102802,1,0,3:0:0:0:
33,317,103130,6,0,P|63:296|74:259,1,60,8|0,2:0|2:0,2:0:0:0:
61,193,103458,1,0,0:0:0:0:
61,193,103622,1,0,0:0:0:0:
61,193,103786,2,0,L|51:113,1,60,0|0,3:0|2:0,2:0:0:0:
43,49,104114,1,0,3:0:0:0:
203,0,104442,6,0,L|194:66,1,60,8|8,3:2|3:2,2:0:0:0:
250,124,104770,1,4,3:0:0:0:
250,124,104934,1,8,3:1:0:0:
325,86,105098,2,0,P|366:67|414:72,1,90,6|0,3:0|2:0,2:0:0:0:
448,92,105425,2,0,B|438:171|438:171|449:213|449:213|437:308,1,210,2|0,3:2|2:0,2:0:0:0:
432,344,106081,1,4,3:0:0:0:
345,365,106245,1,8,3:2:0:0:
283,299,106409,1,4,3:0:0:0:
105,326,106737,6,0,L|176:334,1,60,2|0,3:0|3:0,2:0:0:0:
179,243,107065,2,0,L|119:235,1,60,8|4,3:1|3:0,2:0:0:0:
32,260,107393,2,0,L|-15:254,2,30,0|0|0,3:0|3:0|3:0,2:0:0:0:
119,235,107720,2,0,P|103:181|67:156,1,90,6|0,3:0|2:0,2:0:0:0:
32,155,108048,2,0,P|16:74|132:73,1,210,2|0,3:2|2:0,2:0:0:0:
150,88,108704,1,4,3:0:0:0:
240,77,108868,1,8,3:2:0:0:
328,66,109032,1,4,3:0:0:0:
480,10,109360,5,2,3:0:0:0:
480,10,109442,1,0,3:0:0:0:
480,10,109524,1,4,3:0:0:0:
392,4,109688,1,8,2:1:0:0:
328,66,109852,2,0,L|264:58,2,60,0|4|0,3:0|3:0|3:0,2:0:0:0:
416,80,110343,2,0,L|429:191,1,90,6|0,3:0|2:0,2:0:0:0:
433,214,110671,2,0,B|332:226|332:226|328:230|328:230|223:243,1,210,2|0,3:2|2:0,2:0:0:0:
181,250,111327,1,4,3:0:0:0:
136,328,111491,1,8,3:2:0:0:
226,329,111655,1,4,3:0:0:0:
136,171,111983,6,0,L|72:163,1,60,2|0,3:0|3:0,2:0:0:0:
23,90,112311,2,0,L|82:82,1,60,8|4,3:1|3:0,2:0:0:0:
172,72,112639,1,0,3:0:0:0:
172,72,112720,1,0,3:0:0:0:
172,72,112802,1,0,3:0:0:0:
261,62,112966,2,0,P|290:34|347:41,1,90,6|0,3:0|2:0,2:0:0:0:
375,60,113294,2,0,B|410:96|470:92|470:92|517:130|503:200,1,210,2|0,3:2|2:0,2:0:0:0:
499,232,113950,1,0,3:2:0:0:
409,243,114114,1,8,3:2:0:0:
361,335,114278,6,0,B|353:321|338:316|338:316|311:324|311:324|229:312,1,107.999996704102,4|0,3:2|2:0,2:0:0:0:
216,311,114606,6,0,P|184:327|160:367,1,60,0|0,3:0|2:0,2:0:0:0:
81,370,114934,2,0,P|59:349|46:322,1,60,0|0,3:2|2:0,2:0:0:0:
58,233,115261,1,0,3:0:0:0:
141,73,115589,6,0,P|104:73|77:80,1,60,6|0,3:0|2:0,2:0:0:0:
29,149,115917,2,0,L|0:145,2,30,0|0|0,3:0|3:0|3:0,2:0:0:0:
118,159,116245,2,0,L|177:166,1,60,8|4,3:2|3:0,2:0:0:0:
267,177,116573,1,4,3:0:0:0:
267,177,116737,1,0,3:0:0:0:
314,100,116901,6,0,L|377:92,1,60,4|0,3:0|3:0,2:0:0:0:
442,33,117229,1,2,3:0:0:0:
453,123,117393,1,0,3:0:0:0:
488,205,117557,2,0,L|384:192,1,90,8|0,3:1|2:0,2:0:0:0:
353,189,117884,2,0,P|338:229|346:262,1,60,0|0,3:0|3:0,2:0:0:0:
357,334,118212,6,0,L|253:346,1,90,4|0,3:0|2:0,2:0:0:0:
232,316,118540,2,0,L|152:306,1,60,0|4,3:0|3:0,2:0:0:0:
82,295,118868,5,8,3:2:0:0:
143,360,119032,2,0,P|160:335|172:308,1,60,4|4,3:0|3:0,2:0:0:0:
142,222,119360,1,8,3:2:0:0:
63,177,119524,2,0,P|45:152|34:124,1,60,6|0,3:0|3:0,2:0:0:0:
68,40,119852,5,6,3:0:0:0:
68,40,119934,1,0,3:0:0:0:
68,40,120016,1,4,3:0:0:0:
156,25,120179,2,0,P|142:97|120:132,1,90,8|0,3:2|2:0,2:0:0:0:
165,144,120507,2,0,L|228:136,1,60,6|0,3:0|2:0,2:0:0:0:
293,78,120835,2,0,L|356:85,1,60,6|0,3:0|3:0,2:0:0:0:
423,29,121163,2,0,L|417:-18,2,30,0|0|0,3:0|3:0|3:0,2:0:0:0:
501,73,121491,5,8,3:1:0:0:
439,138,121655,1,4,3:0:0:0:
439,138,121819,2,0,L|446:201,1,60,4|0,3:0|3:0,2:0:0:0:
488,277,122147,2,0,P|401:258|393:266,1,90,4|0,3:0|2:0,2:0:0:0:
371,272,122475,5,4,3:0:0:0:
393,359,122639,1,0,3:0:0:0:
304,347,122802,2,0,B|262:342|262:342|257:339|257:339|208:333,1,90,8|0,3:2|2:0,2:0:0:0:
170,326,123130,1,2,3:0:0:0:
170,326,123212,1,0,3:0:0:0:
170,326,123294,1,0,3:0:0:0:
86,359,123458,6,0,P|79:320|87:289,1,60,4|0,3:0|3:2,2:0:0:0:
10,245,123786,2,0,P|40:219|71:210,1,60,0|4,3:0|3:0,2:0:0:0:
70,122,124114,2,0,P|107:135|130:157,1,60,8|4,3:2|3:0,2:0:0:0:
59,212,124442,5,4,3:0:0:0:
70,122,124606,1,0,3:0:0:0:
112,42,124770,2,0,P|154:59|192:90,1,90,6|0,3:0|2:0,2:0:0:0:
217,122,125098,1,6,3:0:0:0:
217,122,125179,1,0,3:0:0:0:
217,122,125261,1,4,3:0:0:0:
293,75,125425,6,0,L|352:67,1,60,8|4,3:2|3:0,2:0:0:0:
424,12,125753,1,2,3:2:0:0:
435,101,125917,1,0,3:0:0:0:
489,172,126081,6,0,P|452:183|428:218,1,76.5000014591217,0|0,3:0|2:0,2:0:0:0:
432,250,126409,2,0,L|437:297,2,25.5000004863739,0|0|0,2:0|2:0|2:0,2:0:0:0:
355,259,126737,1,8,2:0:0:0:
256,377,127065,6,0,L|152:364,1,102.000001945496,2|0,2:0|3:0,2:0:0:0:
48,255,127720,2,0,P|77:247|96:230,1,51.0000009727478,0|0,2:0|2:0,2:0:0:0:
107,158,128048,2,0,L|100:102,1,51.0000009727478,8|0,2:0|2:0,2:0:0:0:
24,117,128376,2,0,L|28:156,2,25.5000004863739,2|0|0,2:0|2:0|2:0,2:0:0:0:
11,41,128704,6,0,B|57:35|57:35|63:30|63:30|122:23,1,102.000001945496,0|0,3:0|2:0,2:0:0:0:
263,4,129360,1,8,2:0:0:0:
370,113,129688,6,0,B|324:107|324:107|318:102|318:102|259:95,1,102.000001945496,2|0,2:0|3:0,2:0:0:0:
122,138,130343,2,0,P|110:148|106:163,2,25.5000004863739,0|0|0,2:0|2:0|2:0,2:0:0:0:
197,125,130671,2,0,P|220:159|225:190,1,51.0000009727478,8|0,2:0|2:0,2:0:0:0:
297,184,130999,2,0,P|279:220|254:240,1,51.0000009727478,2|0,2:0|2:0,2:0:0:0:
196,242,131327,6,0,L|207:337,1,76.5000014591217,0|0,3:0|2:0,2:0:0:0:
210,356,131655,2,0,L|178:359,2,25.5000004863739,0|0|0,2:0|2:0|2:0,2:0:0:0:
286,350,131983,1,8,2:0:0:0:
435,381,132311,6,0,L|448:274,1,102.000001945496,2|0,2:0|3:0,2:0:0:0:
471,128,132966,1,0,2:0:0:0:
359,23,133294,6,0,L|365:73,1,51.0000009727478,8|0,2:0|2:0,2:0:0:0:
378,149,133622,2,0,L|384:199,1,51.0000009727478,2|0,2:0|2:0,2:0:0:0:
335,259,133950,2,0,P|285:273|245:319,2,102.000001945496,0|0|8,3:0|2:0|2:0,2:0:0:0:
462,345,134934,6,0,P|434:356|399:357,1,51.0000009727478,2|0,2:0|2:0,2:0:0:0:
337,350,135261,1,0,3:0:0:0:
246,226,135589,2,0,P|218:215|183:214,1,51.0000009727478,0|0,3:0|3:0,2:0:0:0:
120,221,135917,1,8,3:1:0:0:
120,221,135999,1,8,3:1:0:0:
120,221,136081,1,8,3:1:0:0:
37,257,136245,5,8,3:1:0:0:
48,168,136409,1,8,3:2:0:0:
59,79,136573,6,0,L|122:71,1,45.0000017166138,4|0,3:0|2:0,2:0:0:0:
181,36,136901,2,0,L|190:115,1,67.5000025749207,2|0,2:0|2:0,2:0:0:0:
196,145,137229,1,0,3:0:0:0:
281,138,137393,2,0,L|287:82,2,45.0000017166138,0|2|0,2:0|2:0|2:0,2:0:0:0:
270,222,137884,1,0,3:0:0:0:
430,161,138212,5,8,2:0:0:0:
451,340,138540,1,8,3:1:0:0:
281,318,138868,6,0,P|260:336|248:359,1,45.0000017166138,2|0,2:0|2:0,2:0:0:0:
165,360,139196,2,0,P|154:323|123:295,1,67.5000025749207,0|0,3:0|2:0,2:0:0:0:
100,276,139524,2,0,L|52:281,1,45.0000017166138,2|0,2:0|2:0,2:0:0:0:
44,196,139852,2,0,L|88:190,1,45.0000017166138,0|0,3:2|2:0,2:0:0:0:
173,184,140179,6,0,L|183:96,1,67.5000025749207,2|0,2:0|2:0,2:0:0:0:
188,74,140507,1,0,3:0:0:0:
342,1,140835,2,0,L|352:88,1,67.5000025749207,2|0,2:0|2:0,2:0:0:0:
357,111,141163,1,0,3:0:0:0:
505,212,141491,6,0,P|469:195|440:195,1,67.5000025749207,2|0,2:0|2:0,2:0:0:0:
399,202,141819,2,0,L|391:262,1,45.0000017166138,0|0,3:0|2:0,2:0:0:0:
385,335,142147,2,0,P|349:352|320:352,1,67.5000025749207,2|0,2:0|2:0,2:0:0:0:
279,345,142475,2,0,L|271:284,1,45.0000017166138,0|0,3:0|2:0,2:0:0:0:
260,211,142802,6,0,L|254:163,2,45.0000017166138,2|0|0,2:0|2:0|3:0,2:0:0:0:
133,339,143458,2,0,L|127:386,2,45.0000017166138,2|0|0,2:0|2:0|3:0,2:0:0:0:
46,180,144114,5,2,2:0:0:0:
46,180,144278,1,0,2:0:0:0:
46,180,144442,2,0,P|57:162|74:145,1,45.0000017166138,0|0,3:0|2:0,2:0:0:0:
69,54,144770,2,0,P|90:54|113:60,1,45.0000017166138,2|0,2:0|2:0,2:0:0:0:
161,137,145098,2,0,L|148:240,2,90.0000034332277,0|2|0,3:0|2:0|3:0,2:0:0:0:
277,0,146081,6,0,L|340:7,1,45.0000017166138,2|0,2:0|2:0,2:0:0:0:
411,14,146409,2,0,L|474:21,1,45.0000017166138,0|0,3:0|2:0,2:0:0:0:
507,93,146737,2,0,L|435:101,1,67.5000025749207,2|0,2:0|2:0,2:0:0:0:
395,109,147065,1,6,3:0:0:0:
244,207,147393,2,0,L|344:219,1,90,0|0,3:0|2:0,2:0:0:0:
378,224,147720,1,8,2:0:0:0:
453,176,147884,6,0,L|524:184,2,60,4|2|0,3:0|3:2|2:0,2:0:0:0:
378,224,148376,1,4,3:0:0:0:
228,324,148704,2,0,L|168:331,1,60,2|0,3:0|2:0,2:0:0:0:
78,342,149032,1,8,2:1:0:0:
1,179,149360,6,0,P|20:155|35:115,1,60,2|0,3:2|2:3,2:0:0:0:
48,39,149688,2,0,P|69:88|98:119,1,90,4|0,3:0|2:0,2:0:0:0:
138,112,150016,2,0,L|201:104,1,60,2|4,3:0|3:0,2:0:0:0:
286,115,150343,2,0,L|278:56,1,60,8|0,3:2|2:3,2:0:0:0:
363,26,150671,6,0,L|376:129,1,90,0|0,3:1|2:0,2:0:0:0:
379,161,150999,1,6,3:0:0:0:
470,316,151327,2,0,L|483:212,1,90,2|0,3:0|2:0,2:0:0:0:
486,181,151655,1,8,2:1:0:0:
307,206,151983,6,0,P|256:213|224:245,1,90,6|0,3:0|2:0,2:0:0:0:
237,282,152311,2,0,L|246:361,1,60,6|0,3:0|2:0,2:0:0:0:
155,359,152639,2,0,P|104:352|72:320,1,90,0|0,3:2|2:0,2:0:0:0:
85,283,152966,2,0,L|94:203,1,60,8|4,2:0|3:0,2:0:0:0:
103,134,153294,6,0,L|43:141,2,60,4|0|4,3:0|2:0|3:0,2:0:0:0:
243,20,153950,2,0,L|302:12,2,60,2|4|8,3:0|3:0|3:1,2:0:0:0:
198,195,154606,6,0,L|269:203,1,60,2|0,3:0|2:0,2:0:0:0:
342,172,154934,2,0,P|367:214|398:223,1,60,4|0,3:0|2:3,2:0:0:0:
458,254,155261,2,0,P|433:296|402:305,1,60,0|4,3:0|3:0,2:0:0:0:
335,315,155589,2,0,L|215:329,1,120,8|2,3:2|2:0,2:0:0:0:
36,352,156245,1,4,2:0:0:0:
