osu file format v14

[General]
AudioFilename: audio.mp3
AudioLeadIn: 0
PreviewTime: 10261
Countdown: 0
SampleSet: Soft
StackLeniency: 0.7
Mode: 0
LetterboxInBreaks: 0
WidescreenStoryboard: 1

[Editor]
Bookmarks: 10337,31649,42141,42796,52633,63124,73616,94600,105092,115583,126075,136567,147059,156239
DistanceSpacing: 0.8
BeatDivisor: 4
GridSize: 16
TimelineZoom: 1.32

[Metadata]
Title:Fortnite Drip
TitleUnicode:Fortnite Drip
Artist:FabvL
ArtistUnicode:FabvL
Creator:wafer
Version:Phynta's Normal
Source:
Tags:english video game hip-hop hip hop rap fortnite hiphop iwaifu hhjkl phynta yooh jamesjan3 blastthekidd kirito
BeatmapID:2409476
BeatmapSetID:1115216

[Difficulty]
HPDrainRate:3
CircleSize:3.2
OverallDifficulty:3.5
ApproachRate:5.5
SliderMultiplier:1.1
SliderTickRate:1

[Events]
//Background and Video events
0,0,"victory royale.jpg",0,0
//Break Periods
2,136773,145940
//Storyboard Layer 0 (Background)
//Storyboard Layer 1 (Fail)
//Storyboard Layer 2 (Pass)
//Storyboard Layer 3 (Foreground)
//Storyboard Layer 4 (Overlay)
//Storyboard Sound Samples

[TimingPoints]
180,327.868852459016,4,2,1,80,1,0
10999,-90.9090909090909,4,2,1,80,0,0
11327,-90.9090909090909,4,2,1,80,0,0
31983,-105.263157894737,4,2,2,50,0,0
40507,-105.263157894737,4,2,2,70,0,0
42802,-105.263157894737,4,2,1,60,0,0
53294,-95.2380952380952,4,2,1,60,0,0
63130,-95.2380952380952,4,2,2,50,0,0
64442,-105.263157894737,4,2,2,50,0,0
73294,-105.263157894737,4,2,1,80,0,0
73950,-90.9090909090909,4,2,1,80,0,0
94934,-90.9090909090909,4,2,2,52,0,0
95425,-105.263157894737,4,2,2,52,0,0
104442,-105.263157894737,4,2,1,52,0,0
104770,-105.263157894737,4,2,1,60,0,0
115589,-105.263157894737,4,2,1,80,0,0
115917,-95.2380952380952,4,2,1,80,0,0
126081,-133.333333333333,4,2,2,53,0,0
129196,-105.263157894737,4,2,2,53,0,0
135917,-105.263157894737,4,2,1,65,0,0
136245,-105.263157894737,4,2,1,70,0,0
147065,-100,4,2,1,67,0,0

[Colours]
Combo1 : 255,186,117
Combo2 : 253,235,172
Combo3 : 113,184,255
Combo4 : 255,170,213

[HitObjects]
488,226,10671,5,6,3:0:0:0:
385,251,10999,2,0,L|321:277,1,60.5000018463135,2|0,3:2|3:0,2:0:0:0:
300,313,11327,2,0,L|309:374,2,60.5000018463135,8|4|4,3:1|3:0|3:0,2:0:0:0:
204,297,11983,2,0,P|141:316|77:371,1,121.000003692627,6|6,3:0|3:0,2:0:0:0:
16,293,12639,1,8,3:1:0:0:
19,196,12966,6,0,L|14:128,1,60.5000018463135,0|8,3:0|2:0,2:0:0:0:
20,87,13294,1,4,3:0:0:0:
90,21,13622,1,4,3:0:0:0:
186,33,13950,2,0,P|231:39|255:35,2,60.5000018463135,8|4|4,3:1|3:0|3:0,2:0:0:0:
167,128,14606,2,0,B|193:203|161:191|180:264,2,121.000003692627,6|6|8,3:0|3:0|3:1,2:0:0:0:
258,97,15589,5,2,3:2:0:0:
334,156,15917,1,6,3:0:0:0:
429,172,16245,2,0,P|434:217|444:245,1,60.5000018463135,2|0,3:2|2:0,2:0:0:0:
450,278,16573,2,0,P|486:288|514:311,2,60.5000018463135,8|4|4,3:1|3:0|3:0,2:0:0:0:
360,314,17229,2,0,P|347:258|313:175,1,121.000003692627,6|2,3:0|3:0,2:0:0:0:
234,162,17884,1,8,3:1:0:0:
213,256,18212,5,4,3:0:0:0:
127,301,18540,2,0,P|96:324|56:329,2,60.5000018463135,4|0|4,3:0|3:0|3:0,2:0:0:0:
127,252,19032,1,4,3:0:0:0:
132,203,19196,1,8,3:1:0:0:
95,113,19524,1,4,3:0:0:0:
146,31,19852,2,0,B|156:-10|222:51|255:19|255:19|287:51|345:-13|372:28,1,242.000007385254,6|8,3:0|3:2,2:0:0:0:
332,113,20835,5,2,3:2:0:0:
369,202,21163,1,6,3:0:0:0:
325,288,21491,2,0,P|301:255|277:242,1,60.5000018463135,2|0,3:2|2:0,2:0:0:0:
236,240,21819,2,0,L|222:310,2,60.5000018463135,8|4|4,3:1|3:0|3:0,2:0:0:0:
229,143,22475,2,0,P|164:108|99:96,1,121.000003692627,6|4,3:0|3:0,2:0:0:0:
36,148,23130,1,8,3:1:0:0:
122,190,23458,6,0,L|128:258,1,60.5000018463135,4|8,3:0|3:2,2:0:0:0:
119,298,23786,1,4,3:0:0:0:
198,353,24114,1,4,3:0:0:0:
293,336,24442,2,0,P|334:349|370:355,2,60.5000018463135,8|4|4,3:1|3:0|3:0,2:0:0:0:
247,250,25098,2,0,B|204:200|253:186|184:127,2,121.000003692627,6|6|8,3:0|3:0|3:1,2:0:0:0:
342,234,26081,5,2,3:2:0:0:
424,285,26409,1,6,3:0:0:0:
347,344,26737,2,0,L|276:333,1,60.5000018463135,2|0,3:2|2:0,2:0:0:0:
240,349,27065,2,0,P|197:353|167:368,2,60.5000018463135,8|4|4,3:1|3:0|3:0,2:0:0:0:
256,254,27720,2,0,B|216:208|183:260|136:197,1,121.000003692627,6|6,3:0|3:0,2:0:0:0:
96,128,28376,1,8,3:1:0:0:
183,86,28704,5,6,3:0:0:0:
277,105,29032,2,0,P|272:66|286:17,2,60.5000018463135,4|0|4,3:0|3:0|3:0,2:0:0:0:
312,138,29524,1,4,3:0:0:0:
329,182,29688,1,8,3:1:0:0:
380,263,30016,1,4,3:0:0:0:
369,360,30343,2,0,B|345:397|287:332|255:364|255:364|222:332|156:394|146:353,1,242.000007385254,6|8,3:0|3:2,2:0:0:0:
54,104,31983,6,0,L|89:172,1,52.5269236047743,0|0,2:0|2:0,2:0:0:0:
107,179,32311,2,0,L|109:242,2,52.3675611047743,8|0|0,2:0|2:0|2:0,2:0:0:0:
176,131,32966,2,0,B|224:126|216:164|276:163,1,104.735122209549,2|0,3:2|2:0,2:0:0:0:
315,90,33622,1,8,2:0:0:0:
395,67,33950,1,0,2:0:0:0:
464,114,34278,2,0,P|480:174|479:187,1,52.5269236047743,2|0,3:2|2:0,2:0:0:0:
473,213,34606,2,0,P|442:224|419:241,2,52.3675611047743,0|0|8,2:0|2:0|2:0,2:0:0:0:
507,288,35261,1,0,2:0:0:0:
434,329,35589,2,0,P|381:344|335:321,1,104.735122209549,2|0,3:2|2:0,2:0:0:0:
261,289,36245,1,8,2:0:0:0:
193,339,36573,6,0,L|138:315,1,52.5269236047743,0|0,2:0|2:0,2:0:0:0:
135,277,36901,1,2,3:2:0:0:
112,196,37229,1,0,2:0:0:0:
58,131,37557,1,8,2:0:0:0:
103,61,37884,1,0,2:0:0:0:
184,41,38212,2,0,P|215:85|263:108,1,104.735122209549,2|0,3:2|2:0,2:0:0:0:
325,56,38868,1,8,2:0:0:0:
408,59,39196,1,0,2:0:0:0:
455,127,39524,2,0,P|480:132|522:123,2,52.2499986047745,2|0|0,3:2|2:0|2:0,2:0:0:0:
406,194,40179,1,8,2:0:0:0:
322,182,40507,1,0,2:0:0:0:
322,182,40671,1,8,2:0:0:0:
322,182,40835,2,0,B|282:230|271:192|225:237,1,104.735122209549,0|0,3:0|2:0,2:0:0:0:
190,303,41491,1,8,2:0:0:0:
251,359,41819,6,0,P|280:345|314:336,1,52.2499986047745,2|0,3:2|2:0,2:0:0:0:
505,376,42802,6,0,B|493:367|493:367|473:370|473:370|451:359|451:359|430:368|430:368|404:364,1,104.735122209549,12|2,3:2|3:0,2:0:0:0:
377,286,43458,1,4,3:0:0:0:
307,328,43786,1,2,3:0:0:0:
307,328,43950,1,4,3:0:0:0:
307,328,44114,2,0,P|268:361|209:366,1,104.735122209549,8|2,3:2|3:0,2:0:0:0:
140,332,44770,2,0,P|130:361|112:382,2,52.3675611047743,4|0|2,3:0|3:0|3:0,2:0:0:0:
83,270,45425,6,0,B|91:215|55:233|62:166,1,104.735122209549,8|6,3:2|3:0,2:0:0:0:
20,97,46081,1,4,3:0:0:0:
82,41,46409,1,2,3:0:0:0:
82,41,46573,1,4,3:0:0:0:
82,41,46737,2,0,P|126:49|192:21,1,104.735122209549,8|2,3:2|3:0,2:0:0:0:
245,83,47393,2,0,L|256:136,2,52.3675611047743,4|0|2,3:0|3:0|3:0,2:0:0:0:
293,14,48048,6,0,P|381:-3|417:-8,1,104.735122209549,8|6,3:2|3:0,2:0:0:0:
453,55,48704,1,4,3:0:0:0:
414,129,49032,1,2,3:0:0:0:
475,185,49360,2,0,B|447:235|477:235|450:285,1,104.735122209549,8|2,3:2|3:0,2:0:0:0:
369,305,50016,2,0,L|364:373,2,52.3675611047743,4|0|2,3:0|3:0|3:0,2:0:0:0:
309,245,50671,6,0,B|319:200|256:211|226:238,1,104.735122209549,8|6,3:2|3:0,2:0:0:0:
148,221,51327,1,4,3:0:0:0:
65,209,51655,1,2,3:0:0:0:
65,209,51819,1,0,3:0:0:0:
65,209,51983,1,8,2:0:0:0:
78,42,52639,5,6,3:0:0:0:
164,21,52966,1,2,3:2:0:0:
164,21,53130,1,0,3:0:0:0:
164,21,53294,2,0,P|208:42|274:30,1,115.75987147522,8|4,3:2|3:0,2:0:0:0:
362,57,53950,2,0,L|427:42,2,57.8799357376097,4|0|2,3:0|3:0|3:0,2:0:0:0:
298,124,54606,1,8,3:2:0:0:
271,212,54934,1,0,3:0:0:0:
245,300,55261,5,4,3:0:0:0:
174,360,55589,2,0,L|158:298,1,58.0560732376097,2|0,3:2|2:0,2:0:0:0:
122,276,55917,2,0,L|124:151,1,115.75987147522,8|4,3:2|3:0,2:0:0:0:
76,80,56573,2,0,L|9:56,2,57.8799357376097,6|0|2,3:0|3:0|3:0,2:0:0:0:
153,29,57229,1,8,2:0:0:0:
244,41,57557,1,2,3:2:0:0:
335,54,57884,5,6,3:0:0:0:
344,145,58212,2,0,P|347:180|379:210,1,58.0560732376097,2|0,3:2|3:0,2:0:0:0:
390,234,58540,2,0,P|435:248|493:200,1,115.75987147522,8|4,3:2|3:0,2:0:0:0:
481,120,59196,2,0,L|517:63,2,57.8799357376097,4|0|4,3:0|3:0|3:0,2:0:0:0:
400,73,59852,1,8,3:2:0:0:
314,106,60179,1,0,2:0:0:0:
231,148,60507,6,0,L|242:274,1,115.75987147522,4|0,3:0|3:0,2:0:0:0:
177,330,61163,2,0,L|43:288,1,115.75987147522,8|6,3:2|3:0,2:0:0:0:
73,202,61819,1,6,3:0:0:0:
108,172,61983,1,0,3:0:0:0:
143,142,62147,1,6,3:0:0:0:
231,116,62475,6,0,B|283:101|224:62|301:38|301:38|302:32|302:32|301:38|301:38|367:74|310:103|355:121,1,231.16746795044,8|0,3:2|3:0,2:0:0:0:
444,207,63622,1,0,2:0:0:0:
431,331,64114,1,2,2:0:0:0:
351,305,64442,2,0,L|251:353,1,104.735122209549,0|0,3:0|2:0,2:0:0:0:
172,350,65098,2,0,L|76:298,1,104.735122209549,8|0,2:1|2:0,2:0:0:0:
41,226,65753,1,0,3:0:0:0:
125,132,66245,1,0,2:0:0:0:
70,18,66737,1,2,2:0:0:0:
152,3,67065,2,0,P|207:20|251:52,1,104.735122209549,0|0,3:0|2:0,2:0:0:0:
296,112,67720,2,0,P|286:175|295:224,1,104.735122209549,8|0,2:1|2:0,2:0:0:0:
360,263,68376,5,0,3:0:0:0:
461,189,68868,1,0,2:0:0:0:
493,67,69360,1,2,2:0:0:0:
428,13,69688,2,0,P|381:51|342:16,1,104.735122209549,0|0,3:0|2:0,2:0:0:0:
265,27,70343,2,0,P|219:-4|177:16,1,104.735122209549,8|0,2:1|2:0,2:0:0:0:
132,84,70999,1,0,3:0:0:0:
144,209,71491,1,0,2:0:0:0:
158,332,71983,1,2,2:0:0:0:
423,123,73294,5,8,3:1:0:0:
474,56,73622,1,6,3:0:0:0:
389,8,73950,2,0,P|349:18|330:34,1,60.5000018463135,2|0,3:2|3:0,2:0:0:0:
303,67,74278,2,0,L|314:132,2,60.5000018463135,8|4|4,3:1|3:0|3:0,2:0:0:0:
206,52,74934,2,0,B|169:11|65:26|65:26,1,121.000003692627,6|6,3:0|3:0,2:0:0:0:
46,109,75589,1,8,3:1:0:0:
136,144,75917,6,0,L|145:216,1,60.5000018463135,0|8,3:0|2:0,2:0:0:0:
147,252,76245,1,4,3:0:0:0:
204,330,76573,1,4,3:0:0:0:
288,281,76901,2,0,P|325:265|354:268,1,60.5000018463135,8|4,3:1|3:0,2:0:0:0:
390,281,77229,1,4,3:0:0:0:
457,211,77557,2,0,B|487:193|480:157|445:155|472:80,2,121.000003692627,6|6|8,3:0|3:0|3:1,2:0:0:0:
365,177,78540,5,2,3:2:0:0:
271,203,78868,1,6,3:0:0:0:
225,117,79196,2,0,P|186:75|181:57,1,60.5000018463135,2|0,3:2|2:0,2:0:0:0:
164,29,79524,2,0,L|98:43,2,60.5000018463135,8|4|4,3:1|3:0|3:0,2:0:0:0:
260,6,80179,2,0,P|304:30|337:108,1,121.000003692627,6|2,3:0|3:0,2:0:0:0:
267,160,80835,1,8,3:1:0:0:
170,151,81163,5,4,3:0:0:0:
124,236,81491,2,0,P|97:264|78:298,2,60.5000018463135,4|0|4,3:0|3:0|3:0,2:0:0:0:
168,255,81983,1,4,3:0:0:0:
203,288,82147,1,8,3:1:0:0:
289,243,82475,1,4,3:0:0:0:
373,288,82802,2,0,B|423:369|496:314|453:249|453:249|435:218|438:182,1,242.000007385254,6|8,3:0|3:1,2:0:0:0:
380,106,83786,5,2,3:2:0:0:
306,42,84114,1,6,3:0:0:0:
219,86,84442,2,0,P|172:71|156:56,1,60.5000018463135,2|0,3:2|2:0,2:0:0:0:
116,73,84770,2,0,L|42:62,2,60.5000018463135,8|4|4,3:1|3:0|3:0,2:0:0:0:
61,153,85425,2,0,P|56:203|118:260,1,121.000003692627,6|4,3:0|3:0,2:0:0:0:
185,209,86081,1,8,3:1:0:0:
170,113,86409,6,0,L|241:102,1,60.5000018463135,4|8,3:0|3:2,2:0:0:0:
266,72,86737,1,4,3:0:0:0:
353,112,87065,1,4,3:0:0:0:
375,206,87393,2,0,P|350:238|322:256,1,60.5000018463135,8|4,3:1|3:0,2:0:0:0:
289,267,87720,1,4,3:0:0:0:
313,360,88048,2,0,B|343:333|424:339|451:368,2,121.000003692627,6|6|8,3:0|3:0|3:1,2:0:0:0:
216,369,89032,5,2,3:2:0:0:
132,320,89360,1,6,3:0:0:0:
35,329,89688,2,0,P|31:298|41:262,1,60.5000018463135,2|0,3:2|2:0,2:0:0:0:
38,221,90016,2,0,P|16:180|-11:157,2,60.5000018463135,8|4|4,3:1|3:0|3:0,2:0:0:0:
134,230,90671,2,0,P|153:165|147:103,1,121.000003692627,6|6,3:0|3:0,2:0:0:0:
221,47,91327,1,8,3:1:0:0:
276,126,91655,5,6,3:0:0:0:
362,82,91983,2,0,P|408:83|445:65,2,60.5000018463135,4|0|4,3:0|3:0|3:0,2:0:0:0:
323,52,92475,1,4,3:0:0:0:
296,11,92639,1,8,3:1:0:0:
199,20,92966,1,4,3:0:0:0:
139,96,93294,2,0,B|89:15|16:70|58:134|58:134|76:165|73:201,1,242.000007385254,6|8,3:0|3:1,2:0:0:0:
253,374,94934,5,0,1:0:0:0:
283,296,95261,1,8,2:0:0:0:
283,296,95425,2,0,L|275:227,2,52.3675611047743,0|2|0,2:0|2:0|2:0,2:0:0:0:
318,319,95917,2,0,B|343:335|386:310|378:233,1,104.735122209549,0|0,3:0|3:0,2:0:0:0:
370,174,96573,1,8,2:0:0:0:
408,99,96901,2,0,P|402:70|381:37,1,52.5269236047743,2|0,1:2|2:0,2:0:0:0:
358,21,97229,2,0,P|314:50|244:47,1,104.735122209549,0|0,3:0|3:0,2:0:0:0:
187,18,97884,1,8,2:0:0:0:
108,48,98212,2,0,L|70:103,1,52.5269236047743,2|0,1:2|2:0,2:0:0:0:
74,132,98540,2,0,B|59:153|111:197|95:234,1,104.735122209549,0|0,3:0|3:0,2:0:0:0:
73,311,99196,1,8,2:0:0:0:
150,343,99524,2,0,P|183:339|206:315,1,52.5269236047743,2|0,1:2|2:0,2:0:0:0:
218,291,99852,6,0,L|201:165,1,104.735122209549,0|0,3:0|3:0,2:0:0:0:
235,109,100507,1,8,2:0:0:0:
314,82,100835,2,0,P|357:86|378:83,1,52.5269236047743,2|0,1:2|2:0,2:0:0:0:
400,61,101163,2,0,P|448:76|463:128,1,104.735122209549,0|0,3:0|3:0,2:0:0:0:
416,193,101819,1,8,2:0:0:0:
336,166,102147,2,0,P|295:181|274:197,1,52.5269236047743,2|0,1:2|2:0,2:0:0:0:
279,226,102475,2,0,P|318:241|354:295,1,104.735122209549,0|0,3:0|3:0,2:0:0:0:
357,374,103130,1,8,2:0:0:0:
275,354,103458,2,0,P|233:337|217:335,1,52.2499986047745,2|0,1:2|2:0,2:0:0:0:
188,354,103786,2,0,P|117:379|46:368,1,104.735122209549,0|0,3:0|3:0,2:0:0:0:
12,344,104442,1,8,3:2:0:0:
8,302,104606,1,8,3:2:0:0:
4,260,104770,1,4,3:0:0:0:
44,186,105098,5,6,3:0:0:0:
15,107,105425,2,0,P|9:75|143:22,1,209.151519419098,2|4,3:2|3:0,2:0:0:0:
219,38,106409,1,4,3:0:0:0:
243,117,106737,1,2,3:0:0:0:
296,181,107065,2,0,P|334:189|359:206,2,52.3675611047743,8|0|0,3:1|3:0|3:0,2:0:0:0:
220,217,107720,1,6,3:0:0:0:
194,296,108048,2,0,P|239:350|371:358,1,209.151519419098,2|4,3:2|3:0,2:0:0:0:
406,283,109032,1,4,3:0:0:0:
483,250,109360,1,2,3:0:0:0:
471,167,109688,2,0,L|504:115,2,52.3675611047743,8|0|0,2:1|3:0|3:0,2:0:0:0:
390,189,110343,5,6,3:0:0:0:
335,125,110671,2,0,B|210:173|228:118|99:153,1,209.151519419098,2|4,3:2|3:0,2:0:0:0:
57,102,111655,1,4,3:0:0:0:
13,173,111983,1,2,3:0:0:0:
39,252,112311,2,0,P|24:281|16:315,2,52.3675611047743,8|0|0,3:1|3:0|3:0,2:0:0:0:
118,225,112966,1,6,3:0:0:0:
168,291,113294,2,0,B|226:330|231:258|290:210|371:258,1,209.151519419098,2|0,3:2|3:2,2:0:0:0:
378,284,114114,1,8,3:2:0:0:
512,0,115589,5,6,3:0:0:0:
396,15,115917,2,0,L|335:22,1,58.0560732376097,0|0,3:0|3:0,2:0:0:0:
308,56,116245,2,0,L|189:49,1,115.75987147522,8|4,3:2|3:0,2:0:0:0:
102,27,116901,2,0,P|65:46|41:53,2,57.8799357376097,4|0|2,3:0|3:0|3:0,2:0:0:0:
109,119,117557,1,8,3:1:0:0:
147,202,117884,1,0,3:0:0:0:
101,282,118212,5,4,3:0:0:0:
139,366,118540,2,0,P|176:357|194:342,1,58.0560732376097,0|4,3:0|3:0,2:0:0:0:
236,334,118868,2,0,P|264:298|275:220,1,115.75987147522,8|0,3:2|3:2,2:0:0:0:
215,160,119524,2,0,P|221:113|231:92,2,57.8799357376097,6|0|2,3:0|3:0|3:0,2:0:0:0:
304,138,120179,1,8,3:2:0:0:
386,178,120507,1,2,3:0:0:0:
465,131,120835,5,6,3:0:0:0:
497,214,121163,2,0,L|492:277,1,58.0560732376097,0|8,3:0|3:0,2:0:0:0:
470,312,121491,2,0,P|419:338|362:333,1,115.75987147522,8|0,3:1|3:0,2:0:0:0:
304,260,122147,2,0,P|312:188|321:164,2,57.8799357376097,4|2|4,3:0|2:0|3:0,2:0:0:0:
242,329,122802,1,8,3:2:0:0:
157,290,123130,1,2,3:0:0:0:
75,333,123458,6,0,P|53:282|2:211,1,115.75987147522,4|0,3:0|3:0,2:0:0:0:
67,152,124114,2,0,P|109:118|141:58,1,115.75987147522,8|0,3:2|3:0,2:0:0:0:
220,21,124770,1,2,3:0:0:0:
265,13,124934,1,2,2:0:0:0:
309,26,125098,1,2,3:0:0:0:
372,93,125425,1,8,3:2:0:0:
459,64,125753,1,2,3:2:0:0:
508,136,126081,6,0,L|496:386,1,247.553634441376,0|2,3:0|2:0,2:0:0:0:
415,373,127393,1,0,3:0:0:0:
285,304,128048,1,8,2:0:0:0:
148,356,128704,1,0,3:0:0:0:
43,322,129196,2,0,P|53:227|13:131,1,156.943320814324,0|2,2:0|2:0,2:0:0:0:
0,100,130016,1,0,3:0:0:0:
126,26,130671,1,8,2:0:0:0:
272,27,131327,5,0,3:0:0:0:
342,111,131819,2,0,P|426:113|497:150,1,156.943320814324,0|2,2:0|2:0,2:0:0:0:
499,222,132639,1,0,3:0:0:0:
453,360,133294,1,8,2:0:0:0:
319,299,133950,1,0,3:0:0:0:
210,285,134442,1,0,2:0:0:0:
109,329,134934,1,2,2:0:0:0:
264,174,135917,5,8,3:1:0:0:
302,189,136081,1,8,3:1:0:0:
341,204,136245,1,8,3:1:0:0:
412,160,136573,1,4,3:0:0:0:
496,376,147065,6,0,P|447:343|377:337,1,110.2475,6|0,3:0|3:0,2:0:0:0:
316,300,147720,1,8,2:0:0:0:
316,300,147884,2,0,P|266:308|245:305,1,55.2914999999998,4|2,3:0|3:2,2:0:0:0:
173,313,148376,2,0,P|145:282|74:262,1,110.2475,4|2,3:0|3:0,2:0:0:0:
28,190,149032,1,8,2:1:0:0:
61,108,149360,5,2,3:2:0:0:
16,32,149688,1,4,3:0:0:0:
99,4,150016,1,2,3:0:0:0:
173,51,150343,2,0,P|197:94|205:127,2,55.1237499999998,8|2|0,3:2|2:0|3:1,2:0:0:0:
253,15,150999,2,0,L|375:4,1,110.2475,6|2,3:0|3:0,2:0:0:0:
448,26,151655,1,8,2:1:0:0:
422,110,151983,5,2,3:0:0:0:
455,191,152311,2,0,P|409:217|346:228,1,110.2475,6|0,3:0|3:2,2:0:0:0:
275,269,152966,1,8,2:0:0:0:
203,218,153294,2,0,P|195:174|186:151,1,55.2914999999998,0|0,3:2|3:0,2:0:0:0:
151,145,153622,2,0,P|128:109|27:90,1,110.2475,4|2,3:0|3:0,2:0:0:0:
14,152,154278,1,8,3:1:0:0:
73,219,154606,5,2,3:0:0:0:
93,304,154934,2,0,L|69:353,2,55.1237499999998,4|2|0,3:0|2:0|3:0,2:0:0:0:
134,290,155425,1,4,3:0:0:0:
172,310,155589,1,8,3:2:0:0:
255,339,155917,1,0,2:0:0:0:
328,291,156245,6,0,B|331:268|331:268|319:231|319:231|345:190|345:190|359:139|342:73,1,220.1595,4|0,2:0|2:0,2:0:0:0:
