osu file format v14

[General]
AudioFilename: audio.mp3
AudioLeadIn: 0
PreviewTime: 40670
Countdown: 1
SampleSet: Normal
StackLeniency: 0.7
Mode: 0
LetterboxInBreaks: 0
WidescreenStoryboard: 1

[Editor]
Bookmarks: 6174,18172,30171,42919,66916
DistanceSpacing: 0.7
BeatDivisor: 6
GridSize: 4
TimelineZoom: 3.400005

[Metadata]
Title:Robot Sex
TitleUnicode:Robot Sex
Artist:FURY
ArtistUnicode:FURY
Creator:PotteryBarn
Version:Normal
Source:
Tags:Electronic, Trap
BeatmapID:1031328
BeatmapSetID:483365

[Difficulty]
HPDrainRate:5
CircleSize:2
OverallDifficulty:5
ApproachRate:5
SliderMultiplier:1.4
SliderTickRate:1

[Events]
//Background and Video events
0,0,"artworks-000158857456-veok6r-t500x500.jpg",0,0
//Break Periods
2,90362,97910
//Storyboard Layer 0 (Background)
//Storyboard Layer 1 (Fail)
//Storyboard Layer 2 (Pass)
//Storyboard Layer 3 (Foreground)
//Storyboard Sound Samples

[TimingPoints]
176,374.953130858643,4,2,0,5,1,0
5800,-100,4,1,0,30,0,0
18172,-100,4,1,0,40,0,0
24171,-100,4,1,0,45,0,0
30171,-200,4,1,0,50,0,0
33170,-200,4,1,0,55,0,0
36170,-100,4,1,0,60,0,0
39170,-66.6666666666667,4,1,0,65,0,0
40670,-133.333333333333,4,1,0,70,0,0
42169,-100,4,1,0,90,0,0
42919,-100,4,1,0,90,0,1
45169,-66.6666666666667,4,1,0,90,0,1
45919,-100,4,1,0,90,0,1
48169,-66.6666666666667,4,1,0,90,0,1
48918,-100,4,1,0,90,0,1
51168,-80,4,1,0,90,0,1
51918,-100,4,1,0,90,0,1
54168,-80,4,1,0,90,0,1
54918,-100,4,1,0,90,0,1
57167,-80,4,1,0,90,0,1
57917,-100,4,1,0,90,0,1
60167,-80,4,1,0,90,0,1
60917,-100,4,1,0,90,0,1
63167,-80,4,1,0,90,0,1
63917,-100,4,1,0,90,0,1
64667,-200,4,1,0,90,0,1
65416,-133.333333333333,4,1,0,90,0,1
66166,-100,4,1,0,90,0,1
66916,-100,4,1,0,60,0,1
69166,-66.6666666666667,4,1,0,75,0,1
69916,-100,4,1,0,60,0,1
72166,-66.6666666666667,4,1,0,75,0,1
72915,-100,4,1,0,60,0,1
75165,-66.6666666666667,4,1,0,75,0,1
75915,-100,4,1,0,60,0,1
78165,-66.6666666666667,4,1,0,75,0,1
78915,-100,4,1,0,60,0,1
81164,-66.6666666666667,4,1,0,75,0,1
81914,-100,4,1,0,60,0,1
84164,-66.6666666666667,4,1,0,75,0,1
84914,-100,4,1,0,60,0,1
87164,-66.6666666666667,4,1,0,75,0,1
87914,-100,4,1,0,60,0,0
88664,-200,4,1,0,90,0,1
89413,-200,4,1,0,90,0,1
90163,-100,4,1,0,30,0,0
99350,-100,4,1,0,30,0,0
114160,-200,4,1,0,50,0,0
117160,-200,4,1,0,55,0,0
120160,-100,4,1,0,60,0,0
123159,-50,4,1,0,65,0,0
124659,-133.333333333333,4,1,0,70,0,0
126159,-100,4,1,0,80,0,0
126909,-100,4,1,0,90,0,1
129158,-80,4,1,0,90,0,1
129908,-100,4,1,0,90,0,1
132158,-80,4,1,0,90,0,1
132908,-100,4,1,0,90,0,1
135158,-80,4,1,0,90,0,1
135908,-100,4,1,0,90,0,1
136658,-200,4,1,0,90,0,1
137407,-133.333333333333,4,1,0,90,0,1
138157,-100,4,1,0,90,0,1
138532,-66.6666666666667,4,1,0,90,0,1
138907,-100,4,1,0,90,0,1
141157,-66.6666666666667,4,1,0,90,0,1
141907,-100,4,1,0,90,0,1
144157,-66.6666666666667,4,1,0,90,0,1
144906,-100,4,1,0,90,0,1
147156,-66.6666666666667,4,1,0,90,0,1
147906,-100,4,1,0,90,0,1
149406,-100,4,1,0,75,0,1
149781,-100,4,1,0,50,0,1
150156,-166.666666666667,4,1,0,25,0,0

[Colours]
Combo1 : 68,51,51
Combo2 : 221,17,17
Combo3 : 34,221,221
Combo4 : 221,238,238

[HitObjects]
72,216,176,6,0,L|176:212,1,70
156,296,738,2,0,L|252:292,1,70
236,196,1300,2,0,L|312:196,1,70
400,220,1863,1,0,0:0:0:0:
400,172,2050,2,0,L|380:88,1,70
336,88,2613,2,0,L|248:80,3,70
404,160,3738,1,0,0:0:0:0:
256,192,3925,12,0,5800,2:0:0:0:
256,192,6175,5,0,0:0:0:0:
212,208,8049,6,0,B|210:44|210:44|142:43|142:43|115:91|115:91|2:165|161:224|161:224,1,420,0|0,2:0|2:0,2:0:0:0:
192,252,9486,2,0,P|284:324|285:208,1,280,0|0,2:0|2:0,2:0:0:0:
324,100,12673,6,0,B|423:150|423:150|316:212|316:212|392:304,1,350,0|0,2:0|2:0,2:0:0:0:
244,168,14797,2,0,B|101:90|101:90|-29:189|198:202|87:307,1,420,0|0,2:0|2:0,2:0:0:0:
227,287,16297,2,0,P|419:123|323:315,1,700,0|0,2:0|2:0,2:0:0:0:
332,148,18734,5,0,1:0:0:0:
336,316,19297,2,0,L|52:196,1,280,0|0,1:0|1:0,1:0:0:0:
168,64,20609,2,0,L|248:68,2,70,0|0|0,1:0|1:0|1:0,1:0:0:0:
112,60,21172,6,0,B|76:268|76:268|304:240,1,420,0|0,1:0|1:0,1:0:0:0:
212,92,22859,2,0,L|296:140,1,70,0|0,1:0|1:0,1:0:0:0:
356,200,23422,2,0,P|372:160|360:124,1,70,0|0,1:0|1:0,1:0:0:0:
352,76,23796,2,0,L|276:40,1,70,0|0,1:0|1:0,1:0:0:0:
232,48,24171,5,0,1:0:0:0:
84,128,24734,1,0,1:0:0:0:
232,204,25296,1,0,1:0:0:0:
384,128,25859,2,0,L|292:140,1,70,0|0,1:0|1:0,1:0:0:0:
416,272,26608,1,0,1:0:0:0:
332,200,26983,1,0,1:0:0:0:
280,176,27171,6,0,L|68:84,1,210,0|0,1:0|1:0,1:0:0:0:
80,260,28296,2,0,L|296:332,1,210,0|0,1:0|1:0,1:0:0:0:
316,284,29046,1,0,1:0:0:0:
308,116,29608,2,0,L|220:112,1,70,0|0,1:0|1:0,1:0:0:0:
180,112,29983,2,0,L|144:196,1,70,0|0,1:0|1:0,1:0:0:0:
124,256,30733,5,0,2:0:0:0:
72,192,31295,2,0,P|88:180|72:156,1,35,0|0,2:0|2:0,2:0:0:0:
104,148,31670,5,0,2:0:0:0:
160,100,32233,1,0,2:0:0:0:
204,84,32608,1,0,2:0:0:0:
228,88,32795,6,0,L|296:132,1,70,0|0,2:0|2:0,2:0:0:0:
332,184,33733,6,0,L|272:204,1,35,0|0,2:0|2:0,2:0:0:0:
252,212,34295,1,0,0:0:0:0:
220,248,34670,1,0,2:0:0:0:
156,212,35232,2,0,L|176:124,1,70,0|0,2:0|2:0,2:0:0:0:
192,128,35795,5,0,2:0:0:0:
280,80,36170,6,0,L|380:76,1,70,0|0,1:0|2:0,2:0:0:0:
348,224,36920,2,0,L|268:224,1,70,0|0,1:0|2:0,2:0:0:0:
136,192,37670,2,0,L|140:112,1,70,0|0,1:0|2:0,2:0:0:0:
288,124,38419,2,0,L|288:204,1,70,0|0,1:0|2:0,2:0:0:0:
176,96,39169,1,0,1:0:0:0:
96,240,40107,6,0,L|224:272,2,105.000004005432
152,192,40669,1,0,2:0:0:0:
432,200,42169,2,4,B|344:152|288:192|232:180|164:112,1,280,4|4,2:1|2:1,2:1:0:0:
144,160,43106,2,0,L|74:175,3,70,0|0|0|0,2:0|2:0|2:0|2:0,2:0:0:0:
60,220,43857,5,0,2:0:0:0:
88,260,44044,2,0,P|288:176|460:48,1,420,0|0,2:0|2:0,2:0:0:0:
380,44,45356,2,0,L|264:40,1,105.000004005432
212,48,45919,1,0,0:0:0:0:
164,88,46106,5,0,2:0:0:0:
184,132,46294,2,0,B|457:189|457:189|428:336,1,420,0|0,2:0|2:0,2:0:0:0:
384,308,47606,2,0,P|360:312|300:284,2,70,0|0|0,2:0|2:0|2:0,2:0:0:0:
368,260,48168,2,0,P|376:236|384:184,3,70,0|0|0|0,2:0|2:0|2:0|2:0,2:0:0:0:
388,144,48918,1,0,0:0:0:0:
336,108,49106,6,0,L|244:72,1,70,0|0,2:0|2:0,2:0:0:0:
224,68,49481,2,0,L|136:64,1,70,0|0,2:0|2:0,2:0:0:0:
108,80,49856,1,0,2:0:0:0:
76,120,50043,2,0,P|244:256|436:232,1,420,0|0,2:0|2:0,2:0:0:0:
432,172,51356,1,0,2:0:0:0:
380,140,51543,1,0,2:0:0:0:
292,96,51918,1,0,0:0:0:0:
204,52,52293,6,0,L|52:320,1,280,0|0,2:0|2:0,2:0:0:0:
232,252,53605,1,0,2:0:0:0:
264,216,53793,1,0,2:0:0:0:
308,196,53980,1,0,2:0:0:0:
300,136,54168,2,0,P|200:116|124:148,1,175,0|0,2:0|2:0,2:0:0:0:
112,260,54917,5,0,1:0:0:0:
148,296,55105,2,0,L|232:276,1,70,0|0,2:0|2:0,2:0:0:0:
264,276,55480,2,0,L|328:220,1,70,0|0,2:0|2:0,2:0:0:0:
356,200,55855,1,0,2:0:0:0:
404,196,56043,2,0,P|296:60|168:228,1,420,0|0,2:0|2:0,2:0:0:0:
100,216,57355,2,0,L|172:272,1,87.5,0|0,2:0|2:0,2:0:0:0:
232,244,57917,1,0,0:0:0:0:
276,216,58105,5,0,2:0:0:0:
248,176,58292,2,0,P|376:224|324:336,1,280,0|0,2:0|2:0,2:0:0:0:
228,232,59604,2,0,P|232:280|200:308,2,70,0|0|0,2:0|2:0|2:0,2:0:0:0:
168,240,60167,1,0,2:0:0:0:
152,180,60355,1,0,2:0:0:0:
208,160,60542,2,0,L|272:232,1,87.5,0|0,2:0|2:0,2:0:0:0:
304,204,60917,5,0,1:0:0:0:
364,184,61104,2,0,L|332:100,3,70,0|0|0|0,2:0|2:0|2:0|2:0,2:0:0:0:
328,72,61854,1,0,2:0:0:0:
280,76,62042,2,0,B|196:340|288:332|464:276,1,420,0|0,2:0|2:0,2:0:0:0:
420,228,63354,2,0,L|396:144,1,87.5,0|0,2:0|2:0,2:0:0:0:
280,100,63916,1,0,0:0:0:0:
232,96,64104,1,0,2:0:0:0:
184,88,64667,6,0,P|144:96|104:116,1,70,0|0,2:0|2:0,2:0:0:0:
116,180,65416,1,0,2:0:0:0:
152,184,65604,2,0,P|212:216|235:300,1,157.500006008148,0|0,2:0|2:0,2:0:0:0:
316,172,66729,2,0,P|328:224|320:252,1,70,0|0,2:0|2:0,2:0:0:0:
368,264,67104,5,0,2:0:0:0:
232,316,67666,1,0,2:0:0:0:
136,204,68229,1,0,2:0:0:0:
260,128,68791,1,0,2:0:0:0:
264,276,69166,2,0,L|400:284,2,105.000004005432,0|0|0,2:0|2:0|2:0,2:0:0:0:
192,268,69728,2,0,B|100:256|132:152,1,105.000004005432,0|0,2:0|1:0,2:0:0:0:
152,164,70103,5,0,2:0:0:0:
288,108,70666,1,0,2:0:0:0:
428,152,71228,1,0,2:0:0:0:
296,212,71791,1,0,2:0:0:0:
148,200,72166,1,0,2:0:0:0:
88,64,72541,1,0,2:0:0:0:
60,156,72915,2,0,P|108:136|160:128,1,105,0|0,1:0|2:0,2:0:0:0:
264,192,73665,2,0,B|60:244|60:244|156:56|156:56,1,420
272,140,75165,2,0,L|380:120,1,105.000004005432,0|0,2:0|2:0,2:0:0:0:
420,64,75540,2,0,P|460:164|368:268,1,210.000008010865,0|0,2:0|1:0,2:0:0:0:
372,272,76103,5,0,2:0:0:0:
296,148,76665,1,0,2:0:0:0:
152,116,77227,1,0,2:0:0:0:
148,264,77790,1,0,2:0:0:0:
292,232,78165,1,0,2:0:0:0:
284,160,78352,2,0,B|204:228|204:228|192:376,1,210.000008010865,0|0,2:0|2:0,2:0:0:0:
132,300,78914,1,0,0:0:0:0:
124,268,79102,5,0,2:0:0:0:
80,128,79665,1,0,2:0:0:0:
224,96,80227,1,0,2:0:0:0:
372,100,80790,1,0,2:0:0:0:
224,104,81164,2,0,P|296:192|412:228,1,210.000008010865,0|0,2:0|2:0,2:0:0:0:
304,284,81914,1,0,1:0:0:0:
264,312,82102,5,0,2:0:0:0:
168,204,82664,1,0,2:0:0:0:
64,100,83227,1,0,2:0:0:0:
212,92,83789,1,0,2:0:0:0:
356,76,84164,2,0,L|420:92,4,52.5000020027161,0|0|0|0|0,2:0|2:0|2:0|2:0|2:0,2:0:0:0:
300,124,84726,1,0,2:0:0:0:
256,144,84914,1,0,1:0:0:0:
208,156,85101,5,0,2:0:0:0:
96,252,85664,1,0,2:0:0:0:
240,272,86226,1,0,2:0:0:0:
388,268,86789,1,0,2:0:0:0:
332,188,87163,2,0,L|392:136,1,70,0|0,2:0|2:0,2:0:0:0:
352,76,87538,2,0,L|128:84,1,210.000008010865,0|0,2:0|1:0,2:0:0:0:
52,200,88476,1,0,2:0:0:0:
72,212,88664,6,0,B|64:236|92:276|92:276|132:272|132:268,1,105,0|0,2:0|2:0,2:0:0:0:
148,260,89413,6,0,L|212:220,2,70,0|0|0,2:0|2:0|2:0,2:0:0:0:
256,192,99350,12,0,101787,2:0:0:0:
192,200,102162,5,0,1:0:0:0:
264,264,102536,1,0,1:0:0:0:
300,228,102724,2,0,L|372:240,1,70,0|0,2:0|2:0,2:0:0:0:
392,144,103286,1,0,1:0:0:0:
352,56,103661,1,0,1:0:0:0:
256,64,104036,2,0,L|184:104,1,70,4|0,2:3|2:0,2:0:0:0:
144,96,104411,1,0,1:0:0:0:
96,104,104599,2,0,L|56:176,3,70,0|0|0|0,1:0|1:0|1:0|1:0,1:0:0:0:
96,256,105536,5,0,1:0:0:0:
192,276,105911,1,0,1:0:0:0:
252,200,106286,2,0,L|324:180,1,70,4|0,2:3|2:0,2:0:0:0:
344,224,106661,1,0,1:0:0:0:
408,296,107036,2,0,L|468:336,1,70,4|0,2:3|2:0,2:0:0:0:
464,284,107411,2,0,L|440:140,1,140,4|4,2:3|2:3,2:0:0:0:
392,60,108161,5,0,1:0:0:0:
296,56,108536,1,0,1:0:0:0:
248,60,108723,2,0,L|164:104,1,70,0|4,2:0|2:3,2:0:0:0:
100,140,109286,1,0,1:0:0:0:
160,220,109661,1,0,1:0:0:0:
244,272,110036,2,0,L|272:204,1,70,4|0,2:3|2:0,2:0:0:0:
316,184,110410,1,0,1:0:0:0:
300,136,110598,2,0,L|220:116,3,70,0|0|0|0,1:0|1:0|1:0|1:0,1:0:0:0:
140,156,111535,5,0,1:0:0:0:
80,76,111910,1,0,1:0:0:0:
176,52,112285,1,0,1:0:0:0:
272,56,112660,1,0,1:0:0:0:
360,100,113035,1,0,1:0:0:0:
300,176,113410,2,0,L|196:40,1,140,4|4,2:3|2:3,2:0:0:0:
264,52,114160,5,4,1:3:0:0:
312,52,114535,1,0,1:0:0:0:
356,72,114910,1,0,1:0:0:0:
376,116,115285,2,0,L|368:188,1,70,0|0,1:0|1:0,1:0:0:0:
324,204,116035,1,0,1:0:0:0:
276,212,116410,1,0,1:0:0:0:
240,180,116785,2,0,L|260:128,2,35,0|0|0,1:0|1:0|1:0,1:0:0:0:
240,132,117535,6,0,B|300:96|300:96|292:164|292:164|340:216|340:216|348:288|348:288|420:304,1,350,0|0,1:0|1:0,1:0:0:0:
372,324,119784,2,0,L|292:308,1,70,0|0,1:0|1:0,1:0:0:0:
132,136,121097,6,0,L|220:140,10,70,0|0|0|0|0|0|0|0|0|0|0,2:0|2:0|2:0|2:0|2:0|2:0|2:0|2:0|2:0|2:0|2:0,2:0:0:0:
204,200,123159,5,0,0:0:0:0:
212,144,124096,2,0,B|351:109|351:109|276:292,1,280
200,248,124658,1,0,2:0:0:0:
148,148,126159,2,0,B|136:264|236:312|328:320|216:232|316:224,1,280,0|0,2:0|2:0,2:0:0:0:
200,164,128033,6,0,L|440:160,1,233.333333333333,0|0,2:0|2:0,2:0:0:0:
292,76,129158,2,0,P|204:60|104:88,2,175,0|0|0,2:0|2:0|2:0,2:0:0:0:
368,136,130283,6,0,L|96:236,1,280,0|0,2:0|2:0,2:0:0:0:
236,296,131596,1,0,2:0:0:0:
408,232,132158,1,0,2:0:0:0:
256,96,132783,2,0,L|320:96,1,58.3333333333333,0|0,2:0|2:0,2:0:0:0:
112,312,134033,2,0,L|356:248,1,233.333333333333,0|0,2:0|2:0,2:0:0:0:
464,152,135158,1,0,2:3:0:0:
348,196,135533,2,0,P|300:128|212:124,1,175,0|0,2:0|2:0,2:0:0:0:
120,136,136282,1,0,2:0:0:0:
116,88,136658,6,0,L|188:64,2,70,0|0|0,2:0|2:0|2:0,2:0:0:0:
116,160,137782,2,0,B|168:188|191:237|196:240,1,105.000004005432,0|0,2:0|2:0,2:0:0:0:
268,108,138532,2,0,B|304:332,1,210.000008010865,0|0,2:0|2:0,2:0:0:0:
256,244,139907,6,0,L|32:60,1,280,0|0,2:0|2:0,2:0:0:0:
236,76,141157,2,0,P|388:72|464:92,2,210.000008010865,0|0|0,2:0|2:0|2:0,2:0:0:0:
196,164,142281,6,0,L|480:228,1,280,0|0,2:0|2:0,2:0:0:0:
332,316,143657,1,0,2:0:0:0:
388,128,144157,2,0,B|172:72,1,210.000008010865,0|0,2:0|2:0,2:0:0:0:
192,168,144766,2,0,P|172:204|128:224,1,78.7500030040742,0|0,2:0|2:0,2:0:0:0:
420,132,146031,6,0,L|144:56,1,280,0|0,2:0|2:0,2:0:0:0:
84,188,147156,1,0,2:0:0:0:
228,164,147531,2,0,P|304:272|284:340,1,210.000008010865,0|0,2:0|2:0,2:0:0:0:
204,280,148281,6,0,P|92:212|156:92,1,280,0|0,2:0|2:0,2:0:0:0:
200,176,149406,2,0,L|244:144,5,46.6666666666667,0|0|0|0|0|0,2:0|2:0|2:0|2:0|2:0|2:0,2:0:0:0:
232,128,150156,6,0,B|308:104|372:204|372:204|452:200|456:336|456:336|384:304|300:284|300:284,1,503.999984619141,0|0,2:0|2:0,2:0:0:0:
192,272,153155,6,0,P|116:252|156:196,1,167.999994873047,0|0,2:0|2:0,2:0:0:0:
260,240,154655,1,0,2:0:0:0:
368,196,155405,2,0,P|368:132|284:144,1,167.999994873047,0|0,2:0|2:0,2:0:0:0:
184,204,156905,5,0,2:0:0:0:
168,88,157655,2,0,B|244:64|244:64|312:132,1,167.999994873047,0|0,2:0|2:0,2:0:0:0:
220,208,159155,6,0,P|132:128|160:68,1,167.999994873047,0|0,2:0|2:0,2:0:0:0:
252,68,160654,2,0,P|340:148|312:208,1,167.999994873047,0|0,2:0|2:0,2:0:0:0:
228,124,162154,6,0,B|384:164|384:164|236:236|236:236|324:292|136:312,1,503.999984619141,0|0,2:0|2:0,2:0:0:0:
184,200,165154,6,0,P|252:236|332:172,1,167.999994873047,0|0,2:0|2:0,2:0:0:0:
248,104,166653,1,0,2:0:0:0:
156,176,167403,1,0,2:0:0:0:
44,216,168154,6,0,B|156:340|156:340|132:172|132:172|236:304|236:304|220:136|220:136|324:268|324:268|316:100|316:100|416:240,1,1175.99996411133,0|0,2:0|2:0,2:0:0:0:
