osu file format v14

[General]
AudioFilename: audio.mp3
AudioLeadIn: 0
PreviewTime: 40670
Countdown: 1
SampleSet: Normal
StackLeniency: 0.7
Mode: 0
LetterboxInBreaks: 0
WidescreenStoryboard: 1

[Editor]
DistanceSpacing: 1
BeatDivisor: 8
GridSize: 8
TimelineZoom: 8

[Metadata]
Title:Robot Sex
TitleUnicode:Robot Sex
Artist:FURY
ArtistUnicode:FURY
Creator:PotteryBarn
Version:Hard
Source:
Tags:Electronic, Trap
BeatmapID:1032692
BeatmapSetID:483365

[Difficulty]
HPDrainRate:5
CircleSize:4
OverallDifficulty:5
ApproachRate:5
SliderMultiplier:1.4
SliderTickRate:1

[Events]
//Background and Video events
0,0,"artworks-000158857456-veok6r-t500x500.jpg",0,0
//Break Periods
2,90362,97910
//Storyboard Layer 0 (Background)
//Storyboard Layer 1 (Fail)
//Storyboard Layer 2 (Pass)
//Storyboard Layer 3 (Foreground)
//Storyboard Sound Samples

[TimingPoints]
176,374.953130858643,4,2,0,5,1,0
5800,-100,4,1,0,30,0,0
18079,-100,4,1,0,40,0,0
24078,-100,4,1,0,45,0,0
30171,-200,4,1,0,50,0,0
33171,-200,4,1,0,55,0,0
36170,-100,4,1,0,60,0,0
39170,-66.6666666666667,4,1,0,65,0,0
40670,-133.333333333333,4,1,0,70,0,0
42169,-100,4,1,0,90,0,0
42919,-100,4,1,0,90,0,1
45169,-66.6666666666667,4,1,0,90,0,1
45919,-100,4,1,0,90,0,1
48169,-66.6666666666667,4,1,0,90,0,1
48918,-100,4,1,0,90,0,1
51168,-80,4,1,0,90,0,1
51918,-100,4,1,0,90,0,1
54168,-80,4,1,0,90,0,1
54918,-100,4,1,0,90,0,1
57167,-80,4,1,0,90,0,1
57917,-100,4,1,0,90,0,1
60167,-80,4,1,0,90,0,1
60917,-100,4,1,0,90,0,1
63167,-80,4,1,0,90,0,1
63917,-100,4,1,0,90,0,1
64667,-200,4,1,0,90,0,1
65416,-133.333333333333,4,1,0,90,0,1
66166,-100,4,1,0,90,0,1
66916,-100,4,1,0,60,0,1
69166,-66.6666666666667,4,1,0,75,0,1
69916,-100,4,1,0,60,0,1
72166,-66.6666666666667,4,1,0,75,0,1
72915,-100,4,1,0,60,0,1
75165,-66.6666666666667,4,1,0,75,0,1
75915,-100,4,1,0,60,0,1
78165,-66.6666666666667,4,1,0,75,0,1
78915,-100,4,1,0,60,0,1
81164,-66.6666666666667,4,1,0,75,0,1
81914,-100,4,1,0,60,0,1
84164,-66.6666666666667,4,1,0,75,0,1
84914,-100,4,1,0,60,0,1
87164,-66.6666666666667,4,1,0,75,0,1
87914,-100,4,1,0,60,0,0
88664,-200,4,1,0,90,0,1
89413,-200,4,1,0,90,0,1
90163,-100,4,1,0,30,0,0
99350,-100,4,1,0,30,0,0
114160,-200,4,1,0,50,0,0
117160,-200,4,1,0,55,0,0
120160,-100,4,1,0,60,0,0
123159,-50,4,1,0,65,0,0
124659,-133.333333333333,4,1,0,70,0,0
126159,-100,4,1,0,80,0,0
126909,-100,4,1,0,90,0,1
129158,-80,4,1,0,90,0,1
129908,-100,4,1,0,90,0,1
132158,-80,4,1,0,90,0,1
132908,-100,4,1,0,90,0,1
135158,-80,4,1,0,90,0,1
135908,-100,4,1,0,90,0,1
136658,-200,4,1,0,90,0,1
137407,-133.333333333333,4,1,0,90,0,1
138157,-100,4,1,0,90,0,1
138532,-66.6666666666667,4,1,0,90,0,1
138907,-100,4,1,0,90,0,1
141157,-66.6666666666667,4,1,0,90,0,1
141907,-100,4,1,0,90,0,1
144157,-66.6666666666667,4,1,0,90,0,1
144906,-100,4,1,0,90,0,1
147156,-66.6666666666667,4,1,0,90,0,1
147906,-100,4,1,0,90,0,1
149406,-100,4,1,0,75,0,1
149781,-100,4,1,0,50,0,1
150156,-166.666666666667,4,1,0,25,0,0

[Colours]
Combo1 : 68,51,51
Combo2 : 221,17,17
Combo3 : 34,221,221
Combo4 : 221,238,238

[HitObjects]
256,192,3924,12,0,5799,2:0:0:0:
184,224,6175,6,0,L|272:184,1,70
128,208,7861,5,0,2:0:0:0:
192,240,8049,2,0,B|352:240|352:240|352:192|352:192|256:160|256:160|208:96|112:224,1,490,0|0,2:0|2:0,2:0:0:0:
96,272,9486,2,0,B|48:96|224:80|224:80|240:160,1,350
352,144,12642,2,0,B|304:112|224:128|224:128|176:96|112:144,1,245
80,208,13579,2,0,P|224:96|448:160,1,420
416,176,14798,2,0,B|272:112|272:112|272:176|272:176|192:208,1,280
80,288,16298,2,0,B|288:272|288:272|448:192|448:192|368:96|368:96|240:64|240:64|160:64,1,700
208,224,18735,6,8,P|208:264|256:284,1,70,4|0,3:3|2:0,2:0:0:0:
368,304,19297,2,0,P|404:284|432:236,1,70,4|0,3:3|2:0,2:0:0:0:
296,200,19860,1,0,2:3:0:0:
360,176,20047,2,0,P|392:160|408:124,1,70,4|0,3:3|2:0,2:0:0:0:
288,56,20610,1,4,3:3:0:0:
216,56,20797,1,0,2:0:0:0:
240,120,20984,1,4,3:3:0:0:
144,144,21172,6,4,P|152:184|124:236,1,70,4|0,3:3|2:0,2:3:0:0:
264,136,21734,2,0,P|276:172|264:220,1,70,4|0,3:3|2:0,2:3:0:0:
184,312,22297,2,0,P|144:328|112:296,1,70,4|0,3:3|2:0,2:0:0:0:
56,192,22859,1,0,2:0:0:0:
104,144,23047,2,0,P|136:152|160:188,1,70,4|0,3:3|2:0,2:0:0:0:
224,192,23422,2,0,P|240:132|180:48,1,140,0|4,2:0|3:3,2:0:0:0:
272,40,23984,1,0,3:3:0:0:
328,80,24172,6,0,P|352:56|396:52,1,70,4|0,3:3|2:0,2:0:0:0:
264,120,24734,2,0,P|264:160|292:196,1,70,4|0,3:3|2:0,2:0:0:0:
184,288,25296,2,0,P|224:288|260:268,1,70,4|0,3:3|2:0,2:0:0:0:
136,224,25859,1,0,2:0:0:0:
120,152,26046,2,0,P|96:120|88:72,1,70,4|0,3:3|2:0,2:0:0:0:
216,40,26609,1,4,3:3:0:0:
152,64,26796,1,0,2:0:0:0:
200,112,26984,1,4,3:3:0:0:
264,96,27171,6,0,P|296:80|344:88,1,70,4|0,3:3|2:0,2:0:0:0:
336,224,27734,2,0,P|296:232|244:224,1,70,4|0,3:3|2:0,2:0:0:0:
392,168,28296,2,0,P|376:128|356:100,1,70,4|0,3:3|2:0,2:0:0:0:
224,120,28858,1,0,2:0:0:0:
168,160,29046,2,0,P|144:184|160:240,1,70,4|0,3:3|2:0,2:0:0:0:
208,280,29468,2,0,P|240:240|256:152,1,140,0|4,2:0|3:3,2:0:0:0:
304,128,29983,1,4,3:3:0:0:
328,104,30171,1,8,3:2:0:0:
60,264,30546,6,0,L|64:224,1,35,0|0,2:2|2:2,2:2:0:0:
96,216,30921,2,0,L|96:168,1,35,0|0,2:1|2:1,2:1:0:0:
72,152,31296,2,0,L|72:104,1,35,0|0,2:0|2:0,2:0:0:0:
96,88,31671,2,0,L|144:88,1,35,0|0,2:0|2:0,2:0:0:0:
152,120,32046,2,0,L|176:152,1,35,0|0,2:0|2:0,2:0:0:0:
160,184,32421,2,0,L|120:184,1,35,0|0,2:0|2:0,2:0:0:0:
96,208,32796,1,0,0:0:0:0:
88,224,32890,1,0,0:0:0:0:
80,240,32984,1,0,0:0:0:0:
80,256,33078,1,0,0:0:0:0:
96,264,33170,6,0,L|136:256,1,35,0|0,2:0|2:0,2:0:0:0:
168,256,33545,2,0,L|208:224,1,35,0|0,2:0|2:0,2:0:0:0:
224,224,33920,2,0,L|256:184,1,35,0|0,2:0|2:0,2:0:0:0:
280,192,34295,2,0,L|328:192,1,35,0|0,2:0|2:0,2:0:0:0:
344,176,34670,2,0,L|352:128,1,35,0|0,2:0|2:0,2:0:0:0:
408,144,35045,2,0,L|432:176,1,35,0|0,2:0|2:0,2:0:0:0:
464,176,35420,2,0,L|456:216,1,35,0|0,2:0|2:0,2:0:0:0:
472,240,35795,2,0,L|464:280,1,35,0|0,2:0|2:0,2:0:0:0:
392,272,36170,6,0,L|336:336,1,70,0|0,2:0|2:0,2:0:0:0:
280,344,36545,2,0,L|200:344,1,70,0|0,2:0|2:0,2:0:0:0:
136,336,36920,2,0,L|136:256,1,70,0|0,2:0|2:0,2:0:0:0:
144,200,37295,2,0,L|192:144,1,70,0|0,2:0|2:0,2:0:0:0:
248,104,37670,2,0,L|328:104,1,70,0|0,2:0|2:0,2:0:0:0:
384,120,38045,2,0,L|440:184,1,70,0|0,2:0|2:0,2:0:0:0:
440,240,38420,2,0,L|440:336,1,70,0|0,2:0|2:0,2:0:0:0:
376,344,38795,2,0,L|288:344,1,70,0|0,2:0|2:0,2:0:0:0:
88,160,40107,5,0,2:0:0:0:
120,264,40295,1,0,2:0:0:0:
192,192,40482,1,0,2:0:0:0:
352,160,42169,2,4,P|240:56|128:92,1,280,4|4,2:1|2:1,2:1:0:0:
128,144,43107,6,0,L|204:208,3,70,0|0|0|0,2:0|2:0|2:0|2:0,2:0:0:0:
224,224,43857,1,0,2:0:0:0:
272,224,44044,2,0,L|336:288,5,70,0|0|0|0|0|0,2:0|2:0|2:0|2:0|2:0|2:0,2:0:0:0:
240,272,45169,1,0,2:0:0:0:
160,256,45356,1,0,2:0:0:0:
112,192,45544,1,0,2:0:0:0:
160,96,45919,5,0,3:0:0:0:
208,96,46106,2,0,L|292:104,1,70,0|0,2:0|2:0,2:0:0:0:
240,144,46481,2,0,L|312:152,1,70,0|0,2:0|2:0,2:0:0:0:
352,192,46856,2,0,L|412:220,2,35,0|0|0,2:0|2:0|2:0,2:0:0:0:
368,240,47231,2,0,L|288:280,1,70,0|0,2:0|2:0,2:0:0:0:
256,288,47606,1,0,2:0:0:0:
224,240,47794,1,0,2:0:0:0:
176,224,47981,1,0,2:0:0:0:
80,184,48169,1,0,2:0:0:0:
128,280,48356,1,0,2:0:0:0:
192,304,48544,2,0,P|220:264|268:232,2,105.000004005432,0|0|0,2:0|2:0|3:0,2:0:0:0:
240,320,49106,5,0,2:0:0:0:
288,320,49293,2,0,L|380:320,2,70,0|0|0,2:0|2:0|2:0,2:0:0:0:
304,272,49856,2,0,L|304:176,1,70,0|0,2:0|2:0,2:0:0:0:
352,160,50231,2,0,L|432:160,1,70,0|0,2:0|2:0,2:0:0:0:
384,112,50606,2,0,L|304:80,2,70,0|0|0,2:0|2:0|2:0,2:0:0:0:
432,64,51168,1,0,2:0:0:0:
464,128,51356,1,0,2:0:0:0:
464,192,51543,1,0,2:0:0:0:
352,192,51918,1,0,3:0:0:0:
384,304,52293,6,0,P|240:328|80:288,1,280,0|0,2:0|2:0,2:0:0:0:
80,128,53605,1,0,2:0:0:0:
128,112,53793,1,0,2:0:0:0:
176,112,53980,1,0,2:0:0:0:
240,144,54168,2,0,L|276:228,1,87.5,0|0,2:0|2:0,2:0:0:0:
128,304,54918,5,0,3:0:0:0:
176,304,55105,2,0,L|256:268,3,70,0|0|0|0,2:0|2:0|2:0|2:0,2:0:0:0:
288,240,55855,1,0,2:0:0:0:
288,176,56043,2,0,L|192:168,5,70,0|0|0|0|0|0,2:0|2:0|2:0|2:0|2:0|2:0,2:0:0:0:
176,112,57167,1,0,2:0:0:0:
112,112,57355,1,0,2:0:0:0:
64,160,57542,1,0,2:0:0:0:
80,272,57917,5,0,3:0:0:0:
128,272,58105,2,0,L|200:248,3,70,0|0|0|0,2:0|2:0|2:0|2:0,2:0:0:0:
256,240,58855,2,0,L|320:236,2,35,0|0|0,2:0|2:0|2:0,2:0:0:0:
320,240,59230,1,0,2:0:0:0:
352,192,59417,2,0,L|284:132,3,70,0|0|0|0,2:0|2:0|2:0|2:0,2:0:0:0:
240,112,60167,1,0,2:0:0:0:
176,96,60355,1,0,2:0:0:0:
128,144,60542,2,0,L|108:244,2,87.5,0|0|0,2:0|2:0|3:0,2:0:0:0:
160,192,61104,6,0,L|232:172,1,70,0|0,2:0|2:0,2:0:0:0:
272,192,61479,1,0,2:0:0:0:
320,224,61667,1,0,2:0:0:0:
368,240,61854,1,0,2:0:0:0:
384,192,62042,2,0,L|304:140,1,70,0|0,2:0|2:0,2:0:0:0:
272,128,62417,1,0,2:0:0:0:
240,176,62604,1,0,2:0:0:0:
192,208,62792,1,0,2:0:0:0:
192,256,62979,1,0,2:0:0:0:
240,304,63167,1,0,2:0:0:0:
304,320,63354,1,0,2:0:0:0:
368,304,63542,1,0,2:0:0:0:
432,208,63917,1,0,3:0:0:0:
416,144,64104,1,0,2:0:0:0:
384,64,64667,6,0,P|344:72|304:92,1,70,0|0,2:0|2:0,2:0:0:0:
240,112,65416,1,0,2:0:0:0:
272,144,65604,2,0,P|332:176|355:260,1,157.500006008148,0|0,2:0|2:0,2:0:0:0:
336,288,66260,2,0,L|300:316,3,35,0|0|0|0,2:0|2:0|2:0|2:0,2:0:0:0:
272,272,66729,2,0,P|284:324|276:352,1,70,0|0,2:0|2:0,2:0:0:0:
224,320,67104,6,0,L|124:312,1,70,0|0,2:0|2:0,2:0:0:0:
80,224,67666,2,0,L|128:160,4,70,0|0|0|0|0,2:0|2:0|2:0|2:0|2:0,2:0:0:0:
176,160,68791,1,0,2:0:0:0:
224,160,68978,1,0,2:0:0:0:
304,192,69166,5,0,2:0:0:0:
384,224,69353,1,0,2:0:0:0:
448,176,69541,1,0,2:0:0:0:
384,112,69728,2,0,B|292:100|324:-4,1,105.000004005432,0|0,2:0|3:0,2:0:0:0:
272,96,70103,6,0,L|200:28,1,70,0|0,2:0|2:0,2:0:0:0:
112,80,70666,2,0,L|52:132,3,70,0|0|0|0,2:0|2:0|2:0|2:0,2:0:0:0:
112,144,71416,2,0,L|168:216,3,70,0|0|0|0,2:0|2:0|2:0|2:0,2:0:0:0:
80,224,72166,1,0,2:0:0:0:
208,128,72541,1,0,2:0:0:0:
304,64,72915,1,0,3:0:0:0:
352,96,73103,6,0,L|424:144,1,70,0|0,2:0|2:0,2:0:0:0:
416,240,73665,2,0,L|352:276,3,70,0|0|0|0,2:0|2:0|2:0|2:0,2:0:0:0:
304,304,74415,1,0,2:0:0:0:
192,304,74790,2,0,L|120:292,1,70,0|0,2:0|2:0,2:0:0:0:
80,224,75165,1,0,2:0:0:0:
112,144,75353,1,0,2:0:0:0:
192,96,75540,2,0,P|296:76|296:184,1,210.000008010865,0|0,2:0|3:0,2:0:0:0:
320,208,76103,6,0,L|240:272,1,70,0|0,2:0|2:0,2:0:0:0:
176,320,76665,2,0,L|96:304,1,70,0|0,2:0|2:0,2:0:0:0:
128,256,77040,1,0,2:0:0:0:
144,208,77227,1,0,2:0:0:0:
176,144,77415,2,0,L|192:64,3,70,0|0|0|0,2:0|2:0|2:0|2:0,2:0:0:0:
176,160,78165,2,0,L|304:192,3,105.000004005432,0|0|0|0,2:0|2:0|2:0|2:0,2:0:0:0:
304,144,78915,1,0,3:0:0:0:
368,128,79102,5,0,2:0:0:0:
368,192,79290,1,0,2:0:0:0:
352,304,79665,2,0,L|424:308,4,70,0|0|0|0|0,2:0|2:0|2:0|2:0|2:0,2:0:0:0:
304,208,80790,2,0,L|388:212,1,70,0|0,2:0|2:0,2:0:0:0:
336,288,81164,1,0,2:0:0:0:
176,272,81539,1,0,2:0:0:0:
80,208,81914,1,0,3:0:0:0:
64,160,82102,5,0,2:0:0:0:
112,144,82289,1,0,2:0:0:0:
208,80,82664,2,0,L|128:56,2,70,0|0|0,2:0|2:0|2:0,2:0:0:0:
192,128,83227,1,0,2:0:0:0:
192,176,83414,2,0,L|268:200,3,70,0|0|0|0,2:0|2:0|2:0|2:0,2:0:0:0:
48,288,84914,1,0,3:0:0:0:
48,336,85101,5,0,2:0:0:0:
96,304,85289,2,0,L|236:232,1,140,0|0,2:0|2:0,2:0:0:0:
272,224,85851,2,0,L|360:236,3,70,0|0|0|0,2:0|2:0|2:0|2:0,2:0:0:0:
448,240,86789,1,0,2:0:0:0:
432,288,86976,1,0,2:0:0:0:
352,320,87164,1,0,2:0:0:0:
272,304,87351,1,0,2:0:0:0:
192,288,87539,2,0,P|176:228|320:164,1,210.000008010865,0|0,2:0|3:0,2:0:0:0:
256,208,88101,2,0,L|336:228,1,70,0|0,2:0|2:0,2:0:0:0:
352,272,88476,5,0,2:0:0:0:
368,256,88664,2,0,B|368:184|368:184|332:184,1,105,0|0,2:0|2:0,2:0:0:0:
320,176,89413,2,0,P|296:156|268:180,2,70,0|0|0,2:0|2:0|2:0,2:0:0:0:
256,192,99350,12,0,101787,2:0:0:0:
64,128,102162,6,0,P|68:84|88:48,1,70,0|0,2:0|2:0,2:0:0:0:
128,32,102537,1,4,3:3:0:0:
192,48,102724,2,0,L|268:88,1,70,0|4,2:3|3:3,2:0:0:0:
160,144,103287,2,0,L|152:224,1,70,4|0,3:3|2:0,2:0:0:0:
176,272,103662,1,4,3:3:0:0:
224,272,103849,1,0,2:0:0:0:
272,240,104037,2,0,L|224:176,1,70,4|0,3:3|2:0,2:0:0:0:
288,192,104412,1,4,3:3:0:0:
336,144,104599,1,0,2:0:0:0:
336,80,104787,1,4,3:3:0:0:
288,64,104974,1,4,3:3:0:0:
236,72,105161,6,4,L|160:104,1,70,4|0,3:3|2:2,3:2:0:0:
112,96,105536,1,4,3:3:0:0:
64,96,105724,2,0,L|28:168,1,70,0|4,2:0|3:3,2:0:0:0:
48,272,106286,2,0,L|120:252,1,70,4|0,3:3|2:0,2:0:0:0:
176,240,106661,1,4,3:3:0:0:
192,192,106849,1,0,2:0:0:0:
240,208,107036,2,0,L|264:280,1,70,4|0,3:3|2:0,2:0:0:0:
320,272,107411,2,0,L|392:148,1,140,4|4,3:3|3:0,2:0:0:0:
352,112,107974,1,4,3:3:0:0:
304,80,108161,6,0,L|224:68,1,70,4|0,3:3|2:0,2:0:0:0:
176,48,108536,1,4,3:3:0:0:
128,48,108724,2,0,L|44:92,1,70,0|4,2:0|3:3,2:0:0:0:
64,192,109286,2,0,L|112:248,1,70,4|0,3:3|2:0,2:0:0:0:
144,288,109661,1,4,3:3:0:0:
192,304,109848,1,0,2:0:0:0:
208,256,110036,2,0,L|236:188,1,70,4|0,3:3|2:0,2:0:0:0:
192,144,110411,1,4,3:3:0:0:
128,144,110598,1,0,2:0:0:0:
176,176,110786,1,4,3:3:0:0:
128,192,110973,1,4,3:3:0:0:
112,144,111161,6,0,L|184:116,1,70,4|0,3:3|2:0,2:0:0:0:
192,64,111536,1,4,3:3:0:0:
240,80,111723,2,0,L|284:148,1,70,0|4,2:0|3:3,2:0:0:0:
336,240,112286,2,0,L|304:328,1,70,4|0,3:3|2:0,2:0:0:0:
368,304,112661,1,4,3:3:0:0:
400,256,112848,1,0,2:0:0:0:
400,208,113035,2,0,L|320:172,1,70,4|0,3:3|2:0,2:0:0:0:
288,208,113410,2,0,L|304:68,1,140,4|4,3:3|3:3,2:0:0:0:
256,48,113973,1,4,3:3:0:0:
272,80,114160,6,4,L|292:108,1,35,8|0,3:2|2:3,3:3:0:0:
228,100,114535,2,0,L|264:128,1,35,0|0,2:0|2:0,2:0:0:0:
220,168,114910,2,0,L|268:184,1,35,0|0,2:0|2:0,2:0:0:0:
204,224,115285,2,0,L|244:236,1,35,0|0,2:0|2:0,2:0:0:0:
292,240,115660,2,0,L|340:236,1,35,0|0,2:0|2:0,2:0:0:0:
392,248,116035,2,0,L|424:208,1,35,0|0,2:0|2:0,2:0:0:0:
360,184,116410,2,0,L|372:148,1,35,0|0,2:0|2:0,2:0:0:0:
404,96,116785,2,0,L|368:68,1,35,0|0,2:0|2:0,2:0:0:0:
336,120,117160,6,0,L|292:120,1,35,0|0,2:0|2:0,2:0:0:0:
296,168,117535,2,0,L|252:172,1,35,0|0,2:0|2:0,2:0:0:0:
272,220,117910,2,0,L|228:224,1,35,0|0,2:0|2:0,2:0:0:0:
272,68,118285,2,0,L|228:76,1,35,0|0,2:0|2:0,2:0:0:0:
220,132,118660,2,0,L|172:140,1,35,0|0,2:0|2:0,2:0:0:0:
144,76,119035,2,0,L|108:100,1,35,0|0,2:0|2:0,2:0:0:0:
116,176,119410,2,0,L|112:224,1,35,0|0,2:0|2:0,2:0:0:0:
184,252,119785,2,0,L|188:292,1,35,0|0,2:0|2:0,2:0:0:0:
48,48,120909,5,0,2:0:0:0:
128,48,121097,2,0,L|208:48,2,70,0|0|0,2:0|2:0|2:0,2:0:0:0:
112,112,121659,1,0,2:0:0:0:
112,176,121847,2,0,L|208:176,2,70,0|0|0,2:0|2:0|2:0,2:0:0:0:
112,240,122409,2,0,L|208:240,3,70,0|0|0|0,2:0|2:0|2:0|2:0,2:0:0:0:
192,304,124097,5,0,2:0:0:0:
304,272,124284,1,0,2:0:0:0:
368,192,124472,1,0,2:0:0:0:
384,144,124659,1,4,2:3:0:0:
216,268,126159,6,0,B|288:224|388:188|288:120|192:92,1,280,0|0,2:0|2:0,2:0:0:0:
176,160,127159,6,0,L|232:164,1,35,0|0,2:0|2:0,2:0:0:0:
288,144,127534,1,0,2:0:0:0:
224,96,127784,1,0,2:0:0:0:
240,64,127909,2,0,L|304:68,1,46.6666666666667,0|0,2:0|2:0,2:0:0:0:
352,80,128284,1,0,2:0:0:0:
384,64,128409,2,0,B|464:180|464:180|428:288,1,245,0|0,2:0|2:0,2:0:0:0:
400,256,129158,2,0,P|314:235|336:292,2,175,0|0|0,2:0|2:0|2:0,2:0:0:0:
400,288,130033,6,0,L|356:248,2,46.6666666666667,0|0|0,2:0|2:0|2:0,2:0:0:0:
320,272,130533,1,0,2:0:0:0:
240,272,130783,2,0,L|224:208,2,46.6666666666667,0|0|0,2:0|2:0|2:0,2:0:0:0:
176,240,131283,1,0,2:0:0:0:
112,192,131533,1,0,2:0:0:0:
112,112,131783,2,0,L|180:116,2,46.6666666666667,0|0|0,2:0|2:0|2:0,2:0:0:0:
320,288,132783,2,0,L|380:292,1,58.3333333333333,0|0,2:0|2:0,2:0:0:0:
336,224,133158,6,0,L|288:224,4,46.6666666666667,0|0|0|0|0,2:0|2:0|2:0|2:0|2:0,2:0:0:0:
240,160,133908,1,0,2:0:0:0:
272,96,134158,2,0,L|320:112,2,46.6666666666667,0|0|0,2:0|2:0|2:0,2:0:0:0:
352,96,134658,1,0,2:0:0:0:
432,112,134908,1,0,2:0:0:0:
432,144,135033,2,0,L|392:180,1,46.6666666666667,0|0,2:0|2:0,2:0:0:0:
256,208,135533,2,0,P|208:140|120:136,1,175,0|0,2:0|2:0,2:0:0:0:
128,176,136033,6,0,L|72:172,2,46.6666666666667,0|0|0,2:0|2:0|2:0,2:0:0:0:
64,144,136533,1,0,2:0:0:0:
64,128,136658,2,0,B|96:120|108:76|108:76|132:92|176:100,1,140,0|0,2:0|2:0,2:0:0:0:
192,96,137532,2,0,P|208:88|232:100,1,35.0000013351441,0|0,2:0|2:0,2:0:0:0:
240,112,137782,2,0,P|248:176|288:188,1,105.000004005432,0|0,2:0|2:0,2:0:0:0:
320,176,138282,2,0,P|320:140|336:120,1,46.6666666666667,0|0,2:0|2:0,2:0:0:0:
352,80,138532,2,0,B|380:80|484:168|400:272,1,210.000008010865,0|0,2:0|2:0,2:0:0:0:
368,336,139157,6,0,L|316:324,1,46.6666666666667,0|0,2:0|2:0,2:0:0:0:
256,288,139532,1,0,2:0:0:0:
192,256,139782,2,0,L|144:236,2,46.6666666666667,0|0|0,2:0|2:0|2:0,2:0:0:0:
240,192,140282,1,0,2:0:0:0:
176,160,140407,2,0,L|128:128,5,46.6666666666667,0|0|0|0|0|0,2:0|2:0|2:0|2:0|2:0|2:0,2:0:0:0:
144,192,141157,2,0,B|240:172|292:228|376:200,2,210.000008010865,0|0|0,2:0|2:0|2:0,2:0:0:0:
144,128,142094,6,0,L|164:68,2,46.6666666666667,0|0|0,2:0|2:0|2:0,2:0:0:0:
176,64,142594,1,0,2:0:0:0:
256,64,142782,2,0,L|308:96,2,46.6666666666667,0|0|0,2:0|2:0|2:0,2:0:0:0:
256,128,143282,1,0,2:0:0:0:
208,192,143532,1,0,2:0:0:0:
160,144,143782,2,0,L|96:164,2,46.6666666666667,0|0|0,2:0|2:0|2:0,2:0:0:0:
144,192,144157,2,0,B|164:260|228:244|352:260,1,210.000008010865,0|0,2:0|2:0,2:0:0:0:
432,304,144782,2,0,P|412:340|376:360,1,70.0000026702882,0|0,2:0|2:0,2:0:0:0:
320,336,145156,6,0,L|256:328,4,46.6666666666667,0|0|0|0|0,2:0|2:0|2:0|2:0|2:0,2:0:0:0:
256,304,145906,1,0,2:0:0:0:
192,288,146156,2,0,L|172:228,2,46.6666666666667,0|0|0,2:0|2:0|2:0,2:0:0:0:
144,224,146656,1,0,2:0:0:0:
144,144,146906,2,0,L|188:112,2,46.6666666666667,0|0|0,2:0|2:0|2:0,2:0:0:0:
304,80,147531,2,0,P|380:188|360:256,1,210.000008010865,0|0,2:0|2:0,2:0:0:0:
336,288,148031,6,0,L|284:288,2,46.6666666666667,0|0|0,2:0|2:0|2:0,2:0:0:0:
224,272,148656,1,0,2:0:0:0:
160,240,148906,1,0,2:0:0:0:
112,176,149156,2,0,L|88:124,7,46.6666666666667,0|0|0|0|0|0|0|0,2:0|2:0|2:0|2:0|2:0|2:0|2:0|2:0,2:0:0:0:
112,112,150156,6,0,B|188:88|278:111|278:111|332:184|428:144|428:144|292:264,1,503.999984619141,0|0,3:0|3:0,3:0:0:0:
176,304,153155,6,0,L|144:320,2,27.9999991455078,0|0|0,3:0|3:0|3:0,3:0:0:0:
160,224,153843,1,0,3:0:0:0:
112,144,154280,2,0,L|48:208,1,83.9999974365235,0|0,3:0|3:0,3:0:0:0:
64,208,154780,2,0,L|92:208,10,27.9999991455078,0|0|0|0|0|0|0|0|0|0|0,3:0|3:0|3:0|3:0|3:0|3:0|3:0|3:0|3:0|3:0|3:0,3:0:0:0:
80,224,156155,5,0,3:0:0:0:
208,288,156905,1,0,3:0:0:0:
336,224,157655,1,0,3:0:0:0:
224,160,158405,1,0,3:0:0:0:
88,256,159156,5,0,0:0:0:0:
40,96,159905,1,0,3:0:0:0:
120,80,160280,2,0,L|212:80,1,83.9999974365235,0|0,3:0|3:0,3:0:0:0:
208,104,160780,2,0,L|248:104,10,27.9999991455078,0|0|0|0|0|0|0|0|0|0|0,3:0|3:0|3:0|3:0|3:0|3:0|3:0|3:0|3:0|3:0|3:0,3:0:0:0:
160,96,162154,6,0,B|244:68|316:136|316:136|424:96|456:176|456:176|412:256|312:268,1,503.999984619141,0|0,3:0|3:0,3:0:0:0:
192,240,165154,6,0,L|228:232,2,27.9999991455078,0|0|0,3:0|3:0|3:0,3:0:0:0:
128,176,165904,1,0,3:0:0:0:
128,112,166279,2,0,L|208:64,1,83.9999974365235,0|0,3:0|3:0,3:0:0:0:
208,48,166779,2,0,L|240:48,10,27.9999991455078,0|0|0|0|0|0|0|0|0|0|0,3:0|3:0|3:0|3:0|3:0|3:0|3:0|3:0|3:0|3:0|3:0,3:0:0:0:
192,48,168154,6,0,B|120:68|64:152|64:152|224:196|224:196|80:284|80:284|164:320|244:340|244:340|320:300|368:236|368:236,1,839.999974365235,0|0,3:0|3:0,3:0:0:0:
240,192,172653,6,0,L|272:192,11,27.9999991455078,0|0|0|0|0|0|0|0|0|0|0|0,3:0|3:0|3:0|3:0|3:0|3:0|3:0|3:0|3:0|3:0|3:0|3:0,3:0:0:0:
