osu file format v14

[General]
AudioFilename: audio.mp3
AudioLeadIn: 0
PreviewTime: 40670
Countdown: 1
SampleSet: Soft
StackLeniency: 0.7
Mode: 0
LetterboxInBreaks: 0
WidescreenStoryboard: 1

[Editor]
DistanceSpacing: 1.5
BeatDivisor: 4
GridSize: 8
TimelineZoom: 4.799998

[Metadata]
Title:Robot Sex
TitleUnicode:Robot Sex
Artist:FURY
ArtistUnicode:FURY
Creator:PotteryBarn
Version:Expert
Source:
Tags:Electronic, Trap
BeatmapID:1034647
BeatmapSetID:483365

[Difficulty]
HPDrainRate:5
CircleSize:5
OverallDifficulty:8
ApproachRate:9
SliderMultiplier:1.4
SliderTickRate:1

[Events]
//Background and Video events
0,0,"artworks-000158857456-veok6r-t500x500.jpg",0,0
//Break Periods
2,90362,98150
//Storyboard Layer 0 (Background)
//Storyboard Layer 1 (Fail)
//Storyboard Layer 2 (Pass)
//Storyboard Layer 3 (Foreground)
//Storyboard Sound Samples

[TimingPoints]
176,374.953130858643,4,2,0,5,1,0
5800,-100,4,1,0,30,0,0
18172,-100,4,1,0,40,0,0
24172,-100,4,1,0,45,0,0
30171,-200,4,1,0,50,0,0
33170,-200,4,1,0,55,0,0
36170,-100,4,1,0,60,0,0
39170,-66.6666666666667,4,1,0,65,0,0
40670,-133.333333333333,4,1,0,70,0,0
42169,-100,4,1,0,90,0,0
42919,-100,4,1,0,90,0,1
45169,-66.6666666666667,4,1,0,90,0,1
45919,-100,4,1,0,90,0,1
48169,-66.6666666666667,4,1,0,90,0,1
48918,-100,4,1,0,90,0,1
51168,-80,4,1,0,90,0,1
51918,-100,4,1,0,90,0,1
54168,-80,4,1,0,90,0,1
54918,-100,4,1,0,90,0,1
57167,-80,4,1,0,90,0,1
57917,-100,4,1,0,90,0,1
60167,-80,4,1,0,90,0,1
60917,-100,4,1,0,90,0,1
63167,-80,4,1,0,90,0,1
63917,-100,4,1,0,90,0,1
64667,-200,4,1,0,90,0,1
65416,-133.333333333333,4,1,0,90,0,1
66166,-100,4,1,0,90,0,1
66916,-100,4,1,0,60,0,1
69166,-66.6666666666667,4,1,0,75,0,1
69916,-100,4,1,0,60,0,1
72166,-66.6666666666667,4,1,0,75,0,1
72915,-100,4,1,0,60,0,1
75165,-66.6666666666667,4,1,0,75,0,1
75915,-100,4,1,0,60,0,1
78165,-66.6666666666667,4,1,0,75,0,1
78915,-100,4,1,0,60,0,1
81164,-66.6666666666667,4,1,0,75,0,1
81914,-100,4,1,0,60,0,1
84164,-66.6666666666667,4,1,0,75,0,1
84914,-100,4,1,0,60,0,1
87164,-66.6666666666667,4,1,0,75,0,1
87914,-100,4,1,0,60,0,0
88664,-200,4,1,0,90,0,1
89413,-200,4,1,0,90,0,1
90163,-100,4,1,0,30,0,0
99350,-100,4,1,0,30,0,0
114160,-200,4,1,0,50,0,0
117160,-200,4,1,0,55,0,0
120160,-100,4,1,0,60,0,0
123159,-50,4,1,0,65,0,0
124659,-133.333333333333,4,1,0,70,0,0
126159,-100,4,1,0,80,0,0
126909,-100,4,1,0,90,0,1
129158,-80,4,1,0,90,0,1
129908,-100,4,1,0,90,0,1
132158,-80,4,1,0,90,0,1
132908,-100,4,1,0,90,0,1
135158,-80,4,1,0,90,0,1
135908,-100,4,1,0,90,0,1
136658,-200,4,1,0,90,0,1
137407,-133.333333333333,4,1,0,90,0,1
138157,-100,4,1,0,90,0,1
138532,-66.6666666666667,4,1,0,90,0,1
138907,-100,4,1,0,90,0,1
141157,-66.6666666666667,4,1,0,90,0,1
141907,-100,4,1,0,90,0,1
144157,-66.6666666666667,4,1,0,90,0,1
144906,-100,4,1,0,90,0,1
147156,-66.6666666666667,4,1,0,90,0,1
147906,-100,4,1,0,90,0,1
149406,-100,4,1,0,75,0,1
149781,-100,4,1,0,50,0,1
150156,-166.666666666667,4,1,0,25,0,0

[Colours]
Combo1 : 68,51,51
Combo2 : 221,17,17
Combo3 : 34,221,221
Combo4 : 221,238,238

[HitObjects]
104,136,176,6,0,L|120:112,4,17.5
312,144,738,2,0,L|304:168,4,17.5
160,288,1300,2,0,L|152:256,4,17.5
272,112,1863,1,0,0:0:0:0:
328,200,2050,2,0,L|360:192,4,17.5
120,152,2613,1,0,0:0:0:0:
112,256,2800,1,0,0:0:0:0:
208,296,2988,1,0,0:0:0:0:
264,208,3175,2,0,L|280:192,5,17.5
256,192,3924,12,0,5799,2:0:0:0:
64,64,6174,5,0,2:0:0:0:
192,64,6408,1,0,2:0:0:0:
64,192,6736,2,0,L|84:204,4,17.5,0|0|0|0|0,2:0|2:0|2:0|2:0|2:0,2:0:0:0:
224,320,7299,2,0,L|248:312,4,17.5,0|0|0|0|0,2:0|2:0|2:0|2:0|2:0,2:0:0:0:
432,336,7861,1,0,2:0:0:0:
480,240,8049,6,0,B|368:104|368:104|352:136|352:136|184:176|368:224|272:296,1,420,0|0,2:0|2:0,2:0:0:0:
152,160,9502,2,0,B|160:232|184:152|216:136|232:216|256:224|280:136|304:136|312:224|333:207|368:128|392:128|392:128|416:216,1,367.5,0|0,2:0|2:0,2:0:0:0:
208,176,10861,5,0,2:0:0:0:
304,208,11048,2,0,L|272:208,4,17.5,0|0|0|0|0,2:0|2:0|2:0|2:0|2:0,2:0:0:0:
208,256,11423,2,0,L|132:120,1,140,0|0,2:0|2:0,2:0:0:0:
128,208,11939,1,0,2:0:0:0:
256,224,12173,2,0,L|248:252,4,17.5,0|0|0|0|0,2:0|2:0|2:0|2:0|2:0,2:0:0:0:
328,296,12548,6,0,B|392:272|416:192|416:192|392:120|328:88|328:88|304:136|248:176|248:176|136:72|40:248|288:344,1,770,0|0,2:0|2:0,2:0:0:0:
296,232,14798,2,0,B|168:152|168:152|216:104|216:104|240:0|336:200,1,420,0|0,2:0|2:0,2:0:0:0:
280,344,16298,2,0,B|296:336|296:336|280:328|280:328|296:320|296:320|280:312|280:312|296:304|296:304|280:296|280:296|296:288|296:288|280:280|280:280|296:272|296:272|280:264|280:264|296:256|296:256|280:248|280:248|296:240|296:240|280:232|280:232|296:224|296:224|280:216|280:216|296:208|296:208|280:200|280:200|296:192|296:192|280:184|280:184|296:176|296:176|280:168|280:168|296:160|296:160|280:152|280:152|296:144|296:144|280:136|280:136|296:128|296:128|280:120|280:120|296:112|296:112|280:104|280:104|296:96|296:96|280:88|280:88|296:80|296:80|280:72|280:72|296:64|296:64|280:56|280:56|296:48|296:48|277:40|277:40|296:32|296:32,1,700,0|0,2:0|2:0,2:0:0:0:
304,224,18735,6,0,L|324:216,4,17.5,4|0|0|0|0,3:3|2:0|2:0|2:0|2:0,2:0:0:0:
432,64,19297,2,0,L|456:44,4,17.5,4|0|0|0|0,3:3|2:0|2:0|2:0|2:0,2:0:0:0:
224,96,19860,1,0,2:0:0:0:
320,144,20047,2,0,L|328:116,4,17.5,4|0|0|0|0,3:3|2:0|2:0|2:0|2:0,2:0:0:0:
256,336,20609,1,4,3:3:0:0:
256,224,20797,1,0,2:0:0:0:
256,112,20984,1,4,3:3:0:0:
144,112,21172,6,0,L|132:136,4,17.5,4|0|0|0|0,3:3|2:0|2:0|2:0|2:0,2:0:0:0:
352,128,21734,2,0,L|348:160,4,17.5,4|0|0|0|0,3:3|2:0|2:0|2:0|2:0,2:0:0:0:
208,288,22297,2,0,L|192:316,4,17.5,4|0|0|0|0,3:3|2:0|2:0|2:0|2:0,2:0:0:0:
416,288,22859,1,0,2:0:0:0:
416,176,23047,2,0,L|408:204,4,17.5,4|0|0|0|0,3:3|2:0|2:0|2:0|2:0,2:0:0:0:
336,240,23422,2,0,L|236:128,1,140,0|4,2:0|3:3,2:0:0:0:
144,176,23984,1,4,3:3:0:0:
48,144,24172,6,0,L|60:172,4,17.5,4|0|0|0|0,3:3|2:0|2:0|2:0|2:0,2:0:0:0:
240,80,24734,2,0,L|252:104,4,17.5,4|0|0|0|0,3:3|2:0|2:0|2:0|2:0,2:0:0:0:
432,160,25296,2,0,L|444:180,4,17.5,4|0|0|0|0,3:3|2:0|2:0|2:0|2:0,2:0:0:0:
240,256,25859,1,0,2:0:0:0:
144,208,26046,2,0,L|156:236,4,17.5,4|0|0|0|0,3:3|2:0|2:0|2:0|2:0,2:0:0:0:
336,128,26609,1,4,3:3:0:0:
336,240,26796,1,0,2:0:0:0:
240,176,26984,1,4,3:3:0:0:
336,208,27171,6,0,L|304:216,4,17.5,4|0|0|0|0,3:3|2:0|2:0|2:0|2:0,2:0:0:0:
144,112,27734,2,0,L|156:132,4,17.5,4|0|0|0|0,3:3|2:0|2:0|2:0|2:0,2:0:0:0:
272,272,28296,2,0,L|300:260,4,17.5,4|0|0|0|0,3:3|2:0|2:0|2:0|2:0,2:0:0:0:
432,128,28858,1,0,2:0:0:0:
336,80,29046,2,0,L|328:108,4,17.5,4|0|0|0|0,3:3|2:0|2:0|2:0|2:0,2:0:0:0:
224,160,29468,2,0,P|244:104|292:48,1,122.5,0|4,2:0|3:3,2:0:0:0:
176,80,29983,1,4,3:3:0:0:
128,112,30171,1,8,3:2:0:0:
64,208,30546,6,0,P|60:188|68:168,1,35,0|0,2:2|2:2,2:2:0:0:
128,80,30921,2,0,P|124:100|132:120,1,35,0|0,2:1|2:1,2:1:0:0:
176,208,31296,2,0,P|172:188|180:172,1,35,0|0,2:0|2:0,2:0:0:0:
224,80,31671,2,0,P|222:98|228:120,1,35,0|0,2:0|2:0,2:0:0:0:
288,208,32046,2,0,P|284:188|288:168,1,35,0|0,2:0|2:0,2:0:0:0:
336,80,32421,2,0,P|332:100|340:120,1,35,0|0,2:0|3:0,2:0:0:0:
240,64,32796,1,0,3:0:0:0:
192,80,32889,1,0,3:0:0:0:
176,128,32983,1,0,3:0:0:0:
192,176,33077,1,0,3:0:0:0:
336,128,33171,6,0,L|304:112,1,35,0|0,3:0|2:0,2:0:0:0:
280,160,33545,2,0,L|320:176,1,35,0|0,2:0|2:0,2:0:0:0:
296,216,33920,2,0,L|264:200,1,35,0|0,2:0|2:0,2:0:0:0:
224,232,34295,2,0,L|256:248,1,35,0|0,2:0|2:0,2:0:0:0:
208,272,34670,2,0,L|176:256,1,35,0|0,2:0|2:0,2:0:0:0:
160,304,35045,2,0,L|192:320,1,35,0|0,2:0|2:0,2:0:0:0:
240,320,35420,2,0,L|256:288,1,35,0|0,2:0|3:0,2:0:0:0:
296,256,35795,2,0,L|296:240,8,8.75
48,208,37107,5,0,2:0:0:0:
160,208,37295,1,0,2:0:0:0:
112,304,37482,1,0,2:0:0:0:
112,192,37670,1,0,2:0:0:0:
208,240,37857,1,0,2:0:0:0:
176,144,38045,1,0,2:0:0:0:
256,208,38232,1,0,2:0:0:0:
144,208,38420,1,0,2:0:0:0:
96,112,38607,1,0,3:0:0:0:
256,128,38795,2,0,L|240:104,7,17.5,0|0|0|0|0|0|0|0,3:0|3:0|3:0|3:0|3:0|3:0|3:0|3:0,3:0:0:0:
232,88,39170,6,0,B|260:44|260:44|276:96|276:96|316:60|316:60|332:108|332:108|372:76|372:76|388:128|388:128|428:96|428:96|440:152|440:152,2,420.000016021729,0|0|0,2:0|2:0|2:0,2:0:0:0:
64,160,40919,5,0,2:0:0:0:
144,272,41232,1,0,2:0:0:0:
304,288,41607,1,0,2:0:0:0:
384,272,41794,1,0,2:0:0:0:
448,192,42169,2,4,P|336:88|224:124,1,280,4|4,3:1|3:1,3:1:0:0:
128,128,43107,5,0,2:0:0:0:
64,208,43294,1,0,2:0:0:0:
144,288,43482,1,0,2:0:0:0:
240,256,43669,1,0,2:0:0:0:
328,312,43857,1,0,2:0:0:0:
432,280,44044,1,0,2:0:0:0:
472,184,44232,5,0,2:0:0:0:
392,120,44419,1,0,2:0:0:0:
296,176,44607,1,0,2:0:0:0:
200,136,44794,1,0,2:0:0:0:
256,48,44981,1,0,2:0:0:0:
288,128,45169,6,0,B|416:116|352:-16|376:160|452:144,1,210.000008010865,0|0,2:0|2:0,2:0:0:0:
240,128,45919,1,0,3:0:0:0:
240,232,46106,6,0,L|184:312,1,70,0|0,2:0|2:0,2:0:0:0:
144,208,46481,1,0,2:0:0:0:
160,112,46669,1,0,2:0:0:0:
48,112,46856,1,0,2:0:0:0:
64,64,46950,1,0,2:0:0:0:
112,48,47044,1,0,2:0:0:0:
112,160,47278,1,0,2:0:0:0:
184,184,47419,2,0,P|216:192|256:184,1,70,0|0,2:0|2:0,2:0:0:0:
384,168,47794,2,0,P|392:136|384:88,1,70,0|0,2:0|2:0,2:0:0:0:
288,52,48169,6,0,B|336:100|300:144|300:144|328:192|300:244|300:244|332:280|292:316,1,288.750011014939,0|0,2:0|2:0,2:0:0:0:
208,208,48918,1,0,3:0:0:0:
256,304,49106,6,0,L|152:328,2,70,0|0|0,2:0|2:0|2:0,2:0:0:0:
360,336,49668,1,0,2:0:0:0:
288,248,49856,1,0,2:0:0:0:
392,256,50043,2,0,L|408:160,1,70,0|0,2:0|2:0,2:0:0:0:
312,120,50418,1,0,2:0:0:0:
288,224,50606,1,0,2:0:0:0:
248,320,50793,2,0,L|168:320,1,70,0|0,2:0|2:0,2:0:0:0:
112,208,51168,5,0,2:0:0:0:
240,256,51356,1,0,2:0:0:0:
120,208,51543,1,0,2:0:0:0:
72,304,51918,6,0,L|40:272,2,35,0|0|0,2:0|2:0|2:0,2:0:0:0:
48,256,52199,1,0,2:0:0:0:
48,200,52293,2,0,L|88:128,1,70,0|0,2:0|2:0,2:0:0:0:
160,208,52668,1,0,2:0:0:0:
248,272,52855,1,0,2:0:0:0:
344,232,53043,2,0,P|344:192|304:168,1,70,0|0,2:0|2:0,2:0:0:0:
224,152,53418,1,0,2:0:0:0:
120,136,53605,1,0,2:0:0:0:
216,88,53793,1,0,2:0:0:0:
312,40,53980,1,0,0:0:0:0:
472,32,54168,6,0,P|352:80|320:144,1,175,0|0,1:0|2:0,2:0:0:0:
48,224,54918,6,0,L|64:176,9,35,0|0|0|0|0|0|0|0|0|0,2:0|2:0|2:0|2:0|2:0|2:0|2:0|2:0|2:0|2:0,2:0:0:0:
96,160,55855,1,0,2:0:0:0:
144,144,55948,1,0,2:0:0:0:
192,128,56042,1,0,2:0:0:0:
240,128,56136,1,0,2:0:0:0:
272,160,56229,1,0,2:0:0:0:
272,208,56323,1,0,2:0:0:0:
256,256,56418,2,0,L|240:288,7,35,0|0|0|0|0|0|0|0,2:0|2:0|2:0|2:0|2:0|2:0|2:0|2:0,2:0:0:0:
216,208,57167,6,0,B|156:176|120:176|120:176|120:128|56:132,1,175,0|0,2:0|2:0,2:0:0:0:
32,336,57917,6,0,L|32:280,1,35,0|0,3:0|3:0,3:0:0:0:
64,264,58105,2,0,L|64:312,1,35,0|0,3:0|3:0,3:0:0:0:
104,264,58292,2,0,L|104:224,1,35,0|0,3:0|3:0,3:0:0:0:
136,192,58480,2,0,L|136:248,1,35,0|0,3:0|3:0,3:0:0:0:
176,192,58667,2,0,L|176:136,1,35,0|0,3:0|3:0,3:0:0:0:
216,120,58855,2,0,L|216:168,1,35,0|0,3:0|3:0,3:0:0:0:
264,176,59042,6,0,L|264:120,1,35,0|0,3:0|3:0,3:0:0:0:
304,176,59230,2,0,L|304:216,1,35,0|0,3:0|3:0,3:0:0:0:
344,240,59417,2,0,L|344:192,1,35,0|0,3:0|3:0,3:0:0:0:
384,240,59605,2,0,L|384:296,1,35,0|0,3:0|3:0,3:0:0:0:
432,296,59792,2,0,L|432:256,1,35,0|0,3:0|3:0,3:0:0:0:
480,288,59980,2,0,L|480:336,1,35,0|0,3:0|3:0,3:0:0:0:
424,352,60167,6,0,P|376:342|336:302,3,87.5,0|0|0|0,2:0|2:0|2:0|2:0,2:0:0:0:
256,208,60917,1,0,3:0:0:0:
208,208,61011,5,0,2:0:0:0:
208,256,61104,1,0,2:0:0:0:
256,256,61198,1,0,2:0:0:0:
304,256,61292,1,0,2:0:0:0:
304,208,61386,1,0,2:0:0:0:
304,160,61479,1,0,2:0:0:0:
256,160,61573,1,0,2:0:0:0:
208,160,61667,1,0,2:0:0:0:
160,160,61761,5,0,2:0:0:0:
160,208,61854,1,0,2:0:0:0:
160,256,61948,1,0,2:0:0:0:
160,304,62042,1,0,2:0:0:0:
208,304,62136,1,0,2:0:0:0:
256,304,62229,1,0,2:0:0:0:
304,304,62323,1,0,2:0:0:0:
352,304,62417,1,0,2:0:0:0:
352,256,62511,5,0,2:0:0:0:
352,208,62604,1,0,2:0:0:0:
352,160,62698,1,0,2:0:0:0:
352,112,62792,1,0,2:0:0:0:
304,112,62885,1,0,2:0:0:0:
256,112,62979,1,0,2:0:0:0:
208,112,63073,1,0,2:0:0:0:
144,112,63167,5,0,2:0:0:0:
240,208,63354,1,0,2:0:0:0:
384,176,63542,1,0,2:0:0:0:
432,272,63917,5,0,3:0:0:0:
384,288,64010,1,0,2:0:0:0:
288,320,64198,1,0,2:0:0:0:
240,320,64292,1,0,2:0:0:0:
144,272,64479,1,0,2:0:0:0:
112,240,64667,2,0,P|116:176|128:160,1,70,0|0,2:0|2:0,2:0:0:0:
128,48,65416,1,0,2:0:0:0:
160,48,65604,2,0,P|220:80|243:164,1,157.500006008148,0|0,2:0|3:0,2:0:0:0:
288,144,66260,5,0,2:0:0:0:
288,96,66354,1,0,2:0:0:0:
256,48,66448,1,0,2:0:0:0:
208,16,66541,1,0,2:0:0:0:
320,32,66729,2,0,P|332:84|324:112,1,70,0|0,2:0|2:0,2:0:0:0:
384,192,67104,5,0,2:0:0:0:
384,304,67291,2,0,P|304:296|244:268,1,140,0|0,2:0|2:0,2:0:0:0:
208,176,67854,1,0,2:0:0:0:
144,256,68041,1,0,2:0:0:0:
128,160,68229,1,0,2:0:0:0:
32,112,68416,2,0,P|72:48|132:24,1,140,0|0,2:0|2:0,2:0:0:0:
176,96,68978,1,0,2:0:0:0:
368,96,69166,5,0,2:3:0:0:
208,128,69353,1,0,2:3:0:0:
64,160,69541,1,0,2:3:0:0:
224,192,69728,2,0,B|284:204|260:272,1,105.000004005432,0|0,2:0|3:0,3:0:0:0:
320,352,70103,5,0,2:0:0:0:
208,352,70291,2,0,P|136:328|128:260,1,140,0|0,2:0|2:0,2:0:0:0:
144,192,70853,1,0,2:0:0:0:
368,192,71041,1,0,2:0:0:0:
256,192,71228,1,0,2:0:0:0:
288,96,71416,2,0,P|304:64|304:24,1,70,0|0,2:0|2:0,2:0:0:0:
224,96,71791,2,0,P|208:64|224:16,1,70,0|0,2:0|2:0,2:0:0:0:
192,192,72166,5,0,3:0:0:0:
464,32,72541,1,0,3:0:0:0:
400,224,72915,2,0,P|396:284|428:324,1,105,0|0,3:0|2:0,2:0:0:0:
160,272,73665,5,0,2:0:0:0:
256,256,73853,1,0,2:0:0:0:
352,208,74040,1,0,2:0:0:0:
368,96,74228,1,0,2:0:0:0:
456,192,74415,2,0,P|472:144|424:64,1,140,0|0,2:0|2:0,2:0:0:0:
336,48,74978,1,0,2:0:0:0:
192,112,75165,5,0,2:0:0:0:
352,128,75353,1,0,2:0:0:0:
336,288,75540,2,0,B|232:288|176:200|120:208,1,210.000008010865,0|0,2:0|3:0,2:0:0:0:
48,176,76103,5,0,2:0:0:0:
64,272,76290,2,0,P|120:304|204:284,1,140,0|0,2:0|2:0,2:0:0:0:
208,192,76852,1,0,2:0:0:0:
304,240,77040,1,0,2:0:0:0:
336,144,77227,1,0,2:0:0:0:
400,240,77415,1,0,2:0:0:0:
448,144,77602,1,0,2:0:0:0:
352,192,77790,1,0,2:0:0:0:
320,96,78165,6,0,P|264:84|200:104,3,105.000004005432,0|0|0|0,2:0|2:0|2:0|2:0,2:0:0:0:
160,176,78915,1,0,3:0:0:0:
80,240,79102,6,0,P|112:252|160:248,1,70,0|0,2:0|2:0,2:0:0:0:
224,48,79665,2,0,P|256:36|304:40,2,70,0|0|0,2:0|2:0|2:0,2:0:0:0:
304,112,80227,2,0,P|344:128|352:164,1,70,0|0,2:0|2:0,2:0:0:0:
480,320,80790,2,0,P|484:284|472:248,1,70,0|0,2:0|2:0,2:0:0:0:
448,96,81164,6,0,P|356:176|328:260,1,210.000008010865,0|8,2:0|3:1,2:0:0:0:
208,80,81914,1,0,3:0:0:0:
208,192,82102,6,0,P|168:168|152:136,1,70,0|0,2:0|2:0,2:0:0:0:
80,112,82664,2,0,P|68:72|72:32,3,70,0|0|0|0,2:0|2:0|2:0|2:0,2:0:0:0:
176,32,83414,1,0,2:0:0:0:
288,32,83602,1,0,2:0:0:0:
224,112,83789,1,0,2:0:0:0:
224,216,83977,1,0,2:0:0:0:
352,48,84164,5,0,3:0:0:0:
432,48,84258,1,0,3:0:0:0:
472,120,84352,1,0,3:0:0:0:
440,192,84445,1,0,3:0:0:0:
360,192,84539,1,0,3:0:0:0:
392,112,84727,1,0,3:0:0:0:
304,112,84914,1,2,3:3:0:0:
192,112,85101,5,0,2:0:0:0:
96,160,85289,2,0,P|124:216|192:256,1,140,0|0,2:0|2:0,2:0:0:0:
272,304,85851,1,0,2:0:0:0:
384,304,86039,1,0,2:0:0:0:
448,224,86226,1,0,2:0:0:0:
336,240,86414,2,0,P|340:180|292:100,1,140,0|0,2:0|2:0,2:0:0:0:
192,112,86976,1,0,2:0:0:0:
80,224,87164,5,0,2:0:0:0:
240,224,87351,1,0,2:0:0:0:
80,224,87539,2,0,B|68:232|68:300|240:328,1,210.000008010865,0|0,3:0|3:0,3:0:0:0:
272,224,88101,2,0,B|308:208|260:360|368:240,1,140,0|0,2:0|2:0,0:0:0:0:
384,208,88664,6,0,B|384:136|384:136|348:136,1,105,0|0,3:0|3:0,3:0:0:0:
304,160,89413,2,0,P|272:144|248:168,2,70,0|0|0,2:0|2:0|0:0,0:0:0:0:
256,192,99350,12,0,101787,2:0:0:0:
64,160,102162,6,0,L|80:136,4,17.5,0|0|0|0|0,2:0|2:0|2:0|2:0|2:0,2:0:0:0:
128,80,102537,1,4,3:3:0:0:
240,64,102724,2,0,L|272:68,4,17.5,0|0|0|0|4,2:0|2:0|2:0|2:0|3:0,2:0:0:0:
448,80,103287,2,0,L|476:76,4,17.5,4|0|0|0|0,3:0|2:0|2:0|2:0|2:0,2:0:0:0:
368,144,103662,1,4,3:3:0:0:
400,240,103849,1,0,2:0:0:0:
288,256,104037,2,0,L|256:256,4,17.5,4|0|0|0|0,3:3|2:0|2:0|2:0|2:0,2:0:0:0:
192,224,104412,1,4,3:3:0:0:
96,176,104599,1,0,2:0:0:0:
48,80,104787,1,4,3:3:0:0:
144,32,104974,1,4,3:3:0:0:
208,112,105161,6,0,L|176:112,4,17.5,4|0|0|0|0,3:3|2:0|2:0|2:0|2:0,2:0:0:0:
304,144,105536,1,0,3:0:0:0:
208,192,105724,2,0,L|188:204,4,17.5,0|0|0|0|4,2:0|2:0|2:0|2:0|3:3,2:0:0:0:
416,256,106286,2,0,L|440:252,4,17.5,4|0|0|0|0,3:3|2:0|2:0|2:0|2:0,2:0:0:0:
320,240,106661,1,4,3:3:0:0:
272,336,106849,1,0,2:0:0:0:
208,256,107036,2,0,L|212:280,4,17.5,4|0|0|0|0,3:3|2:0|2:0|2:0|2:0,2:0:0:0:
112,224,107411,2,0,P|64:216|36:132,1,140,0|4,3:0|3:3,0:0:0:0:
128,160,107974,1,4,3:3:0:0:
208,80,108161,6,0,L|212:100,4,17.5,4|0|0|0|0,3:3|2:0|2:0|2:0|2:0,2:0:0:0:
288,144,108536,1,4,3:3:0:0:
368,80,108724,2,0,L|384:100,4,17.5,0|0|0|0|4,3:0|2:0|2:0|2:0|3:3,2:0:0:0:
432,272,109286,2,0,L|440:244,4,17.5,4|0|0|0|0,3:3|2:0|2:0|2:0|2:0,2:0:0:0:
320,256,109661,1,4,3:3:0:0:
224,224,109848,1,0,2:0:0:0:
288,144,110036,2,0,L|280:116,4,17.5,4|0|0|0|0,3:3|2:0|2:0|2:0|2:0,2:0:0:0:
208,64,110411,1,4,3:3:0:0:
160,160,110598,1,0,2:0:0:0:
96,80,110786,1,4,3:3:0:0:
160,160,110973,1,4,3:3:0:0:
160,272,111161,6,0,L|180:260,4,17.5,4|0|0|0|0,3:3|2:0|2:0|2:0|2:0,2:0:0:0:
256,240,111536,1,4,3:3:0:0:
336,176,111723,2,0,L|320:188,4,17.5,0|0|0|0|4,2:0|2:0|2:0|2:0|3:3,2:0:0:0:
464,352,112286,2,0,L|488:344,4,17.5,4|0|0|0|0,3:3|2:0|2:0|2:0|2:0,2:0:0:0:
416,256,112661,1,4,3:3:0:0:
320,320,112848,1,0,2:0:0:0:
224,272,113035,2,0,L|236:292,4,17.5,4|0|0|0|0,3:3|2:0|2:0|2:0|2:0,2:0:0:0:
128,288,113410,2,0,L|44:160,1,140,4|4,3:3|3:3,0:0:0:0:
144,112,113973,1,4,3:3:0:0:
176,64,114160,1,8,3:2:0:0:
96,320,115098,5,0,2:0:0:0:
112,272,115285,1,0,2:0:0:0:
80,224,115473,1,0,2:0:0:0:
96,176,115660,1,0,2:0:0:0:
144,192,115848,1,0,2:0:0:0:
192,208,116035,1,0,2:0:0:0:
240,224,116223,1,0,2:0:0:0:
224,176,116410,5,0,2:0:0:0:
176,160,116598,1,0,3:0:0:0:
128,128,116785,1,0,3:0:0:0:
160,112,116879,1,0,3:0:0:0:
176,96,116972,1,0,3:0:0:0:
160,80,117066,1,0,3:0:0:0:
176,64,117160,1,0,3:0:0:0:
432,80,118097,5,0,2:0:0:0:
416,128,118285,1,0,2:0:0:0:
416,176,118472,1,0,2:0:0:0:
384,224,118660,1,0,2:0:0:0:
336,224,118847,1,0,2:0:0:0:
288,240,119035,1,0,2:0:0:0:
256,272,119222,1,0,2:0:0:0:
224,224,119410,1,0,2:0:0:0:
208,176,119597,1,0,3:0:0:0:
208,128,119785,2,0,L|204:144,8,8.75,0|0|0|0|0|0|0|0|0,1:0|1:0|1:0|1:0|1:0|1:0|1:0|1:0|1:0,1:0:0:0:
80,256,121097,5,0,2:0:0:0:
176,240,121284,1,0,2:0:0:0:
288,224,121472,1,0,2:0:0:0:
384,208,121659,1,0,2:0:0:0:
416,112,121847,1,0,2:0:0:0:
304,96,122034,1,0,2:0:0:0:
192,96,122222,1,0,2:0:0:0:
96,112,122409,1,0,2:0:0:0:
80,224,122597,1,0,3:0:0:0:
176,272,122784,2,0,L|156:264,7,17.5,0|0|0|0|0|0|0|0,3:0|3:0|3:0|3:0|3:0|3:0|3:0|3:0,3:0:0:0:
160,320,123159,5,0,2:0:0:0:
208,224,123253,1,0,2:0:0:0:
288,304,123347,1,0,2:0:0:0:
384,256,123441,1,0,2:0:0:0:
416,160,123534,1,0,2:0:0:0:
304,160,123628,1,0,2:0:0:0:
192,176,123722,1,0,2:0:0:0:
128,96,123816,1,0,2:0:0:0:
240,112,123909,5,0,2:0:0:0:
160,192,124003,1,0,2:0:0:0:
256,224,124097,1,0,2:0:0:0:
352,224,124190,1,0,2:0:0:0:
336,128,124284,1,0,2:0:0:0:
240,176,124378,1,0,2:0:0:0:
160,240,124472,1,0,2:0:0:0:
256,288,124565,1,0,2:0:0:0:
256,176,124659,1,0,0:0:0:0:
160,144,126160,6,0,B|224:248|328:248|368:128,1,280,0|4,2:0|3:0,2:0:0:0:
224,96,127160,6,0,L|280:80,1,46.6666666666667,0|0,2:0|2:0,2:0:0:0:
432,48,127534,1,0,2:0:0:0:
432,192,127784,1,0,2:0:0:0:
400,256,127910,2,0,L|360:304,1,46.6666666666667,0|0,2:0|2:0,2:0:0:0:
224,352,128284,1,0,2:0:0:0:
160,336,128408,1,0,2:0:0:0:
96,304,128534,2,0,B|72:256|72:256|104:232|104:232|80:192|80:192|112:136,1,186.666666666667,0|0,2:0|2:0,2:0:0:0:
224,64,129158,6,0,P|272:48|320:64,1,87.5,0|0,2:0|2:0,2:0:0:0:
208,144,129533,2,0,B|243:136|256:144|288:168,1,87.5,0|0,2:0|2:0,2:0:0:0:
384,144,129908,1,0,3:0:0:0:
416,208,130033,5,0,2:0:0:0:
432,272,130158,1,0,2:0:0:0:
400,336,130283,1,0,2:0:0:0:
256,336,130533,1,0,2:0:0:0:
128,272,130783,2,0,B|80:240|80:240|112:200,1,93.3333333333333,0|0,2:0|2:0,2:0:0:0:
304,208,131283,1,0,2:0:0:0:
448,208,131533,1,0,2:0:0:0:
336,128,131783,2,0,L|296:152,1,46.6666666666667,0|0,2:0|2:0,2:0:0:0:
208,192,132033,1,0,2:0:0:0:
200,104,132158,1,0,2:0:0:0:
224,192,132783,6,0,L|288:188,1,58.3333333333333,0|0,2:0|3:0,2:0:0:0:
176,96,133158,5,0,2:0:0:0:
112,96,133283,1,0,2:0:0:0:
64,144,133408,1,0,2:0:0:0:
96,208,133533,2,0,L|120:256,1,46.6666666666667,0|0,2:0|2:0,2:0:0:0:
272,304,133908,1,0,2:0:0:0:
368,200,134158,2,0,B|368:152|368:152|320:136,1,93.3333333333333,0|0,2:0|2:0,2:0:0:0:
144,112,134658,1,0,2:0:0:0:
256,192,134908,1,0,2:0:0:0:
184,192,135033,2,0,L|216:240,1,46.6666666666667,0|4,2:0|2:3,2:0:0:0:
288,252,135533,6,0,P|240:184|152:180,1,175,0|0,2:0|2:0,2:0:0:0:
88,192,136033,6,0,L|48:136,2,46.6666666666667,0|0|0,2:0|2:0|2:0,2:0:0:0:
176,48,136533,1,0,2:0:0:0:
208,64,136658,6,0,B|240:56|272:80|272:80|308:72|328:40,1,140,0|0,2:0|3:0,2:0:0:0:
376,64,137532,1,0,2:0:0:0:
336,112,137657,1,0,2:0:0:0:
384,128,137782,2,0,B|436:156|459:205|464:208,1,105.000004005432,0|0,3:0|3:0,3:0:0:0:
432,256,138282,1,0,2:0:0:0:
368,224,138407,1,0,2:0:0:0:
304,144,138532,2,0,B|332:144|336:236|340:368,1,210.000008010865,0|0,2:0|2:0,2:0:0:0:
480,336,139157,5,0,2:0:0:0:
416,336,139282,1,0,2:0:0:0:
272,320,139532,1,0,2:0:0:0:
208,192,139782,1,0,2:0:0:0:
176,256,139907,1,0,2:0:0:0:
240,272,140032,1,0,2:0:0:0:
368,224,140282,1,0,2:0:0:0:
384,160,140407,2,0,L|336:112,1,46.6666666666667,0|0,2:0|2:0,2:0:0:0:
296,80,140657,1,0,2:0:0:0:
256,128,140782,2,0,L|192:104,1,46.6666666666667,0|0,2:0|2:0,2:0:0:0:
224,64,141032,1,0,2:0:0:0:
208,48,141157,6,0,P|152:40|96:68,1,105.000004005432,0|0,2:0|2:0,2:0:0:0:
272,64,141532,2,0,P|252:112|264:176,1,105.000004005432,0|0,2:0|2:0,2:0:0:0:
160,160,141907,1,0,3:0:0:0:
96,192,142032,5,0,2:0:0:0:
128,256,142157,1,0,2:0:0:0:
192,224,142282,1,0,2:0:0:0:
96,320,142532,1,0,2:0:0:0:
240,304,142782,2,0,L|296:288,1,46.6666666666667,0|0,2:0|2:0,2:0:0:0:
368,240,143032,1,0,2:0:0:0:
288,128,143282,2,0,L|192:104,1,93.3333333333333,0|0,2:0|2:0,2:0:0:0:
288,32,143782,1,0,2:0:0:0:
352,64,143907,1,0,2:0:0:0:
368,128,144016,1,0,2:0:0:0:
352,240,144157,6,0,B|332:172|268:188|144:172,1,210.000008010865,0|0,2:0|2:0,2:0:0:0:
352,256,144782,2,0,P|332:292|288:312,1,70.0000026702882,0|0,2:0|3:0,2:0:0:0:
384,192,145156,5,0,2:0:0:0:
336,144,145281,2,0,L|384:128,1,46.6666666666667,0|0,2:0|2:0,2:0:0:0:
336,80,145531,1,0,2:0:0:0:
272,112,145656,2,0,L|176:48,1,93.3333333333333,0|0,2:0|2:0,2:0:0:0:
64,144,146156,2,0,L|128:152,1,46.6666666666667,0|0,2:0|2:0,2:0:0:0:
192,192,146406,1,0,2:0:0:0:
176,336,146656,1,0,2:0:0:0:
304,256,146906,1,0,2:0:0:0:
240,256,147031,1,0,2:0:0:0:
304,176,147156,1,4,2:3:0:0:
304,176,147531,6,0,P|380:284|360:352,1,210.000008010865,0|0,2:0|3:0,2:0:0:0:
288,344,148031,5,0,2:0:0:0:
224,328,148156,1,0,2:0:0:0:
272,280,148281,1,0,2:0:0:0:
400,272,148656,1,0,2:0:0:0:
256,272,148906,1,0,2:0:0:0:
112,256,149156,5,0,2:0:0:0:
64,208,149281,1,0,2:0:0:0:
128,192,149406,1,0,2:0:0:0:
192,176,149531,1,0,2:0:0:0:
256,160,149656,5,0,2:0:0:0:
192,128,149781,1,0,2:0:0:0:
128,112,149906,1,0,2:0:0:0:
64,96,150031,1,0,2:0:0:0:
112,80,150156,6,0,B|188:56|278:79|278:79|332:152|344:228|344:228|264:256|172:236|172:236,1,503.999984619141,0|0,3:0|3:0,3:0:0:0:
192,128,153155,5,0,3:0:0:0:
160,144,153280,1,0,3:0:0:0:
128,176,153405,1,0,3:0:0:0:
64,336,153905,1,4,3:3:0:0:
144,240,154280,2,0,P|184:272|192:304,1,83.9999974365235,0|0,3:0|3:0,3:0:0:0:
224,272,154780,5,0,3:0:0:0:
256,304,154905,1,0,3:0:0:0:
272,272,155030,1,0,3:0:0:0:
304,304,155155,1,0,3:0:0:0:
320,272,155280,1,0,3:0:0:0:
304,240,155405,1,0,3:0:0:0:
288,208,155530,1,0,3:0:0:0:
208,240,155780,1,0,3:0:0:0:
192,208,155905,1,0,3:0:0:0:
160,240,156030,1,0,3:0:0:0:
144,208,156155,5,0,3:0:0:0:
352,64,156905,1,0,3:0:0:0:
164,52,157280,2,0,B|252:140|392:136|392:136|400:212|468:288,1,419.999987182618,0|0,3:0|3:0,3:0:0:0:
208,304,159905,5,0,3:0:0:0:
272,192,160280,2,0,P|268:236|240:272,1,83.9999974365235,0|0,3:0|3:0,3:0:0:0:
288,272,160780,5,0,3:0:0:0:
288,320,160904,1,0,3:0:0:0:
256,336,161029,1,0,3:0:0:0:
208,320,161154,1,0,3:0:0:0:
176,304,161279,1,0,3:0:0:0:
144,288,161404,1,0,3:0:0:0:
112,256,161529,1,0,3:0:0:0:
96,224,161654,1,0,3:0:0:0:
80,192,161779,1,0,3:0:0:0:
64,160,161904,1,0,3:0:0:0:
48,128,162029,1,0,3:0:0:0:
80,96,162154,6,0,B|164:68|236:136|236:136|88:208|88:208|176:264|256:256,1,503.999984619141,0|0,3:0|3:0,3:0:0:0:
80,64,165154,5,0,3:0:0:0:
112,96,165279,1,0,3:0:0:0:
144,128,165404,1,0,3:0:0:0:
236,220,165904,1,4,3:3:0:0:
256,156,166279,2,0,P|288:176|304:224,1,83.9999974365235,0|0,3:0|3:0,3:0:0:0:
352,208,166779,5,0,3:0:0:0:
384,176,166904,1,0,3:0:0:0:
352,96,167154,1,0,3:0:0:0:
320,64,167279,1,0,3:0:0:0:
272,48,167404,1,0,3:0:0:0:
224,64,167529,1,0,3:0:0:0:
144,112,167779,1,0,3:0:0:0:
112,144,167904,1,0,3:0:0:0:
96,176,168029,1,0,3:0:0:0:
48,176,168154,6,0,B|60:280|128:320|128:320|208:176|208:176|288:336|288:336,1,503.999984619141,0|0,3:0|3:0,3:0:0:0:
368,304,170778,5,0,3:0:0:0:
400,272,170903,1,0,3:0:0:0:
384,224,171028,1,0,3:0:0:0:
368,192,171153,2,0,B|268:188|228:108|228:108|188:180|96:220,1,335.999989746094,0|0,3:0|3:0,3:0:0:0:
64,224,172778,5,0,3:0:0:0:
64,272,172903,1,0,3:0:0:0:
96,304,173028,1,0,3:0:0:0:
144,320,173153,1,0,3:0:0:0:
176,288,173278,1,0,3:0:0:0:
176,240,173403,1,0,3:0:0:0:
176,192,173528,1,0,3:0:0:0:
192,160,173653,1,0,3:0:0:0:
224,128,173778,1,0,3:0:0:0:
256,144,173903,1,0,3:0:0:0:
256,192,174028,1,0,3:0:0:0:
