osu file format v14

[General]
AudioFilename: audio.mp3
AudioLeadIn: 0
PreviewTime: 50130
Countdown: 0
SampleSet: Soft
StackLeniency: 0.2
Mode: 0
LetterboxInBreaks: 0
WidescreenStoryboard: 1

[Editor]
Bookmarks: 485,6678,15968,19065,37646,43839,51581,73259,76355,88743,101130,107323,115065,136743,146033,155323,177001,189388,198678,207968,211065
DistanceSpacing: 0.8
BeatDivisor: 3
GridSize: 4
TimelineZoom: 1

[Metadata]
Title:Tabi to Ferry
TitleUnicode:旅とフェリー
Artist:FUJIN CLUB
ArtistUnicode:婦人倶楽部
Creator:dsco
Version:Normal
Source:
Tags:pop japan travel and and shibuya kei lounge vinxis xilver
BeatmapID:1506386
BeatmapSetID:704541

[Difficulty]
HPDrainRate:3
CircleSize:3.5
OverallDifficulty:3.5
ApproachRate:3
SliderMultiplier:1.1
SliderTickRate:1

[Events]
//Background and Video events
0,0,"ff.jpg",0,0
Video,163,"videoplayback(1).avi"
//Break Periods
2,49072,50141
2,73459,74915
2,112555,113625
2,136943,141496
//Storyboard Layer 0 (Background)
//Storyboard Layer 1 (Fail)
//Storyboard Layer 2 (Pass)
//Storyboard Layer 3 (Foreground)
//Storyboard Sound Samples

[TimingPoints]
485,387.096774193548,4,2,1,60,1,0
155323,-100,4,2,1,70,0,1
177001,-100,4,2,1,60,0,0

[Colours]
Combo1 : 218,99,120
Combo2 : 119,192,199

[HitObjects]
482,183,6678,6,0,P|433:177|357:194,1,110,4|8,0:0|0:0,0:0:0:0:
335,207,7259,1,2,0:3:0:0:
257,166,7646,2,0,L|251:107,1,55,2|8,0:3|0:0,0:0:0:0:
216,85,8033,6,0,L|96:78,1,110,4|2,0:0|0:0,0:0:0:0:
63,75,8614,1,8,0:0:0:0:
11,145,9001,1,0,0:0:0:0:
62,217,9388,2,0,L|64:277,1,55,8|8,0:0|0:0,0:0:0:0:
46,312,9775,6,0,P|101:300|175:305,1,110,4|8,0:0|0:0,0:0:0:0:
188,330,10355,1,0,0:1:0:0:
254,270,10743,2,0,L|261:210,1,55,2|8,0:0|0:0,0:0:0:0:
249,172,11130,6,0,P|321:185|370:183,1,110,4|2,0:0|0:0,0:0:0:0:
402,175,11710,1,8,0:0:0:0:
402,175,11904,2,0,L|414:300,1,110
421,327,12484,1,2,3:2:0:0:
347,374,12872,6,0,P|296:362|222:367,1,110,4|8,0:0|0:0,0:0:0:0:
197,375,13452,1,2,0:3:0:0:
126,323,13839,2,0,L|121:265,1,55,2|8,0:3|0:0,0:0:0:0:
89,238,14226,6,0,P|96:182|90:122,1,110,4|2,0:0|0:0,0:0:0:0:
76,87,14807,1,8,0:0:0:0:
146,32,15194,2,0,L|219:25,1,55,10|0,0:2|0:0,0:0:0:0:
235,55,15581,1,2,0:3:0:0:
311,9,15968,5,4,0:0:0:0:
256,192,16162,12,2,17904,0:3:0:0:
271,103,19065,5,4,0:0:0:0:
342,153,19452,2,0,P|352:204|342:262,1,110,8|2,0:0|0:0,0:0:0:0:
394,331,20226,1,8,0:0:0:0:
394,331,20420,2,0,P|447:321|501:331,2,110,0|0|0,0:0|0:0|0:0,0:0:0:0:
309,356,21581,2,0,P|255:366|201:356,1,110,0|0,0:0|0:0,0:0:0:0:
161,337,22162,5,4,0:0:0:0:
120,258,22549,2,0,L|126:132,1,110,8|2,0:0|0:0,0:0:0:0:
102,63,23323,1,8,0:0:0:0:
102,63,23517,2,0,P|154:69|211:57,1,110,2|0,0:3|3:0,0:0:0:0:
260,130,24291,2,0,P|313:119|368:125,1,110,2|0,0:3|3:0,0:0:0:0:
425,192,25065,6,0,B|438:225|438:225|428:309,1,110,4|2,0:0|3:2,0:0:0:0:
423,342,25646,1,8,0:0:0:0:
347,297,26033,2,0,P|304:285|217:299,1,110,2|8,0:3|0:0,0:0:0:0:
201,312,26614,2,0,P|146:318|93:305,1,110,2|2,0:3|3:2,0:0:0:0:
55,327,27194,1,8,0:0:0:0:
55,327,27388,2,0,L|61:217,1,110,2|2,0:3|3:2,0:0:0:0:
66,173,27968,1,8,0:0:0:0:
15,100,28355,5,4,0:0:0:0:
89,52,28743,2,0,P|145:45|215:46,1,110,8|2,0:0|0:0,0:0:0:0:
260,115,29517,1,8,0:0:0:0:
260,115,29710,2,0,P|316:121|386:121,2,110,0|0|0,0:0|0:0|0:0,0:0:0:0:
182,156,30872,2,0,L|171:289,1,110,0|2,0:0|0:0,0:0:0:0:
168,309,31452,5,0,0:0:0:0:
251,335,31839,2,0,L|378:327,1,110,8|2,0:0|0:0,0:0:0:0:
433,277,32614,1,8,0:0:0:0:
433,277,32807,2,0,P|411:328|410:389,2,110,2|0|2,0:3|0:3|0:3,0:0:0:0:
472,198,33968,2,0,P|487:145|488:124,1,55,0|8,0:3|0:0,0:0:0:0:
480,102,34355,6,0,L|359:93,1,110,4|2,0:0|3:2,0:0:0:0:
326,87,34936,1,8,0:0:0:0:
250,132,35323,2,0,L|189:127,2,55,2|2|2,0:3|0:0|0:3,0:0:0:0:
275,167,35904,6,0,P|290:216|279:278,1,110,6|2,0:0|3:0,0:0:0:0:
230,345,36678,2,0,P|177:360|123:351,1,110,2|8,3:0|0:0,0:0:0:0:
51,300,37452,6,0,P|35:247|44:193,1,110,4|0,0:0|3:0,0:0:0:0:
26,153,38033,1,8,0:0:0:0:
89,91,38420,2,0,L|161:98,1,55,2|0,0:0|0:0,0:0:0:0:
222,135,39001,2,0,P|273:115|348:119,1,110,2|0,0:3|3:0,0:0:0:0:
368,130,39581,1,8,0:0:0:0:
437,184,39968,2,0,L|441:255,1,55,2|2,0:0|0:0,0:0:0:0:
401,317,40549,6,0,P|350:297|275:301,1,110,2|0,0:3|3:0,0:0:0:0:
255,312,41129,1,8,0:0:0:0:
174,275,41517,2,0,L|97:271,1,55,2|2,0:0|0:0,0:0:0:0:
74,273,41904,1,8,0:0:0:0:
74,273,42097,2,0,P|59:212|72:152,1,110,2|0,0:3|3:0,0:0:0:0:
153,155,42872,2,0,P|168:94|155:34,1,110,0|0,0:0|0:0,0:0:0:0:
82,8,43646,1,0,0:0:0:0:
82,8,43839,6,0,P|134:22|188:15,1,110,4|0,0:0|0:0,0:0:0:0:
276,27,44614,2,0,P|328:12|382:19,1,110,2|2,0:0|0:0,0:0:0:0:
456,68,45388,2,0,B|473:120|449:184|443:169|419:233|436:285,1,220,0|2,0:0|0:0,0:0:0:0:
397,361,46549,1,0,0:0:0:0:
326,308,46936,6,0,P|267:291|202:301,1,110,4|0,0:0|0:0,0:0:0:0:
164,364,47710,2,0,P|105:381|40:371,2,110,8|0|2,0:0|3:0|0:0,0:0:0:0:
134,284,48872,1,10,0:3:0:0:
179,136,51581,6,0,P|235:122|306:130,1,110,4|8,0:0|0:0,0:0:0:0:
368,161,52355,2,0,L|376:233,1,55,2|0,0:3|0:0,0:0:0:0:
403,248,52743,2,0,P|463:256|532:257,2,110,8|0|8,0:0|0:0|0:0,0:0:0:0:
325,290,53904,2,0,P|264:281|195:280,1,110,2|8,0:3|0:0,0:0:0:0:
156,344,54678,6,0,P|179:295|173:223,1,110,4|8,0:0|0:0,0:0:0:0:
155,202,55259,1,2,0:0:0:0:
155,202,55452,2,0,L|22:195,1,110,2|8,0:3|0:0,0:0:0:0:
17,112,56226,2,0,L|126:117,1,110,2|0,0:0|0:0,0:0:0:0:
164,94,56807,1,0,0:0:0:0:
164,94,57001,2,0,L|160:36,2,55,2|0|8,3:0|3:0|0:0,0:0:0:0:
233,147,57775,6,0,P|287:155|354:145,1,110,4|8,0:0|0:0,0:0:0:0:
425,122,58549,2,0,L|421:188,1,55,2|0,0:3|0:0,0:0:0:0:
403,217,58936,2,0,P|480:202|527:210,2,110,8|2|8,0:0|0:3|0:0,0:0:0:0:
340,275,60097,2,0,P|285:277|232:263,1,110,2|8,0:3|0:0,0:0:0:0:
166,205,60872,6,0,L|111:211,2,55,4|2|8,0:0|0:0|0:0,0:0:0:0:
188,167,61452,1,2,0:0:0:0:
188,167,61646,2,0,L|317:157,1,110,2|8,0:3|0:0,0:0:0:0:
346,85,62420,2,0,L|425:77,1,55,4|0,0:0|3:0,0:0:0:0:
444,74,62807,1,2,3:2:0:0:
499,142,63194,5,8,0:0:0:0:
499,142,63388,2,0,P|496:202|499:263,1,110,4|0,0:0|3:2,0:0:0:0:
505,295,63968,6,0,P|446:288|369:288,1,110,4|8,0:0|0:0,0:0:0:0:
312,315,64743,2,0,L|315:253,1,55,2|0,0:3|0:0,0:0:0:0:
280,231,65130,2,0,P|225:232|170:239,2,110,8|2|8,0:0|0:3|0:0,0:0:0:0:
332,160,66291,2,0,P|392:153|466:154,1,110,2|8,0:3|0:0,0:0:0:0:
462,67,67065,6,0,L|541:63,2,55,4|0|8,0:0|0:0|0:0,0:0:0:0:
428,42,67646,1,2,0:0:0:0:
428,42,67839,2,0,P|368:56|301:50,1,110,2|8,0:0|0:0,0:0:0:0:
285,26,68420,1,2,0:0:0:0:
285,26,68614,6,0,P|225:12|158:18,1,110,2|8,0:3|0:0,0:0:0:0:
104,63,69388,2,0,P|90:123|96:190,1,110,2|8,0:3|0:0,0:0:0:0:
143,242,70162,6,0,P|203:228|270:234,1,110,4|8,0:0|0:0,0:0:0:0:
331,264,70936,2,0,L|322:142,1,110,2|8,0:3|0:0,0:0:0:0:
351,121,71517,1,0,3:0:0:0:
351,121,71710,1,4,0:0:0:0:
256,192,71904,12,0,73259,0:0:0:0:
273,202,76355,5,4,0:0:0:0:
325,132,76743,1,0,0:0:0:0:
325,132,76936,2,0,L|446:138,2,110,2|2|0,0:0|0:0|0:0,0:0:0:0:
290,104,77904,1,0,0:0:0:0:
290,104,78097,2,0,L|173:97,1,110,2|2,0:0|0:0,0:0:0:0:
216,17,78872,2,0,L|325:23,1,110,2|2,0:0|0:0,0:0:0:0:
369,27,79452,5,4,0:0:0:0:
437,83,79839,2,0,P|444:147|442:211,1,110,2|2,0:0|0:0,0:0:0:0:
393,265,80614,1,2,0:0:0:0:
393,265,80807,2,0,L|276:258,1,110,2|2,0:0|0:0,0:0:0:0:
200,287,81581,2,0,P|186:244|188:179,1,110,2|2,0:0|0:0,0:0:0:0:
234,105,82355,1,2,0:0:0:0:
234,105,82549,6,0,L|359:98,1,110,4|0,0:0|0:0,0:0:0:0:
381,121,83130,2,0,L|453:117,2,55,2|0|2,0:0|0:0|0:0,0:0:0:0:
351,203,83904,1,2,0:0:0:0:
351,203,84097,2,0,P|363:246|355:320,1,110,2|2,0:0|0:0,0:0:0:0:
336,348,84678,2,0,L|217:343,1,110,2|2,0:0|0:0,0:0:0:0:
144,310,85452,1,2,0:0:0:0:
144,310,85646,6,0,L|141:197,1,110,4|2,0:0|0:0,0:0:0:0:
111,167,86226,1,2,0:0:0:0:
111,167,86420,2,0,P|106:144|110:113,1,55,2|2,0:0|0:0,0:0:0:0:
184,66,87001,2,0,P|238:58|308:58,1,110,2|2,0:3|0:3,0:0:0:0:
377,82,87775,1,4,0:0:0:0:
318,147,88162,2,0,L|312:264,1,110,8|2,0:0|0:0,0:0:0:0:
294,297,88743,5,4,0:0:0:0:
294,297,88936,2,0,P|353:290|407:293,2,110,2|2|0,0:3|0:3|0:0,0:0:0:0:
221,247,90097,1,0,0:0:0:0:
221,247,90291,2,0,P|190:249|157:245,1,55,2|2,0:0|0:3,0:0:0:0:
87,206,90872,2,0,L|83:327,2,110,2|0|0,0:3|0:0|0:0,0:0:0:0:
58,172,91839,5,4,0:0:0:0:
98,93,92226,2,0,P|41:87|-23:95,2,110,8|2|8,0:0|0:0|0:0,0:0:0:0:
172,46,93388,2,0,P|229:52|293:44,1,110,2|8,0:3|0:0,0:0:0:0:
339,112,94162,2,0,P|393:106|448:112,1,110,2|8,0:3|0:0,0:0:0:0:
511,172,94936,6,0,L|506:294,1,110,4|8,0:0|0:0,0:0:0:0:
475,313,95517,1,2,0:0:0:0:
475,313,95710,2,0,P|418:302|364:305,1,110,2|8,0:0|0:0,0:0:0:0:
283,277,96484,2,0,P|229:287|174:285,2,110,2|8|2,0:3|0:0|0:0,0:0:0:0:
313,244,97452,2,0,L|320:178,1,55,2|8,0:3|0:0,0:0:0:0:
351,158,97839,2,0,P|359:102|343:39,1,110,2|2,0:3|0:0,0:0:0:0:
320,16,98420,5,10,0:3:0:0:
239,52,98807,2,0,L|172:50,1,55,8|0,0:0|3:0,0:0:0:0:
139,48,99194,1,2,0:3:0:0:
65,95,99581,2,0,P|63:131|71:169,1,55,4|0,0:0|0:0,0:0:0:0:
91,185,99968,2,0,L|206:177,1,110,2|8,0:3|0:0,0:0:0:0:
232,207,100549,1,2,0:3:0:0:
294,144,100936,6,0,P|360:132|420:142,1,110,4|2,0:0|3:2,0:0:0:0:
476,183,101710,1,0,0:0:0:0:
476,183,101904,2,0,L|481:255,1,55,2|0,0:0|0:0,0:0:0:0:
451,321,102484,2,0,P|372:308|333:310,1,110,2|0,0:3|3:0,0:0:0:0:
261,344,103259,1,2,0:0:0:0:
261,344,103452,2,0,L|182:339,1,55,2|2,2:0|2:0,0:0:0:0:
141,280,104033,6,0,P|130:230|146:163,1,110,2|0,0:3|3:0,0:0:0:0:
214,124,104807,1,0,0:0:0:0:
214,124,105001,2,0,L|221:57,2,55,2|0|8,0:0|0:0|0:0,0:0:0:0:
247,152,105581,6,0,P|311:171|376:167,1,110,2|0,0:3|3:0,0:0:0:0:
414,234,106355,2,0,P|348:249|286:245,1,110,0|0,0:0|0:0,0:0:0:0:
235,301,107130,1,0,0:0:0:0:
235,301,107323,6,0,L|108:296,1,110,4|0,0:0|0:0,0:0:0:0:
43,329,108097,2,0,L|38:219,1,110,8|0,0:0|0:0,0:0:0:0:
3,139,108872,2,0,P|74:123|224:142,1,220,0|8,0:0|0:0,0:0:0:0:
299,104,110033,1,0,0:0:0:0:
373,151,110420,6,0,L|496:144,1,110,4|0,0:0|0:0,0:0:0:0:
511,227,111194,2,0,L|401:233,1,110,8|0,0:0|3:0,0:0:0:0:
357,308,111968,2,0,L|284:304,1,55,10|0,0:3|0:0,0:0:0:0:
258,303,112355,1,10,0:3:0:0:
459,235,115065,6,0,P|406:226|350:239,1,110,4|8,0:0|0:0,0:0:0:0:
294,304,115839,2,0,L|237:302,1,55,2|0,3:0|0:0,0:0:0:0:
200,280,116226,2,0,P|143:286|91:285,2,110,8|2|8,0:0|3:0|0:0,0:0:0:0:
257,212,117388,2,0,L|267:96,1,110,2|0,3:0|0:0,0:0:0:0:
335,48,118162,6,0,P|429:41|452:46,1,110,4|8,0:0|0:0,0:0:0:0:
481,66,118743,1,2,0:0:0:0:
481,66,118936,2,0,L|485:185,1,110,2|8,0:3|0:0,0:0:0:0:
437,250,119710,6,0,P|343:257|320:252,1,110,2|8,0:0|0:0,0:0:0:0:
291,232,120291,1,2,0:0:0:0:
291,232,120484,2,0,L|282:293,2,55,2|0|8,3:0|3:0|0:0,0:0:0:0:
262,148,121259,6,0,P|203:136|135:155,1,110,4|8,0:0|0:0,0:0:0:0:
96,210,122033,2,0,L|90:269,1,55,2|0,0:3|0:0,0:0:0:0:
112,302,122420,2,0,P|52:293|-1:290,2,110,8|2|8,0:0|0:3|0:0,0:0:0:0:
169,368,123581,2,0,P|223:364|278:356,1,110,2|8,0:3|0:0,0:0:0:0:
358,319,124355,6,0,L|363:385,2,55,4|2|8,0:0|0:0|0:0,0:0:0:0:
386,285,124936,1,2,0:0:0:0:
386,285,125130,2,0,L|375:149,1,110,2|8,0:3|0:0,0:0:0:0:
414,95,125904,2,0,L|343:90,1,55,4|2,0:0|3:0,0:0:0:0:
314,88,126291,1,8,0:0:0:0:
242,130,126678,5,8,0:0:0:0:
242,130,126872,2,0,L|124:137,1,110,4|0,0:0|0:0,0:0:0:0:
100,167,127452,6,0,P|87:117|99:47,1,110,4|8,0:0|0:0,0:0:0:0:
174,24,128226,2,0,P|206:25|241:28,1,55,2|0,0:3|0:0,0:0:0:0:
263,55,128614,2,0,P|323:54|399:47,2,110,8|0|8,0:0|0:0|0:0,0:0:0:0:
195,111,129775,2,0,L|201:243,1,110,2|8,0:3|0:0,0:0:0:0:
172,304,130549,6,0,L|102:298,2,55,4|0|8,0:0|0:0|0:0,0:0:0:0:
199,338,131130,1,2,0:0:0:0:
199,338,131323,2,0,P|267:328|331:329,1,110,2|8,0:0|0:0,0:0:0:0:
324,368,131904,1,2,0:0:0:0:
324,368,132097,2,0,P|392:378|456:377,1,110,2|8,0:3|0:0,0:0:0:0:
492,312,132872,2,0,L|484:188,1,110,2|8,0:3|0:0,0:0:0:0:
400,177,133646,6,0,L|392:67,1,110,4|2,0:0|0:3,0:0:0:0:
389,23,134226,1,8,0:0:0:0:
389,23,134420,2,0,P|360:19|326:19,1,55,2|8,0:0|3:2,0:0:0:0:
296,41,134807,2,0,P|267:45|233:45,2,55,2|0|4,3:2|3:0|0:0,0:0:0:0:
256,192,135388,12,0,136743,0:0:0:0:
107,313,142936,6,0,P|97:256|112:192,1,110,4|0,0:0|0:0,0:0:0:0:
136,173,143517,1,0,0:0:0:0:
136,173,143710,2,0,P|186:173|249:181,1,110,8|0,0:0|0:0,0:0:0:0:
321,226,144484,6,0,P|376:227|438:221,2,110,2|8|2,0:3|0:0|0:0,0:0:0:0:
262,292,145646,1,2,0:0:0:0:
183,253,146033,6,0,P|184:198|199:145,1,110,4|2,0:0|0:0,0:0:0:0:
236,122,146614,1,0,0:0:0:0:
236,122,146807,2,0,L|111:114,2,110,2|2|2,0:3|0:0|0:3,0:0:0:0:
279,125,147775,5,2,0:0:0:0:
358,87,148162,1,2,0:0:0:0:
443,109,148549,1,2,0:0:0:0:
494,181,148936,1,10,0:3:0:0:
494,181,149130,6,0,P|504:238|502:301,1,110,4|0,0:0|0:0,0:0:0:0:
457,365,149904,2,0,L|520:371,2,55,0|2|10,0:0|0:0|0:3,0:0:0:0:
378,324,150678,6,0,P|325:320|268:326,1,110,2|8,3:0|0:0,0:0:0:0:
194,279,151452,2,0,L|132:285,2,55,8|2|12,0:0|3:0|0:0,0:0:0:0:
256,192,152226,12,12,153775,2:0:0:0:
201,234,154549,6,0,P|158:231|120:233,2,73.3333333333333,12|12|12,0:0|0:0|0:0,0:0:0:0:
231,264,155323,6,0,P|288:265|351:258,1,110,4|8,0:0|0:0,0:0:0:0:
406,201,156097,2,0,L|411:141,1,55,2|0,0:3|0:0,0:0:0:0:
392,105,156484,2,0,L|509:96,2,110,8|2|8,0:0|0:3|0:0,0:0:0:0:
313,64,157646,2,0,P|261:71|199:69,1,110,2|0,0:3|0:0,0:0:0:0:
155,143,158420,6,0,P|103:136|41:138,1,110,4|8,0:0|0:0,0:0:0:0:
4,154,159001,1,2,0:0:0:0:
4,154,159194,2,0,L|-2:274,1,110,2|8,0:3|0:0,0:0:0:0:
54,331,159968,6,0,L|163:325,1,110,2|8,0:0|0:0,0:0:0:0:
203,305,160549,1,2,0:0:0:0:
203,305,160743,2,0,L|197:370,2,55,2|0|8,3:3|3:0|0:0,0:0:0:0:
273,251,161517,6,0,P|265:198|275:138,1,110,4|8,0:0|0:0,0:0:0:0:
341,87,162291,2,0,L|401:90,1,55,2|0,0:3|0:0,0:0:0:0:
433,113,162678,2,0,P|441:60|431:0,2,110,8|2|8,0:0|0:3|0:0,0:0:0:0:
480,186,163839,2,0,L|476:307,1,110,2|8,0:3|0:0,0:0:0:0:
394,329,164614,6,0,L|396:408,2,55,4|2|0,0:0|0:0|0:0,0:0:0:0:
364,296,165194,1,2,0:0:0:0:
364,296,165388,2,0,P|288:302|236:294,1,110,2|8,0:3|0:0,0:0:0:0:
169,320,166162,2,0,P|133:316|103:319,1,55,4|0,0:0|3:0,0:0:0:0:
71,325,166549,1,8,0:0:0:0:
9,261,166936,5,8,0:0:0:0:
9,261,167130,2,0,P|15:210|6:133,1,110,4|0,0:0|0:0,0:0:0:0:
36,116,167710,6,0,L|151:124,1,110,4|8,0:0|0:0,0:0:0:0:
221,168,168484,2,0,L|294:162,1,55,2|0,0:3|0:0,0:0:0:0:
313,187,168872,2,0,P|321:137|315:64,2,110,8|0|0,0:0|0:0|0:0,0:0:0:0:
262,259,170033,2,0,L|129:251,1,110,2|0,0:3|0:0,0:0:0:0:
73,291,170807,6,0,P|65:257|61:177,1,110,4|8,0:0|0:0,0:0:0:0:
69,139,171388,1,2,0:0:0:0:
69,139,171581,2,0,P|77:91|68:15,1,110,2|8,0:0|0:0,0:0:0:0:
104,0,172162,1,2,0:0:0:0:
104,0,172355,6,0,L|217:4,1,110,2|8,0:3|0:0,0:0:0:0:
251,83,173130,2,0,L|360:79,1,110,2|8,0:3|0:0,0:0:0:0:
430,133,173904,6,0,P|442:184|441:245,1,110,4|8,0:0|0:0,0:0:0:0:
371,294,174678,2,0,L|253:289,1,110,2|8,3:0|0:0,0:0:0:0:
219,305,175259,1,8,0:0:0:0:
219,305,175452,6,0,P|214:335|214:366,2,55,2|8|2,0:3|0:0|0:0,0:0:0:0:
224,217,176226,2,0,P|230:161|227:93,1,110,0|12,3:3|0:0,0:0:0:0:
169,41,177001,6,0,P|124:29|47:42,1,110,4|8,0:0|0:0,0:0:0:0:
17,112,177775,2,0,L|8:226,2,110,2|8|2,0:0|0:0|0:0,0:0:0:0:
61,36,178936,1,8,0:0:0:0:
133,86,179323,2,0,P|206:93|262:83,1,110,2|8,0:0|0:0,0:0:0:0:
311,142,180097,6,0,P|384:135|440:145,1,110,4|10,0:0|0:0,0:0:0:0:
501,105,180872,2,0,L|509:160,2,55,2|0|10,0:0|0:0|0:0,0:0:0:0:
488,62,181452,1,0,0:0:0:0:
488,62,181646,6,0,P|435:45|375:42,1,110,2|8,0:3|0:0,0:0:0:0:
300,76,182420,2,0,L|232:67,2,55,2|0|8,0:0|0:0|0:0,0:0:0:0:
323,120,183001,1,0,0:0:0:0:
323,120,183194,6,0,P|332:177|328:239,1,110,4|8,0:0|0:0,0:0:0:0:
261,284,183968,2,0,L|132:279,2,110,2|8|2,0:0|0:0|0:0,0:0:0:0:
330,230,185130,1,8,0:0:0:0:
400,283,185517,2,0,P|435:289|516:279,1,110,2|8,0:0|0:0,0:0:0:0:
512,193,186291,6,0,L|503:68,1,110,4|0,0:0|0:0,0:0:0:0:
497,39,186872,1,2,0:0:0:0:
497,39,187065,2,0,P|431:29|379:39,1,110,2|12,0:0|0:0,0:0:0:0:
348,54,187646,1,0,0:0:0:0:
348,54,187839,6,0,L|341:-10,2,55,2|8|2,3:0|0:0|3:2,0:0:0:0:
300,127,188614,1,2,3:2:0:0:
300,127,188807,2,0,P|234:137|182:127,1,110,12|0,0:0|0:0,0:0:0:0:
153,152,189388,6,0,L|146:272,1,110,4|8,0:0|0:0,0:0:0:0:
87,326,190162,2,0,P|46:329|-21:319,2,110,2|8|2,0:0|0:0|0:0,0:0:0:0:
146,261,191323,1,8,0:0:0:0:
228,231,191710,2,0,L|357:245,1,110,2|8,0:0|0:0,0:0:0:0:
424,231,192484,6,0,P|433:167|425:99,1,110,4|10,0:0|0:0,0:0:0:0:
393,109,193065,1,2,0:3:0:0:
393,109,193259,2,0,L|258:116,1,110,2|0,0:0|0:0,0:0:0:0:
252,83,193839,1,2,0:0:0:0:
252,83,194033,6,0,L|117:76,2,110,4|8|2,0:0|0:0|0:0,0:0:0:0:
299,156,195194,2,0,L|303:216,1,55,8|0,0:0|0:0,0:0:0:0:
331,244,195581,2,0,P|249:234|206:241,1,110,4|2,0:0|3:2,0:0:0:0:
202,276,196162,1,10,0:0:0:0:
202,276,196355,2,0,P|120:286|77:279,1,110,2|2,3:2|3:2,0:0:0:0:
50,273,196936,1,2,3:2:0:0:
50,273,197130,5,4,0:0:0:0:
30,183,198678,6,0,P|79:177|155:194,1,110,4|8,0:0|0:0,0:0:0:0:
177,207,199259,1,2,0:3:0:0:
255,166,199646,2,0,L|261:107,1,55,2|8,0:3|0:0,0:0:0:0:
296,85,200033,6,0,L|416:78,1,110,4|2,0:0|0:0,0:0:0:0:
449,75,200614,1,8,0:0:0:0:
501,145,201001,1,0,0:0:0:0:
450,217,201388,2,0,L|448:277,1,55,8|2,0:0|0:0,0:0:0:0:
466,312,201775,6,0,P|411:300|337:305,1,110,4|8,0:0|0:0,0:0:0:0:
324,330,202355,1,0,0:0:0:0:
258,270,202743,2,0,L|251:210,1,55,2|8,0:0|0:0,0:0:0:0:
263,172,203130,6,0,P|191:185|142:183,1,110,4|2,0:0|0:0,0:0:0:0:
110,175,203710,1,8,0:0:0:0:
110,175,203904,2,0,L|98:300,1,110,2|8,3:2|0:0,0:0:0:0:
91,327,204484,1,2,3:2:0:0:
165,374,204872,6,0,P|216:362|290:367,1,110,4|8,0:0|0:0,0:0:0:0:
315,375,205452,1,2,0:3:0:0:
386,323,205839,2,0,L|391:265,1,55,2|8,0:3|0:0,0:0:0:0:
423,238,206226,6,0,P|416:182|422:122,1,110,4|2,0:0|0:0,0:0:0:0:
436,87,206807,1,8,0:0:0:0:
366,32,207194,2,0,L|293:25,1,55,10|2,0:0|0:0,0:0:0:0:
277,55,207581,1,2,0:3:0:0:
201,9,207968,5,4,0:0:0:0:
256,192,208162,12,4,211065,0:0:0:0:
