osu file format v14

[General]
AudioFilename: audio.mp3
AudioLeadIn: 0
PreviewTime: 50130
Countdown: 0
SampleSet: Soft
StackLeniency: 0.2
Mode: 0
LetterboxInBreaks: 0
WidescreenStoryboard: 0

[Editor]
Bookmarks: 485,6678,15968,19065,37646,43839,51581,73259,76355,88743,101130,107323,115065,136743,146033,155323,177001,189388,198678,207968,211065
DistanceSpacing: 2.1
BeatDivisor: 8
GridSize: 4
TimelineZoom: 1.4

[Metadata]
Title:Tabi to Ferry
TitleUnicode:旅とフェリー
Artist:FUJIN CLUB
ArtistUnicode:婦人倶楽部
Creator:dsco
Version:Seaside
Source:
Tags:pop japan travel and and shibuya kei lounge vinxis xilver
BeatmapID:1490377
BeatmapSetID:704541

[Difficulty]
HPDrainRate:5
CircleSize:5.5
OverallDifficulty:8.6
ApproachRate:8.4
SliderMultiplier:2.4
SliderTickRate:2

[Events]
//Background and Video events
0,0,"ff.jpg",0,0
Video,163,"videoplayback(1).avi"
//Break Periods
2,16355,17214
2,73459,74504
//Storyboard Layer 0 (Background)
//Storyboard Layer 1 (Fail)
//Storyboard Layer 2 (Pass)
//Storyboard Layer 3 (Foreground)
//Storyboard Sound Samples

[TimingPoints]
485,387.096774193548,4,2,1,60,1,0
17904,-133.333333333333,4,2,1,50,0,0
43839,-200,4,2,1,45,0,0
51581,-100,4,2,1,65,0,0
63388,-800,4,2,1,50,0,0
63968,-100,4,2,1,65,0,0
75194,-133.333333333333,4,2,1,45,0,0
87775,-66.6666666666667,4,2,1,45,0,0
87968,-133.333333333333,4,2,1,50,0,0
107323,-200,4,2,1,45,0,0
114291,-100,4,2,1,65,0,0
126872,-800,4,2,1,50,0,0
127452,-100,4,2,1,65,0,0
137517,-400,4,2,1,40,0,0
142936,-200,4,2,1,45,0,0
146033,-133.333333333333,4,2,1,60,0,0
152904,-133.333333333333,4,2,1,20,0,0
153001,-133.333333333333,4,2,1,40,0,0
153388,-133.333333333333,4,2,1,45,0,0
153775,-133.333333333333,4,2,1,50,0,1
154162,-133.333333333333,4,2,1,60,0,0
154549,-66.6666666666667,4,2,1,75,0,1
154936,-66.6666666666667,4,2,1,75,0,0
155323,-90.9090909090909,4,2,1,70,0,1
167130,-800,4,2,1,50,0,1
167710,-90.9090909090909,4,2,1,65,0,1
177001,-100,4,2,1,55,0,0
189388,-133.333333333333,4,2,1,50,0,0
198291,-800,4,2,1,45,0,0
198581,-800,4,2,1,20,0,0
198678,-100,4,2,1,60,0,0
211065,-200,4,2,1,60,0,0
211130,-200,4,2,1,30,0,0

[Colours]
Combo1 : 218,99,120
Combo2 : 119,192,199

[HitObjects]
107,86,5904,6,0,P|102:124|117:174,1,60
144,254,6097,1,2,3:2:0:0:
143,234,6162,1,0,3:0:0:0:
139,215,6226,1,2,3:0:0:0:
131,197,6291,5,8,0:0:0:0:
113,253,6388,1,8,0:0:0:0:
126,311,6484,1,2,3:0:0:0:
454,167,6678,6,0,P|414:151|238:170,1,180,4|0,0:0|0:0,0:0:0:0:
268,156,7065,1,8,0:0:0:0:
378,370,7259,2,0,L|388:233,1,120,2|0,0:3|0:0,0:0:0:0:
378,370,7646,1,2,0:3:0:0:
504,115,7839,1,8,0:0:0:0:
270,272,8033,6,0,P|230:288|54:269,1,180,4|0,0:0|0:0,0:0:0:0:
84,282,8420,1,2,0:0:0:0:
260,34,8614,1,8,0:0:0:0:
144,65,8807,1,0,0:0:0:0:
74,163,9001,1,0,0:0:0:0:
169,367,9194,1,0,0:0:0:0:
84,282,9388,1,8,0:0:0:0:
369,84,9581,1,8,0:0:0:0:
428,78,9678,1,8,0:0:0:0:
486,92,9775,6,0,P|407:121|310:106,1,180,4|0,0:0|0:0,0:0:0:0:
303,102,10162,1,8,0:0:0:0:
61,141,10355,1,0,0:1:0:0:
145,170,10452,1,2,0:3:0:0:
233,156,10549,1,2,0:3:0:0:
338,19,10743,1,2,0:0:0:0:
1,76,10936,1,8,0:0:0:0:
218,339,11130,6,0,P|300:353|393:322,1,180,4|0,0:0|0:0,0:0:0:0:
399,316,11517,1,2,0:0:0:0:
132,254,11710,1,8,0:0:0:0:
460,211,11904,2,0,P|462:173|454:132,1,60,0|0,3:0|0:0,0:0:0:0:
402,45,12097,1,8,0:0:0:0:
402,45,12291,5,0,3:0:0:0:
392,119,12388,1,0,3:0:0:0:
459,151,12484,1,2,3:2:0:0:
510,97,12581,1,2,0:0:0:0:
475,31,12678,1,2,3:3:0:0:
125,134,12872,6,0,P|98:226|122:321,1,180,4|0,0:0|0:0,0:0:0:0:
120,317,13259,1,8,0:0:0:0:
268,129,13452,2,0,L|254:3,1,120,2|0,0:3|0:3,0:3:0:0:
268,129,13839,1,2,0:3:0:0:
78,72,14033,1,8,0:0:0:0:
439,29,14226,6,0,P|466:121|442:216,1,180,4|0,0:0|0:0,0:0:0:0:
444,212,14614,1,2,0:0:0:0:
201,188,14807,1,8,0:0:0:0:
382,148,15001,1,0,3:0:0:0:
378,166,15065,1,0,3:0:0:0:
371,186,15130,1,2,0:0:0:0:
364,204,15194,1,10,0:2:0:0:
165,109,15388,1,0,0:0:0:0:
178,272,15581,1,2,0:3:0:0:
86,71,15775,1,2,0:0:0:0:
106,321,15968,5,4,0:0:0:0:
106,321,17904,6,0,P|96:288|99:215,1,90.0000034332277,2|0,0:3|0:0,0:0:0:0:
99,208,18194,1,2,0:0:0:0:
102,211,18291,1,8,0:0:0:0:
186,239,18484,1,0,3:0:0:0:
240,166,18678,1,0,3:0:0:0:
187,93,18872,1,0,3:0:0:0:
101,121,19065,5,4,0:0:0:0:
101,121,19452,1,8,0:0:0:0:
276,83,19646,2,0,L|289:24,1,45.0000017166138
228,2,19839,1,2,0:0:0:0:
324,164,20033,1,0,0:0:0:0:
417,0,20226,1,8,0:0:0:0:
189,102,20420,6,0,P|178:158|184:198,1,90.0000034332277,0|2,0:0|0:0,0:0:0:0:
323,69,20807,1,0,0:0:0:0:
228,2,21001,1,8,0:0:0:0:
110,157,21194,2,0,P|113:214|130:251,1,90.0000034332277,0|2,0:0|0:0,0:0:0:0:
290,318,21581,2,0,L|400:311,1,90.0000034332277,0|8,0:0|0:0,0:0:0:0:
280,308,21968,2,0,L|324:305,1,45.0000017166138,0|0,0:0|0:0,0:0:0:0:
389,322,22162,5,4,0:0:0:0:
389,322,22549,1,8,0:0:0:0:
411,187,22743,1,0,0:0:0:0:
233,236,22936,1,2,0:0:0:0:
211,371,23130,1,0,0:0:0:0:
322,211,23323,1,8,0:0:0:0:
162,100,23517,6,0,P|147:46|159:4,1,90.0000034332277,2|2,0:3|0:0,0:0:0:0:
337,39,23904,1,0,3:0:0:0:
248,49,24097,1,8,0:0:0:0:
313,300,24291,2,0,L|324:180,1,90.0000034332277,2|2,0:3|0:0,0:0:0:0:
68,67,24678,1,0,3:0:0:0:
59,156,24872,1,8,0:0:0:0:
328,128,25065,6,0,P|277:122|190:173,1,135.000005149841,4|0,0:0|0:0,0:0:0:0:
196,166,25452,1,2,3:2:0:0:
223,317,25646,1,8,0:0:0:0:
59,156,25839,1,0,0:0:0:0:
61,133,25935,1,2,0:0:0:0:
63,111,26032,1,2,0:3:0:0:
149,32,26226,1,0,3:0:0:0:
50,245,26420,1,8,0:0:0:0:
238,22,26614,6,0,P|300:6|395:13,1,135.000005149841,2|0,0:3|0:0,0:0:0:0:
382,11,27001,1,2,3:2:0:0:
167,173,27194,1,8,0:0:0:0:
275,74,27388,2,0,P|339:66|432:84,1,135.000005149841,2|0,0:3|0:0,0:0:0:0:
419,80,27775,1,2,3:2:0:0:
220,121,27968,1,8,0:0:0:0:
149,32,28162,1,2,0:0:0:0:
109,321,28355,5,4,0:0:0:0:
109,321,28743,1,8,0:0:0:0:
129,177,28936,1,0,0:0:0:0:
191,259,29130,1,2,0:0:0:0:
47,239,29323,1,0,0:0:0:0:
273,197,29517,1,8,0:0:0:0:
211,115,29710,6,0,P|199:65|211:17,1,90.0000034332277,0|2,0:0|0:0,0:0:0:0:
338,147,30097,1,0,0:0:0:0:
322,262,30290,1,8,0:0:0:0:
139,88,30484,2,0,P|137:39|155:-9,1,90.0000034332277,0|2,0:0|0:0,0:0:0:0:
273,197,30872,1,0,0:0:0:0:
252,201,30969,1,2,0:0:0:0:
231,205,31065,1,8,0:0:0:0:
104,229,31259,2,0,P|96:263|101:299,1,45.0000017166138,2|0,0:0|0:0,0:0:0:0:
122,335,31452,5,0,0:0:0:0:
91,89,31646,1,0,0:0:0:0:
155,153,31839,1,8,0:0:0:0:
32,292,32033,1,0,0:0:0:0:
231,204,32226,2,0,P|246:162|240:118,1,90.0000034332277,2|0,0:0|0:0,0:0:0:0:
132,249,32614,1,8,0:0:0:0:
383,343,32807,6,0,L|499:336,1,90.0000034332277,2|2,0:3|0:0,0:3:0:0:
419,105,33195,1,0,0:3:0:0:
329,111,33388,1,8,0:0:0:0:
481,265,33581,2,0,P|504:222|505:160,1,90.0000034332277,2|2,0:3|0:0,0:3:0:0:
267,34,33968,1,0,0:3:0:0:
239,117,34162,1,8,0:0:0:0:
497,34,34355,6,0,P|444:14|347:16,1,135.000005149841,4|0,0:0|0:0,0:0:0:0:
355,16,34743,1,2,3:2:0:0:
420,191,34936,1,8,0:0:0:0:
344,364,35130,1,0,0:0:0:0:
339,342,35226,1,2,0:0:0:0:
340,319,35323,1,2,0:3:0:0:
467,274,35517,1,2,0:0:0:0:
250,215,35710,1,2,0:3:0:0:
493,120,35904,6,0,P|505:76|487:17,1,90.0000034332277,6|0,0:0|0:0,0:0:0:0:
169,168,36291,1,2,3:0:0:0:
165,254,36484,1,8,0:0:0:0:
296,40,36678,2,0,P|252:27|193:45,1,90.0000034332277,2|0,3:0|0:0,0:0:0:0:
344,364,37065,1,8,0:0:0:0:
386,376,37161,1,8,0:0:0:0:
430,367,37258,1,2,3:0:0:0:
92,208,37452,6,0,P|76:279|101:353,1,135.000005149841,4|0,0:0|0:0,0:0:0:0:
97,348,37839,1,0,3:0:0:0:
169,168,38033,1,8,0:0:0:0:
41,125,38226,2,0,L|-5:128,1,45.0000017166138
196,33,38420,1,2,0:0:0:0:
130,95,38614,2,0,P|110:62|111:2,1,90.0000034332277,0|8,0:0|0:0,0:0:0:0:
370,77,39001,1,2,0:3:0:0:
370,77,39388,5,0,3:0:0:0:
321,1,39581,1,8,0:0:0:0:
282,223,39775,2,0,L|278:149,1,45.0000017166138,2|0,0:0|0:0,0:0:0:0:
324,127,39968,1,2,0:0:0:0:
101,89,40162,1,2,0:0:0:0:
218,63,40355,1,8,0:0:0:0:
24,181,40549,1,2,0:3:0:0:
24,181,40936,5,0,3:0:0:0:
141,155,41130,1,8,0:0:0:0:
59,332,41323,2,0,P|51:355|32:376,1,45.0000017166138,2|0,0:0|0:0,0:0:0:0:
131,236,41517,2,0,P|106:241|79:235,1,45.0000017166138,2|0,0:0|0:0,0:0:0:0:
247,208,41710,2,0,P|230:189|221:162,1,45.0000017166138,2|0,0:0|0:0,0:0:0:0:
353,261,41904,2,0,P|360:237|379:216,1,45.0000017166138,8|0,0:0|0:0,0:0:0:0:
141,155,42097,1,2,0:3:0:0:
141,155,42484,5,0,3:0:0:0:
377,115,42678,2,0,P|389:66|360:7,1,90.0000034332277,10|0,0:3|0:0,0:0:0:0:
311,4,42968,1,2,0:0:0:0:
314,7,43065,5,8,0:0:0:0:
278,8,43194,1,2,0:0:0:0:
242,10,43323,1,2,0:0:0:0:
201,61,43452,1,2,3:3:0:0:
165,58,43581,1,0,3:0:0:0:
129,57,43710,1,0,3:0:0:0:
73,93,43839,6,0,P|56:152|73:215,1,120,4|0,0:0|0:0,0:0:0:0:
104,321,44420,2,0,P|110:291|105:262,1,60,0|2,3:0|0:0,0:0:0:0:
105,263,45001,1,2,0:0:0:0:
190,292,45194,1,8,0:0:0:0:
271,254,45388,6,0,P|304:241|351:243,1,60
437,290,45775,2,0,P|409:267|387:226,1,60,0|0,3:0|0:0,0:0:0:0:
370,185,46162,1,2,0:0:0:0:
344,359,46549,1,0,3:0:0:0:
370,185,46936,6,0,P|375:132|352:55,1,120,4|0,0:0|0:0,0:0:0:0:
252,11,47517,2,0,P|302:34|323:33,1,60,0|8,3:0|0:0,0:0:0:0:
305,34,48097,1,0,3:0:0:0:
424,15,48291,1,0,3:0:0:0:
217,241,48484,6,0,P|214:273|220:318,1,60,10|0,0:3|0:0,0:0:0:0:
217,241,48872,1,10,0:3:0:0:
56,285,50226,5,2,0:0:0:0:
104,357,50420,1,2,0:0:0:0:
191,334,50613,1,2,0:0:0:0:
196,244,50807,1,2,0:0:0:0:
111,213,51001,5,8,0:0:0:0:
253,174,51194,1,2,3:0:0:0:
115,122,51388,1,0,3:0:0:0:
202,98,51581,6,0,P|333:83|444:102,1,240,4|8,0:0|0:0,0:0:0:0:
438,100,52259,1,2,0:0:0:0:
441,103,52355,2,0,L|447:223,1,120,2|0,0:3|0:0,0:0:0:0:
299,370,52743,2,0,L|293:250,1,120,8|0,0:0|0:0,0:0:0:0:
444,106,53033,1,2,0:0:0:0:
447,109,53129,2,0,L|453:229,1,120,2|0,0:3|0:0,0:0:0:0:
305,375,53518,2,0,L|299:255,1,120,8|0,0:0|0:0,0:0:0:0:
450,112,53807,1,2,0:0:0:0:
453,115,53903,2,0,L|459:235,1,120,2|0,0:3|0:0,0:0:0:0:
311,381,54291,2,0,L|305:261,1,120,8|0,0:0|0:0,0:0:0:0:
248,41,54678,6,0,P|163:19|5:48,1,240,4|8,0:0|0:0,0:0:0:0:
35,283,55259,1,2,0:0:0:0:
86,313,55355,1,2,0:0:0:0:
144,303,55452,2,0,P|260:277|393:303,1,240,2|8,0:3|0:0,0:0:0:0:
378,297,56226,6,0,P|258:277|138:306,1,240,2|0,0:0|0:0,0:0:0:0:
33,190,56807,1,0,0:0:0:0:
36,193,56903,1,2,0:0:0:0:
39,196,57001,2,0,L|37:74,2,120,2|0|8,3:0|3:0|0:0,0:0:0:0:
39,196,57775,6,0,P|157:208|266:162,1,240,4|8,0:0|0:0,0:0:0:0:
266,162,58452,1,2,0:0:0:0:
269,165,58549,2,0,L|275:45,1,120,2|0,0:3|0:0,0:0:0:0:
466,116,58936,2,0,L|460:236,1,120,8|0,0:0|0:0,0:0:0:0:
272,168,59226,1,2,0:0:0:0:
275,171,59323,2,0,L|281:51,1,120,2|0,0:3|0:0,0:0:0:0:
472,122,59710,2,0,L|466:242,1,120,8|0,0:0|0:0,0:0:0:0:
278,174,60001,1,2,0:0:0:0:
281,177,60098,2,0,L|287:57,1,120,2|0,0:3|0:0,0:0:0:0:
478,128,60485,2,0,L|472:248,1,120,8|0,0:0|0:0,0:0:0:0:
121,361,60872,6,0,P|110:322|118:270,1,60,4|0,0:0|0:0,0:0:0:0:
151,151,61065,1,2,0:0:0:0:
170,206,61162,1,2,0:0:0:0:
156,264,61259,1,8,0:0:0:0:
4,329,61452,1,2,0:0:0:0:
243,160,61646,2,0,P|347:141|491:176,1,240,2|8,0:3|0:0,0:0:0:0:
476,168,62420,6,0,P|481:202|462:268,1,60,4|0,0:0|0:0,0:0:0:0:
154,359,62614,1,0,3:0:0:0:
139,301,62710,1,8,0:0:0:0:
153,243,62807,2,0,P|167:185|152:127,1,120,2|0,3:2|0:0,0:0:0:0:
137,69,63097,1,0,3:0:0:0:
152,12,63194,1,8,0:0:0:0:
440,314,63388,6,0,L|472:310,1,30,4|0,0:0|3:2,0:0:0:0:
482,309,63968,6,0,P|408:339|241:304,1,240,4|8,0:0|0:0,0:0:0:0:
254,312,64646,1,2,0:0:0:0:
257,315,64743,2,0,L|263:183,1,120,2|0,0:3|0:0,0:0:0:0:
80,120,65130,2,0,L|74:239,1,120,8|0,0:0|0:0,0:0:0:0:
260,318,65420,1,2,0:0:0:0:
263,321,65517,2,0,L|269:189,1,120,2|0,0:3|0:0,0:0:0:0:
86,126,65904,2,0,L|80:245,1,120,8|0,0:0|0:0,0:0:0:0:
266,324,66194,1,2,0:0:0:0:
269,327,66291,2,0,L|275:195,1,120,2|0,0:3|0:0,0:0:0:0:
92,132,66678,2,0,L|86:251,1,120,8|0,0:0|0:0,0:0:0:0:
434,90,67065,6,0,P|356:58|276:54,1,120,4|0,0:0|0:0,0:0:0:0:
258,52,67355,1,2,0:0:0:0:
261,55,67452,1,8,0:0:0:0:
176,286,67646,2,0,P|145:289|98:283,1,60,2|0,0:0|0:0,0:0:0:0:
89,129,67839,2,0,P|163:112|254:128,1,120,2|0,0:0|0:0,0:0:0:0:
393,337,68226,1,8,0:0:0:0:
275,351,68419,1,2,0:0:0:0:
474,250,68614,6,0,P|487:177|467:113,1,120,2|0,0:3|0:0,0:0:0:0:
278,234,69001,2,0,P|265:307|285:371,1,120,8|0,0:0|0:0,0:0:0:0:
477,253,69291,1,2,0:0:0:0:
480,256,69388,2,0,P|493:183|473:119,1,120,2|0,0:3|0:0,0:0:0:0:
284,240,69775,2,0,P|271:313|291:377,1,120,8|0,0:0|0:0,0:0:0:0:
348,65,70065,1,2,0:0:0:0:
351,68,70162,6,0,P|281:42|101:63,1,240,4|8,0:0|0:0,0:0:0:0:
119,55,70839,1,2,0:0:0:0:
122,58,70936,2,0,L|116:215,1,120,2|0,0:3|0:0,0:0:0:0:
378,246,71323,1,8,0:0:0:0:
168,360,71517,1,0,3:0:0:0:
351,68,71710,5,4,0:0:0:0:
256,192,71807,12,0,73259,0:0:0:0:
433,75,75194,6,0,P|447:141|432:212,1,135.000005149841,2|0,0:3|0:0,0:0:0:0:
429,218,75581,1,8,0:0:0:0:
348,183,75774,1,0,3:0:0:0:
288,251,75968,1,0,3:0:0:0:
334,328,76162,1,0,3:0:0:0:
422,307,76355,5,4,0:0:0:0:
422,307,76743,1,0,0:0:0:0:
246,348,76936,2,0,P|197:342|138:299,1,90.0000034332277,2|0,0:0|0:0,0:0:0:0:
74,370,77323,1,2,0:0:0:0:
64,326,77419,1,2,0:0:0:0:
71,282,77516,1,0,0:0:0:0:
0,213,77710,1,2,0:0:0:0:
38,191,77806,1,2,0:0:0:0:
83,183,77903,1,0,0:0:0:0:
125,94,78097,6,0,P|160:125|182:195,1,90.0000034332277,2|0,0:0|0:0,0:0:0:0:
278,175,78484,2,0,P|258:218|198:261,1,90.0000034332277,2|0,0:0|0:0,0:0:0:0:
142,236,78775,1,2,0:0:0:0:
145,239,78872,1,2,0:0:0:0:
278,175,79065,1,0,0:0:0:0:
420,212,79259,1,0,0:0:0:0:
505,330,79452,6,0,L|508:365,4,30.0000011444092,4|0|0|0|0,0:0|0:0|0:0|0:0|0:0,0:0:0:0:
363,293,79839,2,0,L|365:263,4,30.0000011444092,2|0|0|0|0,0:0|0:0|0:0|0:0|0:0,0:0:0:0:
230,357,80226,1,2,0:0:0:0:
88,320,80420,1,0,0:0:0:0:
221,256,80614,1,2,0:0:0:0:
363,293,80807,6,0,P|399:305|458:294,1,90.0000034332277,2|0,0:0|0:0,0:0:0:0:
410,192,81194,1,2,0:0:0:0:
435,155,81290,1,2,0:0:0:0:
441,111,81387,1,0,0:0:0:0:
328,116,81581,1,2,0:0:0:0:
260,61,81774,1,0,0:0:0:0:
229,170,81968,2,0,P|187:184|156:216,1,90.0000034332277,2|0,0:0|0:0,0:0:0:0:
252,279,82355,1,2,0:0:0:0:
44,229,82549,5,4,0:0:0:0:
235,134,82743,1,0,0:0:0:0:
156,216,82936,1,0,0:0:0:0:
243,21,83130,1,2,0:0:0:0:
303,227,83323,1,0,0:0:0:0:
235,134,83517,2,0,P|186:123|138:127,1,90.0000034332277,2|0,0:0|0:0,0:0:0:0:
415,255,83904,1,2,0:0:0:0:
303,227,84098,6,0,P|258:250|224:283,1,90.0000034332277,2|0,0:0|0:0,0:0:0:0:
512,197,84484,1,2,0:0:0:0:
415,255,84678,2,0,P|395:301|391:349,1,90.0000034332277,2|0,0:0|0:0,0:0:0:0:
278,312,85065,1,2,0:0:0:0:
165,284,85259,1,2,0:0:0:0:
59,334,85452,1,2,0:0:0:0:
172,362,85646,5,4,0:0:0:0:
151,128,85839,1,0,0:0:0:0:
306,305,86033,1,2,0:0:0:0:
76,252,86226,1,2,0:0:0:0:
293,159,86420,1,2,0:0:0:0:
172,362,86614,1,2,0:0:0:0:
199,242,86807,5,0,0:0:0:0:
401,223,87001,2,0,P|415:192|416:130,1,90.0000034332277,2|0,0:3|0:0,0:0:0:0:
199,242,87388,2,0,P|185:273|184:335,1,90.0000034332277,2|0,0:3|0:0,0:0:0:0:
401,223,87775,2,0,P|415:192|416:130,1,90.0000034332277,4|0,0:0|0:0,0:0:0:0:
199,242,88162,1,8,0:0:0:0:
188,262,88258,1,8,0:0:0:0:
182,283,88355,1,2,0:0:0:0:
180,305,88452,1,0,0:0:0:0:
182,328,88549,5,2,0:0:0:0:
200,287,88646,1,2,0:0:0:0:
199,242,88743,5,4,0:0:0:0:
90,163,88936,2,0,L|-13:156,1,90.0000034332277,2|8,0:3|0:0,0:0:0:0:
90,163,89323,2,0,P|104:132|105:70,1,90.0000034332277,2|0,0:3|0:0,0:0:0:0:
58,3,89710,1,0,0:0:0:0:
107,77,89904,1,8,0:0:0:0:
90,163,90097,1,0,0:0:0:0:
18,213,90291,5,2,0:0:0:0:
178,171,90484,2,0,L|281:164,1,90.0000034332277,2|8,0:3|0:0,0:0:0:0:
178,171,90872,1,2,0:3:0:0:
161,212,90968,1,2,0:0:0:0:
161,257,91065,1,0,0:0:0:0:
178,171,91259,1,0,0:0:0:0:
129,97,91452,1,8,0:0:0:0:
43,77,91646,1,0,0:0:0:0:
208,58,91839,6,0,P|298:77|374:38,1,180.000006866455,4|8,0:0|0:0,0:0:0:0:
208,58,92420,1,2,0:0:0:0:
121,38,92613,1,2,0:0:0:0:
42,77,92807,1,0,0:0:0:0:
13,161,93001,1,8,0:0:0:0:
45,245,93194,1,2,0:0:0:0:
42,77,93388,6,0,P|18:53|-38:29,1,90.0000034332277,2|0,0:3|0:3,0:3:0:0:
74,161,93775,2,0,P|98:137|154:113,1,90.0000034332277,8|0,0:0|0:3,0:3:0:0:
45,245,94162,2,0,P|21:221|-35:197,1,90.0000034332277,2|0,0:3|0:3,0:3:0:0:
77,329,94549,2,0,P|101:305|157:281,1,90.0000034332277,8|0,0:0|0:3,0:3:0:0:
80,332,94839,1,2,0:0:0:0:
80,332,94936,6,0,L|89:128,1,180.000006866455,4|8,0:0|0:0,0:0:0:0:
80,332,95517,1,2,0:0:0:0:
88,152,95710,2,0,P|164:118|270:120,1,180.000006866455,2|8,0:0|0:0,0:0:0:0:
88,152,96291,1,0,0:0:0:0:
19,98,96484,6,0,P|6:49|13:6,1,90.0000034332277,2|0,0:3|0:0,0:0:0:0:
259,117,96872,2,0,P|272:166|265:209,1,90.0000034332277,8|0,0:0|0:0,0:0:0:0:
210,271,97259,1,2,0:0:0:0:
190,63,97452,2,0,P|232:34|275:27,1,90.0000034332277,2|8,0:3|0:0,0:0:0:0:
155,143,97839,6,0,P|112:171|69:178,1,90.0000034332277,2|0,0:3|0:0,0:0:0:0:
190,63,98226,1,2,0:0:0:0:
210,271,98420,1,10,0:3:0:0:
210,271,98710,1,2,0:0:0:0:
213,274,98807,1,8,0:0:0:0:
201,170,99001,1,0,3:0:0:0:
287,344,99194,2,0,P|328:358|392:354,1,90.0000034332277,2|0,0:3|0:0,0:0:0:0:
452,317,99581,5,4,0:0:0:0:
213,274,99775,1,0,0:0:0:0:
452,317,99968,2,0,P|478:276|489:231,1,90.0000034332277,2|0,0:3|0:0,0:0:0:0:
488,213,100259,1,2,0:0:0:0:
485,190,100355,1,8,0:0:0:0:
213,274,100549,2,0,P|205:322|213:362,1,90.0000034332277,2|0,0:3|0:0,0:0:0:0:
348,232,100936,6,0,P|360:182|339:99,1,135.000005149841,4|0,0:0|0:0,0:0:0:0:
336,91,101323,1,2,3:2:0:0:
213,274,101517,1,8,0:0:0:0:
302,321,101710,2,0,L|368:313,1,45.0000017166138
259,185,101904,1,2,0:0:0:0:
348,232,102097,2,0,L|437:222,1,90.0000034332277,0|8,0:0|0:0,0:0:0:0:
167,363,102484,1,2,0:3:0:0:
167,363,102872,5,0,3:0:0:0:
255,380,103065,1,8,0:0:0:0:
174,157,103259,2,0,L|111:145,1,45.0000017166138,2|0,0:0|0:0,0:0:0:0:
68,188,103452,2,0,L|71:231,2,30.0000011444092,2|0|0,2:0|2:0|2:0,2:0:0:0:
279,125,103646,2,0,L|281:95,2,30.0000011444092,2|0|0,2:0|2:0|2:0,2:0:0:0:
142,51,103839,2,0,L|112:48,2,30.0000011444092,2|0|0,2:0|2:0|2:0,2:0:0:0:
205,262,104033,1,2,0:3:0:0:
205,262,104420,5,0,3:0:0:0:
161,362,104614,1,8,0:0:0:0:
174,157,104807,1,0,0:0:0:0:
205,262,105001,1,2,0:0:0:0:
296,322,105194,1,0,0:0:0:0:
405,310,105388,1,8,0:0:0:0:
161,362,105581,1,2,0:3:0:0:
161,362,105968,5,0,3:0:0:0:
218,57,106162,2,0,L|313:49,1,90.0000034332277,8|0,0:0|0:0,0:0:0:0:
360,87,106452,1,2,0:0:0:0:
363,90,106549,5,8,0:0:0:0:
350,123,106678,1,2,0:0:0:0:
351,159,106807,1,2,0:0:0:0:
406,195,106936,1,2,3:0:0:0:
419,228,107065,1,0,3:0:0:0:
418,264,107194,1,0,3:0:0:0:
367,306,107323,6,0,P|308:323|236:304,1,120,4|0,0:0|0:0,0:0:0:0:
132,323,107904,2,0,P|161:326|190:337,1,60,0|8,3:0|0:0,0:0:0:0:
190,337,108484,1,0,0:0:0:0:
220,253,108677,1,2,0:0:0:0:
189,170,108872,5,0,3:0:0:0:
52,123,109065,2,0,L|112:127,1,60,2|0,0:3|0:0,0:0:0:0:
112,127,109646,1,8,0:0:0:0:
115,130,109936,1,2,0:0:0:0:
115,130,110033,1,0,3:0:0:0:
192,173,110323,1,2,0:0:0:0:
192,173,110420,6,0,P|258:179|321:166,1,120,4|0,0:0|0:0,0:0:0:0:
433,102,111001,2,0,P|403:100|373:105,1,60,0|8,3:0|0:0,0:0:0:0:
310,170,111388,1,0,3:0:0:0:
302,260,111581,1,0,3:0:0:0:
354,335,111775,1,0,3:0:0:0:
258,95,111968,6,0,P|215:90|182:95,1,60,10|0,0:3|0:0,0:0:0:0:
258,95,112355,1,10,0:3:0:0:
303,350,113710,5,2,0:0:0:0:
392,339,113904,1,2,0:0:0:0:
481,328,114097,1,2,0:0:0:0:
132,260,114291,6,0,P|110:194|133:118,1,120,12|0,0:0|0:0,0:0:0:0:
152,97,114581,1,2,0:0:0:0:
118,146,114678,5,8,0:0:0:0:
62,126,114775,1,0,0:0:0:0:
61,67,114872,1,2,3:2:0:0:
117,49,114969,1,2,3:2:0:0:
152,97,115065,6,0,P|273:115|386:70,1,240,4|8,0:0|0:0,0:0:0:0:
381,74,115743,1,2,0:0:0:0:
384,77,115839,2,0,L|509:84,1,120,2|0,3:0|0:0,0:0:0:0:
443,259,116226,2,0,L|323:252,1,120,8|0,0:0|0:0,0:0:0:0:
387,80,116517,1,2,0:0:0:0:
390,83,116613,2,0,L|515:90,1,120,2|0,3:0|0:0,0:0:0:0:
449,265,117000,2,0,L|329:258,1,120,8|0,0:0|0:0,0:0:0:0:
393,86,117291,1,2,0:0:0:0:
396,89,117387,2,0,L|521:96,1,120,2|0,3:0|0:0,0:0:0:0:
455,271,117774,2,0,L|335:264,1,120,8|0,0:0|0:0,0:0:0:0:
80,364,118162,6,0,P|29:256|37:138,1,240,4|8,0:0|0:0,0:0:0:0:
258,188,118743,1,2,0:0:0:0:
278,250,118839,1,2,0:0:0:0:
258,307,118936,2,0,P|236:190|275:77,1,240,2|8,0:3|0:0,0:0:0:0:
274,78,119710,6,0,P|236:191|259:309,1,240,2|8,0:0|0:0,0:0:0:0:
422,360,120291,1,2,0:0:0:0:
425,363,120388,1,2,0:0:0:0:
428,366,120484,2,0,L|551:356,2,120,2|0|8,3:0|3:0|0:0,0:0:0:0:
429,366,121259,6,0,P|311:335|188:357,1,240,4|8,0:0|0:0,0:0:0:0:
196,354,121936,1,2,0:0:0:0:
199,357,122033,2,0,L|53:345,1,120,2|0,0:3|0:0,0:0:0:0:
33,173,122420,2,0,L|152:182,1,120,8|0,0:0|0:0,0:0:0:0:
202,360,122710,1,2,0:0:0:0:
205,363,122807,2,0,L|59:351,1,120,2|0,0:3|0:0,0:0:0:0:
39,179,123194,2,0,L|158:188,1,120,8|0,0:0|0:0,0:0:0:0:
208,366,123484,1,2,0:0:0:0:
211,369,123581,2,0,L|65:357,1,120,2|0,0:3|0:0,0:0:0:0:
45,185,123968,2,0,L|164:194,1,120,8|0,0:0|0:0,0:0:0:0:
406,317,124355,6,0,P|376:322|346:316,1,60,4|0,0:0|0:0,0:0:0:0:
447,171,124549,1,2,0:0:0:0:
469,225,124645,1,2,0:0:0:0:
453,282,124743,1,8,0:0:0:0:
209,367,124936,2,0,P|204:337|210:307,1,60,2|0,0:0|0:0,0:0:0:0:
286,11,125130,2,0,P|315:79|288:260,1,240,2|8,0:3|0:0,0:0:0:0:
298,240,125904,6,0,P|287:211|288:180,1,60,4|0,0:0|0:0,0:0:0:0:
211,0,126097,1,2,3:0:0:0:
218,18,126161,1,0,3:0:0:0:
221,38,126226,1,2,3:2:0:0:
220,57,126291,2,0,P|177:70|92:56,1,120,8|0,0:0|0:0,0:0:0:0:
53,27,126581,1,0,3:0:0:0:
0,57,126678,1,8,0:0:0:0:
187,337,126872,6,0,L|222:336,1,30,4|0,0:0|3:0,0:0:0:0:
213,347,127452,6,0,P|310:368|450:334,1,240,4|8,0:0|0:0,0:0:0:0:
445,336,128130,1,2,0:0:0:0:
448,339,128226,2,0,L|328:345,1,120,2|0,0:3|0:0,0:0:0:0:
178,194,128614,2,0,L|298:188,1,120,8|0,0:0|0:0,0:0:0:0:
451,342,128904,1,2,0:0:0:0:
454,345,129000,2,0,L|334:351,1,120,2|0,0:3|0:0,0:0:0:0:
184,200,129388,2,0,L|304:194,1,120,8|0,0:0|0:0,0:0:0:0:
457,348,129678,1,2,0:0:0:0:
460,351,129774,2,0,L|340:357,1,120,2|0,0:3|0:0,0:0:0:0:
190,206,130162,2,0,L|310:200,1,120,8|0,0:0|0:0,0:0:0:0:
55,293,130549,6,0,P|31:234|39:143,1,120,4|0,0:0|0:0,0:0:0:0:
46,117,130839,1,2,0:0:0:0:
49,120,130936,1,8,0:0:0:0:
24,351,131130,2,0,P|-6:353|-40:341,1,60,2|0,0:0|0:0,0:0:0:0:
103,85,131323,2,0,P|163:66|253:82,1,120,2|0,0:0|0:0,0:0:0:0:
346,247,131710,1,8,0:0:0:0:
316,133,131904,1,2,0:0:0:0:
293,353,132097,6,0,L|150:363,1,120,2|0,0:3|0:0,0:0:0:0:
129,191,132484,2,0,L|248:182,1,120,8|0,0:0|0:0,0:0:0:0:
296,356,132775,1,2,0:0:0:0:
299,359,132872,2,0,L|156:369,1,120,2|0,0:3|0:0,0:0:0:0:
135,197,133259,2,0,L|254:188,1,120,8|0,0:0|0:0,0:0:0:0:
490,0,133549,1,2,0:0:0:0:
493,3,133646,6,0,P|430:-8|332:21,1,120,4|0,0:0|0:0,0:0:0:0:
279,71,134033,1,2,0:3:0:0:
311,293,134226,1,8,0:0:0:0:
254,188,134420,1,2,0:0:0:0:
422,337,134614,1,8,3:2:0:0:
279,71,134807,1,2,3:2:0:0:
160,262,135001,1,0,3:0:0:0:
422,337,135194,5,4,0:0:0:0:
256,192,135291,12,2,136743,0:3:0:0:
256,192,137517,6,0,P|318:206|381:194,1,120,8|0,0:0|0:0,0:0:0:0:
372,197,138549,6,0,P|386:195|406:201,1,20,2|0,0:0|0:0,0:0:0:0:
447,159,138807,6,0,P|453:171|453:192,1,20,2|0,0:0|0:0,0:0:0:0:
506,218,139065,6,0,P|495:227|476:234,1,20,8|0,0:0|0:0,0:0:0:0:
467,292,139323,6,0,P|454:285|441:268,1,20,2|0,0:0|0:0,0:0:0:0:
385,279,139581,5,2,0:0:0:0:
332,317,139839,6,0,P|287:326|230:318,1,90,2|0,0:0|0:0,0:0:0:0:
192,283,140614,2,0,P|219:323|130:299,1,240,8|8,0:0|0:0,0:0:0:0:
192,283,142355,5,2,0:0:0:0:
227,229,142549,1,0,0:0:0:0:
219,164,142743,1,2,0:0:0:0:
172,120,142936,6,0,P|157:77|182:0,1,120,4|0,0:0|0:0,0:0:0:0:
266,0,143517,1,0,0:0:0:0:
341,49,143710,2,0,P|371:55|459:43,1,120,8|0,0:0|0:0,0:0:0:0:
458,43,144484,6,0,P|449:76|452:116,1,60,2|0,0:3|0:0,0:0:0:0:
504,265,144872,2,0,P|513:232|510:192,1,60,8|0,0:0|0:0,0:0:0:0:
370,125,145259,2,0,P|361:158|364:198,1,60,2|0,0:0|0:0,0:0:0:0:
416,347,145646,1,2,0:0:0:0:
421,332,145742,1,2,0:0:0:0:
424,318,145839,1,2,0:0:0:0:
425,303,145936,1,2,0:0:0:0:
424,288,146033,6,0,B|384:279|349:288|363:294|328:303|288:295,1,135.000005149841,4|0,0:0|0:0,0:0:0:0:
243,337,146420,6,0,P|231:317|229:289,1,30.0000011444092,2|0,0:0|0:0,0:0:0:0:
218,248,146549,6,0,P|241:247|266:259,1,30.0000011444092,2|0,0:0|0:0,0:0:0:0:
308,271,146678,6,0,P|296:291|273:307,1,30.0000011444092,2|0,0:0|0:0,0:0:0:0:
243,337,146807,6,0,B|203:345|168:336|182:330|147:321|107:329,1,135.000005149841,2|0,0:3|0:0,0:0:0:0:
63,367,147194,5,2,0:0:0:0:
110,328,147291,1,2,0:0:0:0:
120,270,147388,1,2,0:0:0:0:
91,218,147484,1,2,0:0:0:0:
35,198,147581,2,0,P|69:215|93:218,1,45.0000017166138,2|0,0:3|0:0,0:0:0:0:
319,210,147775,5,2,0:0:0:0:
256,185,147872,1,0,0:0:0:0:
192,206,147968,1,2,0:3:0:0:
192,206,148162,5,2,0:0:0:0:
116,231,148258,1,0,0:0:0:0:
42,202,148355,1,2,0:3:0:0:
42,202,148549,5,2,0:0:0:0:
0,123,148646,1,0,0:0:0:0:
18,36,148743,1,2,0:3:0:0:
124,352,148936,1,10,0:3:0:0:
429,42,149130,6,0,P|349:29|242:50,1,180.000006866455,4|0,0:0|0:0,0:0:0:0:
126,15,149710,1,2,0:0:0:0:
0,63,149904,1,0,0:0:0:0:
48,189,150097,1,2,0:0:0:0:
18,384,150291,2,0,P|-1:323|22:245,1,135.000005149841,10|0,0:3|0:0,0:0:0:0:
81,249,150678,6,0,L|153:258,1,45.0000017166138,2|0,3:0|0:0,0:0:0:0:
181,295,150872,1,0,3:0:0:0:
195,293,150936,1,0,3:0:0:0:
210,291,151001,1,2,3:0:0:0:
225,289,151065,6,0,P|233:258|232:225,1,45.0000017166138,8|0,0:0|0:0,0:0:0:0:
209,122,151259,1,2,0:0:0:0:
200,154,151355,1,2,0:0:0:0:
202,188,151452,5,8,0:0:0:0:
209,122,151549,1,0,3:3:0:0:
177,65,151646,1,2,3:0:0:0:
117,35,151743,1,0,3:3:0:0:
51,45,151839,5,12,0:0:0:0:
256,192,151936,12,0,152904,0:0:0:0:
92,84,153000,5,2,0:3:0:0:
75,114,153097,1,2,0:0:0:0:
69,148,153195,1,2,0:0:0:0:
75,181,153291,1,2,0:0:0:0:
92,211,153387,1,2,0:0:0:0:
109,241,153484,1,2,0:0:0:0:
115,274,153580,1,2,0:0:0:0:
109,308,153678,1,2,0:0:0:0:
92,338,153776,5,12,2:0:0:0:
115,274,153872,1,8,0:0:0:0:
173,240,153968,1,8,0:0:0:0:
240,252,154065,1,8,0:0:0:0:
283,304,154162,1,8,0:0:0:0:
326,356,154258,1,8,0:0:0:0:
393,368,154355,1,8,0:0:0:0:
451,334,154452,1,8,0:0:0:0:
474,270,154549,6,0,L|464:59,1,180.000006866455,12|0,0:0|0:0,0:0:0:0:
459,84,154807,2,0,L|467:263,1,180.000006866455,12|0,0:0|0:0,0:0:0:0:
474,270,155065,1,12,0:0:0:0:
277,86,155323,6,0,P|179:60|15:97,1,264.000008056641,4|8,0:0|0:0,0:0:0:0:
23,93,156001,1,2,0:0:0:0:
26,96,156097,2,0,L|19:229,1,132.00000402832,2|0,0:3|0:0,0:0:0:0:
127,359,156484,2,0,L|133:227,1,132.00000402832,8|0,0:0|0:0,0:0:0:0:
29,99,156775,1,2,0:0:0:0:
32,102,156871,2,0,L|25:235,1,132.00000402832,2|0,0:3|0:0,0:0:0:0:
133,365,157258,2,0,L|139:233,1,132.00000402832,8|0,0:0|0:0,0:0:0:0:
35,105,157549,1,2,0:0:0:0:
38,108,157645,2,0,L|31:241,1,132.00000402832,2|0,0:3|0:0,0:0:0:0:
139,371,158032,2,0,L|145:239,1,132.00000402832,8|0,0:0|0:0,0:0:0:0:
255,25,158420,6,0,P|385:3|512:37,1,264.000008056641,4|8,0:0|0:0,0:0:0:0:
226,280,159001,1,2,0:0:0:0:
160,287,159097,1,2,0:0:0:0:
100,259,159194,2,0,P|78:129|111:1,1,264.000008056641,2|8,0:3|0:0,0:0:0:0:
110,3,159968,6,0,P|78:130|101:261,1,264.000008056641,2|8,0:0|0:0,0:0:0:0:
275,334,160549,1,2,0:0:0:0:
278,337,160646,1,2,0:0:0:0:
281,340,160743,2,0,L|142:350,2,132.00000402832,2|0|8,3:3|3:0|0:0,0:0:0:0:
281,340,161517,6,0,P|155:316|17:356,1,264.000008056641,4|8,0:0|0:0,0:0:0:0:
26,351,162194,1,2,0:0:0:0:
29,354,162291,2,0,L|20:212,1,132.00000402832,2|0,0:3|0:0,0:0:0:0:
184,160,162678,2,0,L|192:291,1,132.00000402832,8|0,0:0|0:0,0:0:0:0:
32,357,162968,1,2,0:0:0:0:
35,360,163065,2,0,L|26:218,1,132.00000402832,2|0,0:3|0:0,0:0:0:0:
190,166,163452,2,0,L|198:297,1,132.00000402832,8|0,0:0|0:0,0:0:0:0:
38,363,163743,1,2,0:0:0:0:
41,366,163840,2,0,L|32:224,1,132.00000402832,2|0,0:3|0:0,0:0:0:0:
196,172,164227,2,0,L|204:303,1,132.00000402832,8|0,0:0|0:0,0:0:0:0:
471,378,164614,6,0,P|483:342|476:302,1,66.0000020141602,4|0,0:0|0:0,0:0:0:0:
432,145,164807,1,2,0:0:0:0:
413,207,164903,1,2,0:0:0:0:
433,269,165000,1,8,0:0:0:0:
491,48,165194,1,2,0:0:0:0:
272,109,165388,2,0,P|161:132|11:109,1,264.000008056641,2|8,0:3|0:0,0:0:0:0:
13,109,166162,6,0,P|5:152|12:183,1,66.0000020141602,4|0,0:0|0:0,0:0:0:0:
251,357,166355,1,0,3:0:0:0:
272,358,166419,1,0,3:2:0:0:
294,356,166484,1,2,3:2:0:0:
315,350,166549,2,0,P|263:341|163:361,1,132.00000402832,8|0,0:0|0:0,0:0:0:0:
124,378,166839,1,2,3:2:0:0:
60,360,166936,1,8,0:0:0:0:
392,216,167130,6,0,L|395:247,1,30,4|0,0:0|3:0,0:0:0:0:
403,256,167710,6,0,P|426:187|393:4,1,264.000008056641,4|8,0:0|0:0,0:0:0:0:
392,3,168388,1,2,0:0:0:0:
395,6,168484,2,0,L|246:14,1,132.00000402832,2|0,0:3|0:0,0:0:0:0:
175,174,168871,2,0,L|306:166,1,132.00000402832,8|0,0:0|0:0,0:0:0:0:
398,9,169162,1,2,0:0:0:0:
401,12,169258,2,0,L|252:20,1,132.00000402832,2|0,0:3|0:0,0:0:0:0:
181,180,169645,2,0,L|312:172,1,132.00000402832,8|0,0:0|0:0,0:0:0:0:
404,15,169936,1,2,0:0:0:0:
407,18,170032,2,0,L|258:26,1,132.00000402832,2|0,0:3|0:0,0:0:0:0:
187,186,170420,2,0,L|318:178,1,132.00000402832,8|0,0:0|0:0,0:0:0:0:
34,130,170807,6,0,P|2:236|31:387,1,264.000008056641,4|8,0:0|0:0,0:0:0:0:
437,297,171388,1,2,0:0:0:0:
374,278,171484,1,2,0:0:0:0:
309,287,171581,2,0,P|241:297|171:278,1,132.00000402832,2|0,0:0|0:0,0:0:0:0:
90,8,171968,1,8,0:0:0:0:
34,130,172162,1,2,0:0:0:0:
358,59,172355,6,0,L|209:49,1,132.00000402832,2|0,0:3|0:0,0:0:0:0:
283,204,172743,2,0,L|414:212,1,132.00000402832,8|0,0:0|0:0,0:0:0:0:
361,62,173033,1,2,0:0:0:0:
364,65,173130,2,0,L|215:55,1,132.00000402832,2|0,0:3|0:0,0:0:0:0:
289,210,173518,2,0,L|420:218,1,132.00000402832,8|0,0:0|0:0,0:0:0:0:
279,361,173807,1,2,0:0:0:0:
282,364,173904,6,0,P|168:385|0:338,1,264.000008056641,4|8,0:0|0:0,0:0:0:0:
26,352,174581,1,2,0:0:0:0:
29,355,174678,2,0,L|39:200,1,132.00000402832,2|0,3:0|0:0,0:0:0:0:
246,88,175065,1,8,0:0:0:0:
117,117,175259,1,8,0:0:0:0:
364,149,175452,5,2,0:3:0:0:
37,223,175646,1,8,0:0:0:0:
246,88,175839,1,2,0:0:0:0:
257,52,175936,1,2,0:0:0:0:
244,17,176033,5,2,0:3:0:0:
246,88,176130,1,0,0:0:0:0:
293,142,176226,1,8,3:3:0:0:
364,149,176323,1,8,3:3:0:0:
424,107,176420,2,0,P|438:74|432:28,1,66.0000020141602,2|0,3:2|0:0,0:0:0:0:
237,179,176614,2,0,P|223:258|247:334,1,132.00000402832,12|0,0:0|0:0,0:0:0:0:
270,356,176904,1,2,0:0:0:0:
290,337,177001,6,0,P|220:318|51:347,1,240,4|8,0:0|0:0,0:0:0:0:
58,344,177775,2,0,P|73:280|60:213,1,120,2|0,0:0|0:0,0:0:0:0:
35,55,178162,2,0,P|19:118|32:185,1,120,8|0,0:0|0:0,0:0:0:0:
64,350,178549,2,0,P|79:286|66:219,1,120,2|0,0:0|0:0,0:0:0:0:
41,61,178936,2,0,P|25:124|38:191,1,120,8|0,0:0|0:0,0:0:0:0:
70,356,179323,2,0,P|85:292|72:225,1,120,2|0,0:0|0:0,0:0:0:0:
47,67,179710,2,8,P|31:130|44:197,1,120,8|0,0:0|0:0,0:0:0:0:
235,331,180097,6,0,P|268:341|309:339,1,60,4|0,0:0|0:0,0:0:0:0:
410,241,180291,1,2,0:3:0:0:
436,172,180388,1,0,0:0:0:0:
412,103,180484,1,10,0:0:0:0:
412,103,180678,5,2,0:3:0:0:
360,72,180775,1,0,0:0:0:0:
302,81,180871,1,2,0:0:0:0:
302,81,181065,5,2,0:3:0:0:
258,88,181161,1,0,0:0:0:0:
219,65,181258,1,10,0:0:0:0:
219,65,181452,5,2,0:0:0:0:
210,36,181548,1,0,0:0:0:0:
220,9,181646,2,0,P|238:81|207:248,1,240,2|8,0:3|0:0,0:0:0:0:
210,242,182323,1,0,0:0:0:0:
213,245,182420,1,2,0:0:0:0:
287,152,182614,1,0,0:0:0:0:
405,127,182807,1,8,0:0:0:0:
510,184,183001,1,0,0:0:0:0:
281,381,183194,6,0,P|254:287|291:146,1,240,4|8,0:0|0:0,0:0:0:0:
287,152,183968,2,0,P|306:83|288:2,1,120,2|0,0:0|0:0,0:0:0:0:
123,152,184355,2,0,P|104:221|122:302,1,120,8|0,0:0|0:0,0:0:0:0:
293,158,184743,2,0,P|312:89|294:8,1,120,2|0,0:0|0:0,0:0:0:0:
129,158,185130,2,0,P|110:227|128:308,1,120,8|0,0:0|0:0,0:0:0:0:
299,164,185517,2,0,P|318:95|300:14,1,120,2|0,0:0|0:0,0:0:0:0:
135,164,185904,2,0,P|116:233|134:314,1,120,8|0,0:0|0:0,0:0:0:0:
253,384,186291,5,4,0:0:0:0:
138,97,186484,1,2,0:0:0:0:
82,76,186581,1,0,0:0:0:0:
24,86,186677,1,8,0:0:0:0:
199,219,186872,1,2,0:0:0:0:
87,184,187065,1,2,0:0:0:0:
308,174,187259,1,0,0:0:0:0:
199,219,187452,1,12,0:0:0:0:
363,70,187646,1,0,0:0:0:0:
332,289,187839,5,2,3:0:0:0:
216,102,188033,1,8,0:0:0:0:
159,85,188129,1,8,0:0:0:0:
107,111,188227,1,2,3:2:0:0:
84,130,188323,1,0,3:0:0:0:
55,138,188420,1,0,3:0:0:0:
25,135,188517,1,0,3:0:0:0:
0,121,188614,1,2,3:2:0:0:
265,0,188807,2,0,L|457:8,1,180,12|0,0:0|0:0,0:0:0:0:
491,44,189193,1,2,0:0:0:0:
509,100,189290,1,2,0:0:0:0:
495,157,189388,6,0,P|464:237|494:343,1,180.000006866455,4|8,0:0|0:0,0:0:0:0:
483,327,190162,2,0,P|427:315|355:326,1,90.0000034332277,2|0,0:0|0:0,0:0:0:0:
224,354,190549,2,0,P|280:366|352:355,1,90.0000034332277,8|0,0:0|0:0,0:0:0:0:
489,333,190937,2,0,P|432:320|360:331,1,90.0000034332277,2|0,0:0|0:0,0:0:0:0:
230,360,191324,2,0,P|286:372|358:361,1,90.0000034332277,8|0,0:0|0:0,0:0:0:0:
495,339,191711,2,0,P|438:326|366:337,1,90.0000034332277,2|0,0:0|0:0,0:0:0:0:
236,366,192098,2,0,P|292:378|364:367,1,90.0000034332277,8|0,0:0|0:0,0:0:0:0:
224,141,192484,6,0,P|181:137|150:146,1,45.0000017166138,4|0,0:0|0:0,0:0:0:0:
22,209,192678,1,2,0:3:0:0:
87,226,192774,1,0,0:0:0:0:
148,198,192871,1,10,0:0:0:0:
148,198,193065,5,2,0:3:0:0:
172,144,193161,1,0,0:0:0:0:
157,88,193259,2,0,P|146:44|166:-16,1,90.0000034332277,2|0,0:0|0:0,0:0:0:0:
274,157,193646,1,0,0:0:0:0:
24,111,193839,1,2,0:0:0:0:
272,37,194033,6,0,P|367:24|484:52,2,180.000006866455,4|8|2,0:0|0:0|0:0,0:0:0:0:
272,37,195194,1,8,0:0:0:0:
330,250,195388,1,0,0:0:0:0:
119,167,195581,6,0,P|198:148|291:165,1,135.000005149841,4|0,0:0|0:0,0:0:0:0:
267,157,195968,1,2,3:2:0:0:
0,80,196162,1,10,0:0:0:0:
155,311,196355,1,2,3:2:0:0:
119,167,196549,1,0,3:0:0:0:
168,67,196743,1,2,3:2:0:0:
245,34,196936,1,0,3:2:0:0:
42,199,197130,5,4,0:0:0:0:
256,192,197226,12,0,198097,0:0:0:0:
329,269,198291,6,0,L|331:241,1,22.5,12|0,0:0|0:0,0:0:0:0:
339,255,198678,6,0,P|272:276|135:258,1,180,4|0,0:0|0:0,0:0:0:0:
149,265,199065,1,8,0:0:0:0:
286,67,199259,2,0,L|405:78,1,120,2|0,0:3|0:0,0:0:0:0:
286,67,199646,1,2,0:3:0:0:
361,341,199839,1,8,0:0:0:0:
121,193,200033,6,0,P|97:127|126:-2,1,180,4|0,0:0|0:0,0:0:0:0:
120,7,200420,1,2,0:0:0:0:
65,303,200614,1,8,0:0:0:0:
6,199,200808,1,0,0:0:0:0:
28,82,201001,1,0,0:0:0:0:
87,186,201194,1,0,0:0:0:0:
65,303,201387,1,8,0:0:0:0:
180,111,201581,1,2,0:0:0:0:
236,93,201677,1,2,0:0:0:0:
295,102,201775,6,0,P|380:121|487:84,1,180,4|0,0:0|0:0,0:0:0:0:
481,88,202162,1,8,0:0:0:0:
304,200,202355,1,0,0:0:0:0:
279,285,202451,1,2,0:3:0:0:
309,368,202548,1,2,0:3:0:0:
199,71,202743,1,2,0:0:0:0:
304,200,202936,1,8,0:0:0:0:
512,31,203130,6,0,P|419:8|315:14,1,180,4|0,0:0|0:0,0:0:0:0:
319,15,203517,1,2,0:0:0:0:
279,285,203710,1,8,0:0:0:0:
199,71,203904,2,0,P|156:58|114:57,1,60,2|0,3:2|0:0,0:0:0:0:
36,115,204097,1,8,0:0:0:0:
36,115,204291,5,8,0:0:0:0:
110,124,204388,1,8,0:0:0:0:
141,56,204484,1,2,3:2:0:0:
86,5,204581,1,0,3:0:0:0:
21,42,204678,1,0,3:0:0:0:
92,300,204872,6,0,P|162:318|275:286,1,180,4|0,0:0|0:0,0:0:0:0:
279,285,205259,1,8,0:0:0:0:
381,73,205452,2,0,L|511:83,1,120,2|0,0:3|0:0,0:0:0:0:
381,73,205839,1,2,0:3:0:0:
414,326,206033,1,8,0:0:0:0:
294,145,206226,6,0,P|224:129|103:141,1,180,4|0,0:0|0:0,0:0:0:0:
102,142,206614,1,2,0:0:0:0:
146,371,206807,1,8,0:0:0:0:
82,264,207001,1,0,3:0:0:0:
62,258,207065,1,0,3:0:0:0:
43,255,207130,1,2,3:2:0:0:
23,258,207194,1,10,0:0:0:0:
196,61,207388,1,2,0:0:0:0:
82,264,207581,1,2,0:3:0:0:
320,60,207775,1,2,0:0:0:0:
80,20,207968,5,4,0:0:0:0:
256,192,208065,12,0,209710,3:0:0:0:
97,241,209904,6,0,P|131:255|219:238,1,120,12|0,0:0|0:0,0:0:0:0:
269,230,210193,1,2,0:0:0:0:
325,248,210290,1,8,0:0:0:0:
265,353,210484,1,0,3:0:0:0:
240,123,210678,1,2,3:2:0:0:
211,243,210872,1,0,3:0:0:0:
462,58,211065,6,0,L|481:56,3,20,6|0|0|0,0:0|0:0|0:0|0:0,0:0:0:0:
