osu file format v14

[General]
AudioFilename: audio.mp3
AudioLeadIn: 0
PreviewTime: 50130
Countdown: 0
SampleSet: Soft
StackLeniency: 0.7
Mode: 0
LetterboxInBreaks: 0
WidescreenStoryboard: 1

[Editor]
Bookmarks: 485,6678,15968,19065,37646,43839,51581,73259,76355,88743,101130,107323,115065,136743,146033,155323,177001,189388,198678,207968,211065
DistanceSpacing: 0.8
BeatDivisor: 4
GridSize: 8
TimelineZoom: 2.1

[Metadata]
Title:Tabi to Ferry
TitleUnicode:旅とフェリー
Artist:FUJIN CLUB
ArtistUnicode:婦人倶楽部
Creator:dsco
Version:"Collab" Insane
Source:
Tags:pop japan travel and and shibuya kei lounge vinxis xilver
BeatmapID:1536555
BeatmapSetID:704541

[Difficulty]
HPDrainRate:6
CircleSize:4
OverallDifficulty:7
ApproachRate:8
SliderMultiplier:1.7
SliderTickRate:1

[Events]
//Background and Video events
0,0,"ff.jpg",0,0
Video,163,"videoplayback(1).avi"
//Break Periods
2,136943,144896
//Storyboard Layer 0 (Background)
//Storyboard Layer 1 (Fail)
//Storyboard Layer 2 (Pass)
//Storyboard Layer 3 (Foreground)
//Storyboard Sound Samples

[TimingPoints]
485,387.096774193548,4,2,1,60,1,0
5904,-133.333333333333,4,2,1,60,0,0
6678,-125,4,2,1,60,0,0
17904,-105.263157894737,4,2,1,60,0,0
19065,-125,4,2,1,60,0,0
20710,-125,4,2,1,30,0,0
20807,-125,4,2,1,60,0,0
21097,-125,4,2,1,30,0,0
21194,-125,4,2,1,60,0,0
21484,-125,4,2,1,30,0,0
21581,-125,4,2,1,60,0,0
23807,-125,4,2,1,30,0,0
23904,-125,4,2,1,60,0,0
24194,-125,4,2,1,30,0,0
24291,-125,4,2,1,60,0,0
24581,-125,4,2,1,30,0,0
24678,-125,4,2,1,60,0,0
24968,-125,4,2,1,30,0,0
25065,-125,4,2,1,60,0,0
30001,-125,4,2,1,30,0,0
30097,-125,4,2,1,60,0,0
30388,-125,4,2,1,30,0,0
30484,-125,4,2,1,60,0,0
30775,-125,4,2,1,30,0,0
30872,-125,4,2,1,60,0,0
33097,-125,4,2,1,30,0,0
33194,-125,4,2,1,60,0,0
33484,-125,4,2,1,30,0,0
33581,-125,4,2,1,60,0,0
33872,-125,4,2,1,30,0,0
33968,-125,4,2,1,60,0,0
34259,-125,4,2,1,30,0,0
34355,-125,4,2,1,60,0,0
36194,-125,4,2,1,30,0,0
36291,-111.111111111111,4,2,1,60,0,0
36581,-111.111111111111,4,2,1,30,0,0
36678,-100,4,2,1,60,0,0
36968,-100,4,2,1,30,0,0
37065,-90.9090909090909,4,2,1,60,0,0
37355,-90.9090909090909,4,2,1,30,0,0
37452,-83.3333333333333,4,2,1,60,0,0
38226,-125,4,2,1,60,0,0
42388,-125,4,2,1,30,0,0
42484,-125,4,2,1,60,0,0
42775,-125,4,2,1,30,0,0
42872,-125,4,2,1,60,0,0
43162,-125,4,2,1,30,0,0
43259,-125,4,2,1,60,0,0
43549,-125,4,2,1,30,0,0
43646,-125,4,2,1,60,0,0
50226,-111.111111111111,4,2,1,60,0,0
50614,-100,4,2,1,60,0,0
51581,-83.3333333333333,4,2,1,70,0,0
63388,-111.111111111111,4,2,1,70,0,0
63872,-111.111111111111,4,2,1,30,0,0
63968,-83.3333333333333,4,2,1,70,0,0
71614,-83.3333333333333,4,2,1,30,0,0
71710,-83.3333333333333,4,2,1,70,0,0
72872,-111.111111111111,4,2,1,60,0,0
73162,-111.111111111111,4,2,1,30,0,0
73259,-111.111111111111,4,2,1,60,0,0
76355,-125,4,2,1,60,0,0
100549,-100,4,2,1,60,0,0
100936,-83.3333333333333,4,2,1,60,0,0
101517,-125,4,2,1,60,0,0
105872,-125,4,2,1,30,0,0
105968,-125,4,2,1,60,0,0
106259,-125,4,2,1,30,0,0
106355,-125,4,2,1,60,0,0
106646,-125,4,2,1,30,0,0
106743,-125,4,2,1,60,0,0
107033,-125,4,2,1,30,0,0
107130,-125,4,2,1,60,0,0
113710,-111.111111111111,4,2,1,60,0,0
114097,-100,4,2,1,60,0,0
115065,-83.3333333333333,4,2,1,70,0,0
126872,-111.111111111111,4,2,1,70,0,0
127355,-111.111111111111,4,2,1,30,0,0
127452,-83.3333333333333,4,2,1,70,0,0
134130,-83.3333333333333,4,2,1,30,0,0
134226,-83.3333333333333,4,2,1,70,0,0
136355,-111.111111111111,4,2,1,60,0,0
150581,-111.111111111111,4,2,1,30,0,0
150678,-111.111111111111,4,2,1,60,0,0
154549,-83.3333333333333,4,2,1,70,0,0
155323,-83.3333333333333,4,2,1,70,0,1
167130,-111.111111111111,4,2,1,70,0,1
167614,-111.111111111111,4,2,1,30,0,1
167710,-83.3333333333333,4,2,1,70,0,1
176904,-83.3333333333333,4,2,1,30,0,1
177001,-111.111111111111,4,2,1,60,0,0
182323,-111.111111111111,4,2,1,30,0,0
182420,-111.111111111111,4,2,1,60,0,0
189291,-111.111111111111,4,2,1,30,0,0
189388,-111.111111111111,4,2,1,60,0,0
198678,-125,4,2,1,60,0,0

[Colours]
Combo1 : 218,99,120
Combo2 : 119,192,199

[HitObjects]
114,68,5904,6,0,P|163:78|233:73,1,106.250004053116
240,88,6291,2,0,L|290:103,2,31.8750012159348,8|8|2,0:0|0:0|3:0,0:0:0:0:
335,211,6678,6,0,P|403:210|479:244,1,136,4|8,0:0|0:0,0:0:0:0:
296,103,7259,2,0,P|329:107|363:104,1,68,2|0,0:3|0:0,0:0:0:0:
196,274,7646,2,0,P|229:269|263:272,1,68,2|8,0:3|0:0,0:0:0:0:
114,68,8033,2,0,P|147:72|181:69,1,68,4|0,0:0|0:0,0:0:0:0:
26,30,8420,5,2,0:0:0:0:
9,128,8614,1,8,0:0:0:0:
70,206,8807,1,0,0:0:0:0:
53,304,9001,1,0,0:0:0:0:
96,371,9194,2,0,L|179:357,2,68,0|8|8,0:0|0:0|0:0,0:0:0:0:
215,293,9775,6,0,P|274:325|341:334,1,136,4|8,0:0|0:0,0:0:0:0:
449,274,10355,1,0,0:1:0:0:
449,274,10452,1,2,0:3:0:0:
449,273,10549,2,0,P|448:240|440:207,2,68,2|2|8,0:3|0:0|0:0,0:0:0:0:
333,199,11130,6,0,P|341:132|364:58,1,136,4|2,0:0|0:0,0:0:0:0:
360,66,11710,1,8,0:0:0:0:
198,250,11904,2,0,P|190:183|167:109,1,136,2|0,3:0|3:0,0:0:0:0:
170,117,12484,1,2,3:2:0:90:soft-hitwhistle.wav
211,274,12872,6,0,P|144:291|71:288,1,136,4|8,0:0|0:0,0:0:0:0:
237,115,13452,2,0,P|203:112|169:116,1,68,2|0,0:3|0:3,0:0:0:0:
370,325,13839,2,0,P|336:327|302:323,1,68,2|8,0:3|0:0,0:0:0:0:
407,49,14226,2,0,P|373:46|339:50,1,68,4|0,0:0|0:0,0:0:0:0:
231,32,14614,5,2,0:0:0:0:
150,105,14807,1,8,0:0:0:0:
123,210,15001,1,2,3:2:0:0:
139,317,15194,1,10,0:2:0:0:
82,371,15388,2,0,L|14:381,2,68,0|2|2,0:0|0:3|0:0,0:0:0:0:
256,192,15968,5,4,0:0:0:0:
256,192,16065,12,0,17517,0:0:0:0:
152,80,17904,6,0,P|232:100|296:100,1,121.124996765614,2|2,0:3|0:0,0:0:0:0:
270,101,18291,2,0,L|279:183,1,80.7499978437424,8|0,0:0|3:0,0:0:0:0:
383,222,18678,1,2,3:2:0:0:
449,133,18872,1,2,3:2:0:0:
457,336,19065,5,4,0:0:0:0:
456,336,19452,2,0,P|424:345|390:348,1,68,8|0,0:0|0:0,0:0:0:0:
255,290,19839,2,0,P|291:314|313:337,1,68,2|0,0:0|0:0,0:0:0:0:
249,382,20226,1,8,0:0:0:0:
119,266,20420,6,0,P|161:239|220:218,1,102,0|0,0:0|0:0,0:0:0:0:
231,195,20807,2,0,P|278:213|321:240,1,102,2|0,0:0|0:0,0:0:0:0:
352,251,21194,2,0,P|399:232|442:205,1,102,2|0,0:0|0:0,0:0:0:0:
451,179,21581,1,0,0:0:0:0:
477,331,21775,1,8,0:0:0:0:
451,179,21968,2,0,L|472:87,1,68,0|4,0:0|0:0,0:0:0:0:
111,40,22549,6,0,P|70:65|52:89,1,68,8|0,0:0|0:0,0:0:0:0:
213,157,22936,2,0,P|189:132|159:116,1,68,2|0,0:0|0:0,0:0:0:0:
80,171,23323,1,8,0:0:0:0:
255,288,23517,6,0,P|291:245|319:187,1,102,2|0,0:3|0:0,0:0:0:0:
320,173,23904,2,0,P|295:128|262:89,1,102,2|0,3:0|0:0,0:0:0:0:
237,68,24291,2,0,L|353:57,1,102,2|0,0:3|0:0,0:0:0:0:
369,39,24678,2,0,L|485:28,1,102,2|0,3:0|0:0,0:0:0:0:
504,13,25065,6,0,B|498:89|498:89|515:132|515:132|507:214,1,204,4|8,0:0|0:0,0:0:0:0:
457,336,25839,1,0,0:0:0:0:
457,336,25936,1,2,0:0:0:0:
457,336,26033,2,0,P|453:303|451:269,1,68,2|0,0:3|3:0,0:0:0:0:
507,213,26420,1,8,0:0:0:0:
419,189,26614,6,0,P|397:140|304:99,1,136,2|2,0:3|3:2,0:0:0:0:
240,98,27194,1,8,0:0:0:0:
157,184,27388,2,0,P|141:229|149:338,1,136,2|2,0:3|3:2,0:0:0:0:
142,316,27968,2,0,L|56:309,1,68,8|2,0:0|0:0,0:0:0:0:
21,254,28355,5,4,0:0:0:0:
448,158,28743,2,0,P|440:111|426:85,1,68,8|0,0:0|0:0,0:0:0:0:
347,212,29130,2,0,P|360:180|363:147,1,68,2|0,0:0|0:0,0:0:0:0:
348,53,29517,1,8,0:0:0:0:
392,331,29710,6,0,P|431:299|456:255,1,102,0|0,0:0|0:0,0:0:0:0:
469,225,30097,2,0,P|437:185|393:160,1,102,2|0,0:0|0:0,0:0:0:0:
363,147,30484,2,0,P|323:178|298:222,1,102,2|0,0:0|0:0,0:0:0:0:
282,250,30872,1,0,0:0:0:0:
287,283,30968,1,2,0:0:0:0:
292,317,31065,1,8,0:0:0:0:
210,178,31259,6,0,B|177:161|144:178|144:178|112:194|79:178,1,136,2|0,0:0|0:0,0:0:0:0:
6,116,31839,2,0,P|1:68|13:38,1,68,8|0,0:0|0:0,0:0:0:0:
71,264,32226,2,0,L|51:377,1,102,2|0,0:0|0:0,0:0:0:0:
53,364,32614,1,8,0:0:0:0:
187,211,32807,6,0,P|164:254|167:324,1,102,2|0,0:3|0:0,0:0:0:0:
171,337,33194,2,0,P|246:323|276:289,1,102,2|0,0:3|0:0,0:0:0:0:
285,284,33581,2,0,L|291:171,1,102,2|0,0:3|0:0,0:0:0:0:
309,149,33968,2,0,L|315:36,1,102,2|0,0:3|0:0,0:0:0:0:
342,21,34355,6,0,B|486:40|486:40|431:69,1,204,4|8,0:0|0:0,0:0:0:0:
214,32,35130,1,0,0:0:0:0:
181,39,35226,1,2,0:0:0:0:
147,46,35323,1,2,0:3:0:0:
57,129,35517,1,2,0:0:0:0:
51,279,35710,1,2,0:3:0:0:
156,381,35904,6,0,P|199:359|259:350,1,102,6|0,0:0|0:0,0:0:0:0:
188,284,36291,2,0,P|243:275|317:289,1,114.749996498108,2|0,3:0|0:0,0:0:0:0:
288,184,36678,2,0,P|340:197|409:241,1,127.5,2|0,3:0|0:0,0:0:0:0:
443,122,37065,2,0,P|478:156|513:246,1,140.25000428009,10|0,0:0|0:0,0:0:0:0:
499,273,37452,6,0,P|495:208|381:-3,1,305.999990661621,4|8,0:0|0:0,0:0:0:0:
169,51,38226,5,0,0:0:0:0:
226,123,38420,2,0,P|272:117|307:104,1,68,2|0,0:0|0:0,0:0:0:0:
169,51,38807,1,8,0:0:0:0:
131,222,39001,2,0,P|194:206|278:208,1,136,2|0,0:3|3:0,0:0:0:0:
319,265,39581,1,8,0:0:0:0:
379,123,39775,5,2,0:0:0:0:
434,195,39968,2,0,P|440:238|439:269,1,68,2|2,0:0|0:0,0:0:0:0:
379,123,40355,1,8,0:0:0:0:
463,55,40549,2,0,P|485:97|514:183,1,136,2|0,0:3|3:0,0:0:0:0:
427,289,41130,1,8,0:0:0:0:
201,146,41323,6,0,L|186:195,1,34,2|0,0:0|0:0,0:0:0:0:
262,239,41517,2,0,L|271:206,1,34,2|0,0:0|0:0,0:0:0:0:
280,73,41710,6,0,L|291:122,1,34,2|0,0:0|0:0,0:0:0:0:
379,123,41904,2,0,L|371:89,1,34,8|0,0:0|0:0,0:0:0:0:
210,12,42097,6,0,P|145:32|88:29,1,102,2|0,0:3|0:0,0:0:0:0:
85,35,42484,2,0,P|105:100|102:157,1,102,2|0,3:0|0:0,0:0:0:0:
108,160,42872,2,0,P|173:140|230:143,1,102,0|0,0:0|0:0,0:0:0:0:
233,137,43259,2,0,P|213:72|216:15,1,102,2|0,0:0|0:0,0:0:0:0:
210,12,43646,1,0,0:0:0:0:
284,211,43839,6,0,L|428:182,1,136,4|0,0:0|0:0,0:0:0:0:
417,184,44420,1,0,0:2:0:0:
208,257,44614,2,0,B|241:302|241:302|344:284,1,136,2|2,0:0|0:0,0:0:0:0:
319,288,45194,1,8,0:0:0:0:
95,231,45388,6,0,L|165:353,1,136,0|0,0:0|0:0,0:0:0:0:
162,348,45968,1,0,0:2:0:0:
105,143,46162,2,0,L|11:142,1,68,2|0,0:0|0:0,0:0:0:0:
176,195,46549,2,0,L|222:114,1,68,0|0,0:0|0:0,0:0:0:0:
290,113,46936,6,0,P|357:150|447:152,1,136,4|0,0:0|0:0,0:0:0:0:
415,156,47517,1,0,0:0:0:0:
492,11,47710,2,0,P|425:20|366:54,1,136,8|0,0:0|0:0,0:0:0:0:
366,53,48291,1,0,0:0:0:0:
180,4,48484,5,10,0:3:0:0:
180,4,48678,1,0,0:0:0:0:
180,4,48872,2,0,B|157:274|157:274|212:129,1,408,10|0,0:3|0:0,0:0:0:0:
64,176,50226,6,0,L|57:253,1,76.4999976654053,2|2,0:0|0:0,0:0:0:0:
205,145,50614,2,0,L|213:56,1,85,2|2,0:0|0:0,0:0:0:0:
466,244,51001,5,8,0:0:0:0:
363,254,51194,1,2,3:0:0:0:
260,264,51388,1,0,3:0:0:0:
157,274,51581,6,0,P|148:212|185:54,1,203.999993774414,4|8,0:0|0:0,0:0:0:0:
45,270,52162,1,0,0:0:0:0:
45,270,52355,2,0,L|33:373,1,101.999996887207,2|0,0:3|0:0,0:0:0:0:
123,384,52743,2,0,L|134:282,1,101.999996887207,8|0,0:0|0:0,0:0:0:0:
304,207,53130,6,0,L|316:310,1,101.999996887207,2|0,0:3|0:0,0:0:0:0:
226,321,53518,2,0,L|214:219,1,101.999996887207,8|0,0:0|0:0,0:0:0:0:
512,233,53904,2,0,L|410:221,1,101.999996887207,2|0,0:3|0:0,0:0:0:0:
398,311,54292,2,0,L|499:322,1,101.999996887207,8|0,0:0|0:0,0:0:0:0:
431,135,54678,6,0,P|376:195|254:202,1,203.999993774414,4|8,0:0|0:0,0:0:0:0:
28,249,55259,1,2,0:0:0:0:
28,249,55355,1,2,0:0:0:0:
28,249,55452,2,0,P|127:249|200:318,1,203.999993774414,2|8,0:3|0:0,0:0:0:0:
136,384,56033,1,0,0:0:0:0:
250,184,56226,6,0,P|306:223|446:227,1,203.999993774414,2|0,0:0|0:0,0:0:0:0:
487,151,56807,1,0,0:0:0:0:
222,301,57001,2,0,P|121:296|33:346,1,203.999993774414,2|8,3:0|0:0,0:0:0:0:
458,28,57775,6,0,P|459:129|438:229,1,203.999993774414,4|8,0:0|0:0,0:0:0:0:
500,378,58355,1,0,0:0:0:0:
500,378,58549,2,0,L|513:261,1,101.999996887207,2|0,0:3|0:0,0:0:0:0:
415,242,58936,2,0,L|403:343,1,101.999996887207,8|0,0:0|0:0,0:0:0:0:
336,132,59323,6,0,L|219:119,1,101.999996887207,2|0,0:3|0:0,0:0:0:0:
200,217,59710,2,0,L|301:228,1,101.999996887207,8|0,0:0|0:0,0:0:0:0:
96,140,60097,2,0,L|109:257,1,101.999996887207,2|0,0:3|0:0,0:0:0:0:
11,276,60484,2,0,L|0:174,1,101.999996887207,8|0,0:0|0:0,0:0:0:0:
212,258,60872,5,4,0:0:0:0:
106,370,61065,1,2,0:0:0:0:
106,370,61162,1,2,0:0:0:0:
106,370,61259,1,8,0:0:0:0:
212,258,61452,1,2,0:0:0:0:
106,370,61646,2,0,P|131:267|81:161,1,203.999993774414,2|8,0:3|0:0,0:0:0:0:
406,14,62420,6,0,P|381:117|431:223,1,203.999993774414,4|2,0:0|3:2,0:0:0:0:
488,258,63001,1,0,0:0:0:0:
488,258,63097,1,2,3:2:0:0:
488,258,63194,1,8,0:0:0:0:
228,245,63388,6,0,L|415:205,1,191.249994163513,4|0,0:0|0:0,0:0:0:0:
488,258,63968,6,0,P|499:188|509:46,1,203.999993774414,4|8,0:0|0:0,0:0:0:0:
420,0,64549,1,0,0:0:0:0:
420,0,64743,2,0,L|301:14,1,101.999996887207,2|0,0:3|0:0,0:0:0:0:
324,105,65130,2,0,L|425:93,1,101.999996887207,8|0,0:0|0:0,0:0:0:0:
192,198,65517,6,0,L|206:317,1,101.999996887207,2|0,0:3|0:0,0:0:0:0:
297,294,65904,2,0,L|285:192,1,101.999996887207,8|0,0:0|0:0,0:0:0:0:
9,147,66291,2,0,L|110:135,1,101.999996887207,2|0,0:3|0:0,0:0:0:0:
105,42,66678,2,0,L|3:53,1,101.999996887207,8|0,0:0|0:0,0:0:0:0:
218,132,67065,5,4,0:0:0:0:
244,0,67259,1,0,0:0:0:0:
266,33,67355,1,2,0:0:0:0:
276,73,67452,1,8,0:0:0:0:
218,132,67646,1,2,0:0:0:0:
284,182,67839,2,0,B|302:231|302:231|283:392,1,203.999993774414,2|8,0:0|0:0,0:0:0:0:
218,242,68420,1,2,0:0:0:0:
317,104,68614,6,0,P|378:87|454:83,1,101.999996887207,2|0,0:3|0:0,0:0:0:0:
195,104,69001,2,0,P|134:87|58:83,1,101.999996887207,8|0,0:0|0:0,0:0:0:0:
397,188,69388,6,0,P|465:205|517:229,1,101.999996887207,2|0,0:3|0:0,0:0:0:0:
115,188,69775,2,0,P|47:205|-5:229,1,101.999996887207,8|0,0:0|0:0,0:0:0:0:
256,352,70162,6,0,B|244:292|244:292|263:251|263:251|192:160|256:64,1,305.999990661621,4|0,0:0|0:0,0:0:0:0:
132,113,70936,2,0,P|155:53|197:-5,1,101.999996887207,2|0,0:3|0:0,0:0:0:0:
30,149,71323,2,0,P|47:74|81:7,1,152.999995330811,8|0,0:0|0:0,0:0:0:0:
81,6,71710,5,4,0:0:0:0:
462,187,72872,2,0,P|409:189|353:221,1,114.749996498108,2|0,0:2|0:0,0:0:0:0:
332,240,73259,6,0,P|311:286|301:348,2,101.999996887207,2|0|0,0:3|0:0|0:0,0:0:0:0:
288,160,74033,2,0,B|243:203|230:257|230:257|140:222|27:259,1,305.999990661621,2|0,0:3|0:0,0:0:0:0:
42,254,75194,2,0,P|98:251|161:342,1,152.999995330811,10|8,0:3|0:0,0:0:0:0:
262,62,75775,1,0,3:2:0:0:
186,75,75968,1,0,3:2:0:0:
111,89,76162,1,0,3:2:0:0:
36,103,76355,5,4,0:0:0:0:
36,103,76743,2,0,P|48:136|52:169,1,68,0|2,0:0|0:0,0:0:0:0:
132,252,77130,2,0,P|136:218|147:186,1,68,0|2,0:0|0:0,0:0:0:0:
164,157,77420,1,2,0:0:0:0:
180,127,77517,1,0,0:0:0:0:
81,339,77710,1,2,0:0:0:0:
64,310,77807,1,2,0:0:0:0:
48,280,77904,5,0,0:0:0:0:
189,330,78097,2,0,P|243:331|341:323,2,136,2|2|2,0:0|0:0|0:0,0:0:0:0:
393,369,79065,1,0,0:0:0:0:
356,253,79259,1,0,0:0:0:0:
451,299,79452,6,0,P|456:249|448:143,1,136,4|2,0:0|0:0,0:0:0:0:
451,163,80226,2,0,P|395:174|370:172,1,68,2|0,0:0|0:0,0:0:0:0:
265,207,80614,1,2,0:0:0:0:
128,172,80807,6,0,P|93:231|78:297,1,136,2|2,0:0|0:0,0:0:0:0:
434,297,81581,2,0,P|418:231|383:172,1,136,2|2,0:0|0:0,0:0:0:0:
128,172,82355,1,2,0:0:0:0:
139,90,82549,6,0,L|3:98,1,136,4|0,0:0|0:0,0:0:0:0:
128,172,83130,1,2,0:0:0:0:
128,172,83323,2,0,P|144:212|147:252,2,68,0|2|0,0:0|0:0|0:0,0:0:0:0:
55,245,83904,1,2,0:0:0:0:
55,245,84097,6,0,P|39:285|36:325,2,68,2|0|2,0:0|0:0|0:0,0:0:0:0:
128,318,84678,1,2,0:0:0:0:
223,277,84872,1,0,0:0:0:0:
301,345,85065,2,0,P|345:356|379:355,2,68,2|2|2,0:0|0:0|0:0,0:0:0:0:
128,318,85646,5,4,0:0:0:0:
223,277,85839,2,0,P|241:226|244:202,1,68,0|2,0:0|0:0,0:0:0:0:
241,126,86226,1,2,0:0:0:0:
241,126,86420,2,0,P|233:92|220:61,1,68,2|2,0:0|0:0,0:0:0:0:
149,7,86807,1,0,0:0:0:0:
328,58,87001,6,0,B|380:63|380:63|417:44|417:44|458:49,2,136,2|2|4,0:3|0:3|0:0,0:0:0:0:
328,58,88162,1,8,0:0:0:0:
322,94,88259,1,8,0:0:0:0:
317,128,88355,1,2,0:0:0:0:
316,162,88452,1,0,0:0:0:0:
318,196,88549,1,2,0:0:0:0:
412,238,88743,6,0,P|431:281|437:309,1,68,4|2,0:0|0:3,0:0:0:0:
362,354,89130,1,8,0:0:0:0:
422,135,89323,2,0,P|461:167|505:251,1,136,2|0,0:3|0:0,0:0:0:0:
435,301,89904,1,8,0:0:0:0:
362,354,90097,1,0,0:0:0:0:
100,238,90291,6,0,P|81:281|75:309,1,68,2|2,0:0|0:3,0:0:0:0:
150,354,90678,1,8,0:0:0:0:
90,135,90871,2,0,P|51:167|7:251,1,136,2|0,0:3|0:0,0:0:0:0:
76,301,91452,1,8,0:0:0:0:
256,192,91839,5,4,0:0:0:0:
256,192,92226,2,0,P|292:182|339:181,1,68,8|2,0:0|0:0,0:0:0:0:
330,296,92614,2,0,P|296:293|263:283,1,68,2|0,0:0|0:0,0:0:0:0:
168,141,93001,2,0,P|196:123|228:110,1,68,8|2,0:0|0:0,0:0:0:0:
135,232,93388,6,0,P|64:215|11:171,1,136,2|8,0:3|0:0,0:0:0:0:
28,90,93968,1,0,0:3:0:0:
28,90,94162,2,0,L|24:20,2,68,2|0|8,0:3|0:3|0:0,0:0:0:0:
451,164,94936,6,0,P|397:167|345:226,1,136,4|8,0:0|0:0,0:0:0:0:
347,307,95517,1,2,0:0:0:0:
239,164,95710,2,0,P|293:167|345:226,1,136,2|8,0:0|0:0,0:0:0:0:
347,307,96291,1,0,0:0:0:0:
451,164,96484,6,0,L|421:26,2,136,2|8|2,0:3|0:0|0:0,0:0:0:0:
502,235,97452,1,2,0:3:0:0:
467,315,97646,1,8,0:0:0:0:
384,290,97839,1,2,0:3:0:0:
243,362,98033,6,0,P|310:360|334:363,1,68,0|2,0:0|0:0,0:0:0:0:
191,297,98420,2,0,P|156:331|87:356,1,102,10|2,0:3|0:0,0:0:0:0:
107,352,98807,1,8,0:0:0:0:
49,297,99001,1,0,3:0:0:0:
29,202,99194,1,2,0:3:0:0:
44,83,99388,1,0,0:0:0:0:
156,3,99581,5,4,0:0:0:0:
107,352,99968,1,2,0:3:0:0:
107,352,100355,1,8,0:0:0:0:
170,281,100549,6,0,P|146:238|108:202,1,85,2|0,0:3|0:0,0:0:0:0:
202,363,100936,2,0,P|247:351|363:248,1,203.999993774414,4|2,0:0|3:2,0:0:0:0:
357,162,101517,1,8,0:0:0:0:
423,43,101710,5,0,0:0:0:0:
357,162,101904,2,0,P|346:120|345:80,1,68,2|0,0:0|0:0,0:0:0:0:
423,43,102291,1,8,0:0:0:0:
271,196,102484,2,0,P|246:136|229:47,1,136,2|0,0:3|3:0,0:0:0:0:
166,22,103065,1,8,0:0:0:0:
89,255,103259,5,2,0:0:0:0:
158,192,103452,2,0,P|154:148|139:121,1,68,2|2,2:0|2:0,0:0:0:0:
89,255,103839,1,2,2:0:0:0:
250,0,104033,2,0,P|251:65|267:140,1,136,2|0,0:3|3:0,0:0:0:0:
323,203,104614,1,8,0:0:0:0:
496,176,104807,5,0,0:0:0:0:
323,203,105001,2,0,P|397:203|407:206,1,68,2|0,0:0|0:0,0:0:0:0:
455,256,105388,1,8,0:0:0:0:
466,355,105581,6,0,P|417:367|335:367,1,102,2|0,0:3|0:0,0:0:0:0:
348,348,105968,2,0,P|297:345|247:333,1,102,2|0,3:0|0:0,0:0:0:0:
232,306,106355,2,0,P|183:294|101:294,1,102,2|0,0:0|0:0,0:0:0:0:
114,313,106743,2,0,P|63:315|13:327,1,102,2|0,0:0|0:0,0:0:0:0:
13,327,107130,1,2,0:2:0:0:
151,205,107323,6,0,L|127:67,1,136,4|0,0:0|0:0,0:0:0:0:
69,17,107904,1,0,0:0:0:0:
291,198,108097,2,0,L|315:60,1,136,8|0,0:0|0:0,0:0:0:0:
373,10,108678,1,2,0:0:0:0:
221,246,108872,6,0,L|221:341,2,68,0|2|0,0:0|0:3|0:0,0:0:0:0:
218,50,109646,1,8,0:0:0:0:
218,50,110033,1,0,0:0:0:0:
218,50,110420,6,0,P|259:69|288:72,1,68,4|0,0:0|0:0,0:0:0:0:
345,137,110807,1,0,0:0:0:0:
415,79,111001,1,0,0:0:0:0:
249,152,111194,2,0,P|247:222|268:307,1,136,8|0,0:0|0:0,0:0:0:0:
318,341,111775,1,0,0:0:0:0:
68,354,111968,6,0,P|110:342|178:340,1,102,10|0,0:3|0:0,0:0:0:0:
168,339,112355,2,0,P|265:229|91:252,1,408,10|0,0:3|0:0,0:0:0:0:
313,366,113710,6,0,L|393:354,1,76.4999976654053,2|2,0:0|0:0,0:0:0:0:
94,231,114097,2,0,L|7:218,1,85,2|12,0:0|0:0,0:0:0:0:
176,157,114484,1,2,0:0:0:0:
176,157,114581,1,2,0:0:0:0:
176,157,114678,2,0,L|180:215,2,42.5,8|0|0,0:0|0:0|0:0,0:0:0:0:
198,325,115065,6,0,L|418:336,1,203.999993774414,4|8,0:0|0:0,0:0:0:0:
503,225,115646,1,0,0:0:0:0:
503,225,115839,2,0,P|513:172|508:106,1,101.999996887207,2|0,3:0|0:0,0:0:0:0:
385,127,116226,2,0,P|383:177|393:227,1,101.999996887207,8|0,0:0|0:0,0:0:0:0:
135,299,116614,6,0,P|124:246|130:180,1,101.999996887207,2|0,3:0|0:0,0:0:0:0:
253,201,117001,2,0,P|254:251|244:301,1,101.999996887207,8|0,0:0|0:0,0:0:0:0:
494,236,117388,2,0,P|442:225|375:231,1,101.999996887207,2|0,3:0|0:0,0:0:0:0:
396,354,117775,2,0,P|446:355|496:345,1,101.999996887207,8|0,0:0|0:0,0:0:0:0:
413,139,118162,6,0,L|204:162,1,203.999993774414,4|8,0:0|0:0,0:0:0:0:
42,333,118743,1,2,0:0:0:0:
42,333,118839,1,2,0:0:0:0:
42,333,118936,2,0,L|251:356,1,203.999993774414,2|8,0:3|0:0,0:0:0:0:
321,304,119517,1,0,0:0:0:0:
148,39,119710,6,0,L|119:246,1,203.999993774414,2|8,0:0|0:0,0:0:0:0:
47,298,120291,1,2,0:0:0:0:
270,364,120484,2,0,L|241:161,1,203.999993774414,2|8,3:0|0:0,0:0:0:0:
392,39,121259,6,0,L|363:242,1,203.999993774414,4|8,0:0|0:0,0:0:0:0:
445,371,121839,1,0,0:0:0:0:
445,371,122033,2,0,P|399:353|328:355,1,101.999996887207,2|0,0:3|0:0,0:0:0:0:
363,240,122420,2,0,P|410:258|461:259,1,101.999996887207,8|0,0:0|0:0,0:0:0:0:
392,39,122807,6,0,P|374:85|376:156,1,101.999996887207,2|0,0:3|0:0,0:0:0:0:
261,121,123194,2,0,P|279:73|280:22,1,101.999996887207,8|0,0:0|0:0,0:0:0:0:
75,39,123581,2,0,P|121:57|192:55,1,101.999996887207,2|0,0:3|0:0,0:0:0:0:
157,170,123968,2,0,P|109:151|58:150,1,101.999996887207,8|0,0:0|0:0,0:0:0:0:
24,358,124355,5,4,0:0:0:0:
1,207,124549,1,2,0:0:0:0:
1,207,124646,1,2,0:0:0:0:
1,207,124743,1,8,0:0:0:0:
24,358,124936,1,2,0:0:0:0:
1,207,125130,6,0,P|47:108|16:-2,1,203.999993774414,2|8,0:3|0:0,0:0:0:0:
339,161,125904,2,0,P|321:259|366:349,1,203.999993774414,4|8,0:0|0:0,0:0:0:0:
439,293,126484,1,0,0:0:0:0:
439,293,126581,1,0,3:0:0:0:
439,293,126678,1,8,0:0:0:0:
175,334,126872,6,0,L|366:348,1,191.249994163513,4|0,0:0|0:0,0:0:0:0:
439,293,127452,6,0,L|457:64,1,203.999993774414,4|8,0:0|0:0,0:0:0:0:
325,7,128033,1,0,0:0:0:0:
325,7,128226,2,0,P|257:-5|216:-2,1,101.999996887207,2|0,0:3|0:0,0:0:0:0:
234,121,128614,2,0,P|302:114|341:101,1,101.999996887207,8|0,0:0|0:0,0:0:0:0:
37,62,129001,6,0,P|25:130|28:171,1,101.999996887207,2|0,0:3|0:0,0:0:0:0:
151,153,129389,2,0,P|144:84|131:45,1,101.999996887207,8|0,0:0|0:0,0:0:0:0:
94,348,129774,2,0,P|162:360|203:357,1,101.999996887207,2|0,0:3|0:0,0:0:0:0:
185,234,130162,2,0,P|116:240|77:253,1,101.999996887207,8|0,0:0|0:0,0:0:0:0:
260,287,130549,5,4,0:0:0:0:
403,254,130743,1,0,0:0:0:0:
365,237,130839,1,2,0:0:0:0:
325,238,130936,1,8,0:0:0:0:
260,287,131130,1,2,0:0:0:0:
185,234,131323,2,0,B|148:205|148:205|-8:217,1,203.999993774414,2|8,0:0|0:0,0:0:0:0:
122,298,131904,1,2,0:0:0:0:
204,100,132097,6,0,P|184:57|143:13,1,101.999996887207,2|0,0:3|0:0,0:0:0:0:
308,100,132484,2,0,P|328:57|369:13,1,101.999996887207,8|0,0:0|0:0,0:0:0:0:
136,174,132872,6,0,P|101:154|34:143,1,101.999996887207,2|0,0:3|0:0,0:0:0:0:
376,174,133259,2,0,P|411:154|478:143,1,101.999996887207,8|0,0:0|0:0,0:0:0:0:
256,362,133646,6,0,B|222:304|256:246|256:246|246:208|246:208|268:151|236:93,1,254.999992218018,4|0,0:0|0:0,0:0:0:0:
246,116,134226,1,8,0:0:0:0:
347,171,134420,2,0,P|342:116|329:70,1,101.999996887207,2|8,0:0|3:2,0:0:0:0:
437,201,134807,2,0,P|440:127|420:38,1,152.999995330811,2|0,3:2|0:0,0:0:0:0:
424,50,135194,5,4,0:0:0:0:
85,214,136355,2,0,P|141:208|213:245,1,114.749996498108,0|0,0:0|0:0,0:0:0:0:
214,255,136743,5,2,0:3:0:0:
139,172,145646,6,0,L|143:124,1,38.2499988327027,2|2,0:0|0:0,0:0:0:0:
52,108,145839,2,0,L|48:146,1,38.2499988327027,2|2,0:0|0:0,0:0:0:0:
216,72,146033,6,0,P|258:60|346:72,1,114.749996498108,4|0,0:0|0:0,0:0:0:0:
395,125,146420,6,0,L|399:173,1,38.2499988327027,2|0,0:0|0:0,0:0:0:0:
307,189,146613,2,0,L|303:150,1,38.2499988327027,0|0,0:0|0:0,0:0:0:0:
468,225,146807,6,0,P|485:271|475:351,1,114.749996498108,2|0,0:3|0:0,0:0:0:0:
460,368,147194,5,2,0:0:0:0:
421,370,147290,1,2,0:0:0:0:
383,372,147388,1,2,0:0:0:0:
345,374,147485,1,2,0:0:0:0:
306,376,147581,5,2,0:3:0:0:
158,276,147775,2,0,P|134:279|116:289,2,38.2499988327027,2|0|2,0:0|0:0|0:3,0:0:0:0:
340,276,148162,2,0,P|364:279|382:289,2,38.2499988327027,2|0|2,0:0|0:0|0:3,0:0:0:0:
184,167,148549,2,0,P|159:158|133:156,2,38.2499988327027,2|0|2,0:0|0:0|0:3,0:0:0:0:
314,167,148936,1,10,0:3:0:0:
249,373,149130,6,0,B|268:335|249:297|249:297|230:260|249:223,1,152.999995330811,4|0,0:0|0:0,0:0:0:0:
184,167,149710,1,2,0:0:0:0:
109,216,149904,2,0,P|60:224|22:216,1,76.4999976654053,0|2,0:0|0:0,0:0:0:0:
32,0,150291,2,0,P|63:55|67:134,1,114.749996498108,10|0,0:3|0:0,0:0:0:0:
58,136,150678,6,0,P|109:101|198:87,1,152.999995330811,2|8,3:0|0:0,0:0:0:0:
264,172,151259,1,2,0:0:0:0:
260,210,151355,1,8,3:3:0:0:
257,248,151452,1,8,0:0:0:0:
253,286,151548,1,2,3:2:0:0:
250,324,151645,1,2,3:0:0:0:
384,379,151839,1,12,0:0:0:0:
256,192,152226,12,8,154162,0:0:0:0:
95,180,154549,6,0,L|81:22,2,135.99999584961,12|12|12,0:0|0:0|0:0,0:0:0:0:
65,251,155323,6,0,P|153:270|277:234,1,203.999993774414,4|8,0:0|0:0,0:0:0:0:
329,118,155904,1,0,0:0:0:0:
329,118,156097,2,0,B|314:99|303:62|317:6,1,101.999996887207,2|0,0:3|0:0,0:0:0:0:
414,10,156484,2,0,B|429:29|440:66|426:122,1,101.999996887207,8|0,0:0|0:0,0:0:0:0:
477,303,156872,6,0,B|435:313|398:302|379:287,1,101.999996887207,2|0,0:3|0:0,0:0:0:0:
390,192,157259,2,0,B|431:181|468:192|487:207,1,101.999996887207,8|0,0:0|0:0,0:0:0:0:
293,337,157646,2,0,B|274:352|237:363|195:352,1,101.999996887207,2|0,0:3|0:0,0:0:0:0:
184,256,158033,2,0,B|203:241|240:230|281:240,1,101.999996887207,8|0,0:0|0:0,0:0:0:0:
101,326,158420,6,0,P|64:277|79:121,1,203.999993774414,4|8,0:0|0:0,0:0:0:0:
170,4,159001,1,2,0:0:0:0:
170,4,159097,1,2,0:0:0:0:
170,4,159194,2,0,P|185:102|136:190,1,203.999993774414,2|8,0:3|0:0,0:0:0:0:
168,276,159775,1,0,0:0:0:0:
276,124,159968,6,0,P|361:76|475:72,1,203.999993774414,2|8,0:0|0:0,0:0:0:0:
512,148,160549,1,2,0:0:0:0:
352,314,160743,2,0,P|266:266|152:262,1,203.999993774414,2|8,3:3|0:0,0:0:0:0:
0,38,161517,6,0,L|214:68,1,203.999993774414,4|8,0:0|0:0,0:0:0:0:
350,31,162097,1,0,0:0:0:0:
350,31,162291,2,0,B|371:17|421:12|476:30,1,101.999996887207,2|0,0:3|0:0,0:0:0:0:
470,120,162678,2,0,B|451:137|403:151|346:142,1,101.999996887207,8|0,0:0|0:0,0:0:0:0:
152,156,163065,6,0,B|146:125|159:77|177:59,1,101.999996887207,2|0,0:3|0:0,0:0:0:0:
274,79,163452,2,0,B|284:107|279:157|265:178,1,101.999996887207,8|0,0:0|0:0,0:0:0:0:
170,365,163839,2,0,B|139:370|91:357|73:339,1,101.999996887207,2|0,0:3|0:0,0:0:0:0:
93,243,164226,2,0,B|121:232|171:237|192:251,1,101.999996887207,8|0,0:0|0:0,0:0:0:0:
16,283,164614,5,4,0:0:0:0:
43,131,164807,1,2,0:0:0:0:
43,131,164904,1,2,0:0:0:0:
43,131,165001,1,8,0:0:0:0:
16,283,165194,1,2,0:0:0:0:
43,131,165388,6,0,L|252:113,1,203.999993774414,2|8,0:3|0:0,0:0:0:0:
460,352,166162,6,0,L|251:334,1,203.999993774414,4|8,0:0|0:0,0:0:0:0:
189,369,166743,1,0,0:0:0:0:
189,369,166839,1,2,3:2:0:0:
189,369,166936,1,8,0:0:0:0:
261,152,167130,6,0,P|284:243|256:333,1,191.249994163513,4|0,0:0|0:0,0:0:0:0:
189,369,167710,6,0,L|-19:347,1,203.999993774414,4|8,0:0|0:0,0:0:0:0:
137,161,168291,1,0,0:0:0:0:
137,161,168484,2,0,B|153:192|152:224|139:267,1,101.999996887207,2|0,0:3|0:0,0:0:0:0:
41,277,168872,2,0,B|20:244|11:214|19:180,1,101.999996887207,8|0,0:0|0:0,0:0:0:0:
120,61,169259,6,0,B|152:40|182:31|216:39,1,101.999996887207,2|0,0:3|0:0,0:0:0:0:
236,157,169647,2,0,B|205:173|173:172|136:160,1,101.999996887207,0|0,0:0|0:0,0:0:0:0:
420,31,170033,2,0,B|440:63|449:93|441:127,1,101.999996887207,2|0,0:3|0:0,0:0:0:0:
324,147,170421,2,0,B|308:116|309:84|320:47,1,101.999996887207,8|0,0:0|0:0,0:0:0:0:
510,267,170807,6,0,P|424:236|291:244,1,203.999993774414,4|8,0:0|0:0,0:0:0:0:
122,76,171388,1,2,0:0:0:0:
122,76,171484,1,2,0:0:0:0:
122,76,171581,2,0,P|223:79|319:47,1,203.999993774414,2|8,0:0|0:0,0:0:0:0:
387,84,172162,1,2,0:0:0:0:
191,230,172355,6,0,B|162:243|143:268|132:311,1,101.999996887207,2|0,0:3|0:0,0:0:0:0:
321,230,172743,2,0,B|349:243|368:268|379:311,1,101.999996887207,8|0,0:0|0:0,0:0:0:0:
158,141,173130,6,0,B|114:117|79:116|50:124,1,101.999996887207,2|0,0:3|0:0,0:0:0:0:
354,141,173517,2,0,B|398:117|433:116|462:124,1,101.999996887207,8|0,0:0|0:0,0:0:0:0:
252,22,173904,6,0,B|246:67|263:99|263:99|246:145|246:145|283:196|292:296|247:346,1,305.999990661621,4|0,0:0|0:0,0:0:0:0:
368,254,174678,2,0,P|361:326|339:377,1,101.999996887207,2|0,3:0|0:0,0:0:0:0:
459,211,175065,1,8,0:0:0:0:
452,357,175259,1,8,0:0:0:0:
307,160,175452,6,0,P|342:111|379:89,1,101.999996887207,2|8,0:3|0:0,0:0:0:0:
205,160,175839,2,0,P|169:111|132:89,1,101.999996887207,2|2,0:0|0:3,0:0:0:0:
373,243,176226,6,0,P|429:225|494:231,1,101.999996887207,2|2,3:2|3:2,0:0:0:0:
139,243,176614,2,0,P|83:225|-12:244,1,152.999995330811,12|2,0:0|0:0,0:0:0:0:
0,273,177001,6,0,P|20:231|8:106,1,152.999995330811,4|8,0:0|0:0,0:0:0:0:
240,4,177775,2,0,P|231:79|236:102,1,76.4999976654053,2|0,0:0|0:0,0:0:0:0:
326,93,178162,2,0,P|335:18|330:-5,1,76.4999976654053,8|0,0:0|0:0,0:0:0:0:
271,154,178549,6,0,P|280:229|275:252,1,76.4999976654053,2|0,0:0|0:0,0:0:0:0:
185,243,178936,2,0,P|176:168|181:145,1,76.4999976654053,8|0,0:0|0:0,0:0:0:0:
456,265,179323,2,0,P|381:274|358:269,1,76.4999976654053,2|0,0:0|0:0,0:0:0:0:
367,179,179710,2,0,P|442:170|465:175,1,76.4999976654053,8|0,0:0|0:0,0:0:0:0:
325,352,180097,5,4,0:0:0:0:
279,229,180291,2,0,L|269:181,2,38.2499988327027,2|0|10,0:3|0:0|0:0,0:0:0:0:
178,293,180678,2,0,L|168:341,2,38.2499988327027,2|0|2,0:3|0:0|0:0,0:0:0:0:
129,206,181065,2,0,L|119:158,2,38.2499988327027,2|0|10,0:3|0:0|0:0,0:0:0:0:
28,270,181452,2,0,L|18:318,2,38.2499988327027,2|0|2,0:0|0:0|0:3,0:0:0:0:
28,270,182033,6,0,P|79:258|172:264,1,114.749996498108,8|0,0:0|0:0,0:0:0:0:
171,268,182420,1,2,0:0:0:0:
254,207,182614,2,0,P|211:154|187:142,2,76.4999976654053,0|8|0,0:0|0:0|0:0,0:0:0:0:
340,267,183194,6,0,P|421:281|518:255,1,152.999995330811,4|8,0:0|0:0,0:0:0:0:
375,42,183968,2,0,L|366:130,1,76.4999976654053,2|0,0:0|0:0,0:0:0:0:
274,110,184355,2,0,L|281:33,1,76.4999976654053,8|0,0:0|0:0,0:0:0:0:
96,90,184743,6,0,L|105:178,1,76.4999976654053,2|0,0:0|0:0,0:0:0:0:
197,158,185130,2,0,L|189:81,1,76.4999976654053,8|0,0:0|0:0,0:0:0:0:
146,331,185517,2,0,L|223:339,1,76.4999976654053,2|0,0:0|0:0,0:0:0:0:
231,245,185904,2,0,L|155:238,1,76.4999976654053,8|0,0:0|0:0,0:0:0:0:
308,376,186291,5,4,0:0:0:0:
447,316,186484,1,2,0:0:0:0:
447,316,186581,1,0,0:0:0:0:
447,316,186678,1,8,0:0:0:0:
308,376,186872,1,2,0:0:0:0:
447,316,187065,2,0,P|458:265|446:218,1,76.4999976654053,2|0,0:0|0:0,0:0:0:0:
359,269,187452,2,0,P|343:219|309:184,1,76.4999976654053,12|0,0:0|0:0,0:0:0:0:
259,272,187839,5,2,3:0:0:0:
308,376,188033,1,8,0:0:0:0:
308,376,188130,1,8,0:0:0:0:
308,376,188226,2,0,L|396:383,1,76.4999976654053,2|0,3:2|3:0,0:0:0:0:
259,272,188614,1,2,3:2:0:0:
25,325,188807,2,0,P|139:346|213:329,1,191.249994163513,12|2,0:0|0:0,0:0:0:0:
259,272,189388,6,0,L|264:94,1,152.999995330811,4|8,0:0|0:0,0:0:0:0:
55,20,190162,2,0,P|44:67|52:103,1,76.4999976654053,2|0,0:0|0:0,0:0:0:0:
139,117,190549,2,0,P|161:74|163:37,1,76.4999976654053,8|0,0:0|0:0,0:0:0:0:
54,293,190936,6,0,P|101:304|137:296,1,76.4999976654053,2|0,0:0|0:0,0:0:0:0:
151,209,191323,2,0,P|108:186|71:184,1,76.4999976654053,8|0,0:0|0:0,0:0:0:0:
325,298,191710,2,0,P|336:251|328:215,1,76.4999976654053,2|0,0:0|0:0,0:0:0:0:
241,201,192097,2,0,P|218:243|216:280,1,76.4999976654053,8|0,0:0|0:0,0:0:0:0:
399,159,192484,5,4,0:0:0:0:
385,27,192678,1,2,0:3:0:0:
385,27,192775,1,0,0:0:0:0:
385,27,192872,1,10,0:0:0:0:
399,159,193065,1,2,0:3:0:0:
385,27,193259,2,0,P|324:-1|206:8,1,152.999995330811,2|0,0:0|0:0,0:0:0:0:
183,50,193839,1,2,0:0:0:0:
3,156,194033,6,0,P|64:128|182:137,2,152.999995330811,4|8|2,0:0|0:0|0:0,0:0:0:0:
3,156,195194,2,0,L|14:251,1,76.4999976654053,8|0,0:0|0:0,0:0:0:0:
138,302,195581,6,0,P|191:278|276:273,1,114.749996498108,4|0,0:0|0:0,0:0:0:0:
278,276,195968,2,0,P|300:312|307:358,1,76.4999976654053,2|10,3:2|0:0,0:0:0:0:
289,182,196355,2,0,P|338:205|369:237,1,76.4999976654053,2|0,3:2|3:0,0:0:0:0:
242,93,196743,1,2,3:2:0:0:
164,170,196936,1,0,3:2:0:0:
105,11,197130,5,4,0:0:0:0:
177,173,198678,6,0,P|109:174|33:140,1,136,4|8,0:0|0:0,0:0:0:0:
216,281,199259,2,0,P|183:277|149:280,1,68,2|0,0:3|0:0,0:0:0:0:
316,110,199646,2,0,P|283:115|249:112,1,68,2|8,0:3|0:0,0:0:0:0:
398,316,200033,2,0,P|365:312|331:315,1,68,4|0,0:0|0:0,0:0:0:0:
486,354,200420,5,2,0:0:0:0:
503,256,200614,1,8,0:0:0:0:
442,178,200807,1,0,0:0:0:0:
459,80,201001,1,0,0:0:0:0:
416,13,201194,2,0,L|333:27,2,68,0|8|2,0:0|0:0|0:0,0:0:0:0:
297,91,201775,6,0,P|238:59|171:50,1,136,4|8,0:0|0:0,0:0:0:0:
63,110,202355,1,0,0:0:0:0:
63,110,202452,1,2,0:3:0:0:
63,111,202549,2,0,P|64:144|72:177,2,68,2|2|8,0:3|0:0|0:0,0:0:0:0:
179,185,203130,6,0,P|171:252|148:326,1,136,4|2,0:0|0:0,0:0:0:0:
152,318,203710,1,8,0:0:0:0:
314,134,203904,2,0,P|322:201|345:275,1,136,2|8,3:2|0:0,0:0:0:0:
342,267,204484,1,2,3:2:0:0:
301,110,204872,6,0,P|368:93|441:96,1,136,4|8,0:0|0:0,0:0:0:0:
275,269,205452,2,0,P|309:272|343:268,1,68,2|0,0:3|0:0,0:0:0:0:
142,59,205839,2,0,P|176:57|210:61,1,68,2|8,0:3|0:0,0:0:0:0:
105,335,206226,2,0,P|139:338|173:334,1,68,4|0,0:0|0:0,0:0:0:0:
281,352,206614,5,2,0:0:0:0:
362,279,206807,1,8,0:0:0:0:
389,174,207001,1,2,3:2:0:0:
373,67,207194,1,10,0:0:0:0:
430,13,207388,2,0,L|498:3,2,68,2|2|2,0:0|0:3|0:0,0:0:0:0:
256,192,207968,5,4,0:0:0:0:
256,192,208065,12,0,209517,0:0:0:0:
165,94,209904,6,0,P|214:108|265:112,1,102,12|0,0:0|0:0,0:0:0:0:
264,112,210291,2,0,L|272:181,1,68,8|0,0:0|3:0,0:0:0:0:
362,217,210678,1,2,3:2:0:0:
418,142,210872,1,2,3:2:0:0:
425,313,211065,5,4,0:0:0:0:
