osu file format v14

[General]
AudioFilename: audio.mp3
AudioLeadIn: 0
PreviewTime: 69921
Countdown: 0
SampleSet: Soft
StackLeniency: 0.3
Mode: 0
LetterboxInBreaks: 0
WidescreenStoryboard: 1

[Editor]
Bookmarks: 754,7421,14087,18046,27421,40754,54087,60754,64088,65337,70754,74087,95754,110754,124087,137421,144087,154087,161171,180754,194087,207421,220754,234087,249087,274087,279087,287733,292421
DistanceSpacing: 0.84
BeatDivisor: 4
GridSize: 32
TimelineZoom: 3.599999

[Metadata]
Title:WINTER DIAMOND
TitleUnicode:WINTER DIAMOND
Artist:FROZEN QUALIA
ArtistUnicode:FROZEN QUALIA
Creator:Heilia
Version:COCOA'S INSANE
Source:
Tags:minald みなるど SINGLE BEST~Journey~ kazuki japanese pop hoto_cocoa lude jpop j-pop
BeatmapID:3548018
BeatmapSetID:1726448

[Difficulty]
HPDrainRate:5.1
CircleSize:3.7
OverallDifficulty:8.1
ApproachRate:9.1
SliderMultiplier:2.7
SliderTickRate:1

[Events]
//Background and Video events
0,0,"dd.jpg",0,0
//Break Periods
2,110849,121837
2,234287,246837
//Storyboard Layer 0 (Background)
//Storyboard Layer 1 (Fail)
//Storyboard Layer 2 (Pass)
//Storyboard Layer 3 (Foreground)
//Storyboard Layer 4 (Overlay)
//Storyboard Sound Samples

[TimingPoints]
5754,416.666666666667,4,2,2,70,1,0
5754,-100,4,2,2,70,0,0
7421,416.666666666667,4,2,2,70,1,0
7421,-100,4,2,2,70,0,0
14087,-83.3333333333333,4,2,1,80,0,0
14400,-83.3333333333333,4,2,1,70,0,0
14504,-83.3333333333333,4,2,1,80,0,0
15858,-83.3333333333333,4,2,1,70,0,0
16066,-83.3333333333333,4,2,1,80,0,0
16483,-83.3333333333333,4,2,1,70,0,0
16796,-83.3333333333333,4,2,1,80,0,0
17108,-83.3333333333333,4,2,1,70,0,0
17212,-83.3333333333333,4,2,1,80,0,0
21587,-83.3333333333333,4,2,1,70,0,0
21795,-83.3333333333333,4,2,1,80,0,0
22525,-83.3333333333333,4,2,1,70,0,0
22629,-83.3333333333333,4,2,1,80,0,0
23254,-83.3333333333333,4,2,1,70,0,0
23462,-83.3333333333333,4,2,1,80,0,0
26587,-83.3333333333333,4,2,1,70,0,0
26691,-83.3333333333333,4,2,1,80,0,0
27421,-111.111111111111,4,2,1,60,0,0
41899,-111.111111111111,4,2,1,70,0,0
42004,-111.111111111111,4,2,1,60,0,0
42108,-111.111111111111,4,2,1,70,0,0
42212,-111.111111111111,4,2,1,60,0,0
43566,-111.111111111111,4,2,1,70,0,0
43671,-111.111111111111,4,2,1,60,0,0
43775,-111.111111111111,4,2,1,70,0,0
43879,-111.111111111111,4,2,1,60,0,0
45232,-111.111111111111,4,2,1,70,0,0
45337,-111.111111111111,4,2,1,60,0,0
45441,-111.111111111111,4,2,1,70,0,0
45546,-111.111111111111,4,2,1,60,0,0
46900,-111.111111111111,4,2,1,70,0,0
47004,-111.111111111111,4,2,1,60,0,0
47108,-111.111111111111,4,2,1,70,0,0
47212,-111.111111111111,4,2,1,60,0,0
47629,-111.111111111111,4,2,1,70,0,0
47733,-111.111111111111,4,2,1,60,0,0
48150,-111.111111111111,4,2,1,70,0,0
48254,-111.111111111111,4,2,1,60,0,0
48566,-111.111111111111,4,2,1,70,0,0
48671,-111.111111111111,4,2,1,60,0,0
49296,-111.111111111111,4,2,1,70,0,0
49400,-111.111111111111,4,2,1,60,0,0
49504,-111.111111111111,4,2,1,70,0,0
49712,-111.111111111111,4,2,1,60,0,0
49816,-111.111111111111,4,2,1,70,0,0
49920,-111.111111111111,4,2,1,60,0,0
50233,-111.111111111111,4,2,1,70,0,0
50337,-111.111111111111,4,2,1,60,0,0
50962,-111.111111111111,4,2,1,70,0,0
51066,-111.111111111111,4,2,1,60,0,0
51900,-111.111111111111,4,2,1,70,0,0
52004,-111.111111111111,4,2,1,60,0,0
53150,-111.111111111111,4,2,1,70,0,0
53254,-111.111111111111,4,2,1,60,0,0
53566,-111.111111111111,4,2,1,70,0,0
53671,-250,4,2,1,80,0,0
53879,-250,4,2,1,70,0,0
54087,-166.666666666667,4,2,2,70,0,0
54504,-166.666666666667,4,2,2,45,0,0
55962,-166.666666666667,4,2,2,70,0,0
56171,-166.666666666667,4,2,2,45,0,0
57629,-166.666666666667,4,2,2,70,0,0
57837,-166.666666666667,4,2,2,45,0,0
59296,-166.666666666667,4,2,2,70,0,0
59504,-166.666666666667,4,2,2,45,0,0
60754,-111.111111111111,4,2,1,60,0,0
60962,-111.111111111111,4,2,1,70,0,0
61066,-111.111111111111,4,2,1,60,0,0
61274,-111.111111111111,4,2,1,70,0,0
61379,-111.111111111111,4,2,1,60,0,0
61691,-111.111111111111,4,2,1,70,0,0
61796,-111.111111111111,4,2,1,60,0,0
62108,-111.111111111111,4,2,1,70,0,0
62212,-111.111111111111,4,2,1,60,0,0
62629,-111.111111111111,4,2,1,70,0,0
62733,-111.111111111111,4,2,1,60,0,0
62941,-111.111111111111,4,2,1,70,0,0
63046,-111.111111111111,4,2,1,60,0,0
63775,-111.111111111111,4,2,1,70,0,0
63879,-111.111111111111,4,2,1,60,0,0
64504,-125,4,2,1,60,0,0
64921,-142.857142857143,4,2,1,60,0,0
65337,-166.666666666666,4,2,1,60,0,0
65754,-200,4,2,1,60,0,0
66171,-166.666666666666,4,2,1,60,0,0
66587,-142.857142857143,4,2,1,60,0,0
67004,-125,4,2,1,60,0,0
67421,-111.111111111111,4,2,1,60,0,0
69921,-111.111111111111,4,2,1,50,0,0
70754,-83.3333333333333,4,2,1,90,0,0
70806,-83.3333333333333,4,2,1,70,0,0
70962,-83.3333333333333,4,2,1,90,0,0
71587,-83.3333333333333,4,2,1,70,0,0
71795,-83.3333333333333,4,2,1,90,0,0
72160,-83.3333333333333,4,2,1,70,0,0
72212,-83.3333333333333,4,2,1,90,0,0
74921,-83.3333333333333,4,2,1,70,0,0
75129,-83.3333333333333,4,2,1,90,0,0
76483,-83.3333333333333,4,2,1,70,0,0
76587,-83.3333333333333,4,2,1,90,0,0
77525,-83.3333333333333,4,2,1,70,0,0
77629,-83.3333333333333,4,2,1,90,0,0
79191,-83.3333333333333,4,2,1,70,0,0
79296,-83.3333333333333,4,2,1,90,0,0
80233,-83.3333333333333,4,2,1,70,0,0
80337,-83.3333333333333,4,2,1,90,0,0
81483,-83.3333333333333,4,2,1,70,0,0
81587,-83.3333333333333,4,2,1,90,0,0
82160,-83.3333333333333,4,2,1,70,0,0
82212,-83.3333333333333,4,2,1,90,0,0
82525,-83.3333333333333,4,2,1,70,0,0
82629,-83.3333333333333,4,2,1,90,0,0
84921,-83.3333333333333,4,2,1,70,0,0
85129,-83.3333333333333,4,2,1,90,0,0
85493,-83.3333333333333,4,2,1,70,0,0
85546,-83.3333333333333,4,2,1,90,0,0
86171,-83.3333333333333,4,2,1,70,0,0
86275,-83.3333333333333,4,2,1,90,0,0
87108,-83.3333333333333,4,2,1,70,0,0
87212,-83.3333333333333,4,2,1,90,0,0
88254,-83.3333333333333,4,2,1,70,0,0
88462,-83.3333333333333,4,2,1,90,0,0
90858,-83.3333333333333,4,2,1,70,0,0
90962,-83.3333333333333,4,2,1,90,0,0
91587,-83.3333333333333,4,2,1,70,0,0
91691,-83.3333333333333,4,2,1,90,0,0
93254,-83.3333333333333,4,2,1,70,0,0
93358,-83.3333333333333,4,2,1,90,0,0
94660,-83.3333333333333,4,2,1,70,0,0
94712,-83.3333333333333,4,2,1,90,0,0
95754,-500,4,2,1,60,0,0
95858,-500,4,2,1,70,0,0
97004,-100,4,2,1,70,0,0
97421,-83.3333333333333,4,2,1,80,0,0
98254,-83.3333333333333,4,2,1,70,0,0
98462,-83.3333333333333,4,2,1,80,0,0
99191,-83.3333333333333,4,2,1,70,0,0
99296,-83.3333333333333,4,2,1,80,0,0
99921,-83.3333333333333,4,2,1,70,0,0
100129,-83.3333333333333,4,2,1,80,0,0
100684,-83.3333333333333,4,2,2,70,0,0
100754,-83.3333333333333,4,2,1,80,0,0
101309,-83.3333333333333,4,2,1,70,0,0
101379,-83.3333333333333,4,2,1,80,0,0
101865,-83.3333333333333,4,2,2,70,0,0
101900,-83.3333333333333,4,2,1,70,0,0
102004,-83.3333333333333,4,2,1,80,0,0
102108,-83.3333333333333,4,2,1,70,0,0
102212,-83.3333333333333,4,2,1,80,0,0
104921,-83.3333333333333,4,2,1,70,0,0
105129,-83.3333333333333,4,2,1,80,0,0
105858,-83.3333333333333,4,2,1,70,0,0
105962,-83.3333333333333,4,2,1,80,0,0
106587,-83.3333333333333,4,2,1,70,0,0
106796,-83.3333333333333,4,2,1,80,0,0
108254,-83.3333333333333,4,2,1,70,0,0
108462,-83.3333333333333,4,2,1,80,0,0
108879,-83.3333333333333,4,2,1,70,0,0
108983,-83.3333333333333,4,2,1,80,0,0
109191,-83.3333333333333,4,2,1,70,0,0
109296,-83.3333333333333,4,2,1,80,0,0
110754,-83.3333333333333,4,2,1,70,0,0
122421,-83.3333333333333,4,2,1,50,0,0
122941,-83.3333333333333,4,2,1,70,0,0
123879,-83.3333333333333,4,2,1,50,0,0
124087,-100,4,2,1,70,0,0
137004,-250,4,2,1,70,0,0
137420,-166.666666666667,4,2,2,70,0,0
144087,-142.857142857143,4,2,2,70,0,0
147421,-111.111111111111,4,2,2,70,0,0
150754,-100,4,2,1,70,0,0
150858,-100,4,2,2,45,0,0
150962,-100,4,2,2,70,0,0
152421,-100,4,2,1,70,0,0
153046,-100,4,2,2,70,0,0
153254,-100,4,2,1,70,0,0
153358,-66.6666666666667,4,2,1,70,0,0
153671,-100,4,2,1,70,0,0
154087,-83.3333333333333,4,2,1,90,0,0
154139,-83.3333333333333,4,2,1,70,0,0
154295,-83.3333333333333,4,2,1,90,0,0
154921,-83.3333333333333,4,2,1,70,0,0
155129,-83.3333333333333,4,2,1,90,0,0
155493,-83.3333333333333,4,2,1,70,0,0
155546,-83.3333333333333,4,2,1,90,0,0
155858,-83.3333333333333,4,2,1,70,0,0
155962,-83.3333333333333,4,2,1,90,0,0
157108,-83.3333333333333,4,2,1,70,0,0
157212,-83.3333333333333,4,2,1,90,0,0
158254,-83.3333333333333,4,2,1,70,0,0
158462,-83.3333333333333,4,2,1,90,0,0
159921,-83.3333333333333,4,2,1,70,0,0
160025,-83.3333333333333,4,2,1,90,0,0
160858,-83.3333333333333,4,2,1,70,0,0
160962,-83.3333333333333,4,2,1,90,0,0
161587,-83.3333333333333,4,2,1,70,0,0
161691,-83.3333333333333,4,2,1,90,0,0
162525,-83.3333333333333,4,2,1,70,0,0
162629,-83.3333333333333,4,2,1,90,0,0
163254,-83.3333333333333,4,2,1,70,0,0
163462,-83.3333333333333,4,2,1,90,0,0
163775,-83.3333333333333,4,2,1,70,0,0
163879,-83.3333333333333,4,2,1,90,0,0
165493,-83.3333333333333,4,2,1,70,0,0
165546,-83.3333333333333,4,2,1,90,0,0
165858,-83.3333333333333,4,2,1,70,0,0
165962,-83.3333333333333,4,2,1,90,0,0
168254,-83.3333333333333,4,2,1,70,0,0
168462,-83.3333333333333,4,2,1,90,0,0
168827,-83.3333333333333,4,2,1,70,0,0
168879,-83.3333333333333,4,2,1,90,0,0
169921,-83.3333333333333,4,2,1,70,0,0
170129,-83.3333333333333,4,2,1,90,0,0
170650,-83.3333333333333,4,2,1,70,0,0
170754,-83.3333333333333,4,2,1,90,0,0
171587,-83.3333333333333,4,2,1,70,0,0
171796,-83.3333333333333,4,2,1,90,0,0
174191,-83.3333333333333,4,2,1,70,0,0
174296,-83.3333333333333,4,2,1,90,0,0
174921,-83.3333333333333,4,2,1,70,0,0
175025,-83.3333333333333,4,2,1,90,0,0
176587,-83.3333333333333,4,2,1,70,0,0
176691,-83.3333333333333,4,2,1,90,0,0
177993,-83.3333333333333,4,2,1,70,0,0
178046,-83.3333333333333,4,2,1,90,0,0
179191,-83.3333333333333,4,2,1,5,0,0
179296,-83.3333333333333,4,2,1,90,0,0
179400,-83.3333333333333,4,2,1,5,0,0
179505,-83.3333333333333,4,2,1,90,0,0
179608,-83.3333333333333,4,2,1,5,0,0
179713,-83.3333333333333,4,2,1,90,0,0
179816,-83.3333333333333,4,2,1,5,0,0
179921,-83.3333333333333,4,2,1,90,0,0
180441,-83.3333333333333,4,2,1,70,0,0
180546,-83.3333333333333,4,2,1,90,0,0
180754,-111.111111111111,4,2,1,90,0,0
180962,-111.111111111111,4,2,1,70,0,0
194087,-83.3333333333333,4,2,1,70,0,0
194504,-83.3333333333333,4,2,2,70,0,0
194921,-83.3333333333333,4,2,1,70,0,0
195337,-83.3333333333333,4,2,2,70,0,0
195754,-83.3333333333333,4,2,1,70,0,0
196171,-83.3333333333333,4,2,2,70,0,0
196587,-83.3333333333333,4,2,1,70,0,0
196796,-83.3333333333333,4,2,2,70,0,0
197420,-83.3333333333333,4,2,1,70,0,0
197837,-83.3333333333333,4,2,2,70,0,0
198254,-83.3333333333333,4,2,1,70,0,0
198671,-83.3333333333333,4,2,2,70,0,0
199087,-83.3333333333333,4,2,1,70,0,0
199504,-83.3333333333333,4,2,2,70,0,0
199921,-83.3333333333333,4,2,1,70,0,0
200129,-83.3333333333333,4,2,2,70,0,0
200754,-83.3333333333333,4,2,1,70,0,0
201171,-83.3333333333333,4,2,2,70,0,0
201587,-83.3333333333333,4,2,1,70,0,0
202004,-83.3333333333333,4,2,2,70,0,0
202421,-83.3333333333333,4,2,1,70,0,0
202837,-83.3333333333333,4,2,2,70,0,0
203254,-83.3333333333333,4,2,1,70,0,0
203462,-83.3333333333333,4,2,2,70,0,0
204087,-83.3333333333333,4,2,1,70,0,0
204504,-83.3333333333333,4,2,2,70,0,0
204921,-83.3333333333333,4,2,1,70,0,0
205337,-83.3333333333333,4,2,2,70,0,0
205754,-83.3333333333333,4,2,1,70,0,0
206171,-83.3333333333333,4,2,2,70,0,0
206587,-83.3333333333333,4,2,1,70,0,0
206796,-83.3333333333333,4,2,2,70,0,0
207004,-83.3333333333333,4,2,1,70,0,0
207421,-83.3333333333333,4,2,1,80,0,0
208150,-83.3333333333333,4,2,1,70,0,0
208254,-83.3333333333333,4,2,1,80,0,0
208358,-83.3333333333333,4,2,1,70,0,0
208462,-83.3333333333333,4,2,1,80,0,0
208775,-83.3333333333333,4,2,1,70,0,0
208879,-83.3333333333333,4,2,1,80,0,0
209191,-83.3333333333333,4,2,1,70,0,0
209296,-83.3333333333333,4,2,1,80,0,0
209921,-83.3333333333333,4,2,1,70,0,0
210025,-83.3333333333333,4,2,1,80,0,0
210441,-83.3333333333333,4,2,1,70,0,0
210546,-83.3333333333333,4,2,1,80,0,0
211587,-83.3333333333333,4,2,1,70,0,0
211691,-83.3333333333333,4,2,1,80,0,0
212108,-83.3333333333333,4,2,1,70,0,0
212212,-83.3333333333333,4,2,1,80,0,0
214816,-83.3333333333333,4,2,1,70,0,0
214921,-83.3333333333333,4,2,1,80,0,0
215858,-83.3333333333333,4,2,1,70,0,0
215962,-83.3333333333333,4,2,1,80,0,0
216900,-83.3333333333333,4,2,1,70,0,0
217004,-83.3333333333333,4,2,1,80,0,0
217108,-83.3333333333333,4,2,1,70,0,0
217212,-83.3333333333333,4,2,1,80,0,0
218150,-83.3333333333333,4,2,1,70,0,0
218254,-83.3333333333333,4,2,1,80,0,0
218775,-83.3333333333333,4,2,1,70,0,0
218879,-83.3333333333333,4,2,1,80,0,0
219035,-83.3333333333333,4,2,1,70,0,0
219087,-83.3333333333333,4,2,1,80,0,0
219990,-83.3333333333333,4,2,1,70,0,0
220129,-83.3333333333333,4,2,1,80,0,0
220198,-83.3333333333333,4,2,1,70,0,0
220337,-83.3333333333333,4,2,1,80,0,0
220407,-83.3333333333333,4,2,1,70,0,0
220546,-83.3333333333333,4,2,1,80,0,0
220615,-83.3333333333333,4,2,1,70,0,0
220754,-83.3333333333333,4,2,1,80,0,0
221899,-83.3333333333333,4,2,1,70,0,0
222004,-83.3333333333333,4,2,1,80,0,0
222108,-83.3333333333333,4,2,1,70,0,0
222212,-83.3333333333333,4,2,1,80,0,0
222525,-83.3333333333333,4,2,1,70,0,0
222629,-83.3333333333333,4,2,1,80,0,0
224191,-83.3333333333333,4,2,1,70,0,0
224296,-83.3333333333333,4,2,1,80,0,0
224816,-83.3333333333333,4,2,1,70,0,0
224921,-83.3333333333333,4,2,1,80,0,0
225233,-83.3333333333333,4,2,1,70,0,0
225337,-83.3333333333333,4,2,1,80,0,0
225441,-83.3333333333333,4,2,1,70,0,0
225546,-83.3333333333333,4,2,1,80,0,0
228150,-83.3333333333333,4,2,1,70,0,0
228254,-83.3333333333333,4,2,1,80,0,0
229921,-83.3333333333333,4,2,1,70,0,0
230025,-83.3333333333333,4,2,1,80,0,0
230754,-83.3333333333333,4,2,1,70,0,0
234087,-142.857142857143,4,2,2,70,0,0
240753,-142.857142857143,4,2,1,70,0,0
247421,-200,4,2,1,70,0,0
248983,-200,4,2,1,5,0,0
249087,-50,4,2,1,70,0,0
249139,-50,4,2,1,5,0,0
249295,-50,4,2,2,70,0,0
250129,-50,4,2,1,70,0,0
250754,-83.3333333333333,4,2,1,90,0,0
251587,-83.3333333333333,4,2,1,70,0,0
251796,-83.3333333333333,4,2,1,90,0,0
252108,-83.3333333333333,4,2,1,70,0,0
252212,-83.3333333333333,4,2,1,90,0,0
253254,-83.3333333333333,4,2,1,70,0,0
253462,-83.3333333333333,4,2,1,90,0,0
254921,-83.3333333333333,4,2,1,70,0,0
255025,-83.3333333333333,4,2,1,90,0,0
255858,-83.3333333333333,4,2,1,70,0,0
255962,-83.3333333333333,4,2,1,90,0,0
257525,-83.3333333333333,4,2,1,70,0,0
257629,-83.3333333333333,4,2,1,90,0,0
258254,-83.3333333333333,4,2,1,70,0,0
258462,-83.3333333333333,4,2,1,90,0,0
259921,-83.3333333333333,4,2,1,70,0,0
260025,-83.3333333333333,4,2,1,90,0,0
260493,-83.3333333333333,4,2,1,70,0,0
260546,-83.3333333333333,4,2,1,90,0,0
260858,-83.3333333333333,4,2,1,70,0,0
260962,-83.3333333333333,4,2,1,90,0,0
262316,-83.3333333333333,4,2,1,70,0,0
262421,-83.3333333333333,4,2,1,90,0,0
263254,-83.3333333333333,4,2,1,70,0,0
263462,-83.3333333333333,4,2,1,90,0,0
263827,-83.3333333333333,4,2,1,70,0,0
263879,-83.3333333333333,4,2,1,90,0,0
264191,-83.3333333333333,4,2,1,70,0,0
264296,-83.3333333333333,4,2,1,90,0,0
264921,-83.3333333333333,4,2,1,70,0,0
265129,-83.3333333333333,4,2,1,90,0,0
265441,-83.3333333333333,4,2,1,70,0,0
265546,-83.3333333333333,4,2,1,90,0,0
266587,-83.3333333333333,4,2,1,70,0,0
266796,-83.3333333333333,4,2,1,90,0,0
269191,-83.3333333333333,4,2,1,70,0,0
269296,-83.3333333333333,4,2,1,90,0,0
269921,-83.3333333333333,4,2,1,70,0,0
270025,-83.3333333333333,4,2,1,90,0,0
271587,-83.3333333333333,4,2,1,70,0,0
271691,-83.3333333333333,4,2,1,90,0,0
272993,-83.3333333333333,4,2,1,70,0,0
273046,-83.3333333333333,4,2,1,90,0,0
274087,-500,4,2,1,70,0,0
274504,-500,4,2,1,70,0,0
274921,-142.857142857143,4,2,1,70,0,0
279087,-83.3333333333333,4,2,1,80,0,0
279400,-83.3333333333333,4,2,1,70,0,0
279504,-83.3333333333333,4,2,1,80,0,0
279921,-83.3333333333333,4,2,1,70,0,0
280094,-83.3333333333333,4,2,5,70,0,0
280129,-83.3333333333333,4,2,1,80,0,0
280233,-83.3333333333333,4,2,1,70,0,0
280337,-83.3333333333333,4,2,1,80,0,0
280441,-83.3333333333333,4,2,1,70,0,0
280546,-83.3333333333333,4,2,1,80,0,0
280858,-83.3333333333333,4,2,1,70,0,0
280962,-83.3333333333333,4,2,1,80,0,0
281587,-83.3333333333333,4,2,1,70,0,0
281796,-83.3333333333333,4,2,1,80,0,0
283254,-83.3333333333333,4,2,1,70,0,0
283462,-83.3333333333333,4,2,1,80,0,0
283566,-83.3333333333333,4,2,1,70,0,0
283671,-83.3333333333333,4,2,1,80,0,0
283775,-83.3333333333333,4,2,1,70,0,0
283879,-83.3333333333333,4,2,1,80,0,0
285858,-83.3333333333333,4,2,1,70,0,0
285962,-83.3333333333333,4,2,1,80,0,0
286048,-83.3333333333333,4,2,5,70,0,0
286066,-83.3333333333333,4,2,1,80,0,0
286760,-83.3333333333333,4,2,5,70,0,0
286795,-83.3333333333333,4,2,1,80,0,0
286900,-83.3333333333333,4,2,1,70,0,0
287004,-83.3333333333333,4,2,1,80,0,0
287108,-83.3333333333333,4,2,1,70,0,0
287212,-83.3333333333333,4,2,1,80,0,0
287523,-83.3333333333333,4,2,1,70,0,0
287628,-83.3333333333333,4,2,1,80,0,0
288254,-83.3333333333333,4,2,1,70,0,0
288462,-83.3333333333333,4,2,1,80,0,0
288566,-83.3333333333333,4,2,1,70,0,0
288671,-83.3333333333333,4,2,1,80,0,0
288775,-83.3333333333333,4,2,1,70,0,0
288879,-83.3333333333333,4,2,1,80,0,0
289921,-83.3333333333333,4,2,1,70,0,0
290094,-83.3333333333333,4,2,5,70,0,0
290129,-83.3333333333333,4,2,1,80,0,0
290858,-83.3333333333333,4,2,1,70,0,0
290962,-83.3333333333333,4,2,1,80,0,0
291588,-83.3333333333333,4,2,1,70,0,0
291692,-83.3333333333333,4,2,1,80,0,0
292421,-1000,4,2,1,80,0,0
294087,-1000,4,2,1,5,0,0

[Colours]
Combo1 : 162,208,255
Combo2 : 255,176,176
Combo3 : 255,198,226
Combo4 : 255,38,147
Combo5 : 255,183,111
Combo6 : 255,255,185
Combo7 : 213,170,255

[HitObjects]
256,192,5754,12,0,7212,0:0:0:0:
256,192,7421,5,0,3:0:0:0:
103,122,10754,6,0,P|135:99|174:101,3,67.5,0|0|0|0,3:0|3:0|3:0|3:0,3:0:0:0:
205,20,11171,2,0,P|236:43|246:81,1,67.5,0|0,3:0|3:0,3:0:0:0:
332,87,11379,2,0,P|319:124|286:145,1,67.5,0|0,3:0|3:0,3:0:0:0:
306,228,11587,2,0,P|266:227|236:203,3,67.5,0|0|0|0,3:0|3:0|3:0|3:0,3:0:0:0:
167,251,12004,2,0,P|155:213|168:176,3,67.5,0|0|0|0,3:0|3:0|3:0|3:0,3:0:0:0:
222,138,12421,5,2,0:0:0:0:
303,97,12837,1,2,0:0:0:0:
383,59,13254,1,2,0:0:0:0:
470,160,13671,5,2,3:2:0:0:
466,176,13775,1,2,3:2:0:0:
463,193,13879,1,2,3:2:0:0:
459,209,13983,1,2,3:2:0:0:
456,226,14087,6,0,P|334:227|325:289,1,161.999995056153,4|2,3:2|0:0,0:0:0:0:
266,308,14400,1,2,3:3:0:0:
247,203,14504,2,0,L|152:161,2,80.9999975280763,8|0|0,1:2|0:0|3:3,0:0:0:0:
122,301,14816,2,0,B|179:267|179:267|278:312,1,161.999995056153,2|0,0:0|0:0,0:0:0:0:
48,363,15129,2,0,P|27:322|40:264,1,80.9999975280763,0|0,3:3|0:0,0:0:0:0:
13,192,15337,2,0,P|59:194|102:234,1,80.9999975280763,8|0,1:2|0:0,0:0:0:0:
184,87,15546,2,0,P|137:89|94:129,1,80.9999975280763
260,146,15754,6,0,B|296:98|345:113|345:113|367:147|445:153,1,161.999995056153,0|2,3:3|0:0,0:0:0:0:
493,76,16066,2,0,P|453:54|389:70,2,80.9999975280763,2|10|0,3:3|1:2|0:0,0:0:0:0:
398,145,16379,1,2,3:3:0:0:
402,288,16483,2,0,B|363:196|363:196|419:113,1,161.999995056153,2|0,0:0|0:0,0:0:0:0:
300,271,16796,2,0,L|209:257,1,80.9999975280763,2|0,3:3|0:0,0:0:0:0:
148,318,17004,2,0,L|67:330,1,80.9999975280763,10|0,1:2|0:0,0:0:0:0:
58,212,17212,2,0,L|138:224,1,80.9999975280763,2|0,0:0|0:0,0:0:0:0:
210,165,17421,6,0,P|256:86|130:75,1,242.999992584229,0|0,3:3|3:3,0:0:0:0:
143,55,17837,2,0,P|181:75|252:52,1,80.9999975280763,8|0,1:2|0:0,0:0:0:0:
347,23,18046,2,0,B|387:70|387:70|351:200,1,161.999995056153,2|2,3:3|0:0,0:0:0:0:
229,243,18462,6,0,L|207:153,1,80.9999975280763,2|0,3:3|0:0,0:0:0:0:
341,254,18671,2,0,L|321:332,1,80.9999975280763,10|0,1:2|0:0,0:0:0:0:
442,215,18879,2,0,L|464:125,1,80.9999975280763
500,305,19087,6,0,B|456:282|416:309|416:309|391:364|291:342,1,161.999995056153,2|2,3:3|0:0,0:0:0:0:
341,254,19400,1,2,3:3:0:0:
195,246,19504,2,0,B|261:214|261:214|371:268,1,161.999995056153,10|2,1:2|3:3,0:0:0:0:
140,328,19816,2,0,P|92:257|147:176,1,161.999995056153,2|2,0:0|0:0,0:0:0:0:
195,151,20129,5,2,3:3:0:0:
224,124,20233,1,2,0:0:0:0:
228,85,20337,1,10,1:2:0:0:
205,53,20441,1,2,0:0:0:0:
166,45,20545,1,2,0:0:0:0:
132,65,20649,1,2,0:0:0:0:
120,102,20754,6,0,L|304:73,1,161.999995056153,4|2,3:2|0:0,0:0:0:0:
356,120,21066,1,0,3:3:0:0:
300,236,21171,2,0,L|276:144,2,80.9999975280763,8|0|2,1:2|0:0|3:3,0:0:0:0:
473,51,21483,2,0,P|367:81|367:163,1,161.999995056153,2|0,0:0|0:0,0:0:0:0:
449,135,21796,2,0,L|428:213,1,80.9999975280763,0|2,3:3|0:0,0:0:0:0:
320,314,22004,2,0,L|296:222,1,80.9999975280763,8|0,1:2|0:0,0:0:0:0:
470,289,22212,2,0,L|449:367,1,80.9999975280763
303,346,22421,6,0,B|241:326|241:326|212:350|212:350|132:327,1,161.999995056153,2|2,3:3|0:0,0:0:0:0:
90,272,22733,2,0,P|78:233|88:195,2,80.9999975280763,2|10|2,3:3|1:2|0:0,0:0:0:0:
172,227,23045,1,2,3:3:0:0:
263,235,23150,2,0,B|282:192|282:192|165:230,1,161.999995056153,2|0,0:0|0:0,0:0:0:0:
83,102,23462,2,0,L|182:133,1,80.9999975280763,2|2,3:3|0:0,0:0:0:0:
303,77,23671,2,0,L|226:53,1,80.9999975280763,10|2,1:2|0:0,0:0:0:0:
390,40,23879,2,0,L|467:64,1,80.9999975280763,2|2,0:0|0:0,0:0:0:0:
489,250,24087,6,0,P|456:146|356:187,1,242.999992584229,2|0,3:3|3:3,0:0:0:0:
313,296,24504,2,0,L|409:272,1,80.9999975280763,8|0,1:2|0:0,0:0:0:0:
244,372,24712,2,0,B|210:285|210:285|261:208,1,161.999995056153,2|0,3:3|0:0,0:0:0:0:
274,137,25129,1,0,3:3:0:0:
139,40,25337,2,0,L|164:211,1,161.999995056153,8|0,1:2|0:0,0:0:0:0:
347,160,25754,6,0,P|313:137|273:136,1,80.9999975280763,0|0,3:3|0:0,0:0:0:0:
301,301,25962,2,0,P|303:261|284:225,1,80.9999975280763,2|2,0:0|3:3,0:0:0:0:
158,333,26171,2,0,P|193:315|214:281,2,80.9999975280763,10|0|2,1:2|0:0|3:3,0:0:0:0:
162,200,26483,2,0,L|139:40,1,161.999995056153,2|10,0:0|1:2,0:0:0:0:
61,95,26796,6,0,B|47:137|47:137|77:177,1,80.9999975280763,2|2,3:3|0:0,0:0:0:0:
247,143,27004,1,2,3:3:0:0:
253,123,27108,1,2,3:3:0:0:
259,104,27212,1,2,3:3:0:0:
251,87,27316,1,2,3:3:0:0:
238,71,27421,6,0,B|314:54|314:54|358:82|358:82|409:71,2,182.249994438172,6|2|2,3:2|3:3|3:3,0:0:0:0:
294,145,28254,2,0,P|278:202|306:254,1,121.499996292114,2|0,0:0|0:0,0:0:0:0:
477,192,28671,2,0,B|418:166|418:166|366:191,1,121.499996292114,8|0,1:2|0:0,0:0:0:0:
400,373,29087,6,0,B|414:263|414:263|347:298,2,182.249994438172,0|2|2,3:3|3:3|3:3,0:0:0:0:
274,324,29921,1,0,0:0:0:0:
195,356,30129,1,2,0:0:0:0:
116,323,30337,1,10,1:2:0:0:
84,245,30546,1,2,0:0:0:0:
116,166,30754,6,0,B|241:216|241:216|198:153,2,182.249994438172,0|2|2,3:2|3:3|3:3,0:0:0:0:
159,87,31587,2,0,P|101:74|50:105,1,121.499996292114,2|0,0:0|0:0,0:0:0:0:
234,150,32004,2,0,B|257:87|257:87|223:13,1,121.499996292114,8|0,1:2|0:0,0:0:0:0:
396,0,32421,6,0,B|387:68|387:68|381:75|381:75|362:196,2,182.249994438172,0|2|2,3:2|3:3|3:3,0:0:0:0:
454,153,33254,1,0,0:0:0:0:
364,178,33462,1,2,0:0:0:0:
184,228,33671,1,10,1:2:0:0:
274,203,33879,1,2,0:0:0:0:
252,294,34087,6,0,L|298:93,2,182.249994438172,0|2|2,3:2|3:3|3:3,0:0:0:0:
197,132,34921,2,0,B|153:176|153:176|198:252,1,121.499996292114,2|0,0:2|0:0,0:0:0:0:
368,175,35337,2,0,B|351:114|351:114|263:115,1,121.499996292114,8|0,1:2|0:0,0:0:0:0:
252,294,35754,6,0,P|328:273|374:357,2,182.249994438172,0|2|2,3:2|3:3|3:3,0:0:0:0:
163,316,36587,2,0,P|87:334|42:300,1,121.499996292114,2|0,0:2|0:0,0:0:0:0:
53,146,37004,2,0,P|106:202|99:258,1,121.499996292114,8|0,1:2|0:0,0:0:0:0:
183,136,37421,6,0,B|211:22|211:22|135:58,2,182.249994438172,0|2|2,3:2|3:3|3:3,3:0:0:0:
285,76,38254,2,0,B|316:49|353:59|353:59|378:84|412:78,1,121.499996292114,2|0,0:2|0:0,0:0:0:0:
469,171,38671,2,0,L|508:13,1,121.499996292114,8|0,1:2|0:0,0:0:0:0:
372,162,39087,6,2,P|309:245|376:303,2,182.249994438172,0|2|2,3:0|3:3|3:3,0:2:0:0:
426,351,39921,2,0,B|447:287|447:287|416:238,1,121.499996292114
229,326,40337,2,0,L|359:292,1,121.499996292114,8|0,1:2|0:0,0:0:0:0:
138,352,40754,6,0,B|74:319|92:240|92:240|154:211,2,182.249994438172,4|2|0,3:2|3:3|3:3,0:0:0:0:
137,218,41587,1,2,0:0:0:0:
209,161,41796,1,0,0:0:0:0:
135,106,42004,2,0,P|117:173|143:225,1,121.499996292114,8|0,1:2|0:0,0:0:0:0:
382,196,42421,6,0,B|320:174|320:174|275:183|275:183|190:154,2,182.249994438172,0|2|0,3:3|3:3|3:3,0:0:0:0:
273,89,43254,1,0,0:0:0:0:
360,67,43462,1,2,0:0:0:0:
382,196,43671,1,10,1:2:0:0:
469,174,43879,1,2,0:0:0:0:
298,222,44087,6,0,B|186:194|186:194|226:203|240:253,2,182.249994438172,0|2|0,3:3|3:3|3:3,0:0:0:0:
130,377,44921,2,0,P|116:314|171:270,1,121.499996292114,2|0,0:0|0:0,0:0:0:0:
336,325,45337,2,0,L|207:354,1,121.499996292114,8|0,1:2|0:0,0:0:0:0:
416,382,45754,6,0,B|441:333|426:289|426:289|441:334|488:354,2,182.249994438172,0|0|0,3:3|3:0|3:3,0:0:0:0:
512,263,46587,1,0,0:0:0:0:
481,178,46796,1,2,0:0:0:0:
419,8,47004,1,10,1:2:0:0:
450,93,47212,1,2,0:0:0:0:
396,164,47421,6,0,B|349:130|296:154|296:154|276:195|208:189,1,182.249994438172,0|0,3:3|3:0,0:0:0:0:
232,189,47837,1,2,0:0:0:0:
203,93,48046,1,2,3:0:0:0:
181,117,48150,2,0,B|141:173|141:173|182:305,1,182.249994438172,0|2,0:0|3:0,0:0:0:0:
274,35,48671,2,0,P|220:3|156:20,1,121.499996292114,8|0,1:2|0:0,0:0:0:0:
20,0,49087,6,0,B|-13:35|-13:35|9:135|9:135|66:154,2,182.249994438172,0|2|2,3:3|0:0|0:0,0:0:0:0:
203,93,49921,2,0,L|72:70,1,121.499996292114,0|2,0:0|3:2,0:0:0:0:
117,273,50337,2,0,P|140:207|108:151,1,121.499996292114,8|0,1:2|0:0,0:0:0:0:
83,71,50754,5,0,3:3:0:0:
39,145,50962,2,0,P|31:181|51:219,2,60.7499981460572,2|2|2,0:0|0:0|0:0,0:0:0:0:
117,273,51379,1,2,0:0:0:0:
195,298,51483,2,0,B|222:234|222:234|94:281,1,182.249994438172,2|2,0:0|3:0,0:0:0:0:
247,150,52004,1,8,1:2:0:0:
305,223,52212,1,0,0:0:0:0:
361,293,52421,6,0,B|395:264|389:212|389:212|401:265|450:275,2,182.249994438172,0|0|0,3:3|3:0|3:0,0:0:0:0:
470,185,53254,1,2,0:0:0:0:
305,223,53462,1,2,3:0:0:0:
368,107,53671,2,0,L|393:230,1,108,8|6,1:2|1:2,0:0:0:0:
117,147,54504,6,0,B|81:74|81:74|150:18,2,161.999995056153,2|2|2,0:0|1:2|0:0,0:0:0:0:
195,96,55754,1,2,1:2:0:0:
288,180,56171,6,0,B|275:100|275:100|194:95,2,161.999995056153,2|2|2,0:0|1:2|0:0,0:0:0:0:
195,189,57421,1,2,1:2:0:0:
74,229,57837,6,0,B|149:257|149:257|194:190,2,161.999995056153,2|2|2,0:0|1:2|0:0,0:0:0:0:
117,147,59087,1,2,1:2:0:0:
289,181,59504,5,2,0:0:0:0:
143,23,59921,1,2,1:2:0:0:
74,227,60337,1,2,0:0:0:0:
201,296,60754,6,0,B|263:264|310:294|287:304|327:334|390:310,2,182.249994438172,4|0|0,3:2|3:3|3:3,0:0:0:0:
347,226,61587,2,0,B|312:167|312:167|328:94,1,121.499996292114
512,183,62004,2,0,B|523:131|523:131|488:72,1,121.499996292114,8|2,1:2|0:0,0:0:0:0:
399,60,62421,6,0,L|446:285,2,182.249994438172,0|0|0,3:3|3:3|3:3,0:0:0:0:
323,115,63254,2,0,B|286:111|263:93|263:93|247:113|198:122,1,121.499996292114
84,30,63671,2,0,B|121:26|144:8|144:8|160:28|209:37,1,121.499996292114,8|2,1:2|0:0,0:0:0:0:
123,136,64087,6,0,P|78:192|105:263,1,121.499996292114,2|0,3:3|0:0,0:0:0:0:
266,214,64504,6,0,P|201:194|142:242,1,108,0|0,3:3|0:0,0:0:0:0:
236,364,64921,6,0,P|241:310|177:268,1,94.4999971160889,0|0,3:3|0:0,0:0:0:0:
100,381,65337,6,0,P|142:370|160:313,1,80.9999975280763,0|0,3:3|0:0,0:0:0:0:
40,268,65754,6,0,P|57:294|117:293,1,67.5,0|0,3:3|0:0,0:0:0:0:
100,381,66171,6,0,P|142:370|160:313,1,80.9999975280763,0|0,3:3|0:0,0:0:0:0:
236,364,66587,6,0,P|241:310|177:268,1,94.4999971160889,0|0,3:3|0:0,0:0:0:0:
166,209,67004,1,0,3:3:0:0:
305,87,67212,5,0,3:3:0:0:
302,113,67316,1,0,3:3:0:0:
299,140,67420,1,4,3:2:0:0:
256,192,67473,12,0,69087,0:0:0:0:
278,86,69921,6,0,B|384:40|384:40|338:67|344:109,2,182.249994438172
228,159,70754,6,0,P|185:92|228:13,1,161.999995056153,4|2,3:2|0:0,0:0:0:0:
278,86,71066,1,2,0:3:0:0:
437,116,71171,2,0,L|263:83,1,161.999995056153,10|2,1:2|3:3,0:0:0:0:
291,236,71483,2,0,B|405:211|405:211|377:265,1,161.999995056153,2|0,0:0|0:0,0:0:0:0:
296,327,71796,6,0,P|250:321|222:294,1,80.9999975280763,4|2,3:3|0:0,0:0:0:0:
80,182,72004,2,0,P|114:162|153:164,1,80.9999975280763,8|0,1:2|0:0,0:0:0:0:
138,328,72212,2,0,P|129:290|143:252,1,80.9999975280763,2|0,0:0|0:0,0:0:0:0:
92,52,72421,6,0,B|40:94|40:94|79:181,1,161.999995056153,6|2,3:3|0:0,0:0:0:0:
194,73,72733,1,2,0:3:0:0:
232,184,72837,2,0,L|125:157,1,80.9999975280763,10|2,0:2|0:0,0:0:0:0:
307,132,73046,1,2,3:3:0:0:
296,321,73150,2,0,B|266:275|296:227|306:251|336:211|312:148,1,161.999995056153,2|0,0:0|0:0,0:0:0:0:
453,264,73462,2,0,L|374:283,1,80.9999975280763,6|2,3:3|0:0,0:0:0:0:
307,132,73671,2,0,L|385:151,1,80.9999975280763,10|2,1:2|0:0,0:0:0:0:
469,11,73879,2,0,L|390:30,1,80.9999975280763,2|2,0:0|0:0,0:0:0:0:
258,43,74087,6,0,P|180:36|130:96,1,161.999995056153,6|2,3:1|0:0,0:0:0:0:
65,28,74400,1,2,3:3:0:0:
213,117,74504,2,0,P|216:157|195:192,1,80.9999975280763,10|2,1:2|0:0,0:0:0:0:
69,170,74712,2,0,P|33:100|65:28,1,161.999995056153,2|6,3:3|0:1,0:0:0:0:
116,245,75129,6,0,P|114:285|135:320,1,80.9999975280763,2|2,3:3|0:0,0:0:0:0:
256,313,75337,2,0,P|278:262|262:217,1,80.9999975280763,10|2,1:2|0:0,0:0:0:0:
116,245,75546,2,0,P|114:284|134:319,1,80.9999975280763,2|2,0:0|0:0,0:0:0:0:
332,173,75754,6,0,P|234:159|188:215,1,161.999995056153,6|2,3:1|0:0,0:0:0:0:
236,63,76066,1,2,3:3:0:0:
333,84,76171,2,0,L|414:69,1,80.9999975280763,8|0,1:2|0:0,0:0:0:0:
483,169,76379,1,6,3:3:0:0:
332,173,76483,2,0,B|400:159|400:159|430:182|430:182|509:163,1,161.999995056153,2|2,0:0|0:0,0:0:0:0:
392,335,76796,6,0,L|375:255,1,80.9999975280763,6|2,3:3|0:0,0:0:0:0:
238,157,77004,2,0,L|254:236,1,80.9999975280763,8|0,1:2|0:0,0:0:0:0:
385,340,77212,2,0,L|367:252,1,80.9999975280763,2|0,0:0|0:0,0:0:0:0:
232,158,77421,6,0,L|267:318,1,161.999995056153,4|2,3:2|0:0,0:0:0:0:
187,362,77733,1,2,3:3:0:0:
51,347,77837,2,0,P|149:325|196:399,1,161.999995056153,10|2,1:2|3:3,0:0:0:0:
136,220,78254,1,2,0:0:0:0:
31,108,78462,2,0,P|24:151|67:199,1,80.9999975280763,6|2,3:3|0:0,0:0:0:0:
182,90,78671,2,0,B|124:70|124:70|-7:122,1,161.999995056153,8|0,1:2|0:0,0:0:0:0:
269,146,79087,6,0,L|447:97,1,161.999995056153,6|2,3:3|0:0,0:0:0:0:
478,183,79400,1,2,3:3:0:0:
406,243,79504,2,0,P|383:162|441:95,1,161.999995056153,10|2,1:2|3:3,0:0:0:0:
471,320,79816,2,0,B|384:339|384:339|311:281,1,161.999995056153,2|0,0:0|0:0,0:0:0:0:
161,304,80129,2,0,L|244:278,1,80.9999975280763,6|2,3:3|0:0,0:0:0:0:
81,363,80337,2,0,P|64:325|82:267,1,80.9999975280763,10|2,1:2|0:0,0:0:0:0:
137,142,80546,2,0,P|141:181|125:218,1,80.9999975280763,2|2,0:0|0:0,0:0:0:0:
78,62,80754,6,0,B|147:46|147:46|183:66|183:66|260:43,1,161.999995056153,6|0,3:3|0:0,0:0:0:0:
402,56,81066,1,2,3:3:0:0:
322,18,81171,2,0,P|312:54|332:100,1,80.9999975280763,8|0,1:2|0:0,0:0:0:0:
413,148,81379,2,0,P|341:122|288:177,1,161.999995056153,0|2,3:3|0:0,0:0:0:0:
135,258,81796,2,0,L|114:156,1,80.9999975280763,4|0,3:3|0:0,0:0:0:0:
190,116,82004,2,0,L|225:285,1,161.999995056153,8|2,1:2|0:0,0:0:0:0:
289,178,82421,6,0,P|368:153|433:222,1,161.999995056153,6|2,3:3|0:0,0:0:0:0:
448,334,82733,1,2,3:3:0:0:
360,324,82837,2,0,P|349:244|374:213,1,80.9999975280763,10|2,1:2|0:0,0:0:0:0:
437,121,83046,2,0,P|441:160|424:197,1,80.9999975280763,2|2,3:3|0:0,0:0:0:0:
292,89,83254,6,0,P|323:66|364:62,1,80.9999975280763,2|10,0:0|1:2,0:0:0:0:
344,240,83462,2,0,P|308:223|284:190,1,80.9999975280763,6|2,3:3|0:0,0:0:0:0:
289,178,83671,5,10,1:2:0:0:
206,212,83775,1,2,0:0:0:0:
124,178,83879,1,10,1:2:0:0:
90,95,83983,1,2,0:0:0:0:
124,13,84087,6,0,P|186:88|130:165,1,161.999995056153,6|0,3:2|0:0,0:0:0:0:
124,178,84400,1,2,3:3:0:0:
93,329,84504,2,0,B|57:237|57:237|130:159,1,161.999995056153,8|2,1:2|3:3,0:0:0:0:
311,282,84816,2,0,B|257:264|257:264|227:281|227:281|138:252,1,161.999995056153,2|0,0:0|0:0,0:0:0:0:
219,109,85129,2,0,P|202:151|231:209,1,80.9999975280763,4|2,3:3|0:0,0:0:0:0:
395,313,85337,2,0,P|402:273|385:237,1,80.9999975280763,8|0,1:2|0:0,0:0:0:0:
219,109,85546,2,0,P|202:151|231:209,1,80.9999975280763
451,121,85754,6,0,L|283:157,1,161.999995056153,6|2,3:3|0:0,0:0:0:0:
233,272,86066,1,2,3:3:0:0:
140,127,86171,2,0,L|257:100,1,80.9999975280763,10|2,1:2|0:0,0:0:0:0:
292,154,86379,1,2,3:3:0:0:
314,306,86483,2,0,B|337:259|314:212|304:236|273:198|298:133,1,161.999995056153,2|0,0:0|0:0,0:0:0:0:
452,150,86796,2,0,L|351:173,1,80.9999975280763,6|2,0:3|0:0,0:0:0:0:
296,59,87004,2,0,L|374:76,1,80.9999975280763,10|2,1:2|0:0,0:0:0:0:
487,232,87212,2,0,L|386:255,1,80.9999975280763,2|2,0:0|0:0,0:0:0:0:
183,341,87421,6,0,P|264:284|333:336,1,161.999995056153,6|2,3:1|0:0,0:0:0:0:
206,203,87733,1,2,3:3:0:0:
313,305,87837,2,0,L|337:206,1,80.9999975280763,10|2,1:2|0:0,0:0:0:0:
242,45,88046,2,0,L|203:215,1,161.999995056153,2|6,3:3|0:1,0:0:0:0:
338,101,88462,6,0,L|423:74,1,80.9999975280763,2|2,3:3|0:0,0:0:0:0:
390,280,88671,2,0,L|313:305,1,80.9999975280763,10|2,1:2|0:0,0:0:0:0:
327,199,88879,2,0,L|412:172,1,80.9999975280763,2|2,0:0|0:0,0:0:0:0:
232,237,89087,6,0,P|185:246|106:170,1,161.999995056153,4|0,3:2|0:0,0:0:0:0:
216,71,89400,2,0,P|216:121|169:170,1,80.9999975280763,4|8,3:2|0:0,0:0:0:0:
126,86,89608,1,0,0:0:0:0:
10,164,89712,6,0,P|25:118|131:88,1,161.999995056153,4|0,3:2|0:0,0:0:0:0:
106,174,90025,1,2,0:0:0:0:
22,329,90129,2,0,L|-6:231,1,80.9999975280763,2|2,3:3|0:0,0:0:0:0:
100,281,90337,5,12,1:2:0:0:
136,264,90441,1,2,0:0:0:0:
175,269,90545,1,2,0:0:0:0:
205,296,90649,1,2,0:0:0:0:
216,334,90754,6,0,P|286:368|361:316,1,161.999995056153,4|2,3:2|0:0,0:0:0:0:
293,132,91066,1,2,3:3:0:0:
374,102,91171,2,0,B|382:148|382:148|342:229,1,80.9999975280763,10|0,1:2|0:0,0:0:0:0:
282,276,91379,2,0,B|252:192|252:192|293:132,1,161.999995056153,0|2,3:3|0:0,0:0:0:0:
508,234,91796,2,0,B|454:200|454:200|407:213|407:213|334:177,1,161.999995056153,6|10,3:3|1:2,0:0:0:0:
458,69,92212,1,0,0:0:0:0:
303,40,92421,6,0,P|214:27|200:108,1,161.999995056153,4|0,3:3|0:0,0:0:0:0:
67,58,92733,1,0,3:3:0:0:
54,189,92837,2,0,P|80:162|162:167,1,80.9999975280763,8|0,1:2|0:0,0:0:0:0:
191,81,93046,1,2,3:3:0:0:
208,223,93150,2,0,B|198:174|227:139|227:139|226:96|180:75,1,161.999995056153,2|0,0:0|0:0,0:0:0:0:
376,170,93462,2,0,L|298:192,1,80.9999975280763,4|0,3:3|0:0,0:0:0:0:
129,244,93671,2,0,L|207:222,1,80.9999975280763,8|0,1:2|0:0,0:0:0:0:
396,245,93879,2,0,P|392:193|354:155,1,80.9999975280763
270,354,94087,6,0,P|290:319|325:300,1,80.9999975280763,4|0,3:3|0:0,0:0:0:0:
485,355,94296,2,0,P|445:355|411:335,1,80.9999975280763,10|2,1:2|3:3,0:0:0:0:
376,170,94504,2,0,P|396:204|396:245,1,80.9999975280763,8|0,1:2|0:0,0:0:0:0:
270,354,94712,2,0,P|290:319|325:300,1,80.9999975280763,0|8,3:3|1:2,0:0:0:0:
485,355,94921,5,2,3:3:0:0:
465,357,95025,1,10,1:2:0:0:
445,355,95129,1,2,3:3:0:0:
426,347,95233,1,2,0:0:0:0:
411,335,95338,5,10,1:2:0:0:
326,307,95442,1,10,1:2:0:0:
326,218,95546,1,10,1:2:0:0:
411,190,95650,1,10,1:2:0:0:
463,262,95754,6,0,L|518:250,2,54,6|0|0,3:3|0:0|0:0,0:0:0:0:
411,190,97004,6,0,L|415:121,1,67.5
384,40,97212,2,0,L|319:14,1,67.5
188,141,97421,6,0,P|265:94|347:166,1,161.999995056153,4|0,3:2|0:0,0:0:0:0:
411,190,97733,1,0,3:3:0:0:
282,259,97837,2,0,L|258:161,1,80.9999975280763,8|0,1:2|0:0,0:0:0:0:
324,120,98046,1,2,3:3:0:0:
353,303,98150,2,0,B|292:287|292:287|277:277|277:277|259:280|259:280|189:261,1,161.999995056153,2|0,0:0|0:0,0:0:0:0:
125,318,98462,2,0,P|104:283|108:244,1,80.9999975280763,0|2,3:3|0:0,0:0:0:0:
119,61,98671,2,0,P|155:77|176:111,1,80.9999975280763,8|0,1:2|0:0,0:0:0:0:
31,191,98879,2,0,P|57:160|96:152,1,80.9999975280763
274,61,99087,6,0,B|316:131|316:131|285:208,1,161.999995056153,0|2,3:3|0:0,0:0:0:0:
385,194,99400,1,2,3:3:0:0:
288,346,99504,2,0,P|252:276|284:205,1,161.999995056153,10|2,1:2|3:3,0:0:0:0:
484,318,99816,2,0,B|436:271|436:271|387:285|387:285|324:265,1,161.999995056153,2|0,0:0|0:0,0:0:0:0:
375,114,100129,6,0,L|387:205,1,80.9999975280763,0|0,3:3|0:0,0:0:0:0:
494,237,100337,2,0,L|482:328,1,80.9999975280763,8|0,1:2|0:0,0:0:0:0:
458,72,100546,2,0,L|470:163,1,80.9999975280763
345,271,100754,6,0,P|255:250|204:320,1,161.999995056153,0|0,3:3|0:0,0:0:0:0:
128,338,101066,1,0,3:3:0:0:
210,293,101171,2,0,P|262:276|275:239,1,80.9999975280763,8|0,1:2|0:0,0:0:0:0:
150,206,101379,2,0,B|95:256|95:256|140:367,1,161.999995056153,2|2,3:3|0:0,0:0:0:0:
128,116,101796,6,0,P|176:115|218:151,1,80.9999975280763,0|0,3:3|0:0,0:0:0:0:
295,0,102004,2,0,P|271:42|219:60,1,80.9999975280763,8|0,1:2|0:0,0:0:0:0:
317,201,102212,2,0,P|292:159|302:105,1,80.9999975280763
509,135,102421,6,0,P|395:112|370:158,1,161.999995056153,2|2,3:3|0:0,0:0:0:0:
377,270,102733,1,2,3:3:0:0:
377,133,102837,2,0,P|414:201|378:270,1,161.999995056153,10|2,1:2|3:3,0:0:0:0:
165,195,103150,2,0,B|222:169|222:169|329:205,1,161.999995056153,2|2,0:0|0:0,0:0:0:0:
289,291,103462,2,0,L|211:267,1,80.9999975280763,2|2,3:3|0:0,0:0:0:0:
109,268,103671,5,10,1:2:0:0:
81,238,103775,1,2,0:0:0:0:
70,200,103879,1,2,0:0:0:0:
77,160,103983,1,2,0:0:0:0:
102,128,104087,6,0,B|215:155|215:155|195:98,1,161.999995056153,6|0,3:2|0:0,0:0:0:0:
169,5,104400,1,0,3:3:0:0:
336,43,104504,2,0,L|241:19,1,80.9999975280763,8|0,1:2|0:0,0:0:0:0:
319,183,104712,2,0,P|361:113|331:38,1,161.999995056153,2|0,3:3|0:0,0:0:0:0:
236,209,105129,2,0,P|214:248|224:305,1,80.9999975280763,0|2,3:3|0:0,0:0:0:0:
356,309,105337,2,0,B|408:283|408:283|289:266,1,161.999995056153,8|0,1:2|0:0,0:0:0:0:
58,312,105754,6,0,B|118:300|118:300|137:288|137:288|158:292|158:292|233:280,1,161.999995056153,2|2,3:3|0:0,0:0:0:0:
150,377,106066,1,2,3:3:0:0:
128,228,106171,2,0,B|167:290|167:290|148:383,1,161.999995056153,10|2,1:2|3:3,0:0:0:0:
36,215,106483,2,0,P|77:141|160:137,1,161.999995056153,2|0,0:0|0:0,0:0:0:0:
295,170,106796,2,0,L|200:202,1,80.9999975280763,2|2,3:3|0:0,0:0:0:0:
385,102,107004,2,0,L|308:76,1,80.9999975280763,10|2,1:2|0:0,0:0:0:0:
492,166,107212,2,0,L|397:198,1,80.9999975280763,2|2,0:0|0:0,0:0:0:0:
283,290,107421,6,0,P|364:264|422:332,1,161.999995056153,0|0,3:3|0:0,0:0:0:0:
416,309,107733,1,0,3:3:0:0:
301,368,107837,2,0,L|280:278,1,80.9999975280763,8|0,1:2|0:0,0:0:0:0:
224,203,108046,2,0,B|188:257|188:257|209:378,1,161.999995056153,2|0,3:3|0:0,0:0:0:0:
329,106,108462,2,0,L|229:80,1,80.9999975280763,0|2,3:3|0:0,0:0:0:0:
134,167,108671,2,0,P|119:91|175:37,1,161.999995056153,8|0,1:2|0:0,0:0:0:0:
329,106,109087,6,0,P|323:145|343:179,1,80.9999975280763,0|0,3:3|0:0,0:0:0:0:
460,62,109296,2,0,P|428:37|388:37,1,80.9999975280763,2|2,0:0|3:3,0:0:0:0:
433,202,109504,2,0,P|469:187|489:152,1,80.9999975280763,10|0,1:2|0:0,0:0:0:0:
329,106,109712,1,2,3:3:0:0:
305,262,109816,2,0,P|359:199|439:205,1,161.999995056153,10|10,1:2|1:2,0:0:0:0:
399,355,110129,2,0,B|410:309|410:309|386:266,1,80.9999975280763,2|2,3:3|0:0,0:0:0:0:
220,272,110337,5,10,1:2:0:0:
210,289,110441,1,2,3:3:0:0:
205,308,110545,1,10,1:2:0:0:
209,327,110649,1,2,3:3:0:0:
256,192,122421,12,0,123671,0:0:0:0:
64,31,124087,6,0,B|40:92|40:92|74:170,1,135,4|0,3:2|0:0,0:0:0:0:
276,108,124504,2,0,L|132:82,1,135,8|2,1:2|0:0,0:0:0:0:
161,187,124921,1,2,3:3:0:0:
337,39,125129,5,2,0:0:0:0:
356,181,125337,2,0,P|407:133|491:153,1,135,8|2,1:2|0:0,0:0:0:0:
470,289,125754,1,0,3:3:0:0:
379,331,125962,5,2,0:0:0:0:
288,286,126171,2,0,B|154:331|158:329,1,135,8|2,1:2|0:0,0:0:0:0:
192,185,126587,1,0,3:3:0:0:
13,150,126796,1,2,0:0:0:0:
96,31,127004,2,0,L|109:195,1,135,8|2,1:2|0:0,0:0:0:0:
218,74,127421,6,0,B|256:40|286:42|286:42|314:70|357:62,1,135,0|0,3:3|0:0,0:0:0:0:
439,24,127837,1,8,1:2:0:0:
384,192,128046,1,0,0:0:0:0:
455,121,128254,2,0,B|481:178|481:178|457:280,1,135,0|0,3:3|0:0,0:0:0:0:
388,369,128671,2,0,P|452:336|531:371,1,135,8|0,1:2|0:0,0:0:0:0:
331,286,129087,6,0,B|282:270|282:270|245:285|245:285|176:262,1,135,0|2,3:3|0:0,0:0:0:0:
62,263,129504,2,0,P|84:201|147:185,1,135,10|2,1:2|0:0,0:0:0:0:
273,56,129921,2,0,L|243:211,1,135,2|2,3:3|0:0,0:0:0:0:
178,84,130337,1,10,1:2:0:0:
363,26,130546,1,2,0:2:0:0:
247,188,130754,5,0,3:3:0:0:
389,242,130962,1,2,0:0:0:0:
242,282,131171,1,8,1:2:0:0:
330,316,131379,1,2,0:0:0:0:
341,325,131483,1,2,0:0:0:0:
349,333,131587,2,0,L|496:353,1,135,2|2,3:3|0:0,0:0:0:0:
337,162,132004,1,8,1:2:0:0:
242,282,132212,6,0,P|160:293|102:245,1,135,0|2,0:0|3:3,0:0:0:0:
138,82,132629,2,0,P|188:147|175:221,1,135,2|8,0:0|1:2,0:0:0:0:
20,264,133046,2,0,P|51:187|122:161,1,135,0|2,0:0|3:3,0:0:0:0:
187,196,133462,1,2,0:0:0:0:
46,79,133671,1,8,1:2:0:0:
223,8,133879,1,0,0:0:0:0:
187,196,134087,6,0,B|258:176|258:176|333:211,1,135,2|2,3:3|0:0,0:0:0:0:
398,108,134504,1,8,1:2:0:0:
327,320,134712,1,2,0:0:0:0:
327,320,134816,1,2,0:0:0:0:
327,320,134921,2,0,P|297:229|345:179,1,135,2|2,3:3|0:0,0:0:0:0:
470,249,135337,1,8,1:2:0:0:
313,201,135546,1,2,0:0:0:0:
430,46,135754,6,0,L|405:199,1,135,2|2,3:3|0:0,0:0:0:0:
246,266,136171,2,0,P|221:186|255:129,1,135,8|2,1:2|0:0,0:0:0:0:
408,179,136587,1,2,3:3:0:0:
240,142,136796,1,2,0:0:0:0:
330,298,137004,2,0,B|342:246|342:246|309:195,1,108,8|6,1:2|1:2,0:0:0:0:
135,31,137837,6,0,B|122:94|122:94|151:128|151:128|138:200,2,161.999995056153,2|2|2,0:0|1:2|0:0,0:0:0:0:
141,180,139087,1,2,1:2:0:0:
285,162,139504,6,0,B|245:129|199:148|199:148|174:191|103:175,2,161.999995056153,2|2|2,0:0|1:2|0:0,0:0:0:0:
344,84,140754,1,2,1:2:0:0:
354,230,141171,6,0,B|383:165|383:165|339:75,2,161.999995056153,2|2|2,0:0|1:2|0:0,0:0:0:0:
249,42,142421,1,2,1:2:0:0:
124,18,142837,6,0,P|178:71|248:41,2,161.999995056153,2|2|2,0:0|1:2|0:0,0:0:0:0:
172,96,144087,5,2,0:0:0:0:
149,188,144713,5,0,0:0:0:0:
190,273,144921,1,2,0:0:0:0:
277,312,145546,5,0,0:0:0:0:
368,286,145755,1,2,0:0:0:0:
420,207,146379,5,0,0:0:0:0:
410,113,146587,1,2,0:0:0:0:
342,48,147004,1,0,0:0:0:0:
248,41,147421,6,0,B|197:91|220:149|220:149|285:195|245:281,2,242.999992584229,2|2|2,0:0|0:0|0:0,0:0:0:0:
170,228,148671,1,2,0:0:0:0:
170,228,148879,1,2,0:0:0:0:
170,228,149087,6,0,B|113:171|24:200|24:200|73:205|101:246,2,242.999992584229,2|2|2,0:0|0:0|0:0,0:0:0:0:
129,68,150337,2,0,L|260:38,1,121.499996292114,2|0,0:0|0:0,0:0:0:0:
477,137,150754,6,0,P|337:99|318:202,1,270,2|2,0:0|0:0,0:0:0:0:
365,50,151379,1,2,0:0:0:0:
312,188,151587,5,0,3:0:0:0:
278,194,151691,1,0,3:0:0:0:
245,200,151795,1,0,3:0:0:0:
212,206,151899,1,0,3:0:0:0:
179,213,152003,1,0,3:0:0:0:
146,219,152107,1,0,3:0:0:0:
113,225,152211,1,0,3:0:0:0:
79,232,152316,1,0,3:0:0:0:
45,238,152420,5,0,3:0:0:0:
46,156,152524,1,0,3:0:0:0:
123,131,152628,1,0,3:0:0:0:
171,198,152732,1,0,3:0:0:0:
123,263,152837,2,0,P|101:299|110:333,3,67.5,8|8|8|8,3:0|3:0|3:0|3:0,0:0:0:0:
271,270,153254,5,0,3:3:0:0:
358,316,153358,2,0,B|396:250|396:250|267:271|267:272,1,202.500007724762,8|0,1:2|3:3,0:0:0:0:
277,92,153671,6,0,B|262:113|262:113|267:154,1,67.5,8|0,1:2|0:0,0:0:0:0:
434,193,153879,2,0,B|448:171|448:171|443:130,1,67.5,0|8,3:3|1:2,0:0:0:0:
366,61,154087,6,0,L|344:238,1,161.999995056153,4|2,3:2|0:0,0:0:0:0:
271,270,154400,1,2,3:3:0:0:
439,301,154504,2,0,P|345:323|339:379,1,161.999995056153,10|2,1:2|3:3,0:0:0:0:
127,252,154816,2,0,B|201:224|201:224|279:275,1,161.999995056153,2|0,0:0|0:0,0:0:0:0:
56,316,155129,6,0,P|32:276|42:229,1,80.9999975280763,4|2,3:3|0:0,0:0:0:0:
147,179,155337,2,0,P|149:218|126:251,1,80.9999975280763,8|0,1:2|0:0,0:0:0:0:
5,147,155546,2,0,P|30:115|68:104,1,80.9999975280763
245,30,155754,6,0,B|281:92|281:92|255:178,1,161.999995056153,6|2,3:3|0:0,0:0:0:0:
363,238,156066,1,2,3:3:0:0:
262,347,156171,2,0,L|236:258,1,80.9999975280763,10|2,1:2|0:0,0:0:0:0:
255,178,156379,1,2,3:3:0:0:
400,153,156483,2,0,B|363:126|320:147|320:147|292:189|242:175,1,161.999995056153,2|0,0:0|0:0,0:0:0:0:
461,230,156796,6,0,L|439:308,1,80.9999975280763,6|2,3:3|0:0,0:0:0:0:
377,75,157004,2,0,L|399:152,1,80.9999975280763,10|2,1:2|0:0,0:0:0:0:
340,315,157212,2,0,L|366:226,1,80.9999975280763,2|2,0:0|0:0,0:0:0:0:
233,285,157421,6,0,P|139:281|102:335,1,161.999995056153,6|2,3:1|0:0,0:0:0:0:
78,208,157733,1,2,3:3:0:0:
23,315,157837,2,0,L|124:333,1,80.9999975280763,10|2,1:2|0:0,0:0:0:0:
233,163,158046,2,0,L|53:214,1,161.999995056153,2|6,3:3|0:1,0:0:0:0:
0,92,158462,6,0,L|101:110,1,80.9999975280763,2|2,3:3|0:0,0:0:0:0:
244,37,158671,2,0,L|165:52,1,80.9999975280763,10|2,1:2|0:0,0:0:0:0:
326,92,158879,2,0,L|405:106,1,80.9999975280763,2|2,0:0|0:0,0:0:0:0:
459,284,159087,6,0,B|410:258|410:258|355:282|355:282|264:242,1,161.999995056153,6|2,3:1|0:0,0:0:0:0:
234,312,159400,1,2,3:3:0:0:
154,246,159504,2,0,L|253:214,1,80.9999975280763,8|0,1:2|0:0,0:0:0:0:
78,305,159712,1,2,3:3:0:0:
87,157,159816,2,0,B|49:226|49:226|78:306,1,161.999995056153,2|2,0:0|0:0,0:0:0:0:
201,103,160129,2,0,L|102:71,1,80.9999975280763,6|2,3:3|0:0,0:0:0:0:
344,27,160337,6,0,B|312:12|312:12|272:32,1,80.9999975280763,8|0,1:2|0:0,0:0:0:0:
430,44,160546,2,0,B|463:60|463:60|503:40,1,80.9999975280763,2|0,0:0|0:0,0:0:0:0:
370,112,160754,6,0,L|390:272,1,161.999995056153,4|2,3:2|0:0,0:0:0:0:
473,288,161066,1,2,3:3:0:0:
318,316,161171,2,0,B|377:307|377:307|397:313|397:313|412:300|412:300|490:284,1,161.999995056153,10|2,1:2|3:3,0:0:0:0:
218,270,161587,1,2,0:0:0:0:
143,363,161796,2,0,L|123:273,1,80.9999975280763,6|2,3:3|0:0,0:0:0:0:
240,109,162004,2,0,L|216:279,1,161.999995056153,8|0,1:2|0:0,0:0:0:0:
8,169,162421,6,0,P|111:157|147:196,1,161.999995056153,6|2,3:3|0:0,0:0:0:0:
125,283,162733,1,2,3:3:0:0:
124,131,162837,2,0,B|160:88|160:88|142:207,1,161.999995056153,10|2,1:2|3:3,0:0:0:0:
197,348,163150,2,0,B|226:304|215:267|215:267|227:304|301:328,1,161.999995056153,2|0,0:0|0:0,0:0:0:0:
370,236,163462,2,0,P|324:219|263:262,1,80.9999975280763,6|2,3:3|0:0,0:0:0:0:
439,373,163671,2,0,P|440:323|380:278,1,80.9999975280763,10|2,1:2|0:0,0:0:0:0:
294,226,163879,2,0,P|333:219|370:236,1,80.9999975280763,2|2,0:0|0:0,0:0:0:0:
473,88,164087,6,0,L|313:120,1,161.999995056153,6|0,3:3|0:0,0:0:0:0:
147,67,164400,1,2,3:3:0:0:
220,17,164504,2,0,P|242:49|236:88,1,80.9999975280763,8|0,1:2|0:0,0:0:0:0:
137,208,164712,2,0,B|104:120|104:120|149:63,1,161.999995056153,0|0,3:3|0:0,0:0:0:0:
227,306,165129,2,0,B|236:269|236:269|215:231,1,80.9999975280763,4|0,3:3|0:0,0:0:0:0:
62,264,165337,2,0,B|126:250|126:250|146:256|146:256|160:244|160:244|244:226,1,161.999995056153,8|0,1:2|0:0,0:0:0:0:
381,131,165754,6,0,P|281:106|234:161,1,161.999995056153,6|2,3:3|0:0,0:0:0:0:
413,219,166066,1,2,3:3:0:0:
330,271,166171,2,0,L|309:170,1,80.9999975280763,10|2,1:2|0:0,0:0:0:0:
397,51,166379,2,0,L|380:130,1,80.9999975280763,2|2,3:3|0:0,0:0:0:0:
330,271,166587,5,2,0:0:0:0:
247,305,166691,1,10,1:2:0:0:
165,271,166796,1,6,3:3:0:0:
131,188,166900,1,2,0:0:0:0:
165,106,167004,6,0,L|267:84,1,80.9999975280763,10|2,1:2|0:0,0:0:0:0:
165,271,167212,2,0,L|85:288,1,80.9999975280763,10|2,1:2|0:0,0:0:0:0:
37,40,167421,6,0,P|124:49|164:153,1,161.999995056153,6|0,3:2|0:0,0:0:0:0:
131,188,167733,1,2,3:3:0:0:
68,284,167837,2,0,B|27:189|27:189|70:107,1,161.999995056153,8|2,1:2|3:3,0:0:0:0:
280,165,168150,2,0,B|231:161|231:161|199:191|199:191|92:185,1,161.999995056153,2|0,0:0|0:0,0:0:0:0:
199,292,168462,2,0,L|288:265,1,80.9999975280763,4|2,3:3|0:0,0:0:0:0:
451,282,168671,2,0,L|373:305,1,80.9999975280763,8|0,1:2|0:0,0:0:0:0:
199,292,168879,2,0,L|288:265,1,80.9999975280763
381,196,169087,6,0,P|406:98|359:41,1,161.999995056153,6|2,3:3|0:0,0:0:0:0:
295,11,169400,1,2,3:3:0:0:
249,95,169504,2,0,L|332:122,1,80.9999975280763,10|2,1:2|0:0,0:0:0:0:
171,56,169712,1,2,3:3:0:0:
144,207,169816,2,0,B|180:169|173:117|156:137|138:91|182:37,1,161.999995056153,2|0,0:0|0:0,0:0:0:0:
3,126,170129,2,0,L|80:151,1,80.9999975280763,6|2,0:3|0:0,0:0:0:0:
253,212,170337,2,0,L|175:237,1,80.9999975280763,10|2,1:2|0:0,0:0:0:0:
52,297,170546,2,0,L|129:322,1,80.9999975280763,2|2,0:0|0:0,0:0:0:0:
266,370,170754,6,0,B|301:284|301:284|221:315,1,161.999995056153,6|2,3:1|0:0,0:0:0:0:
380,250,171066,1,2,3:3:0:0:
453,368,171171,2,0,L|375:344,1,80.9999975280763,10|2,1:2|0:0,0:0:0:0:
467,132,171379,2,0,B|497:193|497:193|453:292,1,161.999995056153,2|6,3:3|0:1,0:0:0:0:
304,153,171796,6,0,L|382:129,1,80.9999975280763,2|2,3:3|0:0,0:0:0:0:
188,48,172004,2,0,L|266:72,1,80.9999975280763,10|2,1:2|0:0,0:0:0:0:
111,168,172212,2,0,L|189:144,1,80.9999975280763,2|2,0:0|0:0,0:0:0:0:
167,302,172421,6,0,P|60:256|20:303,1,161.999995056153,4|0,3:2|0:0,0:0:0:0:
20,141,172733,2,0,B|11:44,1,80.9999975280763,4|8,3:2|0:0,0:0:0:0:
111,168,172941,1,0,0:0:0:0:
95,6,173046,2,0,L|112:181,1,161.999995056153,4|0,3:2|0:0,0:0:0:0:
189,118,173358,1,2,0:0:0:0:
199,31,173462,2,0,L|283:11,1,80.9999975280763,2|2,3:3|0:0,0:0:0:0:
348,66,173671,5,8,1:2:0:0:
338,105,173775,1,2,0:0:0:0:
328,144,173879,1,2,0:0:0:0:
319,184,173983,1,2,0:0:0:0:
309,223,174087,6,0,B|425:184|425:184|395:249,1,161.999995056153,4|2,3:2|0:0,0:0:0:0:
369,294,174400,1,2,3:3:0:0:
231,264,174504,2,0,P|218:216|247:170,1,80.9999975280763,10|0,1:2|0:0,0:0:0:0:
463,263,174712,2,0,B|403:248|403:248|384:235|384:235|366:236|366:236|306:222|307:222,1,161.999995056153,0|2,3:3|0:0,0:0:0:0:
92,270,175129,2,0,P|196:237|243:286,1,161.999995056153,6|10,3:3|1:2,0:0:0:0:
143,129,175546,1,0,0:0:0:0:
308,222,175754,6,0,B|331:127|331:127|301:71,1,161.999995056153,4|0,3:3|0:0,0:0:0:0:
398,40,176066,1,2,3:3:0:0:
502,120,176171,2,0,L|404:135,1,80.9999975280763,8|0,1:2|0:0,0:0:0:0:
478,218,176379,1,2,3:3:0:0:
443,344,176483,2,0,P|426:258|500:216,1,161.999995056153,2|0,0:0|0:0,0:0:0:0:
311,309,176796,2,0,B|271:298|271:298|220:322,1,80.9999975280763,4|0,3:3|0:0,0:0:0:0:
123,225,177004,2,0,B|163:214|163:214|214:238,1,80.9999975280763,8|0,1:2|0:0,0:0:0:0:
303,134,177212,2,0,B|263:123|263:123|212:147,1,80.9999975280763
103,64,177421,6,0,L|126:253,1,161.999995056153,6|2,3:3|0:0,0:0:0:0:
29,183,177733,1,2,3:3:0:0:
31,330,177837,2,0,B|-3:239|-3:239|42:159,1,161.999995056153,8|0,1:2|3:3,0:0:0:0:
198,198,178254,6,0,L|122:224,1,80.9999975280763,2|10,0:0|1:2,0:0:0:0:
272,319,178462,2,0,L|195:293,1,80.9999975280763,2|0,3:3|0:0,0:0:0:0:
283,161,178671,1,10,1:2:0:0:
352,278,178879,1,10,1:2:0:0:
352,278,178983,1,10,0:0:0:0:
352,278,179087,6,0,L|428:303,1,80.9999975280763,2|0,3:3|0:0,0:0:0:0:
438,289,179296,2,0,L|361:263,1,80.9999975280763,2|0,3:3|0:0,0:0:0:0:
485,132,179504,6,0,L|408:157,1,80.9999975280763,2|0,3:3|0:0,0:0:0:0:
400,143,179713,2,0,L|476:117,1,80.9999975280763,2|0,3:3|0:0,0:0:0:0:
300,66,179921,5,2,3:3:0:0:
280,59,180025,1,2,3:3:0:0:
261,53,180129,1,2,3:3:0:0:
242,46,180233,1,2,3:3:0:0:
223,40,180337,5,2,3:3:0:0:
135,54,180441,1,2,3:3:0:0:
83,127,180545,1,2,0:0:0:0:
98,215,180649,1,2,3:3:0:0:
171,267,180754,6,0,L|311:230,1,121.499996292114,4|2,3:2|1:3,0:0:0:0:
422,305,181171,1,0,3:3:0:0:
288,235,181379,1,2,1:3:0:0:
414,102,181587,6,0,L|376:241,1,121.499996292114,0|2,3:3|1:3,0:0:0:0:
321,122,182004,1,0,3:3:0:0:
503,84,182212,1,2,1:3:0:0:
347,36,182421,6,0,B|285:19|285:19|233:60,1,121.499996292114,0|2,3:3|1:3,0:0:0:0:
85,81,182837,1,0,3:3:0:0:
240,54,183046,1,2,1:3:0:0:
131,169,183254,5,0,3:3:0:0:
152,11,183462,1,2,1:3:0:0:
226,151,183671,5,0,3:3:0:0:
85,81,183879,1,2,1:3:0:0:
131,169,184087,6,0,P|84:223|107:303,1,121.499996292114,4|2,3:2|1:3,0:0:0:0:
176,248,184504,1,0,3:3:0:0:
240,337,184712,6,0,P|216:269|135:249,1,121.499996292114,2|0,1:3|3:3,0:0:0:0:
43,347,185129,2,0,P|113:360|171:300,1,121.499996292114,2|0,1:3|3:3,0:0:0:0:
131,169,185546,2,0,P|84:223|107:303,1,121.499996292114,2|2,1:3|3:3,0:0:0:0:
152,335,185962,1,2,1:3:0:0:
175,247,186171,2,0,L|305:218,1,121.499996292114,2|2,3:3|1:3,0:0:0:0:
367,261,186587,5,2,3:3:0:0:
334,145,186796,1,2,1:3:0:0:
408,186,187004,1,2,3:3:0:0:
293,220,187212,1,2,1:3:0:0:
304,68,187421,6,0,B|379:50|379:50|317:179,1,182.249994438172,4|2,3:2|0:0,0:0:0:0:
185,95,187837,2,0,L|331:61,1,121.499996292114,0|2,3:3|1:3,0:0:0:0:
118,32,188254,1,0,3:3:0:0:
105,141,188462,2,0,P|92:72|117:31,1,121.499996292114,2|0,1:3|3:3,0:0:0:0:
185,95,188879,1,2,1:3:0:0:
230,251,189087,6,0,B|161:225|161:225|108:240|108:240|18:205,1,182.249994438172,0|2,3:3|0:0,0:0:0:0:
44,351,189504,2,0,L|168:315,1,121.499996292114,0|2,3:3|1:3,0:0:0:0:
251,348,189921,1,0,3:3:0:0:
363,302,190129,2,0,L|223:358,1,121.499996292114,2|0,1:3|3:3,0:0:0:0:
319,220,190546,1,2,1:3:0:0:
454,280,190754,6,0,B|483:211|483:211|451:147,1,121.499996292114,4|2,3:2|1:3,0:0:0:0:
487,81,191171,1,0,3:3:0:0:
323,28,191379,1,2,1:3:0:0:
414,7,191587,2,0,L|383:130,1,121.499996292114,0|2,3:3|1:3,0:0:0:0:
309,169,192004,2,0,P|254:132|167:144,1,121.499996292114,0|2,3:3|1:3,0:0:0:0:
50,81,192421,5,0,3:3:0:0:
200,130,192629,1,2,1:3:0:0:
50,178,192837,5,0,3:3:0:0:
143,51,193046,1,2,1:3:0:0:
143,209,193254,5,0,3:3:0:0:
50,81,193462,1,2,1:3:0:0:
200,130,193671,5,2,1:3:0:0:
50,178,193879,1,2,1:3:0:0:
166,296,194087,6,0,B|271:270|271:270|339:314,1,161.999995056153,4|2,3:2|0:0,0:0:0:0:
467,180,194504,2,0,P|457:218|427:245,1,80.9999975280763,8|0,1:2|0:0,0:0:0:0:
348,191,194712,2,0,P|356:152|386:126,1,80.9999975280763
473,338,194921,6,0,L|290:292,1,161.999995056153,0|2,3:3|0:0,0:0:0:0:
178,198,195337,2,0,L|255:220,1,80.9999975280763,8|0,1:2|0:0,0:0:0:0:
166,296,195546,2,0,L|88:273,1,80.9999975280763
53,155,195754,6,0,P|155:154|171:239,1,161.999995056153,0|2,3:3|0:0,0:0:0:0:
333,100,196171,2,0,L|256:123,1,80.9999975280763,8|0,1:2|0:0,0:0:0:0:
491,75,196379,6,0,L|413:52,1,80.9999975280763
262,214,196587,2,0,L|354:188,1,80.9999975280763,0|0,3:3|0:0,0:0:0:0:
412,141,196796,2,0,L|490:164,1,80.9999975280763,8|0,1:2|0:0,0:0:0:0:
256,123,197004,2,0,L|348:97,1,80.9999975280763,8|0,1:2|0:0,0:0:0:0:
491,75,197212,2,0,L|413:52,1,80.9999975280763
262,214,197421,6,0,B|353:187|353:187|322:255,1,161.999995056153,0|2,3:3|0:0,0:0:0:0:
415,263,197733,1,2,0:0:0:0:
341,322,197837,2,0,P|320:277|338:226,1,80.9999975280763,8|0,1:2|0:0,0:0:0:0:
237,300,198046,6,0,B|142:270|142:270|62:315,1,161.999995056153,0|0,0:0|3:3,0:0:0:0:
41,85,198462,2,0,L|16:265,1,161.999995056153,2|8,0:0|1:2,0:0:0:0:
117,164,198879,6,0,B|184:143|184:143|213:151|213:151|278:129,1,161.999995056153,0|0,0:0|3:3,0:0:0:0:
276,45,199296,6,0,P|320:54|349:126,1,80.9999975280763,2|2,0:0|0:0,0:0:0:0:
429,40,199504,2,0,P|443:82|395:143,1,80.9999975280763,8|0,1:2|0:0,0:0:0:0:
512,165,199712,2,0,P|482:198|405:187,1,80.9999975280763
368,177,199921,6,0,P|324:186|295:258,1,80.9999975280763,0|0,3:3|0:0,0:0:0:0:
215,172,200129,2,0,P|200:214|248:275,1,80.9999975280763,8|0,1:2|0:0,0:0:0:0:
132,297,200337,6,0,P|161:330|238:319,1,80.9999975280763,8|0,1:2|0:0,0:0:0:0:
351,347,200546,2,0,P|321:313|244:324,1,80.9999975280763
72,370,200754,6,0,P|42:274|112:209,1,161.999995056153,0|2,3:3|0:0,0:0:0:0:
159,207,201066,1,2,0:0:0:0:
220,277,201171,2,0,L|307:252,1,80.9999975280763,8|0,1:2|0:0,0:0:0:0:
173,46,201379,2,0,L|159:209,1,161.999995056153,0|0,0:0|3:3,0:0:0:0:
388,157,201796,2,0,P|311:129|247:175,1,161.999995056153,2|8,0:0|1:2,0:0:0:0:
159,207,202212,1,0,0:0:0:0:
220,277,202421,6,0,B|254:239|309:257|309:257|333:292|381:288,1,161.999995056153,0|2,3:3|0:0,0:0:0:0:
444,237,202733,1,2,0:0:0:0:
382,76,202837,2,0,L|387:156,1,80.9999975280763,8|0,1:2|0:0,0:0:0:0:
449,317,203046,2,0,L|444:237,1,80.9999975280763
475,142,203254,1,0,3:3:0:0:
304,187,203462,2,0,L|203:160,1,80.9999975280763,8|0,1:2|0:0,0:0:0:0:
155,60,203671,2,0,P|240:42|290:118,1,161.999995056153,8|2,1:2|0:0,0:0:0:0:
64,89,204087,6,0,B|26:157|26:157|57:242,1,161.999995056153,2|2,3:3|0:0,0:0:0:0:
120,296,204504,2,0,P|160:273|213:279,3,80.9999975280763,10|2|2|2,1:2|0:0|0:0|0:0,0:0:0:0:
264,326,204921,2,0,P|304:323|337:302,3,80.9999975280763,0|0|0|0,3:3|3:0|3:0|3:0,0:0:0:0:
297,229,205337,2,0,P|389:230|426:324,1,161.999995056153,8|0,3:2|3:0,0:0:0:0:
497,113,205754,5,8,3:3:0:0:
477,116,205858,1,0,3:0:0:0:
457,119,205962,1,0,3:0:0:0:
437,123,206066,1,0,3:0:0:0:
417,126,206171,6,0,L|324:100,1,80.9999975280763,8|8,1:2|0:0,0:0:0:0:
271,41,206379,2,0,L|192:62,1,80.9999975280763,8|8,0:0|0:0,0:0:0:0:
64,158,206587,5,8,3:3:0:0:
83,161,206691,1,8,0:0:0:0:
103,164,206795,1,8,1:2:0:0:
123,168,206899,1,8,0:0:0:0:
144,171,207004,5,10,1:2:0:0:
229,143,207108,1,10,0:0:0:0:
281,215,207213,1,10,1:2:0:0:
229,288,207317,1,10,0:0:0:0:
144,260,207421,6,0,L|324:222,1,161.999995056153,4|0,3:2|0:0,0:0:0:0:
405,310,207733,1,0,3:3:0:0:
378,148,207837,2,0,L|393:240,1,80.9999975280763,8|0,1:2|0:0,0:0:0:0:
326,78,208046,2,0,P|402:60|460:113,1,161.999995056153,2|2,3:3|0:0,0:0:0:0:
134,62,208462,6,0,B|159:28|159:28|169:75,1,80.9999975280763,6|2,3:3|0:0,0:0:0:0:
240,114,208671,2,0,L|80:84,1,161.999995056153,10|2,1:2|0:0,0:0:0:0:
77,218,209087,6,0,P|170:194|226:252,1,161.999995056153,6|2,3:3|0:0,0:0:0:0:
231,316,209400,1,2,3:3:0:0:
155,361,209504,2,0,P|138:319|155:271,1,80.9999975280763,10|2,1:2|0:0,0:0:0:0:
216,230,209712,1,2,3:3:0:0:
380,291,209816,2,0,B|324:316|324:316|282:298|282:298|228:316,1,161.999995056153,2|2,0:0|0:0,0:0:0:0:
321,197,210129,6,0,B|341:159|341:159|362:194,1,80.9999975280763,6|2,3:3|0:0,0:0:0:0:
463,246,210338,2,0,P|402:196|328:219,1,161.999995056153,8|2,1:2|3:0,0:0:0:0:
254,54,210754,6,0,B|286:11|286:11|170:48,1,161.999995056153,4|0,3:3|0:0,0:0:0:0:
185,131,211066,1,2,3:3:0:0:
106,92,211171,2,0,P|93:134|122:185,1,80.9999975280763,8|0,1:2|0:0,0:0:0:0:
193,277,211379,2,0,B|221:185|221:185|176:118,1,161.999995056153,2|2,3:3|0:0,0:0:0:0:
99,294,211796,6,0,B|74:260|74:260|65:297,1,80.9999975280763,6|2,3:3|0:0,0:0:0:0:
9,343,212005,2,0,L|169:313,1,161.999995056153,10|2,1:2|0:0,0:0:0:0:
349,365,212421,6,0,P|366:257|317:221,1,161.999995056153,6|2,3:3|0:0,0:0:0:0:
342,143,212733,1,2,3:3:0:0:
248,241,212837,2,0,P|277:158|390:174,1,161.999995056153,10|2,1:2|3:3,0:0:0:0:
425,180,213150,1,2,0:0:0:0:
441,100,213254,6,0,L|421:196,1,80.9999975280763,2|2,0:0|3:0,0:0:0:0:
358,64,213462,2,0,L|338:160,1,80.9999975280763,6|2,3:3|3:0,0:0:0:0:
351,307,213671,5,8,1:2:0:0:
346,287,213775,1,8,0:0:0:0:
342,267,213879,1,8,0:0:0:0:
338,247,213983,1,8,0:0:0:0:
334,227,214087,6,0,B|223:195|223:195|254:245,1,161.999995056153,12|0,3:2|0:0,0:0:0:0:
162,266,214400,1,2,3:3:0:0:
21,288,214504,2,0,P|117:304|170:246,1,161.999995056153,8|2,1:2|3:3,0:0:0:0:
72,150,214921,1,2,0:0:0:0:
219,131,215129,6,0,B|196:93|196:93|230:71,1,80.9999975280763,6|2,3:3|0:0,0:0:0:0:
278,13,215337,2,0,L|242:193,1,161.999995056153,10|2,1:2|0:0,0:0:0:0:
351,191,215754,6,0,P|441:168|504:235,1,161.999995056153,2|2,3:3|3:0,0:0:0:0:
495,301,216066,1,2,3:3:0:0:
357,304,216171,2,0,P|383:268|465:268,1,80.9999975280763,10|0,1:2|0:0,0:0:0:0:
503,330,216379,1,0,3:3:0:0:
422,363,216483,2,0,L|252:319,1,161.999995056153
272,169,216796,2,0,L|366:195,1,80.9999975280763,6|0,3:3|0:0,0:0:0:0:
193,226,217004,2,0,P|178:141|232:81,1,161.999995056153,8|2,1:2|0:0,0:0:0:0:
418,2,217421,6,0,B|455:64|455:64|430:172,1,161.999995056153,6|0,3:3|0:0,0:0:0:0:
350,190,217733,1,2,3:3:0:0:
318,324,217837,2,0,P|302:237|351:189,1,161.999995056153,8|2,1:2|3:3,0:0:0:0:
448,283,218254,1,0,0:0:0:0:
216,271,218462,6,0,B|241:237|241:237|250:274,1,80.9999975280763,4|2,3:3|0:0,0:0:0:0:
318,324,218671,2,0,L|158:294,1,161.999995056153,8|0,1:2|0:0,0:0:0:0:
61,142,219087,6,0,B|30:106|30:106|48:59,1,80.9999975280763,6|0,3:3|0:0,0:0:0:0:
217,33,219296,2,0,B|248:69|248:69|230:116,1,80.9999975280763,14|2,1:2|3:3,0:0:0:0:
161,171,219504,2,0,L|120:5,1,161.999995056153,10|6,1:2|3:3,0:0:0:0:
122,13,219816,1,0,0:0:0:0:
122,13,219921,6,2,L|143:98,1,80.9999975280763,14|0,1:2|0:0,0:0:0:0:
161,171,220129,2,0,L|144:251,1,80.9999975280763,2|0,3:3|0:0,0:0:0:0:
141,272,220337,5,10,3:2:0:0:
191,240,220441,1,0,0:0:0:0:
251,242,220546,1,10,3:2:0:0:
298,279,220650,1,0,0:0:0:0:
318,336,220754,6,0,B|431:304|431:304|472:327,1,161.999995056153,6|0,3:2|0:0,0:0:0:0:
512,249,221066,1,0,3:3:0:0:
438,202,221171,2,0,P|421:243|445:295,1,80.9999975280763,8|0,1:2|0:0,0:0:0:0:
497,128,221379,2,0,B|441:109|441:109|399:122|399:122|343:103,1,161.999995056153,0|2,3:3|0:0,0:0:0:0:
203,56,221796,6,0,L|280:33,1,80.9999975280763,6|2,3:3|0:0,0:0:0:0:
187,148,222004,2,0,L|343:103,1,161.999995056153,10|2,1:2|0:0,0:0:0:0:
350,266,222421,6,0,P|257:240|210:292,1,161.999995056153,6|2,3:3|0:0,0:0:0:0:
289,327,222733,1,2,3:3:0:0:
207,367,222837,2,0,L|122:341,1,80.9999975280763,10|0,1:2|0:0,0:0:0:0:
47,368,223046,1,0,3:3:0:0:
45,219,223150,2,0,B|14:295|14:295|55:387,1,161.999995056153
114,290,223462,2,0,B|154:275|154:275|134:313,1,80.9999975280763,4|2,3:3|0:0,0:0:0:0:
207,367,223671,2,0,B|250:269|250:269|214:199,1,161.999995056153,8|0,1:2|0:0,0:0:0:0:
127,84,224087,6,0,P|218:77|244:134,1,161.999995056153,6|2,3:3|3:0,0:0:0:0:
224,220,224400,1,2,3:3:0:0:
243,130,224504,2,0,L|331:103,1,80.9999975280763,10|2,1:2|3:0,0:0:0:0:
395,28,224712,2,0,B|454:69|454:69|416:158,1,161.999995056153,2|2,3:3|3:0,0:0:0:0:
323,268,225129,6,0,B|357:243|357:243|401:263,1,80.9999975280763,6|2,3:3|0:0,0:0:0:0:
469,279,225337,2,0,L|284:310,1,161.999995056153,10|2,1:2|0:0,0:0:0:0:
223,174,225754,6,0,P|133:151|70:218,1,161.999995056153,6|2,3:3|0:0,0:0:0:0:
79,284,226066,1,2,3:3:0:0:
217,287,226171,2,0,P|191:251|109:251,1,80.9999975280763,10|2,1:2|0:0,0:0:0:0:
71,313,226379,1,2,3:3:0:0:
152,346,226483,2,0,L|322:302,1,161.999995056153,2|2,0:0|0:0,0:0:0:0:
302,152,226796,2,0,L|208:178,1,80.9999975280763,6|2,3:3|0:0,0:0:0:0:
381,209,227004,5,8,1:2:0:0:
397,172,227108,1,8,0:0:0:0:
398,132,227212,1,8,0:0:0:0:
381,95,227316,1,8,0:0:0:0:
351,68,227421,6,0,B|456:50|456:50|525:113,1,161.999995056153,12|0,3:2|0:0,0:0:0:0:
480,229,227733,1,2,3:3:0:0:
397,283,227837,2,0,P|376:244|385:201,1,80.9999975280763,8|0,1:2|0:0,0:0:0:0:
302,182,228046,2,0,P|294:276|336:348,1,161.999995056153,2|2,3:3|0:0,0:0:0:0:
183,293,228462,6,0,B|149:268|149:268|113:284,1,80.9999975280763,6|2,3:3|0:0,0:0:0:0:
37,304,228670,2,0,L|196:330,1,161.999995056153,10|2,1:2|3:0,0:0:0:0:
83,179,229087,6,0,P|65:89|106:34,1,161.999995056153,6|0,3:3|0:0,0:0:0:0:
192,36,229400,1,0,3:3:0:0:
231,113,229504,2,0,P|187:123|142:100,1,80.9999975280763,8|0,1:2|0:0,0:0:0:0:
103,36,229712,1,2,3:3:0:0:
231,113,229816,6,0,B|197:190|197:190|231:283,1,161.999995056153,2|2,3:0|3:0,0:0:0:0:
326,341,230129,2,0,L|341:248,1,80.9999975280763,6|0,3:3|0:0,0:0:0:0:
421,237,230337,2,0,P|361:180|263:222,1,161.999995056153,8|0,1:2|0:0,0:0:0:0:
241,333,230754,6,0,L|150:310,1,80.9999975280763,6|2,3:3|0:0,0:0:0:0:
39,240,230962,2,0,L|117:220,1,80.9999975280763,14|2,1:2|3:3,0:0:0:0:
326,341,231171,2,0,L|163:299,1,161.999995056153,14|2,1:2|3:3,0:0:0:0:
215,218,231483,6,0,P|203:126|265:81,1,161.999995056153,14|8,1:2|1:2,0:0:0:0:
358,191,231796,2,0,L|258:156,1,80.9999975280763,4|0,3:3|0:0,0:0:0:0:
414,118,232004,2,0,L|494:48,1,80.9999975280763,8|0,1:2|3:3,0:0:0:0:
451,205,232212,2,0,L|470:309,1,80.9999975280763,8|0,1:2|0:0,0:0:0:0:
326,341,232421,6,0,P|296:313|255:312,2,80.9999975280763,14|10|10,1:2|3:2|3:2,0:0:0:0:
240,223,232733,2,0,P|201:234|179:269,2,80.9999975280763,10|10|10,3:2|0:2|0:2,0:0:0:0:
91,245,233046,2,0,P|82:284|101:320,1,80.9999975280763,14|10,3:2|0:2,0:0:0:0:
240,223,233254,6,0,P|210:195|171:193,1,80.9999975280763,10|10,0:2|3:2,0:0:0:0:
162,197,233462,1,0,0:0:0:0:
150,102,233566,6,0,P|112:113|89:146,1,80.9999975280763,10|14,3:2|0:0,0:0:0:0:
87,157,233775,1,0,0:0:0:0:
2,132,233879,6,0,P|-6:170|10:206,1,80.9999975280763,0|0,3:3|0:0,0:0:0:0:
91,245,234087,5,4,1:2:0:0:
254,218,247421,6,0,P|231:96|416:210,1,506.25,12|0,0:0|0:0,0:0:0:0:
416,209,249087,2,0,B|384:194|384:194|398:224,1,67.5,2|0,0:0|0:0,0:0:0:0:
416,209,250754,6,0,P|331:187|276:255,1,161.999995056153,4|0,3:2|0:0,0:0:0:0:
197,200,251066,1,4,3:2:0:0:
344,348,251171,2,0,L|361:259,1,80.9999975280763,8|0,1:2|0:0,0:0:0:0:
212,291,251379,1,4,3:2:0:0:
65,268,251483,2,0,B|120:251|120:251|161:286|161:286|226:292,1,161.999995056153
199,123,251796,6,0,P|209:166|168:223,1,80.9999975280763,2|2,3:3|0:0,0:0:0:0:
129,65,252004,2,0,P|161:34|231:41,1,80.9999975280763,10|2,1:2|0:0,0:0:0:0:
119,153,252212,2,0,P|76:140|47:76,1,80.9999975280763,2|2,0:0|0:0,0:0:0:0:
199,123,252421,6,0,B|299:92|299:92|351:132,1,161.999995056153,6|2,3:1|0:0,0:0:0:0:
373,210,252733,1,2,3:3:0:0:
288,186,252837,2,0,P|285:226|304:262,1,80.9999975280763,10|2,1:2|0:0,0:0:0:0:
420,80,253046,2,0,P|430:156|322:206,1,161.999995056153,2|6,3:3|0:1,0:0:0:0:
462,320,253462,6,0,L|373:295,1,80.9999975280763,2|2,3:3|0:0,0:0:0:0:
304,262,253671,2,0,L|226:283,1,80.9999975280763,10|2,1:2|0:0,0:0:0:0:
75,333,253879,2,0,L|152:354,1,80.9999975280763,2|2,0:0|0:0,0:0:0:0:
145,244,254087,6,0,P|158:144|101:104,1,161.999995056153,6|2,3:1|0:0,0:0:0:0:
24,94,254400,1,2,3:3:0:0:
8,208,254504,2,0,L|86:187,1,80.9999975280763,8|0,1:2|0:0,0:0:0:0:
118,109,254712,1,2,3:3:0:0:
259,82,254816,2,0,B|224:51|183:72|183:72|163:118|91:106,1,161.999995056153,2|2,0:0|0:0,0:0:0:0:
250,181,255129,6,0,L|341:158,1,80.9999975280763,6|2,3:3|0:0,0:0:0:0:
428,43,255337,2,0,L|349:62,1,80.9999975280763,8|0,1:2|0:0,0:0:0:0:
259,189,255546,2,0,L|350:166,1,80.9999975280763,2|0,0:0|0:0,0:0:0:0:
467,140,255754,6,0,B|508:207|508:207|471:315,1,161.999995056153,4|2,3:2|0:0,0:0:0:0:
411,346,256066,1,2,3:3:0:0:
284,292,256171,2,0,P|384:299|412:360,1,161.999995056153,10|2,1:2|3:3,0:0:0:0:
200,353,256587,1,2,0:0:0:0:
177,176,256796,2,0,L|203:267,1,80.9999975280763,6|2,3:3|0:0,0:0:0:0:
84,188,257004,2,0,P|133:95|222:103,1,161.999995056153,8|0,1:2|0:0,0:0:0:0:
415,176,257421,6,0,P|340:153|277:200,1,161.999995056153,6|2,3:3|0:0,0:0:0:0:
358,245,257733,1,2,3:3:0:0:
299,139,257837,2,0,B|263:96|263:96|278:200,1,161.999995056153,10|2,1:2|3:3,0:0:0:0:
284,292,258150,2,0,B|232:285|212:252|212:252|232:285|213:326,1,161.999995056153,2|0,0:0|0:0,0:0:0:0:
136,288,258462,2,0,L|58:268,1,80.9999975280763,6|2,3:3|0:0,0:0:0:0:
55,95,258671,2,0,L|135:115,1,80.9999975280763,10|2,1:2|0:0,0:0:0:0:
132,199,258879,2,0,L|54:179,1,80.9999975280763,2|2,0:0|0:0,0:0:0:0:
133,115,259087,6,0,B|202:99|202:99|238:119|238:119|315:96,1,161.999995056153,6|0,3:3|0:0,0:0:0:0:
457,109,259399,1,0,3:3:0:0:
377,71,259504,2,0,P|367:107|387:153,1,80.9999975280763,12|0,1:2|0:0,0:0:0:0:
468,201,259712,2,0,P|396:175|343:230,1,161.999995056153,0|2,3:3|0:0,0:0:0:0:
238,317,260129,2,0,B|210:284|210:284|222:231,1,80.9999975280763,4|0,3:3|0:0,0:0:0:0:
245,169,260337,2,0,L|280:338,1,161.999995056153,8|2,1:2|0:0,0:0:0:0:
311,112,260754,6,0,P|211:87|164:142,1,161.999995056153,6|2,3:3|0:0,0:0:0:0:
343,200,261066,1,2,3:3:0:0:
261,248,261171,2,0,L|245:169,1,80.9999975280763,10|2,1:2|0:0,0:0:0:0:
327,32,261379,2,0,L|310:111,1,80.9999975280763,2|2,3:3|0:0,0:0:0:0:
261,248,261587,5,2,0:0:0:0:
182,290,261691,1,10,1:2:0:0:
97,265,261795,1,6,3:3:0:0:
54,186,261900,1,2,0:0:0:0:
80,101,262004,6,0,L|176:123,1,80.9999975280763,10|2,1:2|0:0,0:0:0:0:
327,32,262212,2,0,L|231:54,1,80.9999975280763,10|2,1:2|0:0,0:0:0:0:
288,163,262421,6,0,P|381:146|429:204,1,161.999995056153,6|0,3:2|0:0,0:0:0:0:
348,221,262733,1,0,3:3:0:0:
336,369,262837,2,0,B|312:274|312:274|351:218,1,161.999995056153,8|2,1:2|3:3,0:0:0:0:
468,317,263150,2,0,B|499:261|499:261|402:290,1,161.999995056153,2|0,0:0|0:0,0:0:0:0:
290,297,263462,6,0,L|193:270,1,80.9999975280763,4|2,3:3|0:0,0:0:0:0:
105,214,263671,2,0,L|202:187,1,80.9999975280763,8|0,1:2|0:0,0:0:0:0:
252,375,263879,2,0,L|155:348,1,80.9999975280763,2|0,0:0|0:0,0:0:0:0:
50,288,264087,6,0,P|14:193|62:136,1,161.999995056153,6|2,3:3|0:0,0:0:0:0:
199,188,264400,1,2,3:3:0:0:
131,49,264504,2,0,L|125:139,1,80.9999975280763,10|2,1:2|0:0,0:0:0:0:
45,67,264712,1,2,3:3:0:0:
216,26,264816,2,0,L|197:201,1,161.999995056153,2|0,0:0|0:0,0:0:0:0:
316,90,265129,6,0,P|357:63|412:76,1,80.9999975280763,6|2,3:3|0:0,0:0:0:0:
360,228,265337,2,0,P|316:205|299:151,1,80.9999975280763,10|2,1:2|0:0,0:0:0:0:
460,119,265546,2,0,P|462:168|424:209,1,80.9999975280763,2|2,0:0|0:0,0:0:0:0:
239,286,265754,6,0,P|302:215|371:238,1,161.999995056153,6|2,3:1|0:0,0:0:0:0:
458,292,266066,1,2,3:3:0:0:
329,375,266171,2,0,P|313:331|330:283,1,80.9999975280763,10|2,1:2|0:0,0:0:0:0:
469,324,266379,2,0,B|407:296|407:296|364:314|364:314|297:290,1,161.999995056153,2|6,3:3|0:1,0:0:0:0:
91,209,266796,6,0,L|167:182,1,80.9999975280763,2|2,3:3|0:0,0:0:0:0:
116,10,267004,2,0,L|39:36,1,80.9999975280763,10|2,1:2|0:0,0:0:0:0:
66,123,267212,2,0,L|142:96,1,80.9999975280763,2|2,0:0|0:0,0:0:0:0:
363,76,267421,6,0,P|283:63|225:116,1,161.999995056153,4|0,3:2|0:3,0:3:0:0:
392,181,267733,1,4,3:2:0:0:
308,145,267837,2,0,P|296:183|311:221,1,80.9999975280763,8|0,0:0|0:3,0:0:0:0:
401,331,268046,2,0,B|424:240|424:240|389:175,1,161.999995056153,4|0,3:2|0:0,0:0:0:0:
226,113,268358,1,2,0:0:0:0:
144,158,268462,2,0,L|58:135,1,80.9999975280763,2|2,3:3|0:0,0:0:0:0:
17,271,268671,5,8,1:2:0:0:
47,245,268775,1,0,0:0:0:0:
87,240,268879,1,0,0:0:0:0:
123,257,268983,1,2,0:0:0:0:
145,290,269087,6,0,B|252:261|252:261|220:284|216:323,1,161.999995056153,4|2,3:2|0:0,0:0:0:0:
332,238,269400,1,2,3:3:0:0:
378,352,269504,2,0,L|289:329,1,80.9999975280763,10|0,1:2|0:0,0:0:0:0:
345,95,269712,2,0,B|302:153|302:153|333:242,1,161.999995056153,0|2,3:3|0:0,0:0:0:0:
437,77,270129,2,0,P|372:3|299:15,1,161.999995056153,6|10,3:3|1:2,0:0:0:0:
256,115,270546,1,0,0:0:0:0:
331,237,270754,6,0,P|390:277|396:368,1,161.999995056153,6|0,3:3|0:0,0:0:0:0:
318,324,271066,1,2,3:3:0:0:
167,287,271171,2,0,L|249:261,1,80.9999975280763,8|0,1:2|0:0,0:0:0:0:
331,237,271379,1,2,3:3:0:0:
358,78,271483,2,0,B|347:139|347:139|341:153|341:153|342:168|342:168|327:257,1,161.999995056153,2|0,0:0|0:0,0:0:0:0:
433,133,271796,2,0,B|444:161|444:161|425:209,1,80.9999975280763,6|0,3:3|0:0,0:0:0:0:
358,78,272004,5,8,1:2:0:0:
318,69,272108,1,0,0:0:0:0:
279,60,272212,1,2,0:0:0:0:
239,51,272316,1,0,0:0:0:0:
200,42,272421,6,0,P|221:79|215:121,1,80.9999975280763,6|0,3:3|0:0,0:0:0:0:
39,120,272629,2,0,P|36:80|57:45,1,80.9999975280763,10|2,1:2|3:3,0:0:0:0:
129,100,272837,2,0,L|98:286,1,161.999995056153,8|0,1:2|3:3,0:0:0:0:
163,324,273150,1,8,1:2:0:0:
273,275,273254,6,0,L|200:239,1,80.9999975280763,2|10,3:3|1:2,0:0:0:0:
425,293,273462,2,0,L|351:329,1,80.9999975280763,2|2,3:3|0:0,0:0:0:0:
273,275,273671,5,10,1:2:0:0:
263,187,273775,1,2,0:0:0:0:
318,117,273879,1,10,1:2:0:0:
407,107,273983,1,10,1:2:0:0:
476,162,274087,6,0,L|431:198,2,54,6|0|0,1:2|0:0|0:0,2:0:0:0:
407,107,275337,6,0,L|317:168,1,94.4999971160889,0|0,0:0|0:0,2:0:0:0:
246,85,275754,2,0,P|155:40|154:189,1,283.499991348267,0|0,0:0|0:0,2:0:0:0:
128,176,276587,1,0,0:0:0:0:
210,229,277421,6,0,L|274:211,3,47.2499985580445
123,275,277837,2,0,L|106:339,3,47.2499985580445
128,176,278254,2,0,L|80:129,3,47.2499985580445
210,229,278671,5,0,0:0:0:0:
221,225,278775,1,0,0:0:0:0:
232,222,278879,1,0,0:0:0:0:
244,219,278983,1,0,0:0:0:0:
255,216,279087,6,0,L|226:307,1,80.9999975280763,4|0,3:2|0:0,0:0:0:0:
405,344,279296,2,0,L|429:266,1,80.9999975280763,2|2,0:0|3:3,0:0:0:0:
348,203,279504,2,0,B|300:379|306:353,1,161.999995056153,8|0,1:2|3:3,0:0:0:0:
145,330,279816,2,0,P|65:360|-9:267,1,161.999995056153,2|0,0:0|0:0,0:0:0:0:
78,191,280129,6,0,P|67:227|88:282,1,80.9999975280763,0|2,3:3|0:0,0:0:0:0:
152,130,280337,2,0,P|126:102|68:93,1,80.9999975280763,8|0,1:2|0:0,0:0:0:0:
165,225,280546,2,0,P|201:216|238:170,1,80.9999975280763
190,45,280754,6,0,B|291:20|291:20|339:67,1,161.999995056153,0|2,3:3|0:0,0:0:0:0:
277,122,281066,1,2,3:3:0:0:
409,93,281171,2,0,P|343:145|259:91,1,161.999995056153,10|2,1:2|3:3,0:0:0:0:
235,212,281483,2,0,B|186:185|178:151|178:151|186:187|157:239,1,161.999995056153,2|0,0:0|0:0,0:0:0:0:
15,160,281796,6,0,L|106:173,1,80.9999975280763,2|0,3:3|0:0,0:0:0:0:
106,84,282004,2,0,L|25:72,1,80.9999975280763,10|0,1:2|0:0,0:0:0:0:
4,249,282212,2,0,L|95:262,1,80.9999975280763,2|0,0:0|0:0,0:0:0:0:
226,310,282421,6,0,B|261:284|315:298|315:298|344:336|404:326,1,161.999995056153,0|0,3:3|0:0,0:0:0:0:
381,235,282733,1,0,3:3:0:0:
383,93,282837,2,0,B|420:142|420:142|380:237,1,161.999995056153,8|2,1:2|3:3,0:0:0:0:
269,162,283254,1,2,0:0:0:0:
166,52,283462,6,0,P|133:25|62:37,1,80.9999975280763,2|0,3:3|0:0,0:0:0:0:
119,180,283671,2,0,P|158:164|183:97,1,80.9999975280763,10|0,1:2|0:0,0:0:0:0:
25,76,283879,2,0,P|18:118|64:173,1,80.9999975280763,2|0,0:0|0:0,0:0:0:0:
0,267,284087,6,0,B|57:253|57:253|96:282|96:282|198:262,1,161.999995056153,2|2,3:3|0:0,0:0:0:0:
231,322,284400,1,2,3:3:0:0:
386,289,284504,2,0,B|327:300|327:300|312:312|312:312|293:308|293:308|229:322,1,161.999995056153,10|2,1:2|3:3,0:0:0:0:
279,152,284816,2,0,L|314:318,1,161.999995056153,2|2,0:0|0:0,0:0:0:0:
371,172,285129,2,0,P|374:122|338:88,1,80.9999975280763,2|2,3:3|0:0,0:0:0:0:
191,126,285337,5,10,1:2:0:0:
184,145,285441,1,2,0:0:0:0:
184,165,285545,1,2,0:0:0:0:
192,184,285649,1,2,0:0:0:0:
205,199,285754,6,0,L|126:181,1,80.9999975280763,4|0,3:2|0:0,0:0:0:0:
28,98,285962,2,0,L|107:80,1,80.9999975280763,2|0,0:0|3:3,0:0:0:0:
46,224,286171,2,0,P|1:280|58:326,1,161.999995056153,8|2,1:2|3:3,0:0:0:0:
252,352,286483,2,0,B|212:328|204:284|204:284|162:317|108:281,1,161.999995056153,2|0,0:0|0:0,0:0:0:0:
290,273,286796,6,0,L|377:245,1,80.9999975280763,0|2,3:3|0:0,0:0:0:0:
327,95,287004,2,0,L|307:184,1,80.9999975280763,8|0,1:2|0:0,0:0:0:0:
463,212,287212,2,0,L|395:150,1,80.9999975280763,2|0,0:0|0:0,0:0:0:0:
237,117,287421,6,0,P|162:92|104:142,1,161.999995056153,2|2,3:3|0:0,0:0:0:0:
262,201,287733,1,2,3:3:0:0:
164,255,287837,2,0,L|184:152,1,80.9999975280763,10|2,1:2|0:0,0:0:0:0:
103,142,288046,1,2,3:3:0:0:
73,265,288150,2,0,P|136:339|212:326,1,161.999995056153,2|0,0:0|0:0,0:0:0:0:
341,310,288462,6,0,P|305:287|256:295,1,80.9999975280763,2|2,3:3|0:0,0:0:0:0:
420,265,288671,2,0,P|456:288|505:280,1,80.9999975280763,10|2,1:2|0:0,0:0:0:0:
268,289,288879,2,0,P|307:287|341:310,1,80.9999975280763,2|2,0:0|0:0,0:0:0:0:
344,207,289087,6,0,B|368:112|368:112|323:60,1,161.999995056153,2|0,3:3|0:0,0:0:0:0:
246,97,289400,1,0,3:3:0:0:
160,211,289504,2,0,L|167:120,1,80.9999975280763,8|0,1:2|0:0,0:0:0:0:
109,67,289712,2,0,P|200:52|253:126,1,161.999995056153,2|0,3:3|0:0,0:0:0:0:
75,232,290129,2,0,B|49:269|49:269|63:320,1,80.9999975280763,0|2,3:3|0:0,0:0:0:0:
229,271,290337,2,0,B|168:255|168:255|153:245|153:245|135:248|135:248|65:229,1,161.999995056153,8|0,1:2|0:0,0:0:0:0:
291,338,290754,6,0,P|333:340|372:310,1,80.9999975280763,0|0,3:3|0:0,0:0:0:0:
333,182,290962,2,0,P|310:217|316:266,1,80.9999975280763,2|2,0:0|3:3,0:0:0:0:
446,294,291171,2,0,P|426:256|381:237,1,80.9999975280763,10|0,1:2|0:0,0:0:0:0:
412,133,291379,1,2,3:3:0:0:
274,107,291483,2,0,P|362:90|416:141,1,161.999995056153,2|10,0:0|1:2,0:0:0:0:
213,176,291796,2,0,L|121:151,1,80.9999975280763,2|2,3:3|0:0,0:0:0:0:
124,149,292004,5,2,3:3:0:0:
39,121,292108,5,2,3:3:0:0:
39,32,292212,5,2,3:3:0:0:
124,4,292316,5,2,3:3:0:0:
176,76,292421,6,0,L|286:55,1,108,6|0,3:2|0:0,0:0:0:0:
