osu file format v14

[General]
AudioFilename: audio.mp3
AudioLeadIn: 0
PreviewTime: 69921
Countdown: 0
SampleSet: Soft
StackLeniency: 0.3
Mode: 0
LetterboxInBreaks: 0
WidescreenStoryboard: 1

[Editor]
Bookmarks: 754,7421,14087,18046,27421,40754,54087,60754,64088,70754,74087,95754,110754,124087,137421,144087,154087,180754,194087,207421,220754,234087,249087,274087,279087,287733,292421
DistanceSpacing: 0.84
BeatDivisor: 4
GridSize: 16
TimelineZoom: 3.599999

[Metadata]
Title:WINTER DIAMOND
TitleUnicode:WINTER DIAMOND
Artist:FROZEN QUALIA
ArtistUnicode:FROZEN QUALIA
Creator:Heilia
Version:ARIES
Source:
Tags:minald みなるど SINGLE BEST~Journey~ kazuki japanese pop hoto_cocoa lude jpop j-pop
BeatmapID:3528869
BeatmapSetID:1726448

[Difficulty]
HPDrainRate:5.2
CircleSize:3.5
OverallDifficulty:8.8
ApproachRate:9.5
SliderMultiplier:3.1
SliderTickRate:1

[Events]
//Background and Video events
0,0,"dd.jpg",0,0
//Break Periods
2,27621,38547
2,110954,121881
2,245954,246896
//Storyboard Layer 0 (Background)
//Storyboard Layer 1 (Fail)
//Storyboard Layer 2 (Pass)
//Storyboard Layer 3 (Foreground)
//Storyboard Layer 4 (Overlay)
//Storyboard Sound Samples

[TimingPoints]
5754,416.666666666667,4,2,2,70,1,0
7421,416.666666666667,4,2,2,70,1,0
7421,-100,4,2,2,70,0,0
14087,-100,4,2,1,80,0,0
14191,-100,4,2,1,80,0,0
14296,-100,4,2,1,80,0,0
14400,-100,4,2,1,70,0,0
14504,-100,4,2,1,80,0,0
14921,-100,4,2,1,80,0,0
15129,-100,4,2,1,80,0,0
15441,-100,4,2,1,80,0,0
15546,-100,4,2,1,80,0,0
15858,-100,4,2,1,70,0,0
16066,-100,4,2,1,80,0,0
16483,-100,4,2,1,70,0,0
16587,-100,4,2,1,70,0,0
16796,-200,4,2,1,80,0,0
17004,-133.333333333333,4,2,1,80,0,0
17108,-100,4,2,1,70,0,0
17212,-100,4,2,1,80,0,0
18254,-100,4,2,1,80,0,0
18462,-200,4,2,1,80,0,0
18671,-133.333333333333,4,2,1,80,0,0
18879,-100,4,2,1,80,0,0
19087,-133.333333333333,4,2,1,80,0,0
19191,-100,4,2,1,80,0,0
19296,-100,4,2,1,80,0,0
21587,-100,4,2,1,70,0,0
21795,-100,4,2,1,80,0,0
22525,-100,4,2,1,70,0,0
22629,-100,4,2,1,80,0,0
23254,-100,4,2,1,70,0,0
23462,-100,4,2,1,80,0,0
24816,-100,4,2,1,80,0,0
24921,-100,4,2,1,80,0,0
26587,-100,4,2,1,70,0,0
26691,-100,4,2,1,80,0,0
27421,-100,4,2,1,60,0,0
41379,-500,4,2,1,60,0,0
41899,-500,4,2,1,70,0,0
42004,-133.333333333333,4,2,1,60,0,0
42108,-133.333333333333,4,2,1,70,0,0
42212,-133.333333333333,4,2,1,60,0,0
43046,-500,4,2,1,60,0,0
43566,-500,4,2,1,70,0,0
43671,-133.333333333333,4,2,1,60,0,0
43775,-133.333333333333,4,2,1,70,0,0
43879,-133.333333333333,4,2,1,60,0,0
44712,-500,4,2,1,60,0,0
45232,-500,4,2,1,70,0,0
45337,-133.333333333333,4,2,1,60,0,0
45441,-133.333333333333,4,2,1,70,0,0
45546,-133.333333333333,4,2,1,60,0,0
46379,-500,4,2,1,60,0,0
46900,-500,4,2,1,70,0,0
47004,-133.333333333333,4,2,1,60,0,0
47108,-133.333333333333,4,2,1,70,0,0
47212,-133.333333333333,4,2,1,60,0,0
47629,-133.333333333333,4,2,1,70,0,0
47733,-133.333333333333,4,2,1,60,0,0
48150,-133.333333333333,4,2,1,70,0,0
48254,-133.333333333333,4,2,1,60,0,0
48462,-133.333333333333,4,2,1,60,0,0
48566,-133.333333333333,4,2,1,70,0,0
48671,-133.333333333333,4,2,1,60,0,0
49296,-133.333333333333,4,2,1,70,0,0
49400,-133.333333333333,4,2,1,60,0,0
49504,-133.333333333333,4,2,1,70,0,0
49712,-133.333333333333,4,2,1,60,0,0
49816,-133.333333333333,4,2,1,70,0,0
49920,-133.333333333333,4,2,1,60,0,0
50233,-133.333333333333,4,2,1,70,0,0
50337,-133.333333333333,4,2,1,60,0,0
50962,-133.333333333333,4,2,1,70,0,0
51066,-133.333333333333,4,2,1,60,0,0
51587,-133.333333333333,4,2,1,60,0,0
51796,-133.333333333333,4,2,1,60,0,0
51900,-133.333333333333,4,2,1,70,0,0
52004,-133.333333333333,4,2,1,60,0,0
52629,-133.333333333333,4,2,1,60,0,0
52733,-133.333333333333,4,2,1,60,0,0
53150,-133.333333333333,4,2,1,70,0,0
53254,-133.333333333333,4,2,1,60,0,0
53566,-133.333333333333,4,2,1,70,0,0
53671,-133.333333333333,4,2,1,80,0,0
53879,-133.333333333333,4,2,1,70,0,0
54087,-133.333333333333,4,2,2,70,0,0
54296,-133.333333333333,4,2,2,70,0,0
54504,-133.333333333333,4,2,2,45,0,0
55962,-133.333333333333,4,2,2,70,0,0
56171,-133.333333333333,4,2,2,45,0,0
57629,-133.333333333333,4,2,2,70,0,0
57837,-133.333333333333,4,2,2,45,0,0
59296,-133.333333333333,4,2,2,70,0,0
59504,-133.333333333333,4,2,2,45,0,0
60754,-133.333333333333,4,2,1,60,0,0
60962,-133.333333333333,4,2,1,70,0,0
61066,-133.333333333333,4,2,1,60,0,0
61274,-133.333333333333,4,2,1,70,0,0
61379,-133.333333333333,4,2,1,60,0,0
61691,-133.333333333333,4,2,1,70,0,0
61796,-133.333333333333,4,2,1,60,0,0
62108,-133.333333333333,4,2,1,70,0,0
62212,-133.333333333333,4,2,1,60,0,0
62316,-133.333333333333,4,2,1,60,0,0
62421,-133.333333333333,4,2,1,60,0,0
62629,-133.333333333333,4,2,1,70,0,0
62733,-133.333333333333,4,2,1,60,0,0
62941,-133.333333333333,4,2,1,70,0,0
63046,-133.333333333333,4,2,1,60,0,0
63775,-133.333333333333,4,2,1,70,0,0
63879,-133.333333333333,4,2,1,60,0,0
63983,-133.333333333333,4,2,1,60,0,0
64087,-133.333333333333,4,2,1,60,0,0
67525,-133.333333333333,4,2,1,60,0,0
69921,-1000,4,2,1,50,0,0
70754,-133.333333333333,4,2,1,90,0,1
70806,-133.333333333333,4,2,1,70,0,1
70962,-83.3333333333333,4,2,1,90,0,1
71587,-83.3333333333333,4,2,1,70,0,1
71795,-83.3333333333333,4,2,1,90,0,1
72160,-83.3333333333333,4,2,1,70,0,1
72212,-83.3333333333333,4,2,1,90,0,1
72525,-83.3333333333333,4,2,1,90,0,1
72629,-83.3333333333333,4,2,1,90,0,1
73254,-83.3333333333333,4,2,1,90,0,1
73462,-83.3333333333333,4,2,1,90,0,1
73775,-83.3333333333333,4,2,1,90,0,1
73879,-83.3333333333333,4,2,1,90,0,1
74921,-83.3333333333333,4,2,1,70,0,1
75129,-83.3333333333333,4,2,1,90,0,1
76171,-100,4,2,1,90,0,1
76483,-100,4,2,1,70,0,1
76587,-100,4,2,1,90,0,1
77525,-100,4,2,1,70,0,1
77629,-100,4,2,1,90,0,1
78254,-100,4,2,1,90,0,1
78358,-100,4,2,1,90,0,1
78671,-200,4,2,1,90,0,1
79191,-200,4,2,1,70,0,1
79296,-200,4,2,1,90,0,1
79921,-200,4,2,1,90,0,1
80129,-200,4,2,1,90,0,1
80233,-200,4,2,1,70,0,1
80337,-200,4,2,1,90,0,1
81171,-83.3333333333333,4,2,1,90,0,1
81483,-83.3333333333333,4,2,1,70,0,1
81587,-83.3333333333333,4,2,1,90,0,1
81691,-83.3333333333333,4,2,1,90,0,1
82160,-83.3333333333333,4,2,1,70,0,1
82212,-83.3333333333333,4,2,1,90,0,1
82525,-83.3333333333333,4,2,1,70,0,1
82629,-83.3333333333333,4,2,1,90,0,1
84921,-83.3333333333333,4,2,1,70,0,1
85129,-83.3333333333333,4,2,1,90,0,1
85493,-83.3333333333333,4,2,1,70,0,1
85546,-83.3333333333333,4,2,1,90,0,1
85858,-83.3333333333333,4,2,1,90,0,1
85962,-83.3333333333333,4,2,1,90,0,1
86171,-83.3333333333333,4,2,1,70,0,1
86275,-83.3333333333333,4,2,1,90,0,1
86587,-83.3333333333333,4,2,1,90,0,1
86796,-83.3333333333333,4,2,1,90,0,1
87108,-83.3333333333333,4,2,1,70,0,1
87212,-83.3333333333333,4,2,1,90,0,1
88150,-83.3333333333333,4,2,1,90,0,1
88254,-83.3333333333333,4,2,1,70,0,1
88462,-83.3333333333333,4,2,1,90,0,1
89087,-62.5,4,2,1,90,0,1
89921,-83.3333333333333,4,2,1,90,0,1
90858,-83.3333333333333,4,2,1,70,0,1
90962,-83.3333333333333,4,2,1,90,0,1
91379,-100,4,2,1,90,0,1
91587,-100,4,2,1,70,0,1
91691,-100,4,2,1,90,0,1
92108,-100,4,2,1,90,0,1
92212,-100,4,2,1,90,0,1
92421,-83.3333333333333,4,2,1,90,0,0
93254,-83.3333333333333,4,2,1,70,0,0
93358,-83.3333333333333,4,2,1,90,0,0
94660,-83.3333333333333,4,2,1,70,0,0
94712,-83.3333333333333,4,2,1,90,0,0
95754,-83.3333333333333,4,2,1,60,0,0
95858,-83.3333333333333,4,2,1,70,0,0
97421,-83.3333333333333,4,2,1,80,0,0
97837,-100,4,2,1,80,0,0
98254,-100,4,2,1,70,0,0
98462,-100,4,2,1,80,0,0
98775,-100,4,2,1,80,0,0
98879,-100,4,2,1,80,0,0
99191,-100,4,2,1,70,0,0
99296,-100,4,2,1,80,0,0
99921,-100,4,2,1,70,0,0
100129,-200,4,2,1,80,0,0
100337,-133.333333333333,4,2,1,80,0,0
100546,-100,4,2,1,80,0,0
100684,-133.333333333333,4,2,2,70,0,0
100754,-133.333333333333,4,2,1,80,0,0
101171,-100,4,2,1,80,0,0
101309,-133.333333333333,4,2,1,70,0,0
101379,-133.333333333333,4,2,1,80,0,0
101587,-100,4,2,1,80,0,0
101796,-200,4,2,1,80,0,0
101865,-133.333333333333,4,2,2,70,0,0
101900,-133.333333333333,4,2,1,70,0,0
102004,-133.333333333333,4,2,1,80,0,0
102108,-100,4,2,1,70,0,0
102212,-100,4,2,1,80,0,0
102525,-100,4,2,1,80,0,0
102629,-100,4,2,1,80,0,0
104921,-100,4,2,1,70,0,0
105129,-100,4,2,1,80,0,0
105441,-100,4,2,1,80,0,0
105546,-100,4,2,1,80,0,0
105858,-100,4,2,1,70,0,0
105962,-100,4,2,1,80,0,0
106587,-100,4,2,1,70,0,0
106796,-100,4,2,1,80,0,0
107108,-100,4,2,1,80,0,0
107212,-100,4,2,1,80,0,0
108150,-100,4,2,1,80,0,0
108254,-100,4,2,1,70,0,0
108462,-100,4,2,1,80,0,0
108879,-100,4,2,1,70,0,0
108983,-100,4,2,1,80,0,0
109191,-100,4,2,1,70,0,0
109296,-100,4,2,1,80,0,0
109921,-100,4,2,1,80,0,0
110025,-100,4,2,1,80,0,0
110754,-100,4,2,1,70,0,0
122421,-500,4,2,1,50,0,0
122941,-500,4,2,1,70,0,0
123254,-100,4,2,1,70,0,0
123879,-100,4,2,1,50,0,0
124087,-133.333333333333,4,2,1,70,0,0
125962,-166.666666666667,4,2,1,70,0,0
126796,-222.222222222222,4,2,1,70,0,0
132004,-133.333333333333,4,2,1,70,0,0
132421,-166.666666666667,4,2,1,70,0,0
133254,-222.222222222222,4,2,1,70,0,0
137421,-222.222222222222,4,2,2,70,0,0
137837,-222.222222222222,4,2,2,70,0,0
139296,-222.222222222222,4,2,2,70,0,0
139504,-222.222222222222,4,2,2,70,0,0
140962,-222.222222222222,4,2,2,70,0,0
141171,-222.222222222222,4,2,2,70,0,0
142629,-222.222222222222,4,2,2,70,0,0
142837,-222.222222222222,4,2,2,70,0,0
144087,-222.222222222222,4,2,2,70,0,0
149296,-222.222222222222,4,2,2,70,0,0
149504,-222.222222222222,4,2,2,70,0,0
150754,-222.222222222222,4,2,1,70,0,0
150858,-222.222222222222,4,2,2,45,0,0
150962,-222.222222222222,4,2,2,70,0,0
152421,-222.222222222222,4,2,1,70,0,0
153046,-222.222222222222,4,2,2,70,0,0
153150,-222.222222222222,4,2,2,70,0,0
153254,-222.222222222222,4,2,1,70,0,0
154087,-133.333333333333,4,2,1,90,0,1
154139,-133.333333333333,4,2,1,70,0,1
154295,-83.3333333333333,4,2,1,90,0,1
154921,-83.3333333333333,4,2,1,70,0,1
155129,-83.3333333333333,4,2,1,90,0,1
155493,-83.3333333333333,4,2,1,70,0,1
155546,-83.3333333333333,4,2,1,90,0,1
155858,-83.3333333333333,4,2,1,70,0,1
155962,-83.3333333333333,4,2,1,90,0,1
156587,-83.3333333333333,4,2,1,90,0,1
156796,-83.3333333333333,4,2,1,90,0,1
157108,-83.3333333333333,4,2,1,70,0,1
157212,-83.3333333333333,4,2,1,90,0,1
158150,-83.3333333333333,4,2,1,90,0,1
158254,-83.3333333333333,4,2,1,70,0,1
158462,-83.3333333333333,4,2,1,90,0,1
159504,-100,4,2,1,90,0,1
159816,-100,4,2,1,90,0,1
159921,-100,4,2,1,70,0,1
160025,-100,4,2,1,90,0,1
160858,-100,4,2,1,70,0,1
160962,-100,4,2,1,90,0,1
161587,-100,4,2,1,70,0,1
161691,-100,4,2,1,90,0,1
162004,-200,4,2,1,90,0,1
162108,-200,4,2,1,90,0,1
162212,-200,4,2,1,90,0,1
162525,-200,4,2,1,70,0,1
162629,-200,4,2,1,90,0,1
163254,-200,4,2,1,70,0,1
163462,-200,4,2,1,90,0,1
163775,-200,4,2,1,70,0,1
163879,-200,4,2,1,90,0,1
164504,-83.3333333333333,4,2,1,90,0,1
164816,-83.3333333333333,4,2,1,90,0,1
164921,-83.3333333333333,4,2,1,90,0,1
165493,-83.3333333333333,4,2,1,70,0,1
165546,-83.3333333333333,4,2,1,90,0,1
165858,-83.3333333333333,4,2,1,70,0,1
165962,-83.3333333333333,4,2,1,90,0,1
168254,-83.3333333333333,4,2,1,70,0,1
168462,-83.3333333333333,4,2,1,90,0,1
168827,-83.3333333333333,4,2,1,70,0,1
168879,-83.3333333333333,4,2,1,90,0,1
169921,-83.3333333333333,4,2,1,70,0,1
170129,-83.3333333333333,4,2,1,90,0,1
170441,-83.3333333333333,4,2,1,90,0,1
170546,-83.3333333333333,4,2,1,90,0,1
170650,-83.3333333333333,4,2,1,70,0,1
170754,-83.3333333333333,4,2,1,90,0,1
171483,-83.3333333333333,4,2,1,90,0,1
171587,-83.3333333333333,4,2,1,70,0,1
171796,-83.3333333333333,4,2,1,90,0,1
172316,-83.3333333333333,4,2,1,90,0,1
172420,-62.5,4,2,1,90,0,1
173254,-83.3333333333333,4,2,1,90,0,1
174191,-83.3333333333333,4,2,1,70,0,1
174296,-83.3333333333333,4,2,1,90,0,1
174712,-100,4,2,1,90,0,1
174921,-100,4,2,1,70,0,1
175025,-100,4,2,1,90,0,1
175441,-100,4,2,1,90,0,1
175546,-100,4,2,1,90,0,1
175754,-83.3333333333333,4,2,1,90,0,1
176587,-83.3333333333333,4,2,1,70,0,1
176691,-83.3333333333333,4,2,1,90,0,1
177993,-83.3333333333333,4,2,1,70,0,1
178046,-83.3333333333333,4,2,1,90,0,1
180441,-83.3333333333333,4,2,1,70,0,1
180546,-83.3333333333333,4,2,1,90,0,1
180650,-83.3333333333333,4,2,1,90,0,1
180754,-83.3333333333333,4,2,1,90,0,0
180962,-83.3333333333333,4,2,1,70,0,0
183254,-133.333333333333,4,2,1,70,0,0
194087,-133.333333333333,4,2,1,70,0,0
194504,-133.333333333333,4,2,2,70,0,0
194921,-133.333333333333,4,2,1,70,0,0
195337,-133.333333333333,4,2,2,70,0,0
195754,-133.333333333333,4,2,1,70,0,0
196171,-133.333333333333,4,2,2,70,0,0
196587,-133.333333333333,4,2,1,70,0,0
196796,-133.333333333333,4,2,2,70,0,0
197212,-100,4,2,2,70,0,0
197420,-100,4,2,1,70,0,0
197837,-133.333333333333,4,2,2,70,0,0
198254,-133.333333333333,4,2,1,70,0,0
198671,-133.333333333333,4,2,2,70,0,0
199087,-133.333333333333,4,2,1,70,0,0
199504,-133.333333333333,4,2,2,70,0,0
199921,-133.333333333333,4,2,1,70,0,0
200129,-133.333333333333,4,2,2,70,0,0
200546,-100,4,2,2,70,0,0
200754,-100,4,2,1,70,0,0
201171,-133.333333333333,4,2,2,70,0,0
201587,-133.333333333333,4,2,1,70,0,0
202004,-133.333333333333,4,2,2,70,0,0
202421,-133.333333333333,4,2,1,70,0,0
202837,-133.333333333333,4,2,2,70,0,0
203254,-133.333333333333,4,2,1,70,0,0
203462,-133.333333333333,4,2,2,70,0,0
204087,-133.333333333333,4,2,1,70,0,0
204504,-133.333333333333,4,2,2,70,0,0
204921,-133.333333333333,4,2,1,70,0,0
205337,-133.333333333333,4,2,2,70,0,0
205754,-133.333333333333,4,2,1,70,0,0
206171,-133.333333333333,4,2,2,70,0,0
206587,-133.333333333333,4,2,1,70,0,0
206796,-133.333333333333,4,2,2,70,0,0
207004,-133.333333333333,4,2,1,70,0,0
207421,-100,4,2,1,80,0,1
208150,-100,4,2,1,70,0,1
208254,-100,4,2,1,80,0,1
208358,-100,4,2,1,70,0,1
208462,-100,4,2,1,80,0,1
208775,-100,4,2,1,70,0,1
208879,-100,4,2,1,80,0,1
209087,-200,4,2,1,80,0,1
209191,-100,4,2,1,70,0,1
209296,-100,4,2,1,80,0,1
209921,-100,4,2,1,70,0,1
210025,-100,4,2,1,80,0,1
210441,-100,4,2,1,70,0,1
210546,-100,4,2,1,80,0,1
211171,-133.333333333333,4,2,1,80,0,1
211587,-133.333333333333,4,2,1,70,0,1
211691,-133.333333333333,4,2,1,80,0,1
212108,-133.333333333333,4,2,1,70,0,1
212212,-133.333333333333,4,2,1,80,0,1
214816,-133.333333333333,4,2,1,70,0,1
214921,-133.333333333333,4,2,1,80,0,1
215858,-133.333333333333,4,2,1,70,0,1
215962,-133.333333333333,4,2,1,80,0,1
216379,-1000,4,2,1,80,0,1
216796,-66.6666666666667,4,2,1,80,0,1
216900,-66.6666666666667,4,2,1,70,0,1
217004,-100,4,2,1,80,0,1
217108,-100,4,2,1,70,0,1
217212,-200,4,2,1,80,0,1
217421,-1000,4,2,1,80,0,1
217837,-100,4,2,1,80,0,1
218150,-100,4,2,1,70,0,1
218254,-100,4,2,1,80,0,1
218775,-100,4,2,1,70,0,1
218879,-66.6666666666667,4,2,1,80,0,1
219035,-66.6666666666667,4,2,1,70,0,1
219087,-100,4,2,1,80,0,1
219990,-100,4,2,1,70,0,1
220129,-100,4,2,1,80,0,1
220198,-100,4,2,1,70,0,1
220337,-100,4,2,1,80,0,1
220407,-100,4,2,1,70,0,1
220546,-100,4,2,1,80,0,1
220615,-100,4,2,1,70,0,1
220754,-83.3333333333333,4,2,1,80,0,1
221899,-83.3333333333333,4,2,1,70,0,1
222004,-100,4,2,1,80,0,1
222108,-100,4,2,1,70,0,1
222212,-100,4,2,1,80,0,1
222525,-100,4,2,1,70,0,1
222629,-100,4,2,1,80,0,1
223046,-1000,4,2,1,80,0,1
223671,-100,4,2,1,80,0,1
224191,-100,4,2,1,70,0,1
224296,-100,4,2,1,80,0,1
224816,-100,4,2,1,70,0,1
224921,-100,4,2,1,80,0,1
225233,-100,4,2,1,70,0,1
225337,-100,4,2,1,80,0,1
225441,-100,4,2,1,70,0,1
225546,-100,4,2,1,80,0,1
227733,-133.333333333333,4,2,1,80,0,1
228150,-133.333333333333,4,2,1,70,0,1
228254,-133.333333333333,4,2,1,80,0,1
229921,-133.333333333333,4,2,1,70,0,1
230025,-133.333333333333,4,2,1,80,0,1
230337,-250,4,2,1,80,0,1
230754,-250,4,2,1,70,0,1
231587,-1000,4,2,1,70,0,1
232004,-250,4,2,1,70,0,1
233671,-1000,4,2,1,70,0,1
234087,-222.222222222222,4,2,2,70,0,0
234088,-222.222222222222,4,2,5,70,0,0
240753,-222.222222222222,4,2,1,70,0,0
247421,-83.3333333333333,4,2,1,70,0,0
249087,-133.333333333333,4,2,1,70,0,0
249295,-83.3333333333333,4,2,2,70,0,0
250129,-83.3333333333333,4,2,1,70,0,0
250337,-1000,4,2,1,70,0,0
250754,-50,4,2,1,90,0,1
251066,-100,4,2,1,90,0,1
251379,-50,4,2,1,90,0,1
251587,-50,4,2,1,70,0,1
251796,-50,4,2,1,90,0,1
252108,-50,4,2,1,70,0,1
252212,-50,4,2,1,90,0,1
253150,-50,4,2,1,90,0,1
253254,-50,4,2,1,70,0,1
253462,-50,4,2,1,90,0,1
254296,-100,4,2,1,90,0,1
254921,-100,4,2,1,70,0,1
255025,-100,4,2,1,90,0,1
255858,-100,4,2,1,70,0,1
255962,-100,4,2,1,90,0,1
256587,-100,4,2,1,90,0,1
256691,-100,4,2,1,90,0,1
257004,-200,4,2,1,90,0,1
257525,-200,4,2,1,70,0,1
257629,-200,4,2,1,90,0,1
258254,-200,4,2,1,70,0,1
258462,-200,4,2,1,90,0,1
258775,-200,4,2,1,90,0,1
258879,-200,4,2,1,90,0,1
259504,-83.3333333333333,4,2,1,90,0,1
259816,-83.3333333333333,4,2,1,90,0,1
259921,-83.3333333333333,4,2,1,70,0,1
260025,-83.3333333333333,4,2,1,90,0,1
260493,-83.3333333333333,4,2,1,70,0,1
260546,-83.3333333333333,4,2,1,90,0,1
260858,-83.3333333333333,4,2,1,70,0,1
260962,-83.3333333333333,4,2,1,90,0,1
262316,-83.3333333333333,4,2,1,70,0,1
262421,-83.3333333333333,4,2,1,90,0,1
263254,-83.3333333333333,4,2,1,70,0,1
263462,-83.3333333333333,4,2,1,90,0,1
263827,-83.3333333333333,4,2,1,70,0,1
263879,-83.3333333333333,4,2,1,90,0,1
264191,-83.3333333333333,4,2,1,70,0,1
264296,-83.3333333333333,4,2,1,90,0,1
264921,-83.3333333333333,4,2,1,70,0,1
265129,-83.3333333333333,4,2,1,90,0,1
265441,-83.3333333333333,4,2,1,70,0,1
265546,-83.3333333333333,4,2,1,90,0,1
265650,-83.3333333333333,4,2,1,90,0,1
265754,-83.3333333333333,4,2,1,90,0,1
266483,-83.3333333333333,4,2,1,90,0,1
266587,-83.3333333333333,4,2,1,70,0,1
266796,-83.3333333333333,4,2,1,90,0,1
267420,-62.5,4,2,1,90,0,1
268254,-83.3333333333333,4,2,1,90,0,1
269191,-83.3333333333333,4,2,1,70,0,1
269296,-83.3333333333333,4,2,1,90,0,1
269712,-100,4,2,1,90,0,1
269921,-100,4,2,1,70,0,1
270025,-100,4,2,1,90,0,1
270754,-83.3333333333333,4,2,1,90,0,0
271587,-83.3333333333333,4,2,1,70,0,0
271691,-83.3333333333333,4,2,1,90,0,0
272993,-83.3333333333333,4,2,1,70,0,0
273046,-83.3333333333333,4,2,1,90,0,0
274087,-83.3333333333333,4,2,1,70,0,0
277421,-83.3333333333333,4,2,1,70,0,0
279087,-83.3333333333333,4,2,1,80,0,0
279400,-83.3333333333333,4,2,1,70,0,0
279504,-100,4,2,1,80,0,0
279816,-83.3333333333333,4,2,1,80,0,0
279921,-83.3333333333333,4,2,1,70,0,0
280094,-83.3333333333333,4,2,5,70,0,0
280129,-83.3333333333333,4,2,1,80,0,0
280233,-83.3333333333333,4,2,1,70,0,0
280337,-83.3333333333333,4,2,1,80,0,0
280441,-83.3333333333333,4,2,1,70,0,0
280546,-83.3333333333333,4,2,1,80,0,0
280858,-83.3333333333333,4,2,1,70,0,0
280962,-83.3333333333333,4,2,1,80,0,0
281587,-83.3333333333333,4,2,1,70,0,0
281796,-200,4,2,1,80,0,0
282004,-133.333333333333,4,2,1,80,0,0
282212,-100,4,2,1,80,0,0
283254,-100,4,2,1,70,0,0
283462,-200,4,2,1,80,0,0
283566,-200,4,2,1,70,0,0
283671,-133.333333333333,4,2,1,80,0,0
283775,-133.333333333333,4,2,1,70,0,0
283879,-100,4,2,1,80,0,0
285858,-100,4,2,1,70,0,0
285962,-100,4,2,1,80,0,0
286048,-100,4,2,5,70,0,0
286066,-100,4,2,1,80,0,0
286171,-100,4,2,1,80,0,0
286760,-100,4,2,5,70,0,0
286795,-100,4,2,1,80,0,0
286900,-100,4,2,1,70,0,0
287004,-100,4,2,1,80,0,0
287108,-100,4,2,1,70,0,0
287212,-100,4,2,1,80,0,0
287523,-100,4,2,1,70,0,0
287628,-100,4,2,1,80,0,0
288254,-100,4,2,1,70,0,0
288462,-100,4,2,1,80,0,0
288566,-100,4,2,1,70,0,0
288671,-100,4,2,1,80,0,0
288775,-100,4,2,1,70,0,0
288879,-100,4,2,1,80,0,0
289921,-100,4,2,1,70,0,0
290094,-100,4,2,5,70,0,0
290129,-100,4,2,1,80,0,0
290233,-100,4,2,1,80,0,0
290858,-100,4,2,1,70,0,0
290962,-100,4,2,1,80,0,0
291588,-100,4,2,1,70,0,0
291692,-100,4,2,1,80,0,0
294087,-100,4,2,1,5,0,0

[Colours]
Combo1 : 162,208,255
Combo2 : 255,176,176
Combo3 : 255,198,226
Combo4 : 255,38,147
Combo5 : 255,183,111
Combo6 : 255,255,185
Combo7 : 213,170,255

[HitObjects]
216,33,14087,38,0,L|237:141,1,77.5,4|0,3:2|0:0,0:0:0:0:
103,171,14296,1,2,0:0:0:0:
161,147,14400,1,2,3:3:0:0:
206,189,14504,2,0,L|172:376,1,155,8|0,1:2|3:3,0:0:0:0:
54,237,14816,1,2,0:0:0:0:
134,251,14921,86,0,L|343:215,1,155,0|0,0:0|3:3,0:0:0:0:
308,79,15233,1,0,0:0:0:0:
297,69,15337,6,0,L|275:171,1,77.5,8|0,1:2|0:0,0:0:0:0:
124,16,15546,2,0,L|221:33,1,77.5
193,119,15754,2,0,L|215:221,1,77.5,0|0,3:3|0:0,0:0:0:0:
227,285,15962,85,2,0:0:0:0:
363,300,16066,1,2,3:3:0:0:
379,164,16171,1,10,1:2:0:0:
372,157,16379,5,2,3:3:0:0:
488,182,16483,1,2,0:0:0:0:
512,66,16587,1,2,0:0:0:0:
93,256,16796,86,0,P|103:232|124:214,1,38.75,2|0,3:3|0:0,0:0:0:0:
178,170,17004,6,0,P|159:143|151:110,1,58.1250022172929,10|0,1:2|0:0,0:0:0:0:
148,41,17212,86,0,P|105:44|62:31,1,77.5,2|0,0:0|0:0,0:0:0:0:
0,0,17421,5,0,3:3:0:0:
0,0,17733,85,0,3:3:0:0:
0,12,17837,2,0,L|16:115,1,77.5,8|0,1:2|0:0,0:0:0:0:
223,161,18046,5,2,3:3:0:0:
106,144,18150,1,2,0:0:0:0:
90,262,18254,1,2,0:0:0:0:
419,256,18462,86,0,P|408:232|387:214,1,38.75,2|0,3:3|0:0,0:0:0:0:
334,170,18671,6,0,P|352:143|360:110,1,58.1250022172929,10|0,1:2|0:0,0:0:0:0:
364,41,18879,86,0,P|407:44|450:31,1,77.5
512,0,19087,5,2,3:3:0:0:
491,77,19191,1,2,0:0:0:0:
453,148,19296,1,2,0:0:0:0:
399,207,19400,1,2,3:3:0:0:
333,252,19504,1,10,1:2:0:0:
258,280,19608,1,2,0:0:0:0:
178,290,19712,1,2,3:3:0:0:
98,280,19816,1,2,0:0:0:0:
139,199,19921,85,2,0:0:0:0:
193,205,20025,1,2,0:0:0:0:
247,199,20129,1,2,3:3:0:0:
298,179,20233,1,2,0:0:0:0:
343,149,20337,1,10,1:2:0:0:
380,109,20441,1,2,0:0:0:0:
406,60,20546,1,2,0:0:0:0:
420,8,20650,1,2,0:0:0:0:
337,14,20754,6,0,L|229:42,1,77.5,4|0,3:2|0:0,0:0:0:0:
343,149,20962,2,0,L|267:168,1,77.5,2|0,0:0|3:3,0:0:0:0:
349,278,21171,2,0,L|273:297,1,77.5,8|0,1:2|0:0,0:0:0:0:
131,173,21379,85,2,3:3:0:0:
129,160,21483,1,2,0:0:0:0:
190,100,21587,6,0,B|227:127|227:127|188:306,1,155,0|0,0:0|3:3,0:0:0:0:
109,78,21900,1,2,0:0:0:0:
96,75,22004,86,0,B|67:49|67:49|80:11,1,77.5,8|0,1:2|0:0,0:0:0:0:
190,100,22212,2,0,L|317:119,1,77.5
404,171,22421,5,2,3:3:0:0:
386,231,22525,1,2,0:0:0:0:
367,291,22629,1,2,0:0:0:0:
348,354,22733,85,2,3:3:0:0:
304,307,22837,1,10,1:2:0:0:
261,262,22941,1,2,0:0:0:0:
216,214,23046,5,2,3:3:0:0:
278,198,23150,1,2,0:0:0:0:
338,184,23254,1,2,0:0:0:0:
360,287,23462,85,2,3:3:0:0:
306,300,23566,1,2,0:0:0:0:
267,258,23671,5,10,1:2:0:0:
284,204,23775,1,2,0:0:0:0:
338,191,23879,85,2,0:0:0:0:
376,233,23983,1,2,0:0:0:0:
322,245,24087,5,2,3:3:0:0:
211,221,24400,85,0,3:3:0:0:
203,230,24504,2,0,L|217:309,1,77.5,8|0,1:2|0:0,0:0:0:0:
311,104,24712,1,2,3:3:0:0:
335,162,24816,1,2,0:0:0:0:
293,207,24921,2,0,L|106:173,1,155,0|0,0:0|3:3,0:0:0:0:
87,98,25233,1,2,0:0:0:0:
150,37,25337,6,0,B|176:87|176:87|114:246,1,155,8|0,1:2|0:0,0:0:0:0:
0,123,25650,1,2,0:0:0:0:
11,113,25754,86,0,L|114:94,1,77.5,0|0,3:3|0:0,0:0:0:0:
248,46,25962,5,2,0:0:0:0:
230,124,26066,1,2,3:3:0:0:
210,199,26171,1,10,1:2:0:0:
427,108,26379,85,2,3:3:0:0:
497,141,26483,1,2,0:0:0:0:
512,217,26587,1,2,0:0:0:0:
469,282,26691,1,10,1:2:0:0:
399,247,26796,1,2,3:3:0:0:
321,242,26900,1,2,0:0:0:0:
247,266,27004,1,2,3:3:0:0:
210,199,27108,1,2,3:3:0:0:
230,124,27212,1,2,3:3:0:0:
303,97,27316,1,2,3:3:0:0:
361,168,27421,5,6,3:2:0:0:
256,192,39087,12,8,40337,1:2:0:0:
140,85,40754,53,4,3:2:0:0:
129,0,41066,21,2,3:3:0:0:
151,170,41171,1,2,0:0:0:0:
158,181,41379,70,0,L|145:264,1,77.5,0|0,3:3|0:0,0:0:0:0:
160,253,42004,22,0,L|168:195,1,58.1250022172929,8|0,1:2|0:0,0:0:0:0:
256,240,42212,69,0,0:0:0:0:
372,85,42421,21,0,3:3:0:0:
383,0,42733,69,2,3:3:0:0:
361,170,42837,1,2,0:0:0:0:
354,181,43046,22,0,L|367:264,1,77.5,0|0,3:3|0:0,0:0:0:0:
352,253,43671,70,0,L|344:195,1,58.1250022172929,8|0,1:2|0:0,0:0:0:0:
256,240,43879,21,0,0:0:0:0:
85,295,44087,69,0,3:3:0:0:
0,306,44400,21,2,3:3:0:0:
170,284,44504,1,2,0:0:0:0:
179,277,44712,70,0,L|256:289,1,77.5,0|0,3:3|0:0,0:0:0:0:
249,277,45337,22,0,L|191:269,1,58.1250022172929,8|0,1:2|0:0,0:0:0:0:
229,194,45546,69,0,0:0:0:0:
452,367,45754,21,0,3:3:0:0:
499,287,45962,1,0,0:0:0:0:
441,215,46171,1,0,0:0:0:0:
354,250,46379,1,0,3:3:0:0:
361,343,46587,1,0,0:0:0:0:
384,329,46796,69,2,0:0:0:0:
379,264,46900,1,2,0:0:0:0:
438,240,47004,1,10,1:2:0:0:
479,289,47108,1,2,0:0:0:0:
446,344,47212,1,2,0:0:0:0:
256,128,47421,21,0,3:3:0:0:
510,38,47629,69,2,0:0:0:0:
503,86,47733,1,2,0:0:0:0:
497,134,47837,1,2,0:0:0:0:
491,182,47942,1,2,0:0:0:0:
484,231,48046,1,2,0:0:0:0:
256,128,48254,21,0,0:0:0:0:
403,195,48462,1,2,3:0:0:0:
406,207,48566,1,2,3:0:0:0:
338,250,48671,2,0,L|317:365,1,116.250004434586,8|0,1:2|0:0,0:0:0:0:
35,283,49088,69,0,3:3:0:0:
2,38,49296,21,2,0:0:0:0:
9,86,49400,1,2,0:0:0:0:
15,134,49504,1,2,0:0:0:0:
21,182,49609,1,2,0:0:0:0:
28,231,49713,1,2,0:0:0:0:
256,80,49921,69,0,0:0:0:0:
109,195,50129,1,2,3:0:0:0:
106,207,50233,1,2,3:0:0:0:
174,250,50338,2,0,L|195:365,1,116.250004434586,8|0,1:2|0:0,0:0:0:0:
299,378,50754,21,0,3:3:0:0:
411,109,50962,69,2,0:0:0:0:
434,153,51066,1,2,0:0:0:0:
414,201,51171,1,2,0:0:0:0:
364,214,51275,1,2,0:0:0:0:
323,183,51379,1,2,0:0:0:0:
320,132,51483,1,2,0:0:0:0:
359,98,51587,1,2,0:0:0:0:
480,251,51796,21,2,3:0:0:0:
483,263,51900,1,2,3:0:0:0:
417,308,52004,2,0,L|303:286,1,116.250004434586,8|0,1:2|0:0,0:0:0:0:
213,378,52421,69,0,3:3:0:0:
101,109,52629,21,2,0:0:0:0:
78,153,52733,1,2,0:0:0:0:
98,201,52838,1,2,0:0:0:0:
148,214,52942,1,2,0:0:0:0:
189,183,53046,1,2,0:0:0:0:
192,132,53150,1,2,0:0:0:0:
153,98,53254,1,2,0:0:0:0:
32,251,53462,69,2,3:0:0:0:
29,263,53566,1,2,3:0:0:0:
95,308,53671,2,0,L|209:286,1,116.250004434586,8|0,1:2|0:0,0:0:0:0:
318,100,54087,5,6,1:2:0:0:
394,0,54295,1,2,0:0:0:0:
512,43,54503,1,2,0:0:0:0:
507,168,54920,1,2,1:2:0:0:
387,203,55337,1,2,0:0:0:0:
97,261,55753,5,2,1:2:0:0:
18,269,55962,1,2,0:0:0:0:
4,347,56170,1,2,0:0:0:0:
74,384,56587,1,2,1:2:0:0:
131,330,57003,1,2,0:0:0:0:
194,100,57420,85,2,1:2:0:0:
118,0,57628,1,2,0:0:0:0:
0,43,57837,1,2,0:0:0:0:
5,168,58253,1,2,1:2:0:0:
125,203,58670,1,2,0:0:0:0:
343,384,59087,5,2,1:2:0:0:
505,336,59295,1,2,0:0:0:0:
511,168,59503,1,2,0:0:0:0:
352,109,59920,1,2,1:2:0:0:
250,245,60337,1,2,0:0:0:0:
52,0,60754,86,0,P|-10:38|9:75,1,116.250004434586,4|0,3:2|0:0,0:0:0:0:
91,73,61066,6,0,B|116:82|148:96|117:107|149:130|190:138,1,116.250004434586,0|0,3:3|0:0,0:0:0:0:
263,170,61379,86,0,P|236:240|220:368,1,174.375006651879,0|0,3:3|0:0,0:0:0:0:
220,337,61796,5,0,0:0:0:0:
479,200,62004,2,0,L|468:127,1,58.1250022172929,8|0,1:2|0:0,0:0:0:0:
342,71,62212,85,2,0:0:0:0:
380,0,62316,1,2,0:0:0:0:
460,0,62421,6,0,P|522:38|503:75,1,116.250004434586,0|0,3:3|0:0,0:0:0:0:
421,73,62733,86,0,B|396:82|364:96|395:107|363:130|322:138,1,116.250004434586,0|0,3:3|0:0,0:0:0:0:
249,170,63046,6,0,P|276:240|292:368,1,174.375006651879,0|0,3:3|0:0,0:0:0:0:
291,337,63462,85,0,0:0:0:0:
33,200,63671,2,0,L|44:127,1,58.1250022172929,8|0,1:2|0:0,0:0:0:0:
0,37,63879,5,2,0:0:0:0:
72,0,63983,1,2,0:0:0:0:
129,60,64087,85,2,3:3:0:0:
181,337,64504,1,0,3:3:0:0:
458,285,64921,1,0,3:3:0:0:
406,8,65337,1,0,3:3:0:0:
512,341,65754,5,0,3:3:0:0:
352,202,66171,1,0,3:3:0:0:
141,223,66587,1,0,3:3:0:0:
0,384,67004,1,0,3:3:0:0:
19,270,67212,85,0,3:3:0:0:
9,192,67316,1,0,3:3:0:0:
0,113,67421,1,4,3:2:0:0:
256,192,67525,12,0,69087,0:0:0:0:
420,97,69921,6,0,L|416:52,1,46.5
339,95,70754,54,0,L|335:46,1,29.0625011086464,4|0,3:2|0:0,0:0:0:0:
201,3,70962,85,2,0:0:0:0:
155,62,71066,1,2,0:3:0:0:
173,135,71171,1,10,1:2:0:0:
240,166,71275,1,2,0:0:0:0:
258,239,71379,1,2,3:3:0:0:
212,298,71483,1,2,0:0:0:0:
183,219,71587,6,0,P|286:195|367:188,1,185.999994323731,0|4,0:0|3:3,0:0:0:0:
477,60,71900,1,2,0:0:0:0:
397,24,72004,86,0,P|335:40|347:129,1,139.499995742798,8|0,1:2|0:0,0:0:0:0:
338,111,72212,2,0,P|392:106|424:133,1,92.9999971618653,2|0,0:0|0:0,0:0:0:0:
511,212,72421,5,6,3:3:0:0:
437,200,72525,1,2,0:0:0:0:
365,188,72629,1,2,0:0:0:0:
330,255,72733,85,2,0:3:0:0:
257,242,72837,1,10,0:2:0:0:
184,229,72941,1,2,0:0:0:0:
149,297,73046,5,2,3:3:0:0:
76,283,73150,1,2,0:0:0:0:
3,271,73254,1,2,0:0:0:0:
220,353,73462,85,6,3:3:0:0:
285,306,73566,1,2,0:0:0:0:
231,249,73671,1,10,1:2:0:0:
296,203,73775,1,2,0:0:0:0:
242,146,73879,1,2,0:0:0:0:
307,99,73983,1,2,0:0:0:0:
253,42,74087,1,6,3:1:0:0:
218,360,74296,5,2,0:0:0:0:
286,311,74400,1,2,3:3:0:0:
229,251,74504,1,10,1:2:0:0:
298,203,74608,1,2,0:0:0:0:
241,143,74712,1,2,3:3:0:0:
309,93,74816,1,2,0:0:0:0:
252,33,74921,1,6,0:1:0:0:
216,366,75129,85,2,3:3:0:0:
287,315,75233,1,2,0:0:0:0:
228,253,75337,1,10,1:2:0:0:
299,203,75441,1,2,0:0:0:0:
240,140,75546,1,2,0:0:0:0:
311,89,75650,1,2,0:0:0:0:
252,27,75754,1,6,3:1:0:0:
385,272,75962,5,2,0:0:0:0:
380,284,76066,1,2,3:1:0:0:
375,296,76171,2,0,L|283:281,1,77.5,8|0,1:2|0:0,0:0:0:0:
225,234,76379,85,6,3:1:0:0:
239,198,76483,1,2,0:0:0:0:
218,164,76587,1,2,0:0:0:0:
180,160,76691,1,2,0:0:0:0:
152,187,76796,1,6,3:3:0:0:
156,225,76900,1,2,0:0:0:0:
180,299,77004,6,0,L|165:409,1,77.5,8|0,1:2|0:0,0:0:0:0:
296,146,77212,86,0,L|399:103,1,77.5,2|0,0:0|0:0,0:0:0:0:
106,121,77421,6,0,L|17:52,1,77.5,4|0,3:2|0:0,0:0:0:0:
203,126,77629,85,2,0:0:0:0:
253,250,77733,1,2,3:3:0:0:
118,233,77837,1,10,1:2:0:0:
193,200,78046,5,2,3:3:0:0:
195,212,78150,1,2,0:0:0:0:
181,253,78254,85,2,0:0:0:0:
227,236,78358,1,2,0:0:0:0:
275,227,78462,1,6,3:3:0:0:
324,225,78566,1,2,0:0:0:0:
373,231,78671,6,0,L|385:174,1,38.75,8|0,1:2|0:0,0:0:0:0:
155,132,78879,86,0,L|143:75,1,38.75
328,78,79087,5,6,3:3:0:0:
307,149,79191,1,2,0:0:0:0:
285,220,79296,1,2,0:0:0:0:
230,164,79400,85,2,3:3:0:0:
178,109,79504,1,10,1:2:0:0:
127,55,79608,1,2,0:0:0:0:
202,37,79712,5,2,3:3:0:0:
275,19,79816,1,2,0:0:0:0:
347,2,79921,1,2,0:0:0:0:
315,79,80129,85,6,3:3:0:0:
297,138,80233,1,2,0:0:0:0:
237,152,80337,5,10,1:2:0:0:
194,106,80441,1,2,0:0:0:0:
211,48,80546,85,2,0:0:0:0:
272,34,80650,1,2,0:0:0:0:
254,92,80754,5,6,3:3:0:0:
409,158,81066,85,2,3:3:0:0:
411,173,81171,2,0,P|363:241|250:236,1,185.999994323731,8|0,1:2|3:3,0:0:0:0:
400,308,81483,1,2,0:0:0:0:
468,342,81587,6,0,P|413:360|380:406,1,92.9999971618653,2|0,0:0|0:0,0:0:0:0:
330,152,81796,86,0,P|328:196|359:231,1,92.9999971618653,4|0,3:3|0:0,0:0:0:0:
324,301,82004,6,0,P|405:265|471:251,1,139.499995742798,8|0,1:2|0:0,0:0:0:0:
460,250,82212,2,0,P|492:229|485:180,1,92.9999971618653,2|0,0:0|0:0,0:0:0:0:
212,201,82421,85,6,3:3:0:0:
160,133,82525,5,2,0:0:0:0:
172,49,82629,85,2,0:0:0:0:
238,1,82733,5,2,3:3:0:0:
320,11,82837,85,10,1:2:0:0:
371,77,82941,5,2,0:0:0:0:
361,160,83046,85,2,3:3:0:0:
295,211,83150,5,2,0:0:0:0:
216,212,83254,85,2,0:0:0:0:
161,252,83358,5,10,1:2:0:0:
154,321,83462,85,6,3:3:0:0:
194,374,83566,5,2,0:0:0:0:
263,384,83671,85,10,1:2:0:0:
317,342,83775,5,2,0:0:0:0:
327,275,83879,85,10,1:2:0:0:
285,220,83983,5,2,0:0:0:0:
238,295,84087,85,6,3:2:0:0:
242,0,84400,5,2,3:3:0:0:
235,14,84504,2,0,P|250:84|304:89,1,92.9999971618653,8|0,1:2|0:0,0:0:0:0:
437,3,84712,85,2,3:3:0:0:
432,81,84816,1,2,0:0:0:0:
358,103,84921,2,0,P|239:130|170:158,1,185.999994323731,0|4,0:0|3:3,0:0:0:0:
46,68,85233,1,2,0:0:0:0:
91,0,85337,6,0,P|129:64|99:127,1,139.499995742798,8|0,1:2|0:0,0:0:0:0:
107,127,85546,2,0,P|101:172|136:218,1,92.9999971618653
469,333,85754,85,6,3:3:0:0:
397,297,85858,1,2,0:0:0:0:
381,220,85962,1,2,0:0:0:0:
385,139,86066,5,2,3:3:0:0:
312,105,86171,1,10,1:2:0:0:
263,168,86275,1,2,0:0:0:0:
304,236,86379,85,2,3:3:0:0:
320,313,86483,1,2,0:0:0:0:
279,379,86587,1,2,0:0:0:0:
65,171,86796,5,6,0:3:0:0:
134,211,86900,1,2,0:0:0:0:
188,152,87004,1,10,1:2:0:0:
257,192,87108,1,2,0:0:0:0:
311,133,87212,1,2,0:0:0:0:
380,173,87316,1,2,0:0:0:0:
434,114,87421,1,6,3:1:0:0:
59,170,87629,85,2,0:0:0:0:
130,211,87733,1,2,3:3:0:0:
185,150,87837,1,10,1:2:0:0:
257,192,87941,1,2,0:0:0:0:
312,131,88046,1,2,3:3:0:0:
383,172,88150,1,2,0:0:0:0:
439,111,88254,1,6,0:1:0:0:
53,169,88462,5,2,3:3:0:0:
126,212,88566,1,2,0:0:0:0:
183,149,88671,1,10,1:2:0:0:
257,192,88775,1,2,0:0:0:0:
314,129,88879,1,2,0:0:0:0:
387,171,88983,1,2,0:0:0:0:
444,109,89087,86,0,L|406:359,1,248,4|0,3:2|0:0,0:0:0:0:
413,360,89400,6,0,L|163:322,1,248,4|0,3:2|0:0,0:0:0:0:
162,329,89712,86,0,L|200:79,1,248,4|0,3:2|0:0,0:0:0:0:
145,28,90025,1,2,0:0:0:0:
119,101,90129,1,2,3:3:0:0:
171,159,90233,1,2,0:0:0:0:
248,145,90337,6,0,P|358:111|461:104,1,185.999994323731,12|0,1:2|0:0,0:0:0:0:
377,25,90650,1,2,0:0:0:0:
367,15,90754,2,0,P|328:54|352:107,1,92.9999971618653,4|0,3:2|0:0,0:0:0:0:
482,203,90962,85,2,0:0:0:0:
497,275,91066,1,2,3:3:0:0:
512,348,91171,1,10,1:2:0:0:
473,207,91379,6,0,L|392:196,1,77.5,0|0,3:3|0:0,0:0:0:0:
225,234,91587,85,2,0:0:0:0:
239,198,91691,1,2,0:0:0:0:
218,164,91796,1,6,3:3:0:0:
180,160,91900,1,2,0:0:0:0:
152,187,92004,1,10,1:2:0:0:
156,225,92108,1,2,0:0:0:0:
180,299,92212,6,0,L|165:409,1,77.5
77,350,92421,86,0,L|317:308,1,185.999994323731,4|0,3:3|0:0,0:0:0:0:
274,172,92733,1,0,3:3:0:0:
273,159,92837,6,0,P|239:201|264:258,1,92.9999971618653,8|0,1:2|0:0,0:0:0:0:
451,324,93046,85,2,3:3:0:0:
403,262,93150,1,2,0:0:0:0:
329,284,93254,2,0,P|345:348|345:402,1,92.9999971618653
372,174,93462,6,0,P|435:192|482:219,1,92.9999971618653,4|0,3:3|0:0,0:0:0:0:
299,82,93671,86,0,P|346:36|393:9,1,92.9999971618653,8|0,1:2|0:0,0:0:0:0:
183,99,93879,6,0,P|167:35|167:-18,1,92.9999971618653
256,192,94087,85,4,3:3:0:0:
25,313,94296,5,10,1:2:0:0:
37,309,94400,1,2,3:3:0:0:
61,384,94504,2,0,L|229:363,1,139.499995742798,8|0,1:2|0:0,0:0:0:0:
206,361,94712,2,0,L|323:346,1,92.9999971618653,0|8,3:3|1:2,0:0:0:0:
170,132,94921,85,2,3:3:0:0:
182,136,95025,1,10,1:2:0:0:
314,106,95129,5,2,3:3:0:0:
311,118,95233,1,2,0:0:0:0:
340,250,95337,85,10,1:2:0:0:
329,247,95441,1,10,1:2:0:0:
196,276,95546,5,10,1:2:0:0:
200,265,95650,1,10,1:2:0:0:
256,192,95754,85,6,3:3:0:0:
256,192,95858,12,4,97421,3:2:0:0:
327,384,97733,69,0,3:3:0:0:
321,368,97837,2,0,L|342:232,1,77.5,8|0,1:2|0:0,0:0:0:0:
205,233,98046,1,2,3:3:0:0:
263,257,98150,1,2,0:0:0:0:
308,215,98254,2,0,L|274:28,1,155,0|0,0:0|3:3,0:0:0:0:
429,126,98566,1,2,0:0:0:0:
436,115,98671,86,0,L|545:102,1,77.5,8|0,1:2|0:0,0:0:0:0:
414,232,98879,6,0,L|523:219,1,77.5
392,349,99087,86,0,L|501:336,1,77.5,0|0,3:3|0:0,0:0:0:0:
128,362,99296,5,2,0:0:0:0:
139,302,99400,1,2,3:3:0:0:
151,241,99504,1,10,1:2:0:0:
211,253,99608,1,2,0:0:0:0:
271,264,99712,1,2,3:3:0:0:
260,324,99816,1,2,0:0:0:0:
248,384,99921,1,2,0:0:0:0:
247,79,100129,86,0,P|244:105|251:130,1,38.75,0|0,3:3|0:0,0:0:0:0:
170,140,100337,6,0,P|140:154|117:177,1,58.1250022172929,8|0,1:2|0:0,0:0:0:0:
69,112,100546,86,0,P|36:90|0:81,1,77.5
13,1,100754,5,0,3:3:0:0:
13,1,101066,85,0,3:3:0:0:
18,8,101171,2,0,L|121:24,1,77.5,8|0,1:2|0:0,0:0:0:0:
255,15,101379,5,2,3:3:0:0:
336,7,101483,1,2,0:0:0:0:
417,0,101587,1,2,0:0:0:0:
265,305,101796,86,0,P|267:278|260:253,1,38.75,0|0,3:3|0:0,0:0:0:0:
342,244,102004,6,0,P|371:229|394:206,1,58.1250022172929,8|0,1:2|0:0,0:0:0:0:
443,272,102212,86,0,P|476:294|512:303,1,77.5
512,384,102421,5,2,3:3:0:0:
435,377,102525,1,2,0:0:0:0:
365,343,102629,1,2,0:0:0:0:
312,288,102733,1,2,3:3:0:0:
281,217,102837,1,10,1:2:0:0:
276,140,102941,1,2,0:0:0:0:
299,67,103046,1,2,3:3:0:0:
346,5,103150,1,2,0:0:0:0:
422,43,103254,85,2,0:0:0:0:
397,98,103358,1,2,0:0:0:0:
356,143,103462,1,2,3:3:0:0:
301,170,103566,1,2,0:0:0:0:
241,177,103671,1,10,1:2:0:0:
182,163,103775,1,2,0:0:0:0:
130,128,103879,1,2,0:0:0:0:
95,79,103983,1,2,0:0:0:0:
178,61,104087,5,6,3:2:0:0:
40,346,104400,85,0,3:3:0:0:
45,357,104504,2,0,L|155:336,1,77.5,8|0,1:2|0:0,0:0:0:0:
271,382,104712,5,2,3:3:0:0:
258,384,104816,1,2,0:0:0:0:
198,323,104921,86,0,B|225:286|225:286|404:325,1,155,0|0,0:0|3:3,0:0:0:0:
487,228,105233,1,2,0:0:0:0:
485,215,105337,6,0,B|459:186|459:186|422:198,1,77.5,8|0,1:2|0:0,0:0:0:0:
424,279,105546,2,0,L|448:404,1,77.5
351,383,105754,85,2,3:3:0:0:
289,373,105858,1,2,0:0:0:0:
227,363,105962,1,2,0:0:0:0:
161,353,106066,5,2,3:3:0:0:
202,302,106171,1,10,1:2:0:0:
240,254,106275,1,2,0:0:0:0:
180,246,106379,85,2,3:3:0:0:
116,238,106483,1,2,0:0:0:0:
55,233,106587,1,2,0:0:0:0:
59,361,106796,5,2,3:3:0:0:
113,352,106900,1,2,0:0:0:0:
167,346,107004,85,10,1:2:0:0:
202,302,107108,1,2,0:0:0:0:
235,261,107212,5,2,0:0:0:0:
288,251,107316,1,2,0:0:0:0:
342,242,107421,86,0,L|320:73,1,155,0|0,3:3|0:0,0:0:0:0:
423,212,107733,5,0,3:3:0:0:
431,221,107837,2,0,L|417:300,1,77.5,8|0,1:2|0:0,0:0:0:0:
342,242,108046,1,2,3:3:0:0:
316,186,108150,1,2,0:0:0:0:
358,141,108254,2,0,L|545:175,1,155,0|0,0:0|3:3,0:0:0:0:
433,0,108566,1,2,0:0:0:0:
349,0,108671,86,0,B|323:50|323:50|385:209,1,155,8|0,1:2|0:0,0:0:0:0:
456,110,108983,1,2,0:0:0:0:
443,120,109087,6,0,L|424:223,1,77.5,0|0,3:3|0:0,0:0:0:0:
295,201,109296,85,2,0:0:0:0:
309,278,109400,1,2,3:3:0:0:
318,355,109504,1,10,1:2:0:0:
167,114,109712,5,2,3:3:0:0:
139,186,109816,1,10,1:2:0:0:
116,258,109921,1,2,0:0:0:0:
86,329,110025,1,10,1:2:0:0:
162,338,110129,1,2,3:3:0:0:
240,347,110233,1,2,0:0:0:0:
318,355,110337,1,10,1:2:0:0:
309,278,110441,1,2,3:3:0:0:
295,201,110546,1,10,1:2:0:0:
282,124,110650,1,2,3:3:0:0:
221,176,110754,85,2,0:0:0:0:
304,92,122421,6,0,L|317:182,1,77.5
462,124,123046,85,2,0:0:0:0:
470,140,123150,1,2,0:0:0:0:
461,153,123254,2,0,L|118:108,1,310
363,316,123879,1,2,0:0:0:0:
248,245,124087,6,0,L|381:219,1,116.250004434586,4|0,3:2|0:0,0:0:0:0:
497,130,124504,1,8,1:2:0:0:
446,66,124712,5,2,0:0:0:0:
412,106,124816,1,2,0:0:0:0:
417,158,124921,1,2,3:3:0:0:
442,243,125129,69,2,0:0:0:0:
393,0,125337,1,8,1:2:0:0:
442,243,125546,2,0,L|309:265,1,116.250004434586,2|0,0:0|3:3,0:0:0:0:
264,205,125962,21,2,0:0:0:0:
220,0,126171,1,8,1:2:0:0:
264,205,126379,2,0,L|151:223,1,92.9999971618653,2|0,0:0|3:3,0:0:0:0:
100,175,126796,69,2,0:0:0:0:
62,0,127004,1,8,1:2:0:0:
100,175,127212,2,0,L|4:190,1,69.749997871399,2|0,0:0|3:3,0:0:0:0:
273,340,127837,21,8,1:2:0:0:
301,167,128254,1,0,3:3:0:0:
475,195,128671,1,8,1:2:0:0:
446,368,129087,1,0,3:3:0:0:
288,330,129296,69,2,0:0:0:0:
311,181,129504,1,10,1:2:0:0:
460,205,129712,1,2,0:0:0:0:
436,353,129921,1,2,3:3:0:0:
324,302,130129,21,2,0:0:0:0:
338,222,130233,1,2,0:0:0:0:
417,237,130337,1,10,1:2:0:0:
403,316,130441,1,0,0:0:0:0:
371,269,130546,69,2,0:2:0:0:
0,81,130754,21,0,3:3:0:0:
298,16,130962,1,2,0:0:0:0:
0,81,131171,1,8,1:2:0:0:
201,94,131379,69,2,0:0:0:0:
201,94,131483,1,2,0:0:0:0:
201,94,131587,1,2,3:3:0:0:
435,146,131796,1,2,0:0:0:0:
201,94,132004,2,0,L|218:216,1,116.250004434586,8|0,1:2|0:0,0:0:0:0:
309,201,132421,21,2,3:3:0:0:
128,241,132629,1,2,0:0:0:0:
309,201,132837,2,0,L|295:295,1,92.9999971618653,8|0,1:2|0:0,0:0:0:0:
213,315,133254,69,2,3:3:0:0:
360,347,133462,1,2,0:0:0:0:
213,315,133671,2,0,L|223:391,1,69.749997871399,8|0,1:2|0:0,0:0:0:0:
426,16,134087,21,2,3:3:0:0:
366,100,134296,69,2,0:0:0:0:
407,104,134400,1,2,0:0:0:0:
449,111,134504,1,8,1:2:0:0:
449,111,134712,21,2,0:0:0:0:
444,154,134816,1,2,0:0:0:0:
437,194,134920,1,2,3:3:0:0:
437,194,135129,69,2,0:0:0:0:
394,189,135233,1,2,0:0:0:0:
353,183,135337,1,8,1:2:0:0:
353,183,135545,21,2,0:0:0:0:
358,140,135649,1,2,0:0:0:0:
366,100,135753,1,2,3:3:0:0:
194,100,135962,69,2,0:0:0:0:
136,105,136066,1,2,0:0:0:0:
79,114,136170,1,8,1:2:0:0:
79,114,136378,21,2,0:0:0:0:
86,173,136482,1,2,0:0:0:0:
95,228,136586,1,2,3:3:0:0:
95,228,136795,69,2,0:0:0:0:
154,222,136899,1,2,0:0:0:0:
211,214,137003,1,8,1:2:0:0:
211,214,137211,21,2,0:0:0:0:
204,155,137315,1,2,0:0:0:0:
194,100,137421,53,6,1:2:0:0:
118,0,137629,1,2,0:0:0:0:
0,43,137837,1,2,0:0:0:0:
5,168,138254,1,2,1:2:0:0:
125,203,138671,1,2,0:0:0:0:
415,261,139087,5,2,1:2:0:0:
494,269,139296,1,2,0:0:0:0:
508,347,139504,1,2,0:0:0:0:
438,384,139921,1,2,1:2:0:0:
381,330,140337,1,2,0:0:0:0:
318,100,140754,85,2,1:2:0:0:
394,0,140962,1,2,0:0:0:0:
512,43,141171,1,2,0:0:0:0:
507,168,141587,1,2,1:2:0:0:
387,203,142004,1,2,0:0:0:0:
169,384,142421,5,2,1:2:0:0:
7,336,142629,1,2,0:0:0:0:
1,168,142837,1,2,0:0:0:0:
160,109,143254,1,2,1:2:0:0:
262,245,143671,1,2,0:0:0:0:
435,37,144087,85,2,0:0:0:0:
0,238,144921,5,2,0:0:0:0:
355,331,145754,85,2,0:0:0:0:
198,0,146587,5,2,0:0:0:0:
512,0,147421,85,2,0:0:0:0:
417,23,147837,1,2,0:0:0:0:
343,87,148254,1,2,0:0:0:0:
325,183,148671,1,2,0:0:0:0:
337,279,148879,1,2,0:0:0:0:
256,334,149087,1,2,0:0:0:0:
175,279,149296,1,2,0:0:0:0:
187,183,149504,1,2,0:0:0:0:
169,87,149921,1,2,0:0:0:0:
95,23,150337,1,2,0:0:0:0:
0,0,150754,5,2,0:0:0:0:
1,12,150858,1,2,0:0:0:0:
3,25,150962,1,2,0:0:0:0:
4,38,151066,1,2,0:0:0:0:
6,51,151171,1,2,0:0:0:0:
8,64,151275,1,2,0:0:0:0:
9,77,151379,1,2,0:0:0:0:
11,90,151483,1,2,0:0:0:0:
15,121,151587,85,0,3:0:0:0:
55,87,151691,1,0,3:0:0:0:
104,105,151796,1,0,3:0:0:0:
113,156,151900,1,0,3:0:0:0:
162,174,152004,1,0,3:0:0:0:
202,140,152108,1,0,3:0:0:0:
193,89,152212,1,0,3:0:0:0:
233,55,152316,1,0,3:0:0:0:
282,73,152421,5,0,3:0:0:0:
283,88,152525,1,0,3:0:0:0:
365,119,152629,85,0,3:0:0:0:
353,128,152733,1,0,3:0:0:0:
378,207,152837,5,8,3:0:0:0:
408,279,152941,85,8,3:0:0:0:
441,353,153046,5,8,3:0:0:0:
361,341,153150,85,8,3:0:0:0:
280,332,153254,6,0,L|286:282,1,34.8749989356995,0|8,3:3|1:2,0:0:0:0:
222,161,153566,86,0,L|249:181,1,34.8749989356995,0|8,3:3|1:2,0:0:0:0:
405,190,153879,6,0,L|372:203,2,34.8749989356995,0|8|4,3:3|1:2|3:2,0:0:0:0:
254,2,154296,37,2,0:0:0:0:
266,78,154400,1,2,3:3:0:0:
276,155,154504,1,10,1:2:0:0:
288,231,154608,1,2,0:0:0:0:
301,307,154712,1,2,3:3:0:0:
313,383,154816,1,2,0:0:0:0:
377,338,154921,6,0,P|263:340|203:398,1,185.999994323731,0|4,0:0|3:3,0:0:0:0:
146,221,155233,1,2,0:0:0:0:
64,243,155337,86,0,P|113:302|182:297,1,139.499995742798,8|0,1:2|0:0,0:0:0:0:
174,309,155546,2,0,P|140:337|131:391,1,92.9999971618653
307,166,155754,5,6,3:3:0:0:
345,99,155858,1,2,0:0:0:0:
423,114,155962,1,2,0:0:0:0:
433,192,156066,85,2,3:3:0:0:
360,226,156171,1,10,1:2:0:0:
288,260,156275,1,2,0:0:0:0:
298,339,156379,5,2,3:3:0:0:
376,353,156483,1,2,0:0:0:0:
414,284,156587,1,2,0:0:0:0:
65,153,156796,85,6,3:3:0:0:
59,73,156900,1,2,0:0:0:0:
131,108,157004,1,10,1:2:0:0:
182,47,157108,1,2,0:0:0:0:
210,123,157212,1,2,0:0:0:0:
288,116,157316,1,2,0:0:0:0:
254,189,157421,1,6,3:1:0:0:
61,155,157629,5,2,0:0:0:0:
55,74,157733,1,2,3:3:0:0:
129,109,157837,1,10,1:2:0:0:
182,47,157941,1,2,0:0:0:0:
210,125,158046,1,2,3:3:0:0:
289,118,158150,1,2,0:0:0:0:
255,192,158254,1,6,0:1:0:0:
58,158,158462,85,2,3:3:0:0:
52,75,158566,1,2,0:0:0:0:
128,111,158671,1,10,1:2:0:0:
182,47,158775,1,2,0:0:0:0:
211,127,158879,1,2,0:0:0:0:
293,120,158983,1,2,0:0:0:0:
258,196,159087,1,6,3:1:0:0:
273,26,159296,5,2,0:0:0:0:
285,31,159400,1,2,3:1:0:0:
297,36,159504,2,0,L|282:128,1,77.5,8|0,1:2|0:0,0:0:0:0:
287,234,159712,85,2,3:1:0:0:
273,198,159816,1,2,0:0:0:0:
294,164,159921,1,2,0:0:0:0:
332,160,160025,1,2,0:0:0:0:
360,187,160129,1,6,3:3:0:0:
356,225,160233,1,2,0:0:0:0:
332,299,160337,6,0,L|347:409,1,77.5,8|0,1:2|0:0,0:0:0:0:
216,146,160546,86,0,L|113:103,1,77.5,2|0,0:0|0:0,0:0:0:0:
406,121,160754,6,0,L|495:52,1,77.5,4|0,3:2|0:0,0:0:0:0:
309,126,160962,85,2,0:0:0:0:
394,233,161066,1,2,3:3:0:0:
259,250,161171,1,10,1:2:0:0:
319,200,161379,5,2,3:3:0:0:
317,212,161483,1,2,0:0:0:0:
331,253,161587,85,2,0:0:0:0:
285,236,161691,1,2,0:0:0:0:
237,227,161796,1,6,3:3:0:0:
188,225,161900,1,2,0:0:0:0:
139,231,162004,6,0,L|127:174,1,38.75,8|0,1:2|0:0,0:0:0:0:
213,367,162212,86,0,L|220:329,1,38.75
152,93,162421,5,6,3:3:0:0:
220,73,162525,1,2,0:0:0:0:
272,122,162629,1,2,0:0:0:0:
255,191,162733,85,2,3:3:0:0:
307,240,162837,1,10,1:2:0:0:
375,220,162941,1,2,0:0:0:0:
392,151,163046,5,2,3:3:0:0:
460,131,163150,1,2,0:0:0:0:
512,180,163254,1,2,0:0:0:0:
278,131,163462,85,6,3:3:0:0:
264,190,163566,1,2,0:0:0:0:
308,232,163671,1,10,1:2:0:0:
366,214,163775,1,2,0:0:0:0:
381,155,163879,1,2,0:0:0:0:
337,114,163983,1,2,0:0:0:0:
322,173,164087,5,6,3:3:0:0:
27,28,164400,85,2,3:3:0:0:
42,26,164504,2,0,P|105:69|61:191,1,185.999994323731,8|0,1:2|3:3,0:0:0:0:
237,33,164816,1,2,0:0:0:0:
324,87,164921,6,0,P|269:105|236:151,1,92.9999971618653
163,0,165129,86,0,P|149:41|170:83,1,92.9999971618653,4|0,3:3|0:0,0:0:0:0:
172,166,165337,6,0,P|208:247|222:313,1,139.499995742798,8|0,1:2|0:0,0:0:0:0:
215,304,165546,2,0,P|172:313|144:279,1,92.9999971618653
256,192,165754,85,6,3:3:0:0:
244,105,165858,5,2,0:0:0:0:
233,21,165962,85,2,0:0:0:0:
318,10,166066,5,2,3:3:0:0:
403,0,166171,85,10,1:2:0:0:
414,85,166275,5,2,0:0:0:0:
425,169,166379,85,2,3:3:0:0:
340,180,166483,5,2,0:0:0:0:
256,192,166587,85,2,0:0:0:0:
178,200,166691,5,10,1:2:0:0:
103,210,166796,85,6,3:3:0:0:
113,287,166900,5,2,0:0:0:0:
123,363,167004,85,10,1:2:0:0:
198,354,167108,5,2,0:0:0:0:
274,344,167212,85,10,1:2:0:0:
264,269,167316,5,2,0:0:0:0:
189,277,167421,85,6,3:2:0:0:
487,264,167733,5,2,3:3:0:0:
494,250,167837,2,0,P|468:186|417:195,1,92.9999971618653,8|0,1:2|0:0,0:0:0:0:
320,86,168046,85,2,3:3:0:0:
381,33,168150,1,2,0:0:0:0:
455,66,168254,2,0,P|422:153|404:244,1,185.999994323731,0|4,0:0|3:3,0:0:0:0:
316,166,168566,1,2,0:0:0:0:
239,188,168671,6,0,P|299:235|279:315,1,139.499995742798,8|0,1:2|0:0,0:0:0:0:
289,301,168879,2,0,P|283:346|318:392,1,92.9999971618653
18,275,169087,85,6,3:3:0:0:
95,304,169191,1,2,0:0:0:0:
144,237,169296,1,2,0:0:0:0:
217,272,169400,5,2,3:3:0:0:
283,224,169504,1,10,1:2:0:0:
323,290,169608,1,2,0:0:0:0:
401,292,169712,85,2,3:3:0:0:
430,369,169816,1,2,0:0:0:0:
512,359,169921,1,2,0:0:0:0:
373,39,170129,5,6,0:3:0:0:
407,112,170233,1,2,0:0:0:0:
329,105,170337,1,10,1:2:0:0:
301,181,170441,1,2,0:0:0:0:
250,120,170546,1,2,0:0:0:0:
178,155,170650,1,2,0:0:0:0:
184,75,170754,1,6,3:1:0:0:
376,30,170962,85,2,0:0:0:0:
412,107,171066,1,2,3:3:0:0:
330,100,171171,1,10,1:2:0:0:
301,181,171275,1,2,0:0:0:0:
246,116,171379,1,2,3:3:0:0:
171,153,171483,1,2,0:0:0:0:
177,69,171587,1,6,0:1:0:0:
379,22,171796,5,2,3:3:0:0:
417,104,171900,1,2,0:0:0:0:
330,97,172004,1,10,1:2:0:0:
301,181,172108,1,2,0:0:0:0:
243,113,172212,1,2,0:0:0:0:
164,152,172316,1,2,0:0:0:0:
170,66,172421,86,0,P|197:198|197:322,1,248,4|0,3:2|0:0,0:0:0:0:
207,315,172733,6,0,P|307:225|415:163,1,248,4|0,3:2|0:0,0:0:0:0:
404,158,173046,86,0,P|276:116|168:53,1,248,4|0,3:2|0:0,0:0:0:0:
231,0,173358,1,2,0:0:0:0:
257,74,173462,1,2,3:3:0:0:
203,137,173566,1,2,0:0:0:0:
246,205,173671,6,0,P|211:317|204:452,1,185.999994323731,8|0,1:2|0:0,0:0:0:0:
308,356,173983,1,2,0:0:0:0:
318,346,174087,2,0,P|279:307|226:331,1,92.9999971618653,4|0,3:2|0:0,0:0:0:0:
145,284,174296,85,2,0:0:0:0:
73,299,174400,1,2,3:3:0:0:
0,314,174504,1,10,1:2:0:0:
149,278,174712,6,0,L|138:197,1,77.5,0|0,3:3|0:0,0:0:0:0:
317,74,174921,85,2,0:0:0:0:
331,38,175025,1,2,0:0:0:0:
310,4,175129,1,6,3:3:0:0:
272,0,175233,1,2,0:0:0:0:
244,27,175337,1,10,1:2:0:0:
248,65,175441,1,2,0:0:0:0:
272,139,175546,6,0,L|257:249,1,77.5
181,201,175754,86,0,L|213:384,1,185.999994323731,4|0,3:3|0:0,0:0:0:0:
302,328,176066,1,2,3:3:0:0:
293,316,176171,6,0,P|335:282|392:307,1,92.9999971618653,8|0,1:2|0:0,0:0:0:0:
455,103,176379,85,2,3:3:0:0:
488,174,176483,1,2,0:0:0:0:
433,229,176587,2,0,P|374:200|320:200,1,92.9999971618653
233,368,176796,6,0,P|220:303|234:251,1,92.9999971618653,4|0,3:3|0:0,0:0:0:0:
286,97,177004,86,0,P|290:51|278:7,1,92.9999971618653,8|0,1:2|0:0,0:0:0:0:
161,177,177212,6,0,P|116:164|79:137,1,92.9999971618653
256,192,177421,85,6,3:3:0:0:
465,59,177629,5,2,0:0:0:0:
476,54,177733,1,2,3:3:0:0:
512,125,177837,2,0,L|484:301,1,139.499995742798,8|0,1:2|0:0,0:0:0:0:
491,272,178046,2,0,L|372:253,1,92.9999971618653,0|0,3:3|0:0,0:0:0:0:
186,155,178254,85,2,0:0:0:0:
307,185,178358,1,10,1:2:0:0:
195,241,178462,1,2,3:3:0:0:
391,173,178671,5,10,1:2:0:0:
358,249,178879,85,10,1:2:0:0:
118,206,178983,1,10,0:0:0:0:
339,110,179087,1,2,3:3:0:0:
339,110,179296,1,2,3:3:0:0:
339,110,179504,1,2,3:3:0:0:
339,110,179712,1,2,3:3:0:0:
339,110,179921,5,2,3:3:0:0:
346,119,180025,1,2,3:3:0:0:
351,138,180129,1,2,3:3:0:0:
339,164,180233,1,2,3:3:0:0:
294,193,180337,1,2,3:3:0:0:
232,188,180441,1,2,3:3:0:0:
176,132,180546,1,2,0:0:0:0:
90,128,180650,1,2,3:3:0:0:
16,180,180754,37,4,3:2:0:0:
2,285,180962,1,2,1:3:0:0:
69,368,181171,1,0,3:3:0:0:
174,381,181379,1,2,1:3:0:0:
259,314,181587,1,0,3:3:0:0:
271,208,181796,1,2,1:3:0:0:
204,124,182004,1,0,3:3:0:0:
98,113,182212,1,2,1:3:0:0:
135,245,182421,69,0,3:3:0:0:
135,245,182837,1,0,3:3:0:0:
132,382,183046,21,2,1:3:0:0:
134,373,183150,1,2,0:0:0:0:
136,364,183254,2,0,L|283:338,1,116.250004434586,0|2,3:3|1:3,0:0:0:0:
211,271,183566,1,2,0:0:0:0:
213,258,183671,69,0,3:3:0:0:
0,226,183879,1,2,1:3:0:0:
133,56,184087,1,0,3:3:0:0:
133,56,184504,21,0,3:3:0:0:
154,150,184712,1,2,1:3:0:0:
248,129,184921,1,0,3:3:0:0:
269,223,185129,1,2,1:3:0:0:
363,202,185337,1,0,3:3:0:0:
384,296,185546,1,2,1:3:0:0:
478,275,185754,69,2,3:3:0:0:
467,228,185858,1,2,0:0:0:0:
457,181,185962,1,2,1:3:0:0:
457,181,186171,21,2,3:3:0:0:
410,192,186275,1,2,0:0:0:0:
363,202,186379,1,2,1:3:0:0:
363,202,186587,69,2,3:3:0:0:
374,249,186691,1,2,0:0:0:0:
384,296,186796,1,2,1:3:0:0:
384,296,187004,21,2,3:3:0:0:
431,285,187108,1,2,0:0:0:0:
478,275,187212,1,2,1:3:0:0:
452,55,187421,70,0,P|428:103|413:178,1,116.250004434586,0|2,3:3|1:3,0:0:0:0:
405,146,187733,1,2,0:0:0:0:
392,141,187837,22,0,P|377:118|348:93,1,58.1250022172929,0|0,3:3|0:0,0:0:0:0:
334,81,188046,70,0,P|387:77|460:53,1,116.250004434586,2|0,1:3|3:3,0:0:0:0:
306,248,188462,22,0,P|327:268|344:291,1,58.1250022172929,2|0,1:3|0:0,0:0:0:0:
344,291,188671,70,0,P|352:262|364:236,1,58.1250022172929,0|0,3:3|0:0,0:0:0:0:
364,236,188879,22,0,P|336:243|308:246,1,58.1250022172929,2|0,1:3|0:0,0:0:0:0:
249,371,189087,70,0,P|225:323|210:248,1,116.250004434586,0|2,3:3|1:3,0:0:0:0:
202,280,189400,1,2,0:0:0:0:
193,290,189504,22,0,P|178:313|149:338,1,58.1250022172929,0|0,3:3|0:0,0:0:0:0:
135,350,189712,70,0,P|188:353|261:377,1,116.250004434586,2|0,1:3|3:3,0:0:0:0:
22,261,190129,22,0,P|43:240|60:217,1,58.1250022172929,2|0,1:3|0:0,0:0:0:0:
60,218,190337,70,0,P|68:246|80:272,1,58.1250022172929,0|0,3:3|0:0,0:0:0:0:
80,273,190546,22,0,P|52:265|24:262,1,58.1250022172929,2|0,1:3|0:0,0:0:0:0:
112,19,190754,70,0,P|88:67|73:142,1,116.250004434586,0|2,3:3|1:3,0:0:0:0:
75,127,191171,22,0,P|45:82|-12:31,1,116.250004434586,0|2,3:3|1:3,0:0:0:0:
0,39,191587,70,0,P|53:35|126:11,1,116.250004434586,0|2,3:3|1:3,0:0:0:0:
364,118,192004,21,0,3:3:0:0:
433,180,192421,69,0,3:3:0:0:
441,80,192629,1,2,1:3:0:0:
352,36,192837,1,0,3:3:0:0:
284,110,193046,1,2,1:3:0:0:
333,197,193254,1,0,3:3:0:0:
349,173,193462,21,2,1:3:0:0:
315,112,193566,1,2,1:3:0:0:
361,62,193671,1,2,1:3:0:0:
423,91,193775,1,2,1:3:0:0:
415,159,193879,1,2,1:3:0:0:
415,159,194087,69,4,3:2:0:0:
198,242,194296,69,2,0:0:0:0:
190,243,194400,1,2,0:0:0:0:
181,162,194504,22,0,L|172:97,1,58.1250022172929,8|0,1:2|0:0,0:0:0:0:
126,296,194712,70,0,L|74:336,1,58.1250022172929
269,276,194921,22,0,L|329:300,1,58.1250022172929,0|0,3:3|0:0,0:0:0:0:
198,242,195129,69,2,0:0:0:0:
190,243,195233,1,2,0:0:0:0:
115,213,195337,22,0,L|54:188,1,58.1250022172929,8|0,1:2|0:0,0:0:0:0:
203,327,195546,70,0,L|212:392,1,58.1250022172929
257,193,195754,22,0,L|308:152,1,58.1250022172929,0|0,3:3|0:0,0:0:0:0:
198,242,195962,69,2,0:0:0:0:
190,243,196066,1,2,0:0:0:0:
126,296,196171,22,0,L|74:336,1,58.1250022172929,8|0,1:2|0:0,0:0:0:0:
268,276,196379,70,0,L|328:300,1,58.1250022172929
179,163,196587,22,0,L|169:97,1,58.1250022172929,0|0,3:3|0:0,0:0:0:0:
72,21,196796,70,0,L|132:45,1,58.1250022172929,8|0,1:2|0:0,0:0:0:0:
248,0,197004,22,0,L|196:40,1,58.1250022172929,8|0,1:2|0:0,0:0:0:0:
98,143,197212,70,0,L|278:121,1,155,0|0,0:0|3:3,0:0:0:0:
314,242,197629,21,2,0:0:0:0:
322,243,197733,1,2,0:0:0:0:
331,162,197837,70,0,L|340:97,1,58.1250022172929,8|0,1:2|0:0,0:0:0:0:
386,296,198046,22,0,L|437:336,1,58.1250022172929
243,276,198254,70,0,L|182:300,1,58.1250022172929,0|0,3:3|0:0,0:0:0:0:
314,242,198462,21,2,0:0:0:0:
322,243,198566,1,2,0:0:0:0:
397,213,198671,70,0,L|457:188,1,58.1250022172929,8|0,1:2|0:0,0:0:0:0:
309,327,198879,22,0,L|300:392,1,58.1250022172929
255,193,199087,70,0,L|203:152,1,58.1250022172929,0|0,3:3|0:0,0:0:0:0:
314,242,199296,21,2,0:0:0:0:
322,243,199400,1,2,0:0:0:0:
386,296,199504,70,0,L|437:336,1,58.1250022172929,8|0,1:2|0:0,0:0:0:0:
244,276,199712,22,0,L|183:300,1,58.1250022172929
333,163,199921,70,0,L|342:97,1,58.1250022172929,0|0,3:3|0:0,0:0:0:0:
440,21,200129,22,0,L|379:45,1,58.1250022172929,8|0,1:2|0:0,0:0:0:0:
264,0,200337,70,0,L|315:40,1,58.1250022172929,8|0,1:2|0:0,0:0:0:0:
414,143,200546,22,0,L|234:121,1,155,0|0,0:0|3:3,0:0:0:0:
70,259,200962,69,2,0:0:0:0:
77,261,201066,1,2,0:0:0:0:
57,338,201171,22,0,L|-26:353,1,58.1250022172929,8|0,1:2|0:0,0:0:0:0:
194,312,201379,70,0,L|111:327,1,58.1250022172929
331,286,201587,22,0,L|248:301,1,58.1250022172929,0|0,3:3|0:0,0:0:0:0:
93,138,201796,69,2,0:0:0:0:
100,140,201900,1,2,0:0:0:0:
80,217,202004,22,0,L|-3:232,1,58.1250022172929,8|0,1:2|0:0,0:0:0:0:
217,191,202212,70,0,L|134:206,1,58.1250022172929
354,165,202421,22,0,L|271:180,1,58.1250022172929,0|0,3:3|0:0,0:0:0:0:
122,28,202629,69,2,0:0:0:0:
129,30,202733,1,2,0:0:0:0:
109,107,202837,22,0,L|26:122,1,58.1250022172929,8|0,1:2|0:0,0:0:0:0:
246,81,203046,70,0,L|163:96,1,58.1250022172929
383,55,203254,22,0,L|300:70,1,58.1250022172929,0|0,3:3|0:0,0:0:0:0:
354,165,203462,70,0,L|296:175,1,58.1250022172929,8|0,1:2|0:0,0:0:0:0:
331,286,203671,22,0,L|273:296,1,58.1250022172929,8|0,1:2|0:0,0:0:0:0:
483,323,203879,69,2,0:0:0:0:
490,321,203983,1,2,0:0:0:0:
512,364,204087,21,2,3:3:0:0:
511,352,204191,1,2,0:0:0:0:
509,339,204296,1,2,0:0:0:0:
508,326,204400,1,2,0:0:0:0:
506,313,204504,1,10,1:2:0:0:
504,300,204608,1,2,0:0:0:0:
503,287,204712,1,2,0:0:0:0:
501,274,204816,1,2,0:0:0:0:
496,239,204921,69,0,3:3:0:0:
456,273,205025,1,0,3:0:0:0:
407,255,205129,1,0,3:0:0:0:
398,204,205233,1,0,3:0:0:0:
349,186,205337,1,8,3:2:0:0:
309,220,205441,1,0,3:0:0:0:
318,271,205546,1,0,3:0:0:0:
278,305,205650,1,0,3:0:0:0:
229,287,205754,21,8,3:3:0:0:
228,272,205858,1,0,3:0:0:0:
146,241,205962,69,0,3:0:0:0:
158,232,206066,1,0,3:0:0:0:
133,153,206171,21,8,1:2:0:0:
103,81,206275,69,8,0:0:0:0:
70,7,206379,21,8,0:0:0:0:
150,19,206483,69,8,0:0:0:0:
231,28,206587,21,8,3:3:0:0:
232,47,206691,1,8,0:0:0:0:
234,66,206796,1,8,1:2:0:0:
236,85,206900,1,8,0:0:0:0:
314,62,207004,69,10,1:2:0:0:
300,141,207108,21,10,0:0:0:0:
288,222,207212,69,10,1:2:0:0:
275,303,207316,21,10,0:0:0:0:
263,384,207421,38,0,P|180:359|101:345,1,155,4|0,3:2|0:0,0:0:0:0:
54,128,207733,1,0,3:3:0:0:
98,59,207837,2,0,P|137:103|120:151,1,77.5,8|0,1:2|0:0,0:0:0:0:
191,221,208046,5,2,3:3:0:0:
192,232,208150,1,2,0:0:0:0:
157,258,208254,85,2,0:0:0:0:
233,245,208358,1,2,0:0:0:0:
309,232,208462,1,6,3:3:0:0:
350,166,208566,1,2,0:0:0:0:
378,93,208671,5,10,1:2:0:0:
302,106,208775,1,2,0:0:0:0:
226,119,208879,1,2,0:0:0:0:
185,185,208983,1,2,0:0:0:0:
157,258,209087,86,0,L|166:310,1,38.75,6|0,3:3|0:0,0:0:0:0:
385,252,209296,5,2,0:0:0:0:
386,265,209400,1,2,3:3:0:0:
415,294,209504,85,10,1:2:0:0:
395,290,209608,1,2,0:0:0:0:
376,286,209712,1,2,3:3:0:0:
357,283,209816,1,2,0:0:0:0:
364,203,209921,5,2,0:0:0:0:
287,215,210025,1,2,0:0:0:0:
211,228,210129,1,6,3:3:0:0:
134,240,210233,1,2,0:0:0:0:
58,255,210337,85,8,1:2:0:0:
66,170,210441,5,2,3:0:0:0:
75,84,210546,85,2,3:0:0:0:
159,95,210650,5,2,3:0:0:0:
243,106,210754,85,4,3:3:0:0:
138,309,211066,5,2,3:3:0:0:
144,297,211171,2,0,L|129:217,1,58.1250022172929,8|0,1:2|0:0,0:0:0:0:
251,289,211379,85,2,3:3:0:0:
262,295,211483,1,2,0:0:0:0:
309,276,211587,5,2,0:0:0:0:
289,324,211691,1,2,0:0:0:0:
269,373,211796,1,6,3:3:0:0:
320,366,211900,1,2,0:0:0:0:
370,359,212004,85,10,1:2:0:0:
393,284,212108,1,2,0:0:0:0:
417,210,212212,1,2,0:0:0:0:
442,137,212316,1,2,0:0:0:0:
468,60,212421,5,6,3:3:0:0:
381,51,212525,85,2,0:0:0:0:
294,42,212629,5,2,0:0:0:0:
207,33,212733,85,2,3:3:0:0:
120,25,212837,5,10,1:2:0:0:
127,111,212941,85,2,0:0:0:0:
135,192,213046,5,2,3:3:0:0:
142,272,213150,85,2,0:0:0:0:
148,353,213254,5,2,3:0:0:0:
164,355,213358,1,2,3:0:0:0:
179,358,213462,1,6,3:3:0:0:
194,362,213566,1,2,3:0:0:0:
262,320,213671,85,8,1:2:0:0:
339,313,213775,5,8,0:0:0:0:
376,245,213879,85,8,0:0:0:0:
350,318,213983,5,8,0:0:0:0:
390,384,214087,85,12,3:2:0:0:
210,23,214400,5,2,3:3:0:0:
202,32,214504,2,0,L|215:109,1,58.1250022172929,8|0,1:2|0:0,0:0:0:0:
392,111,214712,85,2,3:3:0:0:
392,98,214816,1,2,0:0:0:0:
436,90,214921,5,2,0:0:0:0:
365,58,215025,1,2,0:0:0:0:
293,84,215129,1,6,3:3:0:0:
261,155,215233,1,2,0:0:0:0:
287,227,215337,85,10,1:2:0:0:
306,280,215441,1,2,0:0:0:0:
282,333,215546,1,2,0:0:0:0:
228,352,215650,1,2,0:0:0:0:
176,328,215754,5,2,3:3:0:0:
144,256,215858,85,2,3:0:0:0:
118,182,215962,5,2,3:0:0:0:
194,191,216066,85,2,3:3:0:0:
270,206,216171,5,10,1:2:0:0:
24,27,216379,86,0,L|27:53,1,23.25,0|0,3:3|0:0,0:0:0:0:
50,0,216796,6,0,L|35:154,1,116.250004434586,6|0,3:3|0:0,0:0:0:0:
119,101,217004,86,0,L|127:24,1,77.5,8|0,1:2|0:0,0:0:0:0:
205,51,217212,6,0,L|198:113,1,38.75,2|0,0:0|0:0,0:0:0:0:
280,91,217421,86,0,L|282:69,1,15.5,6|0,3:3|0:0,0:0:0:0:
359,42,217733,1,2,3:3:0:0:
367,53,217837,6,0,L|354:163,1,77.5,8|0,1:2|0:0,0:0:0:0:
488,186,218046,1,2,3:3:0:0:
430,162,218150,1,2,0:0:0:0:
385,204,218254,2,0,L|419:391,1,155,0|4,0:0|3:3,0:0:0:0:
512,293,218566,1,2,0:0:0:0:
502,283,218671,86,0,L|421:274,1,77.5,8|0,1:2|0:0,0:0:0:0:
413,357,218879,6,0,L|217:382,1,174.375006651879
249,365,219087,2,0,L|264:278,1,77.5,6|0,3:3|0:0,0:0:0:0:
35,0,219296,85,14,1:2:0:0:
0,107,219400,5,2,3:3:0:0:
55,205,219504,85,10,1:2:0:0:
165,233,219608,5,2,3:0:0:0:
259,172,219712,85,6,3:3:0:0:
462,36,219921,6,2,L|533:23,5,51.6666666666667,14|2|2|2|2|2,1:2|0:0|0:0|3:3|0:0|0:0,0:0:0:0:
422,0,220337,85,10,3:2:0:0:
425,19,220407,5,2,3:0:0:0:
428,38,220476,85,2,3:0:0:0:
431,57,220546,5,10,3:2:0:0:
434,76,220615,85,2,3:0:0:0:
436,95,220684,5,2,3:0:0:0:
439,115,220754,86,0,P|375:157|417:271,1,185.999994323731,6|0,3:2|0:0,0:0:0:0:
447,317,221066,1,0,3:3:0:0:
512,264,221171,2,0,P|382:291|283:328,1,185.999994323731,8|0,1:2|3:3,0:0:0:0:
6,384,221587,5,2,0:0:0:0:
66,372,221691,1,2,0:0:0:0:
127,360,221796,1,6,3:3:0:0:
188,349,221900,1,2,0:0:0:0:
162,275,222004,85,10,1:2:0:0:
154,255,222108,1,2,0:0:0:0:
147,237,222212,1,2,0:0:0:0:
140,219,222316,1,2,0:0:0:0:
112,145,222421,5,6,3:3:0:0:
172,133,222525,1,2,0:0:0:0:
233,121,222629,1,2,0:0:0:0:
294,110,222733,1,2,3:3:0:0:
355,99,222837,1,10,1:2:0:0:
512,243,223046,86,0,L|508:277,1,31,0|4,3:3|3:3,0:0:0:0:
430,292,223566,1,2,0:0:0:0:
429,309,223671,6,0,L|447:390,1,77.5,8|0,1:2|0:0,0:0:0:0:
445,384,223879,86,0,L|295:364,1,77.5
171,323,224087,5,6,3:3:0:0:
95,334,224191,1,2,3:0:0:0:
123,263,224296,1,2,3:0:0:0:
151,192,224400,1,2,3:3:0:0:
179,121,224504,1,10,1:2:0:0:
226,181,224608,1,2,3:0:0:0:
274,239,224712,1,2,3:3:0:0:
322,300,224816,1,2,3:0:0:0:
246,311,224921,1,2,3:0:0:0:
158,206,225129,85,6,3:3:0:0:
221,195,225233,1,2,0:0:0:0:
261,244,225337,1,10,1:2:0:0:
237,303,225441,1,2,0:0:0:0:
176,313,225546,1,2,0:0:0:0:
137,264,225650,1,2,0:0:0:0:
197,253,225754,5,6,3:3:0:0:
465,108,225962,85,2,0:0:0:0:
464,119,226066,1,2,3:3:0:0:
504,139,226171,5,10,1:2:0:0:
445,148,226275,1,2,0:0:0:0:
387,159,226379,1,2,3:3:0:0:
349,113,226483,1,2,0:0:0:0:
311,68,226587,1,2,0:0:0:0:
235,81,226691,1,2,0:0:0:0:
159,94,226796,1,6,3:3:0:0:
133,166,226900,1,2,0:0:0:0:
106,238,227004,85,8,1:2:0:0:
160,303,227108,5,8,0:0:0:0:
214,369,227212,85,8,0:0:0:0:
298,354,227316,5,8,0:0:0:0:
382,340,227421,85,12,3:2:0:0:
360,100,227733,5,2,3:3:0:0:
353,108,227837,2,0,L|340:190,1,58.1250022172929,8|0,1:2|0:0,0:0:0:0:
204,24,228046,85,2,3:3:0:0:
214,28,228150,1,2,0:0:0:0:
248,7,228254,5,2,0:0:0:0:
245,26,228358,1,2,0:0:0:0:
242,45,228462,1,6,3:3:0:0:
239,64,228566,1,2,0:0:0:0:
165,94,228671,85,10,1:2:0:0:
180,177,228775,5,2,3:0:0:0:
196,262,228879,85,2,3:0:0:0:
279,244,228983,5,2,3:0:0:0:
362,226,229087,85,6,3:3:0:0:
507,13,229400,5,0,3:3:0:0:
512,19,229504,2,0,L|501:79,1,58.1250022172929,8|0,1:2|0:0,0:0:0:0:
361,36,229712,85,2,3:3:0:0:
371,122,229816,5,2,3:0:0:0:
382,208,229921,85,2,3:0:0:0:
393,295,230025,5,2,3:0:0:0:
404,381,230129,85,6,3:3:0:0:
206,373,230337,6,0,L|201:337,1,31,8|0,1:2|0:0,0:0:0:0:
128,384,230546,2,0,L|123:348,1,31
93,220,230754,85,6,3:3:0:0:
79,139,230858,5,2,0:0:0:0:
160,125,230962,85,14,1:2:0:0:
241,110,231066,5,2,3:3:0:0:
256,192,231171,85,14,1:2:0:0:
270,272,231275,5,2,0:0:0:0:
351,258,231379,85,2,3:3:0:0:
432,244,231483,5,14,1:2:0:0:
418,162,231587,86,0,L|420:149,2,7.75,0|8|4,0:0|1:2|3:3,0:0:0:0:
317,11,232004,6,0,L|312:47,1,31,8|0,1:2|3:3,0:0:0:0:
239,0,232212,2,0,L|234:36,1,31,8|0,1:2|0:0,0:0:0:0:
101,255,232421,85,14,1:2:0:0:
25,196,232525,5,10,3:2:0:0:
38,100,232629,85,10,3:2:0:0:
125,68,232733,5,10,3:2:0:0:
201,127,232837,85,10,0:2:0:0:
237,214,232941,5,10,0:2:0:0:
245,310,233046,85,14,3:2:0:0:
270,217,233150,5,10,0:2:0:0:
321,137,233254,85,10,0:2:0:0:
406,92,233358,5,10,3:2:0:0:
486,140,233462,85,10,3:2:0:0:
482,236,233566,5,10,3:2:0:0:
397,280,233671,86,0,L|393:291,3,7.75,14|0|0|0,0:0|0:0|3:3|0:0,0:0:0:0:
302,233,234087,54,0,B|288:240|288:240|262:278|262:278|265:319|265:319|316:344|316:344|267:330|267:330|222:354|222:354|265:319|265:319|261:277|261:277|229:245|229:245|185:240|185:240|149:265|149:265|152:321|152:321|139:274|139:274|98:244|98:244|149:265|149:265|185:240|185:240|195:195|195:195|176:155|176:155|136:138|136:138|84:171|84:171|119:131|119:131|130:81|130:81|136:138|136:138|177:155|177:155|220:141|220:141|246:105|246:105|244:60|244:60|193:39|193:39|243:51|243:51|288:29|288:29|244:60|244:60|246:105|246:105|280:136|280:136|327:142|327:142|360:116|360:116|361:59|361:59|366:113|366:113|414:137|414:137|360:116|360:116|326:142|326:142|314:184|314:184|331:218|331:218|368:240|368:240|421:215|421:215|381:248|381:248|385:322,1,2231.99993188477,4|4,1:2|0:0,0:0:0:0:
256,192,240858,12,0,245754,0:0:0:0:
256,192,247421,5,6,0:0:0:0:
256,192,247525,12,0,249087,0:0:0:0:
113,118,250129,5,2,0:0:0:0:
113,118,250337,2,0,L|110:147,1,23.25
111,142,250754,54,0,B|48:100|94:15|177:12|235:122|183:203,1,310,4|0,3:2|0:0,0:0:0:0:
281,224,251066,86,0,P|262:262|263:315,2,77.5,4|8|0,3:2|1:2|0:0,0:0:0:0:
281,115,251379,6,0,B|253:148|253:148|146:131|39:197|39:197|-14:178,1,310,4|0,3:2|0:0,0:0:0:0:
408,264,251796,85,2,3:3:0:0:
487,248,251900,1,2,0:0:0:0:
408,232,252004,1,10,1:2:0:0:
354,172,252108,1,2,0:0:0:0:
380,248,252212,1,2,0:0:0:0:
354,325,252316,1,2,0:0:0:0:
408,264,252421,1,6,3:1:0:0:
234,190,252629,5,2,0:0:0:0:
151,173,252733,1,2,3:3:0:0:
234,156,252837,1,10,1:2:0:0:
292,92,252941,1,2,0:0:0:0:
264,173,253046,1,2,3:3:0:0:
292,254,253150,1,2,0:0:0:0:
234,190,253254,1,6,0:1:0:0:
415,101,253462,85,2,3:3:0:0:
498,83,253566,1,2,0:0:0:0:
413,66,253671,1,10,1:2:0:0:
353,0,253775,1,2,0:0:0:0:
382,83,253879,1,2,0:0:0:0:
353,166,253983,1,2,0:0:0:0:
415,101,254087,1,6,3:1:0:0:
286,379,254296,5,2,0:0:0:0:
274,374,254400,1,2,3:1:0:0:
262,369,254504,2,0,L|280:276,1,77.5,8|0,1:2|0:0,0:0:0:0:
142,161,254712,85,2,3:1:0:0:
128,125,254816,1,2,0:0:0:0:
149,91,254921,1,2,0:0:0:0:
187,87,255025,1,2,0:0:0:0:
215,114,255129,1,6,3:3:0:0:
211,152,255233,1,2,0:0:0:0:
187,226,255337,6,0,L|202:336,1,77.5,8|0,1:2|0:0,0:0:0:0:
71,73,255546,86,0,L|-32:30,1,77.5,2|0,0:0|0:0,0:0:0:0:
261,48,255754,6,0,L|350:-21,1,77.5,4|0,3:2|0:0,0:0:0:0:
162,41,255962,85,2,0:0:0:0:
247,148,256066,1,2,3:3:0:0:
112,165,256171,1,10,1:2:0:0:
175,118,256379,5,2,3:3:0:0:
177,130,256483,1,2,0:0:0:0:
200,166,256587,85,2,0:0:0:0:
168,197,256691,1,2,0:0:0:0:
149,239,256796,1,6,3:3:0:0:
149,285,256900,1,2,0:0:0:0:
166,328,257004,6,0,L|223:340,1,38.75,8|0,1:2|0:0,0:0:0:0:
251,101,257212,86,0,L|308:89,1,38.75
510,115,257421,5,6,3:3:0:0:
472,185,257525,1,2,0:0:0:0:
502,257,257629,1,2,0:0:0:0:
426,248,257733,85,2,3:3:0:0:
395,175,257837,1,10,1:2:0:0:
366,102,257941,1,2,0:0:0:0:
288,93,258046,5,2,3:3:0:0:
318,163,258150,1,2,0:0:0:0:
282,236,258254,1,2,0:0:0:0:
458,185,258462,85,6,3:3:0:0:
420,231,258566,1,2,0:0:0:0:
359,225,258671,5,10,1:2:0:0:
334,167,258775,1,2,0:0:0:0:
368,119,258879,85,2,0:0:0:0:
430,126,258983,1,2,0:0:0:0:
395,175,259087,5,6,3:3:0:0:
0,58,259400,85,0,3:3:0:0:
15,56,259504,2,0,P|83:104|78:217,1,185.999994323731,12|0,1:2|3:3,0:0:0:0:
169,94,259816,1,2,0:0:0:0:
246,124,259921,6,0,P|195:144|170:199,1,92.9999971618653,2|0,0:0|0:0,0:0:0:0:
7,190,260129,86,0,P|5:234|36:269,1,92.9999971618653,4|0,3:3|0:0,0:0:0:0:
218,247,260337,6,0,P|137:211|71:197,1,139.499995742798,8|0,1:2|0:0,0:0:0:0:
83,191,260546,2,0,P|110:155|90:113,1,92.9999971618653,2|0,0:0|0:0,0:0:0:0:
307,40,260754,85,6,3:3:0:0:
375,87,260858,5,2,0:0:0:0:
443,133,260962,85,2,0:0:0:0:
512,179,261066,5,2,3:3:0:0:
499,260,261171,85,10,1:2:0:0:
420,288,261275,5,2,0:0:0:0:
342,315,261379,85,2,3:3:0:0:
263,342,261483,5,2,0:0:0:0:
218,278,261587,85,2,0:0:0:0:
146,247,261691,5,10,1:2:0:0:
76,217,261796,85,6,3:3:0:0:
9,186,261900,5,2,0:0:0:0:
22,108,262004,85,10,1:2:0:0:
99,105,262108,5,2,0:0:0:0:
175,103,262212,85,10,1:2:0:0:
252,100,262316,5,2,0:0:0:0:
256,192,262421,85,6,3:2:0:0:
176,341,262733,5,0,3:3:0:0:
163,332,262837,2,0,P|190:273|238:278,1,92.9999971618653,8|0,1:2|0:0,0:0:0:0:
0,194,263046,85,2,3:3:0:0:
9,273,263150,1,2,0:0:0:0:
87,293,263254,2,0,P|207:309|279:331,1,185.999994323731,0|4,0:0|3:3,0:0:0:0:
440,313,263566,1,2,0:0:0:0:
375,365,263671,6,0,P|316:298|346:235,1,139.499995742798,8|0,1:2|0:0,0:0:0:0:
333,249,263879,2,0,P|343:204|307:155,1,92.9999971618653,2|0,0:0|0:0,0:0:0:0:
0,196,264087,85,6,3:3:0:0:
55,258,264191,1,2,0:0:0:0:
28,337,264296,1,2,0:0:0:0:
109,321,264400,5,2,3:3:0:0:
164,384,264504,1,10,1:2:0:0:
190,306,264608,1,2,0:0:0:0:
272,290,264712,85,2,3:3:0:0:
217,228,264816,1,2,0:0:0:0:
244,149,264921,1,2,0:0:0:0:
83,139,265129,5,6,3:3:0:0:
4,123,265233,1,2,0:0:0:0:
83,107,265337,1,10,1:2:0:0:
137,47,265441,1,2,0:0:0:0:
111,123,265546,1,2,0:0:0:0:
137,200,265650,1,2,0:0:0:0:
83,139,265754,1,6,3:1:0:0:
167,283,265962,85,2,0:0:0:0:
84,300,266066,1,2,3:3:0:0:
167,317,266171,1,10,1:2:0:0:
225,381,266275,1,2,0:0:0:0:
197,300,266379,1,2,3:3:0:0:
225,219,266483,1,2,0:0:0:0:
167,283,266587,1,6,0:1:0:0:
290,144,266796,5,2,3:3:0:0:
205,126,266900,1,2,0:0:0:0:
290,109,267004,1,10,1:2:0:0:
350,43,267108,1,2,0:0:0:0:
321,126,267212,1,2,0:0:0:0:
350,209,267316,1,2,0:0:0:0:
321,126,267421,86,0,B|330:296|330:296|280:356,1,248,4|0,3:2|0:3,0:3:0:0:
282,355,267733,6,0,B|208:302|208:302|153:112,1,248,4|0,3:2|0:3,0:3:0:0:
164,151,268046,86,0,B|225:45|225:45|324:129,1,248,4|0,3:2|0:0,0:0:0:0:
249,166,268358,1,2,0:0:0:0:
223,239,268462,1,2,3:3:0:0:
275,297,268566,1,2,0:0:0:0:
352,283,268671,6,0,P|228:289|167:323,1,185.999994323731,8|0,1:2|0:0,0:0:0:0:
88,181,268983,1,2,0:0:0:0:
98,171,269087,2,0,P|137:210|113:263,1,92.9999971618653,4|0,3:2|0:0,0:0:0:0:
145,8,269296,85,2,0:0:0:0:
73,23,269400,1,2,3:3:0:0:
0,38,269504,1,10,1:2:0:0:
148,1,269712,6,0,L|229:12,1,77.5,0|0,3:3|0:0,0:0:0:0:
438,140,269921,85,2,0:0:0:0:
474,126,270025,1,2,0:0:0:0:
508,147,270129,1,6,3:3:0:0:
512,185,270233,1,2,0:0:0:0:
485,213,270337,1,10,1:2:0:0:
447,209,270441,1,2,0:0:0:0:
373,185,270546,6,0,L|359:105,1,77.5
402,1,270754,86,0,L|363:241,1,185.999994323731,6|0,3:3|0:0,0:0:0:0:
307,51,271066,1,2,3:3:0:0:
306,38,271171,6,0,P|272:80|297:137,1,92.9999971618653,8|0,1:2|0:0,0:0:0:0:
300,337,271379,85,2,3:3:0:0:
372,307,271483,1,2,0:0:0:0:
425,363,271587,2,0,P|433:318|452:264,1,92.9999971618653,2|0,0:0|0:0,0:0:0:0:
87,363,271796,6,0,P|79:318|60:264,1,92.9999971618653,6|0,3:3|0:0,0:0:0:0:
425,21,272004,86,0,P|433:66|447:110,1,92.9999971618653,8|0,1:2|0:0,0:0:0:0:
86,21,272212,6,0,P|78:66|64:110,1,92.9999971618653,2|0,0:0|0:0,0:0:0:0:
256,192,272421,85,6,3:3:0:0:
3,360,272629,5,10,1:2:0:0:
8,371,272733,1,2,3:3:0:0:
87,363,272837,2,0,L|63:210,1,139.499995742798,8|0,1:2|0:0,0:0:0:0:
55,232,273046,2,0,L|148:212,1,92.9999971618653,0|8,3:3|1:2,0:0:0:0:
512,177,273254,85,2,3:3:0:0:
500,173,273358,1,10,1:2:0:0:
388,253,273462,5,2,3:3:0:0:
376,257,273566,1,2,0:0:0:0:
264,177,273671,85,10,1:2:0:0:
252,173,273775,1,2,0:0:0:0:
140,253,273879,5,10,1:2:0:0:
128,257,273983,1,10,1:2:0:0:
16,177,274087,85,6,1:2:0:0:
256,192,277421,12,4,279087,3:2:0:0:
255,124,279296,69,2,0:0:0:0:
313,100,279400,1,2,3:3:0:0:
358,142,279504,2,0,L|324:329,1,155,8|0,1:2|3:3,0:0:0:0:
185,286,279816,1,2,0:0:0:0:
253,339,279921,86,0,L|452:303,1,185.999994323731,0|0,0:0|3:3,0:0:0:0:
261,231,280233,1,2,0:0:0:0:
271,220,280337,6,0,L|169:198,1,92.9999971618653,8|0,1:2|0:0,0:0:0:0:
185,286,280546,2,0,L|204:384,1,92.9999971618653
357,152,280754,2,0,L|255:130,1,92.9999971618653,0|0,3:3|0:0,0:0:0:0:
0,0,280962,85,2,0:0:0:0:
136,20,281066,1,2,3:3:0:0:
116,156,281171,1,10,1:2:0:0:
124,165,281379,5,2,3:3:0:0:
140,283,281483,1,2,0:0:0:0:
257,266,281587,1,2,0:0:0:0:
512,91,281796,86,0,P|484:103|463:127,1,38.75,2|0,3:3|0:0,0:0:0:0:
432,177,282004,6,0,P|402:156|366:148,1,58.1250022172929,10|0,1:2|0:0,0:0:0:0:
303,148,282212,86,0,P|306:105|293:62,1,77.5,2|0,0:0|0:0,0:0:0:0:
262,0,282421,5,0,3:3:0:0:
512,0,282733,85,0,3:3:0:0:
512,12,282837,2,0,L|496:115,1,77.5,8|0,1:2|0:0,0:0:0:0:
511,283,283046,5,2,3:3:0:0:
394,266,283150,1,2,0:0:0:0:
378,384,283254,1,2,0:0:0:0:
0,293,283462,86,0,P|27:280|48:256,1,38.75,2|0,3:3|0:0,0:0:0:0:
80,207,283671,6,0,P|109:227|145:235,1,58.1250022172929,10|0,1:2|0:0,0:0:0:0:
209,236,283879,86,0,P|206:279|219:322,1,77.5,2|0,0:0|0:0,0:0:0:0:
250,384,284087,5,2,3:3:0:0:
307,328,284191,1,2,0:0:0:0:
320,248,284296,1,2,0:0:0:0:
283,177,284400,1,2,3:3:0:0:
210,143,284504,1,10,1:2:0:0:
131,159,284608,1,2,0:0:0:0:
78,219,284712,1,2,3:3:0:0:
72,299,284816,1,2,0:0:0:0:
136,346,284921,85,2,0:0:0:0:
98,295,285025,1,2,0:0:0:0:
100,234,285129,1,2,3:3:0:0:
138,187,285233,1,2,0:0:0:0:
196,170,285337,1,10,1:2:0:0:
252,194,285441,1,2,0:0:0:0:
284,246,285546,1,2,0:0:0:0:
278,307,285650,1,2,0:0:0:0:
357,291,285754,6,0,L|461:308,1,77.5,4|0,3:2|0:0,0:0:0:0:
512,131,285962,2,0,L|435:143,1,77.5,2|0,0:0|3:3,0:0:0:0:
341,0,286171,2,0,L|417:12,1,77.5,8|0,1:2|0:0,0:0:0:0:
308,155,286379,85,2,3:3:0:0:
306,168,286483,1,2,0:0:0:0:
365,225,286587,6,0,B|402:198|402:198|363:19,1,155,0|0,0:0|3:3,0:0:0:0:
214,69,286900,1,2,0:0:0:0:
221,60,287004,2,0,L|297:71,1,77.5,8|0,1:2|0:0,0:0:0:0:
58,34,287212,2,0,L|134:45,1,77.5,2|0,0:0|0:0,0:0:0:0:
221,163,287421,85,2,3:3:0:0:
234,225,287525,1,2,3:3:0:0:
182,267,287629,1,2,0:0:0:0:
195,330,287733,5,2,3:3:0:0:
145,371,287837,1,10,1:2:0:0:
86,350,287941,1,2,0:0:0:0:
75,285,288046,85,2,3:3:0:0:
13,263,288150,1,2,0:0:0:0:
2,201,288254,1,2,0:0:0:0:
181,277,288462,5,2,3:3:0:0:
188,330,288566,1,2,0:0:0:0:
143,366,288671,85,10,1:2:0:0:
91,344,288775,1,2,0:0:0:0:
82,289,288879,5,2,0:0:0:0:
127,255,288983,1,2,0:0:0:0:
135,309,289087,85,2,3:3:0:0:
324,156,289400,5,0,3:3:0:0:
333,148,289504,2,0,L|412:162,1,77.5,8|0,1:2|0:0,0:0:0:0:
207,256,289712,1,2,3:3:0:0:
265,280,289816,1,2,0:0:0:0:
310,238,289921,2,0,L|276:51,1,155,0|0,0:0|3:3,0:0:0:0:
444,17,290233,1,2,0:0:0:0:
505,80,290337,86,0,B|455:106|455:106|296:44,1,155,8|0,1:2|0:0,0:0:0:0:
224,23,290650,1,2,0:0:0:0:
230,14,290754,6,0,L|333:-5,1,77.5,0|0,3:3|0:0,0:0:0:0:
0,109,290962,85,2,0:0:0:0:
78,95,291066,1,2,3:3:0:0:
154,79,291171,1,10,1:2:0:0:
77,301,291379,5,2,3:3:0:0:
103,228,291483,1,2,0:0:0:0:
52,168,291587,1,2,0:0:0:0:
78,95,291691,1,10,1:2:0:0:
130,151,291796,1,2,3:3:0:0:
205,167,291900,1,2,0:0:0:0:
274,132,292004,1,2,3:3:0:0:
268,209,292108,1,2,3:3:0:0:
200,248,292212,1,2,3:3:0:0:
199,325,292316,1,2,3:3:0:0:
124,384,292421,85,6,3:2:0:0:
256,192,292525,12,0,294087,0:0:0:0:
