osu file format v14

[General]
AudioFilename: audio.mp3
AudioLeadIn: 0
PreviewTime: 59171
Countdown: 0
SampleSet: Soft
StackLeniency: 0.7
Mode: 0
LetterboxInBreaks: 0
WidescreenStoryboard: 0

[Editor]
DistanceSpacing: 1.4
BeatDivisor: 4
GridSize: 8
TimelineZoom: 1.54

[Metadata]
Title:Sunadokei
TitleUnicode:砂時計
Artist:FROZEN QUALIA
ArtistUnicode:FROZEN QUALIA
Creator:kuragehime
Version:Precious
Source:
Tags:yuuma カレイドスコープ Kaleidoscope 夢乃ゆき yumeno yuki kazuki japanese pop jpop j-pop hourglass female vocalist
BeatmapID:4048395
BeatmapSetID:1954702

[Difficulty]
HPDrainRate:5
CircleSize:4
OverallDifficulty:7.5
ApproachRate:8.2
SliderMultiplier:1.7
SliderTickRate:1

[Events]
//Background and Video events
0,0,"yumeno.jpg",0,0
//Break Periods
2,92463,106199
//Storyboard Layer 0 (Background)
//Storyboard Layer 1 (Fail)
//Storyboard Layer 2 (Pass)
//Storyboard Layer 3 (Foreground)
//Storyboard Layer 4 (Overlay)
//Storyboard Sound Samples

[TimingPoints]
660,458.015267175573,4,2,1,50,1,0
660,-166.666666666667,4,2,1,50,0,0
3179,-333.333333333334,4,2,1,50,0,0
4209,-333.333333333334,4,2,1,5,0,0
4324,-166.666666666667,4,2,1,50,0,0
7988,-125,4,2,1,60,0,0
15316,-142.857142857143,4,2,1,60,0,0
29972,-111.111111111111,4,2,1,70,0,0
44629,-125,4,2,1,60,0,0
51957,-100,4,2,1,70,0,0
57224,-200,4,2,1,70,0,0
58598,-200,4,2,1,5,0,0
58827,-200,4,2,1,70,0,0
59285,-90.9090909090909,4,2,1,80,0,1
92263,-90.9090909090909,4,2,1,80,0,0
106919,-125,4,2,1,60,0,0
121576,-111.111111111111,4,2,1,70,0,0
136232,-125,4,2,1,60,0,0
143560,-100,4,2,1,70,0,0
148827,-200,4,2,1,70,0,0
150201,-200,4,2,1,5,0,0
150430,-200,4,2,1,70,0,0
150889,-90.9090909090909,4,2,1,80,0,1
176537,-142.857142857143,4,2,1,60,0,0
191194,-142.857142857143,4,2,1,70,0,0
194858,-100,4,2,1,80,0,0
224171,-125,4,2,1,60,0,0
231499,-100,4,2,1,70,0,0
236766,-200,4,2,1,70,0,0
238369,-200,4,2,1,5,0,0
238827,-90.9090909090909,4,2,1,80,0,1
271805,-166.666666666667,4,2,1,50,0,0
274324,-333.333333333334,4,2,1,50,0,0
275354,-333.333333333334,4,2,1,5,0,0
275469,-166.666666666667,4,2,1,50,0,0

[Colours]
Combo1 : 0,128,128
Combo2 : 128,255,255
Combo3 : 0,255,128
Combo4 : 0,164,242

[HitObjects]
343,106,660,6,0,L|336:45,2,50.9999984436036,2|2|2,0:0|0:0|0:0,0:0:0:0:
358,187,1347,2,0,P|393:213|450:207,2,101.999996887207,2|2|2,0:0|0:0|0:0,0:0:0:0:
283,160,2492,2,0,L|225:151,2,50.9999984436036,2|2|2,0:0|0:0|0:0,0:0:0:0:
358,187,3179,2,0,P|371:214|341:294,1,114.749996498108,2|0,0:0|0:0,0:0:0:0:
330,303,4324,6,0,L|335:357,2,50.9999984436036,2|2|2,0:0|0:0|0:0,0:0:0:0:
250,291,5011,2,0,L|139:274,1,101.999996887207,2|2,0:0|0:0,0:0:0:0:
77,313,5698,1,2,0:0:0:0:
77,313,5927,1,2,0:0:0:0:
50,234,6156,2,0,L|44:178,3,50.9999984436036,2|2|2|2,0:0|0:0|0:0|0:0,0:0:0:0:
94,120,7072,2,0,P|64:104|38:106,1,50.9999984436036,2|2,0:0|0:0,0:0:0:0:
121,195,7415,1,2,0:0:0:0:
132,205,7530,2,0,P|167:197|185:180,1,50.9999984436036,2|2,0:0|0:0,0:0:0:0:
311,51,7988,6,0,P|359:28|333:92,1,136,6|2,0:0|0:0,0:0:0:0:
371,170,8675,2,0,B|298:172|315:125|243:123,1,136,2|2,0:0|0:0,0:0:0:0:
179,79,9362,2,0,P|169:42|164:9,1,68,2|2,0:0|0:0,0:0:0:0:
247,206,9820,6,0,P|236:269|214:353,1,136,6|2,0:0|0:0,0:0:0:0:
61,290,10507,2,0,P|99:238|171:260,1,136,2|2,0:0|0:0,0:0:0:0:
279,319,11194,2,0,P|239:340|207:334,1,68,2|2,0:0|0:0,0:0:0:0:
19,208,11652,6,0,B|35:161|35:161|26:125|26:125|50:53,1,136,6|2,0:0|0:0,0:0:0:0:
132,118,12339,2,0,B|166:119|189:84|189:84|185:128|217:170,1,136,2|2,0:0|0:0,0:0:0:0:
326,82,13026,2,0,P|288:84|262:101,1,68,2|2,0:0|0:0,0:0:0:0:
202,147,13484,5,2,0:0:0:0:
382,344,15316,6,0,L|408:223,1,118.999996368408,2|0,0:0|0:0,0:0:0:0:
328,129,16003,1,2,0:0:0:0:
305,53,16232,1,2,0:0:0:0:
330,212,16461,2,0,P|274:212|225:157,1,118.999996368408,2|2,0:0|0:0,0:0:0:0:
135,232,17148,2,0,L|148:356,1,118.999996368408,2|2,0:0|0:0,0:0:0:0:
33,192,18064,2,0,L|21:74,1,118.999996368408,2|2,0:0|0:0,0:0:0:0:
305,53,18980,6,0,B|259:60|259:60|235:83|235:83|183:93,2,118.999996368408,2|0|0,0:0|0:0|0:0,0:0:0:0:
378,16,20125,1,2,0:0:0:0:
378,16,20354,2,0,P|386:58|377:93,1,59.4999981842042,2|2,0:0|0:0,0:0:0:0:
205,174,21728,2,0,P|188:130|198:85,2,89.2499972763062,2|2|2,0:0|0:0|0:0,0:0:0:0:
273,220,22644,6,0,L|391:201,1,118.999996368408,2|0,0:0|0:0,0:0:0:0:
331,290,23331,1,2,0:0:0:0:
285,362,23560,1,2,0:0:0:0:
202,341,23789,2,0,P|160:296|172:222,1,118.999996368408,2|2,0:0|0:0,0:0:0:0:
211,142,24476,2,0,B|188:112|153:109|153:109|136:125|107:130,2,118.999996368408,2|2|2,0:0|0:0|0:0,0:0:0:0:
123,41,25850,2,0,P|82:50|64:68,1,59.4999981842042,2|0,0:0|0:0,0:0:0:0:
31,130,26308,6,0,B|36:186|36:186|36:201|36:201|42:255,2,118.999996368408,2|0|0,0:0|0:0|0:0,0:0:0:0:
69,60,27453,1,2,0:0:0:0:
108,130,27682,1,2,0:0:0:0:
149,62,27911,2,0,B|250:70|206:136|301:146,1,178.499994552612,2|0,0:0|0:0,0:0:0:0:
298,146,29285,2,0,L|303:111,1,29.7499990921021,2|2,0:0|0:0,0:0:0:0:
311,165,29514,2,0,L|297:244,1,59.4999981842042,2|2,0:0|0:0,0:0:0:0:
361,353,29972,6,0,P|289:370|231:324,1,152.999995330811,6|2,3:2|3:2,0:0:0:0:
84,143,30889,2,0,P|156:126|214:172,1,152.999995330811,2|10,3:2|0:0,0:0:0:0:
361,353,31805,6,0,B|397:306|397:306|383:208,1,152.999995330811,2|0,3:2|3:2,0:0:0:0:
425,138,32492,1,2,0:0:0:0:
314,274,32721,2,0,P|265:271|235:243,1,76.4999976654053,2|0,3:2|0:0,0:0:0:0:
190,137,33179,1,8,0:0:0:0:
278,45,33408,1,2,0:0:0:0:
425,138,33637,6,0,L|400:305,1,152.999995330811,2|0,3:2|3:0,0:0:0:0:
285,121,34324,2,0,L|275:22,1,76.4999976654053,2|0,0:0|3:0,0:0:0:0:
382,67,34782,1,2,0:0:0:0:
382,67,35011,2,0,P|430:48|464:59,1,76.4999976654053,10|0,0:0|0:0,0:0:0:0:
299,209,35469,6,0,B|220:217|236:151|155:154,1,152.999995330811,2|0,3:2|3:0,0:0:0:0:
24,326,36385,2,0,L|149:295,2,114.749996498108,2|2|2,3:2|0:0|0:0,0:0:0:0:
119,223,37301,6,0,P|186:232|212:314,1,152.999995330811,2|0,3:2|3:0,0:0:0:0:
79,142,38217,2,0,B|54:75|54:75|67:21,2,114.749996498108,2|2|2,3:2|0:0|0:0,0:0:0:0:
203,94,39133,6,0,P|143:69|123:75,1,76.4999976654053,2|0,3:2|0:0,0:0:0:0:
195,214,39591,2,0,P|255:239|275:233,1,76.4999976654053,2|0,3:2|0:0,0:0:0:0:
376,130,40049,2,0,P|316:105|296:111,1,76.4999976654053,2|0,3:2|0:0,0:0:0:0:
368,250,40507,2,0,P|428:275|448:269,1,76.4999976654053,10|0,0:0|0:0,0:0:0:0:
364,60,40965,6,0,P|316:95|321:184,1,152.999995330811,2|0,3:2|3:0,0:0:0:0:
220,79,41652,1,2,0:0:0:0:
220,79,41881,2,0,P|210:30|212:-1,1,76.4999976654053,2|0,3:2|0:0,0:0:0:0:
172,185,42339,1,10,0:0:0:0:
76,128,42568,6,0,P|60:171|63:225,1,76.4999976654053,2|0,0:0|3:0,0:0:0:0:
95,296,43026,1,2,0:0:0:0:
172,185,43255,1,2,3:2:0:0:
353,259,43484,5,10,0:0:0:0:
428,145,43713,1,0,3:2:0:0:
390,136,43827,1,8,0:0:0:0:
353,127,43942,1,10,0:0:0:0:
256,249,44171,1,10,0:0:0:0:
256,249,44285,1,8,0:0:0:0:
256,249,44400,1,2,3:2:0:0:
192,100,44629,6,0,B|118:114|147:147|75:169,1,136,6|2,3:2|0:0,0:0:0:0:
116,12,45316,2,0,P|167:26|191:102,1,136,2|2,3:2|0:0,0:0:0:0:
68,83,46003,1,10,0:0:0:0:
198,176,46461,6,0,B|266:154|237:121|311:107,1,136,2|2,3:2|0:0,0:0:0:0:
385,51,47148,2,0,B|401:128|401:128|383:145|370:175,1,136,2|2,3:2|3:2,0:0:0:0:
437,278,47835,2,0,P|396:252|371:254,1,68,10|0,0:0|0:0,0:0:0:0:
281,321,48293,6,0,P|222:364|151:350,1,136,2|2,3:2|0:0,0:0:0:0:
86,307,48980,2,0,L|105:162,1,136,2|2,3:2|0:0,0:0:0:0:
193,248,49667,1,10,0:0:0:0:
351,101,50125,6,0,L|193:128,1,136,2|2,3:2|0:0,0:0:0:0:
139,78,50812,2,0,P|175:31|263:49,1,136,2|0,3:2|3:0,0:0:0:0:
351,101,51499,1,8,0:0:0:0:
345,134,51613,1,8,0:0:0:0:
340,168,51728,2,0,L|333:227,1,34,10|0,0:0|3:0,0:0:0:0:
216,123,51957,6,0,L|236:296,1,170,6|10,3:2|0:0,0:0:0:0:
298,357,52644,2,0,P|324:301|318:271,1,85,2|0,0:0|3:0,0:0:0:0:
216,123,53102,1,8,0:0:0:0:
76,238,53331,1,8,0:0:0:0:
11,60,53560,1,10,0:0:0:0:
222,23,53789,6,0,P|298:41|416:77,1,170,6|10,3:2|0:0,0:0:0:0:
216,123,54476,2,0,P|156:134|111:145,1,85,2|0,0:0|3:0,0:0:0:0:
209,302,54934,1,10,0:0:0:0:
209,302,55049,1,8,0:0:0:0:
209,302,55163,1,10,0:0:0:0:
209,302,55278,1,8,0:0:0:0:
209,302,55392,1,8,0:0:0:0:
385,228,55621,5,14,0:0:0:0:
223,115,55850,1,10,0:0:0:0:
108,276,56079,1,10,0:0:0:0:
284,190,56308,1,10,0:0:0:0:
187,25,56537,1,10,0:0:0:0:
360,115,56766,1,10,0:0:0:0:
299,300,56995,1,10,0:0:0:0:
126,140,57224,6,0,B|107:125|100:86|100:86|86:146|127:184|127:184|78:170|39:212,1,255,14|0,0:0|0:0,0:0:0:0:
128,330,58827,1,8,0:0:0:0:
128,330,58941,1,8,0:0:0:0:
128,330,59056,1,8,0:0:0:0:
128,330,59170,1,8,0:0:0:0:
128,330,59285,6,0,P|184:317|237:313,1,93.5000028533936,6|0,3:2|0:0,0:0:0:0:
434,228,59743,2,0,P|378:241|325:245,1,93.5000028533936,10|0,0:0|0:0,0:0:0:0:
209,162,60201,2,0,P|199:112|203:103,1,46.7500014266968,2|8,3:2|0:0,0:0:0:0:
271,30,60430,1,2,0:0:0:0:
271,30,60545,1,2,0:0:0:0:
271,30,60660,2,0,P|287:83|270:130,1,93.5000028533936,8|2,0:0|0:0,0:0:0:0:
180,237,61118,6,0,P|117:226|64:220,1,93.5000028533936,2|2,3:2|0:0,0:0:0:0:
21,74,61576,2,0,P|84:85|137:91,1,93.5000028533936,10|2,0:0|0:0,0:0:0:0:
277,118,62034,2,0,P|266:167|264:182,1,46.7500014266968,2|8,3:2|0:0,0:0:0:0:
259,281,62263,1,2,0:0:0:0:
259,281,62377,1,0,0:0:0:0:
259,281,62492,1,8,0:0:0:0:
394,192,62721,1,2,0:0:0:0:
279,26,62950,6,0,P|216:43|188:153,1,187.000005706787,2|8,3:2|0:0,0:0:0:0:
350,325,63637,1,2,0:0:0:0:
459,280,63866,1,2,3:2:0:0:
459,280,63980,1,8,0:0:0:0:
459,280,64095,1,2,0:0:0:0:
301,208,64324,1,10,0:0:0:0:
360,92,64553,1,2,0:0:0:0:
171,111,64782,6,0,L|184:242,1,93.5000028533936,2|0,3:2|0:0,0:0:0:0:
186,226,65125,1,2,0:0:0:0:
186,226,65240,1,8,0:0:0:0:
75,149,65469,1,2,0:0:0:0:
23,273,65698,1,0,3:2:0:0:
23,273,65812,1,8,0:0:0:0:
23,273,65927,1,0,0:0:0:0:
186,226,66156,1,8,0:0:0:0:
171,66,66385,1,2,0:0:0:0:
130,44,66499,1,2,0:0:0:0:
85,53,66614,5,2,3:2:0:0:
98,236,66843,1,2,0:0:0:0:
98,236,66957,1,2,0:0:0:0:
98,236,67072,1,8,0:0:0:0:
246,140,67301,1,2,0:0:0:0:
415,126,67530,1,2,3:2:0:0:
415,126,67644,1,8,0:0:0:0:
415,126,67759,1,0,0:0:0:0:
340,208,67988,1,8,0:0:0:0:
158,159,68217,1,2,0:0:0:0:
164,112,68331,1,2,0:0:0:0:
171,66,68446,5,2,3:2:0:0:
40,178,68675,1,2,0:0:0:0:
40,178,68789,1,2,0:0:0:0:
40,178,68904,1,8,0:0:0:0:
166,291,69133,1,2,0:0:0:0:
248,138,69362,1,2,3:2:0:0:
248,138,69476,1,8,0:0:0:0:
248,138,69591,1,2,0:0:0:0:
145,181,69820,1,10,0:0:0:0:
166,291,70049,1,2,0:0:0:0:
276,305,70278,6,0,P|352:301|423:209,1,187.000005706787,2|8,3:2|0:0,0:0:0:0:
297,105,70965,1,2,0:0:0:0:
401,57,71194,1,0,3:2:0:0:
401,57,71308,1,8,0:0:0:0:
401,57,71423,1,10,0:0:0:0:
324,218,71652,1,10,0:0:0:0:
114,118,71881,5,14,0:0:0:0:
241,20,72110,1,0,3:2:0:0:
200,215,72339,1,8,0:0:0:0:
20,148,72568,1,8,0:0:0:0:
157,35,72797,1,8,0:0:0:0:
182,20,72911,1,8,0:0:0:0:
212,15,73026,1,2,3:2:0:0:
241,20,73140,1,8,0:0:0:0:
267,35,73255,1,8,0:0:0:0:
286,58,73369,1,10,0:0:0:0:
296,86,73484,2,0,L|307:151,3,46.7500014266968,0|0|2|0,3:2|3:2|3:2|3:2,0:0:0:0:
326,210,73942,6,0,P|367:240|434:229,1,93.5000028533936,6|0,3:2|0:0,0:0:0:0:
223,136,74400,2,0,P|182:106|115:117,1,93.5000028533936,10|0,0:0|0:0,0:0:0:0:
31,235,74858,2,0,L|41:294,1,46.7500014266968,2|8,3:2|0:0,0:0:0:0:
152,193,75087,1,2,0:0:0:0:
152,193,75201,1,2,0:0:0:0:
152,193,75316,2,0,L|167:298,1,93.5000028533936,8|2,0:0|0:0,0:0:0:0:
44,57,75774,6,0,L|138:40,1,93.5000028533936,2|2,3:2|0:0,0:0:0:0:
307,87,76232,2,0,L|214:103,1,93.5000028533936,10|2,0:0|0:0,0:0:0:0:
28,145,76690,2,0,P|60:148|84:155,1,46.7500014266968,2|8,3:2|0:0,0:0:0:0:
152,193,76919,1,2,0:0:0:0:
152,193,77034,1,2,0:0:0:0:
152,193,77148,1,8,0:0:0:0:
307,87,77377,1,2,0:0:0:0:
375,326,77606,6,0,L|404:124,1,187.000005706787,2|8,3:2|0:0,0:0:0:0:
234,50,78293,1,2,0:0:0:0:
234,50,78408,1,2,0:0:0:0:
234,50,78522,2,0,L|223:117,1,46.7500014266968,2|8,3:2|0:0,0:0:0:0:
251,186,78751,1,2,0:0:0:0:
401,140,78980,1,10,0:0:0:0:
460,282,79209,1,2,0:0:0:0:
241,294,79438,6,0,P|200:307|111:340,1,93.5000028533936,2|0,3:2|0:0,0:0:0:0:
135,339,79782,1,2,0:0:0:0:
135,339,79896,1,8,0:0:0:0:
231,194,80125,1,2,0:0:0:0:
69,130,80354,1,0,3:2:0:0:
69,130,80469,1,8,0:0:0:0:
69,130,80583,1,0,0:0:0:0:
176,269,80812,1,8,0:0:0:0:
358,222,81041,1,2,0:0:0:0:
403,211,81155,1,2,0:0:0:0:
449,200,81270,6,0,P|508:148|463:35,1,187.000005706787,2|8,3:2|0:0,0:0:0:0:
360,18,81957,1,2,0:0:0:0:
216,125,82186,1,0,3:2:0:0:
216,125,82301,1,8,0:0:0:0:
216,125,82415,1,2,0:0:0:0:
91,87,82644,2,0,P|90:38|126:-6,1,93.5000028533936,10|2,0:0|0:0,0:0:0:0:
100,216,83102,6,0,P|48:213|15:176,1,93.5000028533936,2|0,3:2|0:0,0:0:0:0:
217,125,83560,2,0,P|274:133|310:188,1,93.5000028533936,10|0,0:0|0:0,0:0:0:0:
394,262,84018,1,2,3:2:0:0:
388,282,84132,1,8,0:0:0:0:
382,303,84247,1,8,0:0:0:0:
377,324,84361,1,8,0:0:0:0:
371,345,84476,1,14,0:0:0:0:
350,350,84591,1,8,0:0:0:0:
329,356,84706,1,8,0:0:0:0:
308,361,84820,1,8,0:0:0:0:
287,367,84934,6,0,B|183:353|228:306|116:290,1,187.000005706787,6|8,3:2|0:0,0:0:0:0:
19,185,85621,1,6,0:0:0:0:
159,105,85850,1,0,3:2:0:0:
168,150,85964,1,8,0:0:0:0:
178,196,86079,1,8,0:0:0:0:
299,258,86308,1,8,0:0:0:0:
306,212,86422,1,8,0:0:0:0:
316,167,86537,1,0,3:2:0:0:
465,92,86766,6,0,P|442:36|306:53,1,187.000005706787,6|8,3:2|0:0,0:0:0:0:
159,105,87453,1,6,0:0:0:0:
306,212,87682,1,0,3:2:0:0:
351,203,87796,1,8,0:0:0:0:
397,194,87911,1,8,0:0:0:0:
251,70,88140,1,8,0:0:0:0:
71,148,88369,1,10,0:0:0:0:
78,192,88483,1,10,0:0:0:0:
85,237,88598,6,0,L|105:366,1,93.5000028533936,6|0,3:2|0:0,0:0:0:0:
235,162,89056,2,0,L|256:40,1,93.5000028533936,8|2,0:0|0:0,0:0:0:0:
212,265,89514,1,0,3:2:0:0:
212,265,89629,1,8,0:0:0:0:
212,265,89743,1,2,0:0:0:0:
291,332,89972,2,0,P|337:352|388:338,1,93.5000028533936,8|2,0:0|0:0,0:0:0:0:
466,134,90430,6,0,P|420:114|369:128,1,93.5000028533936,2|0,3:2|0:0,0:0:0:0:
285,194,90889,1,10,0:0:0:0:
183,142,91118,1,0,0:0:0:0:
158,124,91232,1,8,0:0:0:0:
130,116,91347,1,2,3:2:0:0:
100,119,91461,1,8,0:0:0:0:
73,132,91576,1,8,0:0:0:0:
53,153,91690,1,8,0:0:0:0:
41,181,91805,2,0,L|51:241,1,46.7500014266968,10|8,0:0|0:0,0:0:0:0:
168,278,92034,2,0,L|175:231,1,46.7500014266968,8|8,0:0|0:0,0:0:0:0:
63,359,92263,5,6,3:2:0:0:
431,89,106919,6,0,P|396:47|301:60,1,136,2|0,3:2|0:0,0:0:0:0:
154,146,107606,1,2,0:0:0:0:
236,195,107835,1,2,0:0:0:0:
332,181,108064,2,0,P|390:167|469:156,1,136,2|2,3:2|0:0,0:0:0:0:
319,46,108751,1,2,3:2:0:0:
236,195,109209,1,2,0:0:0:0:
73,234,109667,1,2,0:0:0:0:
236,195,110125,1,2,0:0:0:0:
322,345,110583,6,0,P|353:355|406:276,2,136,2|0|0,3:2|0:0|0:0,0:0:0:0:
228,262,111728,2,0,L|237:186,2,68,2|2|2,3:2|0:0|0:0,0:0:0:0:
326,242,112415,2,0,L|342:87,1,136,2|0,0:0|0:0,0:0:0:0:
142,33,113331,2,0,P|86:31|61:75,2,102,2|2|2,0:0|0:0|0:0,0:0:0:0:
132,125,114247,6,0,P|87:169|4:162,1,136,2|0,3:2|0:0,0:0:0:0:
215,91,114934,1,2,0:0:0:0:
243,188,115163,1,2,0:0:0:0:
336,153,115392,2,0,P|371:105|404:24,1,136,2|2,0:0|0:0,0:0:0:0:
274,16,116079,5,2,3:2:0:0:
243,188,116537,1,2,0:0:0:0:
330,304,116995,1,2,0:0:0:0:
98,342,117453,1,2,0:0:0:0:
50,96,117911,6,0,B|79:72|82:37|82:37|103:64|152:68,2,136,2|0|0,3:2|0:0|0:0,0:0:0:0:
122,146,119056,2,0,P|175:142|198:121,2,68,2|2|2,3:2|0:0|0:0,0:0:0:0:
219,64,119743,2,0,P|284:73|329:140,2,136,2|0|0,0:0|0:0|0:0,0:0:0:0:
122,146,120889,1,0,3:0:0:0:
259,243,121118,1,8,0:0:0:0:
428,189,121347,1,10,0:0:0:0:
428,189,121461,1,8,0:0:0:0:
428,189,121576,6,0,B|455:148|455:148|438:34,1,152.999995330811,6|2,3:2|3:2,0:0:0:0:
206,165,122492,2,0,B|179:206|179:206|196:320,1,152.999995330811,2|10,3:2|0:0,0:0:0:0:
428,189,123408,6,0,P|390:136|288:143,1,152.999995330811,2|0,3:2|3:2,0:0:0:0:
268,214,124095,1,2,0:0:0:0:
137,211,124324,2,0,P|121:156|133:122,1,76.4999976654053,2|0,3:2|0:0,0:0:0:0:
213,103,124782,1,8,0:0:0:0:
268,214,125011,1,2,0:0:0:0:
318,331,125240,6,0,P|395:310|485:293,1,152.999995330811,2|0,3:2|3:2,0:0:0:0:
314,238,125927,2,0,P|260:218|214:210,1,76.4999976654053,2|0,0:0|3:0,0:0:0:0:
424,212,126385,1,2,0:0:0:0:
424,212,126614,2,0,P|451:162|444:119,1,76.4999976654053,10|0,0:0|0:0,0:0:0:0:
334,9,127072,6,0,L|347:177,1,152.999995330811,2|0,3:2|3:2,0:0:0:0:
152,246,127988,2,0,L|140:362,2,114.749996498108,2|2|2,3:2|0:0|0:0,0:0:0:0:
196,177,128904,6,0,P|123:165|74:219,1,152.999995330811,2|0,3:2|3:2,0:0:0:0:
303,76,129820,2,0,L|428:61,2,114.749996498108,2|2|2,3:2|0:0|0:0,0:0:0:0:
235,26,130736,6,0,P|220:71|234:115,1,76.4999976654053,2|0,3:2|0:0,0:0:0:0:
318,225,131194,2,0,P|333:180|319:136,1,76.4999976654053,2|0,3:2|0:0,0:0:0:0:
147,136,131652,2,0,P|132:181|146:225,1,76.4999976654053,2|0,3:2|0:0,0:0:0:0:
230,335,132110,2,0,P|245:290|231:246,1,76.4999976654053,10|0,0:0|0:0,0:0:0:0:
147,51,132568,6,0,P|79:53|32:148,1,152.999995330811,2|0,3:2|3:2,0:0:0:0:
23,250,133255,1,2,0:0:0:0:
23,250,133484,2,0,L|122:235,1,76.4999976654053,2|0,3:2|0:0,0:0:0:0:
199,185,133942,1,10,0:0:0:0:
145,344,134171,6,0,L|244:329,1,76.4999976654053,2|0,0:0|3:2,0:0:0:0:
342,375,134629,1,2,0:0:0:0:
409,218,134858,1,2,3:2:0:0:
273,77,135087,1,10,0:0:0:0:
314,276,135316,1,0,3:2:0:0:
314,276,135430,1,8,0:0:0:0:
314,276,135545,1,10,0:0:0:0:
392,94,135774,1,10,0:0:0:0:
217,195,136003,1,2,3:2:0:0:
86,36,136232,6,0,P|152:19|202:78,1,136,6|2,3:2|0:0,0:0:0:0:
121,119,136919,2,0,B|69:133|69:133|45:163|45:163|-13:180,1,136,2|2,3:2|0:0,0:0:0:0:
16,73,137606,1,10,0:0:0:0:
116,204,138064,6,0,P|165:246|228:229,1,136,2|2,3:2|0:0,0:0:0:0:
318,137,138751,2,0,B|333:124|333:124|364:184|315:229,1,136,2|2,3:2|3:2,0:0:0:0:
241,154,139438,2,0,P|226:104|237:80,1,68,10|0,0:0|0:0,0:0:0:0:
318,18,139896,6,0,L|454:49,1,136,2|2,3:2|0:0,0:0:0:0:
474,137,140583,2,0,P|446:196|423:272,1,136,2|2,3:2|0:0,0:0:0:0:
395,113,141270,1,10,0:0:0:0:
356,314,141728,6,0,L|223:283,1,136,2|2,3:2|0:0,0:0:0:0:
163,354,142415,2,0,P|133:293|158:225,1,136,2|0,3:2|3:0,0:0:0:0:
218,161,143102,1,8,0:0:0:0:
251,153,143216,1,8,0:0:0:0:
284,145,143331,2,0,L|323:133,1,34,10|0,0:0|3:0,0:0:0:0:
192,26,143560,6,0,P|116:51|98:148,1,170,6|10,3:2|0:0,0:0:0:0:
30,222,144247,2,0,P|2:179|6:128,1,85,2|0,0:0|3:2,0:0:0:0:
178,110,144705,1,8,0:0:0:0:
120,303,144934,1,8,0:0:0:0:
327,228,145163,1,10,0:0:0:0:
270,39,145392,6,0,L|244:244,1,170,6|10,3:2|0:0,0:0:0:0:
107,214,146079,2,0,L|90:119,1,85,2|0,0:0|3:0,0:0:0:0:
178,337,146537,1,10,0:0:0:0:
178,337,146652,1,8,0:0:0:0:
178,337,146766,1,8,0:0:0:0:
178,337,146881,1,8,0:0:0:0:
178,337,146995,1,8,0:0:0:0:
248,207,147224,5,14,0:0:0:0:
81,291,147453,1,10,0:0:0:0:
185,141,147682,1,10,0:0:0:0:
314,273,147911,1,10,0:0:0:0:
280,88,148140,1,10,0:0:0:0:
93,131,148369,1,10,0:0:0:0:
265,207,148598,1,10,0:0:0:0:
408,58,148827,6,0,B|444:50|458:10|458:10|475:53|449:106|425:73|400:135|417:190,1,255,14|0,0:0|0:0,0:0:0:0:
280,88,150430,1,8,0:0:0:0:
280,88,150545,1,8,0:0:0:0:
280,88,150660,1,8,0:0:0:0:
280,88,150774,1,8,0:0:0:0:
280,88,150889,6,0,P|219:81|171:73,1,93.5000028533936,6|0,3:2|0:0,0:0:0:0:
49,186,151347,2,0,P|110:193|158:201,1,93.5000028533936,10|0,0:0|0:0,0:0:0:0:
286,258,151805,2,0,L|295:316,1,46.7500014266968,2|8,3:2|0:0,0:0:0:0:
368,205,152034,1,2,0:0:0:0:
368,205,152148,1,2,0:0:0:0:
368,205,152263,2,0,L|381:108,1,93.5000028533936,8|2,0:0|0:0,0:0:0:0:
256,30,152721,6,0,P|209:37|163:42,1,93.5000028533936,2|2,3:2|0:0,0:0:0:0:
49,186,153179,2,0,P|95:178|141:173,1,93.5000028533936,10|2,0:0|0:0,0:0:0:0:
342,207,153637,2,0,L|351:146,1,46.7500014266968,2|8,3:2|0:0,0:0:0:0:
260,128,153866,1,2,0:0:0:0:
260,128,153980,1,2,0:0:0:0:
260,128,154095,1,8,0:0:0:0:
156,285,154324,1,2,0:0:0:0:
36,99,154553,6,0,B|136:124|101:167|197:192,1,187.000005706787,2|8,3:2|0:0,0:0:0:0:
399,156,155240,1,2,0:0:0:0:
399,156,155354,1,2,0:0:0:0:
399,156,155469,2,0,L|408:97,1,46.7500014266968,2|8,3:2|0:0,0:0:0:0:
303,79,155698,1,2,0:0:0:0:
261,246,155927,1,10,0:0:0:0:
192,111,156156,1,2,0:0:0:0:
65,234,156385,6,0,L|81:134,1,93.5000028533936,2|0,3:2|0:0,0:0:0:0:
84,118,156728,1,2,0:0:0:0:
84,118,156843,1,8,0:0:0:0:
253,170,157072,1,2,0:0:0:0:
159,318,157301,1,0,3:2:0:0:
159,318,157415,1,8,0:0:0:0:
159,318,157530,1,0,0:0:0:0:
319,246,157759,1,8,0:0:0:0:
333,67,157988,1,2,0:0:0:0:
294,41,158102,1,2,0:0:0:0:
248,43,158217,5,2,3:2:0:0:
152,193,158446,1,2,0:0:0:0:
152,193,158560,1,2,0:0:0:0:
152,193,158675,1,8,0:0:0:0:
272,314,158904,1,2,0:0:0:0:
381,167,159133,1,2,3:2:0:0:
381,167,159247,1,8,0:0:0:0:
381,167,159362,1,0,0:0:0:0:
225,253,159591,1,8,0:0:0:0:
72,167,159820,1,2,0:0:0:0:
80,120,159934,1,2,0:0:0:0:
88,74,160049,5,2,3:2:0:0:
254,159,160278,1,2,0:0:0:0:
254,159,160392,1,2,0:0:0:0:
254,159,160507,1,8,0:0:0:0:
97,288,160736,1,2,0:0:0:0:
307,226,160965,1,0,3:2:0:0:
307,226,161079,1,8,0:0:0:0:
307,226,161194,1,2,0:0:0:0:
416,275,161423,1,10,0:0:0:0:
465,166,161652,1,2,0:0:0:0:
356,117,161881,6,0,P|276:97|161:96,1,187.000005706787,2|8,3:2|0:0,0:0:0:0:
17,144,162568,1,2,0:0:0:0:
82,270,162797,1,0,3:2:0:0:
82,270,162911,1,8,0:0:0:0:
82,270,163026,1,10,0:0:0:0:
254,174,163255,1,10,0:0:0:0:
72,69,163484,5,6,0:0:0:0:
177,260,163713,1,0,3:2:0:0:
370,185,163942,1,8,0:0:0:0:
201,60,164171,1,10,0:0:0:0:
60,207,164400,1,10,0:0:0:0:
48,231,164514,1,8,0:0:0:0:
45,258,164629,1,2,3:2:0:0:
50,285,164743,1,8,0:0:0:0:
62,309,164858,1,8,0:0:0:0:
81,328,164972,1,10,0:0:0:0:
106,340,165087,2,0,L|154:328,3,46.7500014266968,0|0|2|0,3:2|3:2|3:2|3:2,0:0:0:0:
215,274,165545,6,0,P|265:288|342:303,1,93.5000028533936,6|0,3:2|0:0,0:0:0:0:
437,170,166003,2,0,P|387:156|310:141,1,93.5000028533936,10|0,0:0|0:0,0:0:0:0:
173,182,166461,2,0,L|180:128,1,46.7500014266968,2|8,3:2|0:0,0:0:0:0:
98,71,166690,1,2,0:0:0:0:
98,71,166805,1,2,0:0:0:0:
98,71,166919,2,0,L|85:187,1,93.5000028533936,8|2,0:0|0:0,0:0:0:0:
124,296,167377,6,0,P|174:282|251:267,1,93.5000028533936,2|2,3:2|0:0,0:0:0:0:
400,119,167835,2,0,P|350:133|273:148,1,93.5000028533936,10|2,0:0|0:0,0:0:0:0:
177,58,168293,2,0,L|185:7,1,46.7500014266968,2|8,3:2|0:0,0:0:0:0:
104,153,168522,1,2,0:0:0:0:
104,153,168637,1,2,0:0:0:0:
104,153,168751,1,8,0:0:0:0:
214,273,168980,1,2,0:0:0:0:
333,47,169209,6,0,L|361:256,1,187.000005706787,2|8,3:2|0:0,0:0:0:0:
214,179,169896,1,2,0:0:0:0:
214,179,170011,1,2,0:0:0:0:
214,179,170125,2,0,L|206:124,1,46.7500014266968,0|8,3:2|0:0,0:0:0:0:
241,43,170354,1,2,0:0:0:0:
104,168,170583,1,10,0:0:0:0:
41,15,170812,1,2,0:0:0:0:
197,118,171041,6,0,P|253:138|288:145,1,93.5000028533936,2|0,3:2|0:0,0:0:0:0:
303,146,171385,1,2,0:0:0:0:
303,146,171499,1,8,0:0:0:0:
147,40,171728,1,2,0:0:0:0:
127,225,171957,1,0,3:2:0:0:
127,225,172072,1,8,0:0:0:0:
127,225,172186,1,0,0:0:0:0:
318,251,172415,1,8,0:0:0:0:
226,110,172644,1,2,0:0:0:0:
226,110,172758,1,2,0:0:0:0:
226,110,172873,6,0,L|244:303,1,187.000005706787,2|8,3:2|0:0,0:0:0:0:
401,214,173560,1,2,0:0:0:0:
303,41,173789,1,0,3:2:0:0:
303,41,173904,1,8,0:0:0:0:
303,41,174018,1,2,0:0:0:0:
439,134,174247,1,10,0:0:0:0:
269,212,174476,1,2,0:0:0:0:
126,42,174705,6,0,P|164:22|227:38,1,93.5000028533936,2|0,3:2|0:0,0:0:0:0:
269,212,175163,2,0,P|231:232|168:216,1,93.5000028533936,10|0,0:0|0:0,0:0:0:0:
74,134,175621,1,2,3:2:0:0:
55,145,175735,1,8,0:0:0:0:
40,160,175850,1,8,0:0:0:0:
29,178,175964,1,8,0:0:0:0:
21,198,176079,1,14,0:0:0:0:
23,219,176194,1,8,0:0:0:0:
26,240,176309,1,8,0:0:0:0:
29,261,176423,1,8,0:0:0:0:
31,283,176537,6,0,P|57:315|147:316,1,118.999996368408,6|0,3:2|3:0,0:0:0:0:
312,207,177453,2,0,P|286:175|196:174,1,118.999996368408,0|0,3:0|3:0,0:0:0:0:
140,233,178140,1,2,0:0:0:0:
219,283,178369,1,2,3:2:0:0:
124,223,178598,2,0,P|114:172|114:148,1,59.4999981842042,2|0,0:0|3:0,0:0:0:0:
223,107,179056,2,0,P|213:151|211:181,1,59.4999981842042,2|0,0:0|3:0,0:0:0:0:
318,220,179514,2,0,P|308:169|308:145,1,59.4999981842042,2|0,0:0|3:0,0:0:0:0:
347,74,179972,1,2,0:0:0:0:
223,107,180201,5,2,3:2:0:0:
139,79,180430,1,2,0:0:0:0:
139,79,180545,1,2,0:0:0:0:
139,79,180660,2,0,L|147:8,1,59.4999981842042,2|0,3:2|0:0,0:0:0:0:
59,117,181118,2,0,L|45:239,1,118.999996368408,0|0,3:0|3:0,0:0:0:0:
143,186,181805,1,2,0:0:0:0:
204,326,182034,5,2,3:2:0:0:
251,257,182263,2,0,L|187:245,1,59.4999981842042,2|0,0:0|3:0,0:0:0:0:
69,311,182721,2,0,L|132:299,1,59.4999981842042,2|0,0:0|3:0,0:0:0:0:
251,257,183179,2,0,P|281:211|266:146,1,118.999996368408,2|0,0:0|0:0,0:0:0:0:
160,77,183866,6,0,B|139:124|139:124|158:216,2,118.999996368408,2|0|0,3:2|3:0|3:0,0:0:0:0:
274,9,185240,1,0,3:0:0:0:
357,31,185469,1,2,0:0:0:0:
439,52,185698,5,2,3:2:0:0:
330,104,185927,2,0,P|291:116|257:131,1,59.4999981842042,2|0,0:0|3:0,0:0:0:0:
192,67,186385,2,0,P|149:54|118:50,1,59.4999981842042,2|0,0:0|3:0,0:0:0:0:
73,164,186843,2,0,P|120:150|140:148,1,59.4999981842042,2|0,0:0|3:0,0:0:0:0:
219,203,187301,1,2,0:0:0:0:
330,104,187530,6,0,P|355:143|333:225,1,118.999996368408,2|0,3:2|3:0,0:0:0:0:
344,211,188217,1,2,0:0:0:0:
230,321,188446,2,0,L|218:194,1,118.999996368408,2|0,3:2|3:0,0:0:0:0:
218,202,189133,1,2,0:0:0:0:
134,51,189362,6,0,P|84:51|35:99,1,118.999996368408,2|0,3:2|3:0,0:0:0:0:
9,172,190049,1,2,0:0:0:0:
193,125,190278,2,0,L|181:197,1,59.4999981842042,2|0,3:2|0:0,0:0:0:0:
103,346,190736,2,0,L|86:287,1,59.4999981842042,8|0,0:0|0:0,0:0:0:0:
9,172,191194,5,6,3:2:0:0:
193,27,192110,1,6,3:2:0:0:
284,244,193026,1,6,3:2:0:0:
468,99,193942,2,0,P|440:68|381:68,1,89.2499972763062,6|0,3:2|0:0,0:0:0:0:
376,71,194400,1,8,0:0:0:0:
378,91,194514,1,8,0:0:0:0:
380,112,194629,1,8,0:0:0:0:
382,133,194743,1,8,0:0:0:0:
384,153,194858,6,0,L|392:245,1,85,6|0,3:2|0:0,0:0:0:0:
237,100,195316,2,0,L|249:3,1,85,10|2,0:0|0:0,0:0:0:0:
206,241,195774,1,0,3:2:0:0:
206,241,195889,1,8,0:0:0:0:
206,241,196003,1,0,0:0:0:0:
315,214,196232,2,0,P|357:213|397:247,1,85,8|0,0:0|0:0,0:0:0:0:
242,356,196690,6,0,P|170:370|109:302,1,170,2|10,3:2|0:0,0:0:0:0:
70,185,197377,1,2,0:0:0:0:
237,125,197606,1,0,3:2:0:0:
237,125,197721,1,8,0:0:0:0:
237,125,197835,1,0,0:0:0:0:
122,78,198064,1,8,0:0:0:0:
185,236,198293,1,0,0:0:0:0:
357,153,198522,6,0,P|373:112|360:59,1,85,2|0,3:2|0:0,0:0:0:0:
275,38,198980,1,10,0:0:0:0:
289,229,199209,2,0,P|328:256|372:254,1,85,2|0,0:0|3:2,0:0:0:0:
380,249,199553,1,8,0:0:0:0:
380,249,199667,1,0,0:0:0:0:
237,139,199896,2,0,P|198:112|154:114,1,85,10|2,0:0|0:0,0:0:0:0:
39,195,200354,6,0,L|53:288,1,85,2|0,3:2|0:0,0:0:0:0:
173,372,200812,2,0,L|185:287,1,85,10|0,0:0|0:0,0:0:0:0:
237,139,201270,1,2,3:2:0:0:
237,139,201385,1,8,0:0:0:0:
237,139,201499,1,0,0:0:0:0:
118,172,201728,1,10,0:0:0:0:
266,249,201957,1,0,0:0:0:0:
353,98,202186,6,0,L|361:6,1,85,2|0,3:2|0:0,0:0:0:0:
225,40,202644,1,10,0:0:0:0:
195,207,202873,1,2,0:0:0:0:
69,96,203102,1,0,3:2:0:0:
69,96,203217,1,8,0:0:0:0:
69,96,203331,1,0,0:0:0:0:
189,125,203560,2,0,L|276:110,1,85,10|0,0:0|0:0,0:0:0:0:
93,213,204018,6,0,P|74:264|142:347,1,170,2|10,3:2|0:0,0:0:0:0:
233,260,204705,1,2,0:0:0:0:
397,313,204934,1,0,3:2:0:0:
397,313,205049,1,8,0:0:0:0:
397,313,205163,1,2,0:0:0:0:
330,209,205392,1,10,0:0:0:0:
231,353,205621,1,2,0:0:0:0:
93,213,205850,6,0,P|114:165|229:173,1,170,2|8,3:2|0:0,0:0:0:0:
339,124,206537,2,0,L|327:227,1,85,2|0,0:0|3:0,0:0:0:0:
329,233,206881,1,8,0:0:0:0:
329,233,206995,1,10,0:0:0:0:
443,180,207224,1,10,0:0:0:0:
255,61,207453,5,14,0:0:0:0:
169,224,207682,1,0,3:0:0:0:
339,124,207911,1,10,0:0:0:0:
180,13,208140,1,10,0:0:0:0:
85,177,208369,1,10,0:0:0:0:
72,198,208483,1,8,0:0:0:0:
67,222,208598,1,2,3:2:0:0:
68,246,208712,1,8,0:0:0:0:
76,270,208827,1,10,0:0:0:0:
90,290,208941,1,8,0:0:0:0:
109,305,209056,2,0,L|167:312,3,42.5,2|0|2|0,3:2|3:2|3:2|3:2,0:0:0:0:
146,227,209514,6,0,L|236:213,1,85,6|0,3:2|0:0,0:0:0:0:
397,301,209972,2,0,L|313:314,1,85,10|2,0:0|0:0,0:0:0:0:
331,137,210430,1,0,3:2:0:0:
331,137,210545,1,8,0:0:0:0:
331,137,210660,1,2,0:0:0:0:
425,204,210889,1,8,0:0:0:0:
481,99,211118,1,2,0:0:0:0:
295,24,211347,6,0,B|204:13|219:75|121:68,1,170,2|10,3:2|0:0,0:0:0:0:
21,47,212034,1,2,0:0:0:0:
43,198,212263,1,0,3:2:0:0:
43,198,212377,1,8,0:0:0:0:
43,198,212492,1,2,0:0:0:0:
166,160,212721,1,10,0:0:0:0:
137,321,212950,1,2,0:0:0:0:
265,206,213179,6,0,P|323:192|360:211,1,85,2|0,3:2|0:0,0:0:0:0:
313,326,213637,1,10,0:0:0:0:
177,239,213866,2,0,P|159:192|172:146,1,85,2|0,0:0|3:0,0:0:0:0:
174,141,214209,1,8,0:0:0:0:
174,141,214324,1,2,0:0:0:0:
285,23,214553,2,0,P|303:70|290:116,1,85,8|2,0:0|0:0,0:0:0:0:
134,45,215011,6,0,L|-8:67,2,127.5,2|2|2,3:2|0:0|0:0,0:0:0:0:
235,187,215927,1,0,3:2:0:0:
235,187,216041,1,8,0:0:0:0:
235,187,216156,1,2,0:0:0:0:
70,147,216385,1,10,0:0:0:0:
222,73,216614,1,2,0:0:0:0:
413,187,216843,6,0,P|403:258|390:302,1,85,2|0,3:2|0:0,0:0:0:0:
276,202,217301,1,10,0:0:0:0:
340,66,217530,1,2,0:0:0:0:
507,124,217759,1,0,3:2:0:0:
507,124,217873,1,8,0:0:0:0:
507,124,217988,1,2,0:0:0:0:
435,23,218217,2,0,P|419:84|410:137,1,85,10|2,0:0|0:0,0:0:0:0:
399,270,218675,6,0,P|281:259|259:200,1,170,2|10,3:2|0:0,0:0:0:0:
211,85,219362,1,2,0:0:0:0:
50,160,219591,1,0,3:2:0:0:
50,160,219705,1,8,0:0:0:0:
50,160,219820,1,2,0:0:0:0:
96,57,220049,1,10,0:0:0:0:
138,237,220278,1,2,0:0:0:0:
344,204,220507,6,0,P|364:153|362:87,1,85,2|0,3:2|0:0,0:0:0:0:
282,26,220965,1,10,0:0:0:0:
157,132,221194,1,2,0:0:0:0:
250,278,221423,1,0,3:2:0:0:
270,301,221537,1,8,0:0:0:0:
296,315,221652,1,8,0:0:0:0:
325,319,221766,1,8,0:0:0:0:
354,312,221881,2,0,L|400:302,3,42.5,2|0|0|0,3:2|3:2|3:2|3:2,0:0:0:0:
386,202,222339,5,10,0:0:0:0:
386,202,222453,1,8,0:0:0:0:
386,202,222568,1,8,0:0:0:0:
174,257,222797,1,10,0:0:0:0:
270,103,223026,1,10,0:0:0:0:
263,73,223140,1,8,0:0:0:0:
249,47,223255,1,0,3:2:0:0:
227,28,223369,1,8,0:0:0:0:
199,15,223484,1,10,0:0:0:0:
170,13,223598,1,8,0:0:0:0:
140,17,223713,1,2,3:2:0:0:
115,32,223827,1,0,3:2:0:0:
96,56,223942,1,2,3:2:0:0:
28,191,224171,5,6,3:2:0:0:
28,191,226003,5,6,3:2:0:0:
28,191,227835,5,6,3:2:0:0:
28,191,229667,5,6,3:2:0:0:
124,152,231041,1,8,0:0:0:0:
124,152,231156,1,8,0:0:0:0:
124,152,231270,2,0,L|183:162,1,34,10|0,0:0|3:0,0:0:0:0:
257,175,231499,6,0,B|345:187|327:128|423:138,1,170,6|8,3:2|0:0,0:0:0:0:
282,81,232186,1,2,0:0:0:0:
314,251,232415,1,0,3:0:0:0:
114,249,232644,1,8,0:0:0:0:
257,175,232873,1,8,0:0:0:0:
81,112,233102,1,10,0:0:0:0:
192,315,233331,6,0,P|266:323|313:238,1,170,6|8,3:2|0:0,0:0:0:0:
381,122,234018,1,2,0:0:0:0:
230,220,234247,1,0,3:0:0:0:
169,45,234476,1,8,0:0:0:0:
169,45,234591,1,8,0:0:0:0:
169,45,234705,1,10,0:0:0:0:
169,45,234820,1,8,0:0:0:0:
169,45,234934,1,8,0:0:0:0:
169,45,235049,1,8,0:0:0:0:
169,45,235163,5,14,0:0:0:0:
67,203,235392,1,10,0:0:0:0:
254,119,235621,1,10,0:0:0:0:
305,318,235850,1,10,0:0:0:0:
165,183,236079,1,10,0:0:0:0:
325,63,236308,1,10,0:0:0:0:
388,271,236537,1,10,0:0:0:0:
495,46,236766,6,0,B|492:25|471:0|438:-4|391:16|396:54|401:80|436:103|436:103|456:134|465:162|439:209,1,297.5,14|0,0:0|0:0,0:0:0:0:
441,203,238827,6,0,P|390:191|334:181,1,93.5000028533936,6|0,3:2|0:0,0:0:0:0:
222,55,239285,2,0,P|273:67|329:77,1,93.5000028533936,10|0,0:0|0:0,0:0:0:0:
233,246,239743,2,0,L|229:199,1,46.7500014266968,2|8,3:2|0:0,0:0:0:0:
138,136,239972,1,2,0:0:0:0:
138,136,240087,1,2,0:0:0:0:
138,136,240201,2,0,L|145:245,1,93.5000028533936,8|2,0:0|0:0,0:0:0:0:
200,364,240660,6,0,P|246:374|296:341,1,93.5000028533936,2|2,3:2|0:0,0:0:0:0:
441,203,241118,2,0,P|395:193|345:226,1,93.5000028533936,10|2,0:0|0:0,0:0:0:0:
236,292,241576,2,0,L|232:245,1,46.7500014266968,2|8,3:2|0:0,0:0:0:0:
291,148,241805,1,2,0:0:0:0:
291,148,241919,1,2,0:0:0:0:
291,148,242034,1,8,0:0:0:0:
405,278,242263,1,2,0:0:0:0:
457,65,242492,6,0,B|423:22|369:29|369:29|343:65|288:63,1,187.000005706787,2|8,3:2|0:0,0:0:0:0:
112,37,243179,1,2,0:0:0:0:
112,37,243293,1,2,0:0:0:0:
112,37,243408,2,0,L|122:93,1,46.7500014266968,2|8,3:2|0:0,0:0:0:0:
150,204,243637,1,2,0:0:0:0:
277,159,243866,1,10,0:0:0:0:
253,316,244095,1,2,0:0:0:0:
391,240,244324,6,0,L|484:220,1,93.5000028533936,2|0,3:2|0:0,0:0:0:0:
501,219,244667,1,2,0:0:0:0:
501,219,244782,1,8,0:0:0:0:
344,79,245011,1,2,0:0:0:0:
318,252,245240,1,0,3:2:0:0:
318,252,245354,1,8,0:0:0:0:
318,252,245469,1,0,0:0:0:0:
146,193,245698,1,8,0:0:0:0:
253,61,245927,1,2,0:0:0:0:
298,70,246041,1,2,0:0:0:0:
344,79,246156,5,2,3:2:0:0:
407,257,246385,1,2,0:0:0:0:
407,257,246499,1,2,0:0:0:0:
407,257,246614,1,10,0:0:0:0:
251,160,246843,1,2,0:0:0:0:
171,314,247072,1,2,3:2:0:0:
171,314,247186,1,8,0:0:0:0:
171,314,247301,1,0,0:0:0:0:
321,223,247530,1,8,0:0:0:0:
164,135,247759,1,2,0:0:0:0:
119,144,247873,1,2,0:0:0:0:
73,153,247988,5,2,3:2:0:0:
107,333,248217,1,2,0:0:0:0:
107,333,248331,1,2,0:0:0:0:
107,333,248446,1,10,0:0:0:0:
231,225,248675,1,2,0:0:0:0:
321,372,248904,1,2,3:2:0:0:
321,372,249018,1,8,0:0:0:0:
321,372,249133,1,2,0:0:0:0:
397,284,249362,1,10,0:0:0:0:
371,174,249591,1,2,0:0:0:0:
266,132,249820,6,0,B|162:132|193:202|94:216,1,187.000005706787,2|8,3:2|0:0,0:0:0:0:
19,53,250507,1,2,0:0:0:0:
104,128,250736,1,0,3:2:0:0:
104,128,250850,1,8,0:0:0:0:
104,128,250965,1,10,0:0:0:0:
232,46,251194,1,10,0:0:0:0:
182,266,251423,5,6,0:0:0:0:
3,164,251652,1,0,3:2:0:0:
153,25,251881,1,8,0:0:0:0:
247,211,252110,1,8,0:0:0:0:
408,58,252339,1,10,0:0:0:0:
430,73,252453,1,8,0:0:0:0:
447,94,252568,1,2,3:2:0:0:
459,118,252682,1,8,0:0:0:0:
464,144,252797,1,8,0:0:0:0:
463,171,252911,1,10,0:0:0:0:
455,197,253026,2,0,L|441:254,3,46.7500014266968,0|0|2|0,3:2|3:2|3:2|3:2,0:0:0:0:
381,143,253484,6,0,P|314:126|271:120,1,93.5000028533936,6|0,3:2|0:0,0:0:0:0:
72,230,253942,2,0,P|139:213|182:207,1,93.5000028533936,10|0,0:0|0:0,0:0:0:0:
294,268,254400,2,0,L|299:325,1,46.7500014266968,2|8,3:2|0:0,0:0:0:0:
371,233,254629,1,2,0:0:0:0:
371,233,254743,1,2,0:0:0:0:
371,233,254858,2,0,L|384:341,1,93.5000028533936,8|2,0:0|0:0,0:0:0:0:
289,122,255316,6,0,P|294:54|303:13,1,93.5000028533936,2|0,3:2|0:0,0:0:0:0:
163,209,255774,2,0,P|155:255|153:301,1,93.5000028533936,10|0,0:0|0:0,0:0:0:0:
37,75,256232,2,0,L|97:67,1,46.7500014266968,2|8,3:2|0:0,0:0:0:0:
180,61,256461,1,2,0:0:0:0:
180,61,256576,1,2,0:0:0:0:
180,61,256690,1,8,0:0:0:0:
64,187,256919,1,2,0:0:0:0:
270,160,257148,6,0,B|347:149|347:149|387:171|387:171|470:158,1,187.000005706787,2|8,3:2|0:0,0:0:0:0:
291,33,257835,1,2,0:0:0:0:
291,33,257950,1,10,0:0:0:0:
291,33,258064,2,0,P|286:71|285:90,1,46.7500014266968,2|8,3:2|0:0,0:0:0:0:
185,145,258293,1,2,0:0:0:0:
282,286,258522,1,10,0:0:0:0:
110,252,258751,1,2,0:0:0:0:
152,54,258980,6,0,P|230:61|260:70,1,93.5000028533936,2|0,3:2|0:0,0:0:0:0:
285,79,259324,1,2,0:0:0:0:
285,79,259438,1,8,0:0:0:0:
217,231,259667,1,2,0:0:0:0:
49,144,259896,1,0,3:2:0:0:
49,144,260011,1,8,0:0:0:0:
49,144,260125,1,0,0:0:0:0:
216,9,260354,1,8,0:0:0:0:
332,195,260583,1,2,0:0:0:0:
332,195,260698,1,2,0:0:0:0:
332,195,260812,6,0,B|356:238|339:292|339:292|297:331|321:388,1,187.000005706787,2|8,3:2|0:0,0:0:0:0:
267,245,261499,1,2,0:0:0:0:
402,358,261728,1,0,3:2:0:0:
402,358,261843,1,8,0:0:0:0:
402,358,261957,1,2,0:0:0:0:
464,271,262186,2,0,P|485:209|473:165,1,93.5000028533936,10|2,0:0|0:0,0:0:0:0:
398,59,262644,6,0,P|336:66|303:107,1,93.5000028533936,2|0,3:2|0:0,0:0:0:0:
267,245,263102,2,0,P|329:238|362:197,1,93.5000028533936,10|0,0:0|0:0,0:0:0:0:
228,38,263560,1,2,3:2:0:0:
202,29,263674,1,8,0:0:0:0:
175,28,263789,1,8,0:0:0:0:
149,36,263903,1,8,0:0:0:0:
126,50,264018,1,14,0:0:0:0:
109,71,264132,1,8,0:0:0:0:
98,96,264247,1,8,0:0:0:0:
95,123,264361,1,8,0:0:0:0:
100,149,264476,6,0,L|115:259,1,93.5000028533936,6|0,3:2|0:0,0:0:0:0:
332,139,264934,1,10,0:0:0:0:
189,342,265163,1,6,0:0:0:0:
408,272,265392,1,0,3:2:0:0:
415,225,265506,1,8,0:0:0:0:
422,179,265621,1,8,0:0:0:0:
240,57,265851,1,8,0:0:0:0:
234,96,265966,1,8,0:0:0:0:
227,137,266080,1,0,3:2:0:0:
189,342,266308,6,0,L|80:324,1,93.5000028533936,6|0,3:2|0:0,0:0:0:0:
15,149,266766,1,8,0:0:0:0:
225,232,266995,1,6,0:0:0:0:
143,39,267224,1,0,3:2:0:0:
148,85,267338,1,8,0:0:0:0:
154,131,267453,1,8,0:0:0:0:
366,45,267682,1,8,0:0:0:0:
337,254,267911,1,10,0:0:0:0:
331,298,268025,1,10,0:0:0:0:
325,343,268140,6,0,P|275:347|231:324,1,93.5000028533936,6|0,3:2|0:0,0:0:0:0:
244,128,268598,2,0,P|306:133|338:163,1,93.5000028533936,8|2,0:0|0:0,0:0:0:0:
447,238,269056,1,0,3:2:0:0:
447,238,269171,1,8,0:0:0:0:
447,238,269285,1,2,0:0:0:0:
473,88,269514,1,8,0:0:0:0:
268,216,269743,1,2,0:0:0:0:
43,140,269972,6,0,P|30:86|28:44,1,93.5000028533936,2|0,3:2|0:0,0:0:0:0:
115,284,270430,2,0,P|102:338|100:380,1,93.5000028533936,10|0,0:0|0:0,0:0:0:0:
222,56,270889,1,2,3:2:0:0:
266,41,271003,1,8,0:0:0:0:
311,51,271118,1,8,0:0:0:0:
345,81,271232,1,8,0:0:0:0:
360,125,271347,1,10,0:0:0:0:
317,311,271576,1,2,3:2:0:0:
182,181,271805,6,0,L|109:190,2,50.9999984436036,2|2|2,0:0|0:0|0:0,0:0:0:0:
258,137,272492,2,0,L|365:124,2,101.999996887207,2|2|2,0:0|0:0|0:0,0:0:0:0:
182,95,273637,2,0,L|191:34,2,50.9999984436036,2|2|2,0:0|0:0|0:0,0:0:0:0:
182,181,274324,2,0,L|164:300,1,114.749996498108,2|0,0:0|0:0,0:0:0:0:
162,316,275469,6,0,P|203:331|222:328,2,50.9999984436036,2|2|2,0:0|0:0|0:0,0:0:0:0:
245,263,276156,2,0,P|289:241|342:250,1,101.999996887207,2|2,0:0|0:0,0:0:0:0:
424,292,276843,1,2,0:0:0:0:
424,292,277072,1,2,0:0:0:0:
457,214,277301,2,0,P|466:180|467:158,3,50.9999984436036,2|2|2|2,0:0|0:0|0:0|0:0,0:0:0:0:
461,84,278217,2,0,P|427:93|407:103,1,50.9999984436036,2|2,0:0|0:0,0:0:0:0:
347,146,278675,2,0,P|371:170|390:182,1,50.9999984436036,2|2,0:0|0:0,0:0:0:0:
255,81,279133,6,0,L|261:16,2,50.9999984436036,2|2|2,0:0|0:0|0:0,0:0:0:0:
205,154,279820,2,0,L|214:270,2,101.999996887207,2|2|2,0:0|0:0|0:0,0:0:0:0:
173,76,280965,2,0,L|109:72,2,50.9999984436036,2|2|2,0:0|0:0|0:0,0:0:0:0:
205,154,281652,1,2,0:0:0:0:
205,154,281881,2,0,L|255:157,1,50.9999984436036,2|0,0:0|0:0,0:0:0:0:
163,228,282339,2,0,L|112:224,1,50.9999984436036,2|0,0:0|0:0,0:0:0:0:
203,305,282797,6,0,P|232:330|300:329,1,101.999996887207,2|2,0:0|0:0,0:0:0:0:
368,289,283484,1,2,0:0:0:0:
368,289,283942,2,0,P|383:255|380:224,2,50.9999984436036,2|2|2,0:0|0:0|0:0,0:0:0:0:
292,242,284629,5,2,0:0:0:0:
