osu file format v14

[General]
AudioFilename: audio.mp3
AudioLeadIn: 0
PreviewTime: 67994
Countdown: 0
SampleSet: Soft
StackLeniency: 0.5
Mode: 0
LetterboxInBreaks: 0
WidescreenStoryboard: 0

[Editor]
DistanceSpacing: 1
BeatDivisor: 4
GridSize: 32
TimelineZoom: 2

[Metadata]
Title:REMOTE
TitleUnicode:REMOTE
Artist:FROZEN QUALIA
ArtistUnicode:FROZEN QUALIA
Creator:Mordred
Version:Normal
Source:
Tags:月乃ひな tsukino hina locus SINGLE BEST Journey kazuki ~Journey~ japanese pop
BeatmapID:2864382
BeatmapSetID:1386237

[Difficulty]
HPDrainRate:4
CircleSize:3
OverallDifficulty:4
ApproachRate:5.5
SliderMultiplier:1.2
SliderTickRate:1

[Events]
//Background and Video events
0,0,"53904007_p0 x.jpg",0,0
//Break Periods
2,55441,60898
2,96583,107259
2,208012,213544
//Storyboard Layer 0 (Background)
//Storyboard Layer 1 (Fail)
//Storyboard Layer 2 (Pass)
//Storyboard Layer 3 (Foreground)
//Storyboard Layer 4 (Overlay)
//Storyboard Sound Samples

[TimingPoints]
384,428.571428571429,4,2,1,70,1,0
14098,-100,4,2,1,80,0,1
27812,-100,4,2,1,70,0,0
28241,-100,4,2,1,50,0,0
41526,-100,4,2,1,60,0,0
55241,-100,4,2,2,70,0,0
62098,-100,4,2,1,30,0,0
62955,-100,4,2,1,40,0,0
63812,-100,4,2,1,50,0,0
64669,-100,4,2,1,60,0,0
68955,-90.9090909090909,4,2,1,80,0,1
96276,-100,4,2,1,70,0,0
96384,-100,4,2,1,80,0,0
110098,-100,4,2,1,70,0,0
110526,-100,4,2,1,60,0,0
123812,-100,4,2,1,50,0,0
128419,-100,4,2,1,55,0,0
129276,-100,4,2,1,60,0,0
130134,-100,4,2,1,70,0,0
130991,-100,4,2,1,50,0,0
131848,-100,4,2,1,55,0,0
132705,-100,4,2,1,60,0,0
133562,-100,4,2,1,65,0,0
134419,-100,4,2,1,70,0,0
138169,-100,4,2,1,60,0,0
151241,-90.9090909090909,4,2,1,80,0,1
178669,-100,4,2,1,70,0,0
207812,-100,4,2,1,70,0,0
221955,-90.9090909090909,4,2,1,80,0,1
235134,-90.9090909090909,4,2,1,70,0,0
235241,-100,4,2,1,80,0,1
262669,-100,4,2,1,70,0,0

[Colours]
Combo1 : 250,180,240
Combo2 : 110,190,225
Combo3 : 255,230,130
Combo4 : 150,230,140

[HitObjects]
17,56,10669,6,0,L|135:71,1,120,0|0,1:2|1:2,0:0:0:0:
203,171,11526,2,0,L|321:155,1,120,0|0,1:2|1:2,0:0:0:0:
432,203,12384,2,0,L|439:262,1,60,0|0,1:2|1:2,0:0:0:0:
486,300,12812,2,0,L|478:359,1,60,0|0,1:2|1:2,0:0:0:0:
433,383,13241,2,0,P|347:358|258:344,1,180,0|0,1:2|1:2,0:0:0:0:
217,300,14098,6,0,P|188:308|158:313,2,60,6|2|10,1:0|0:2|0:2,0:0:0:0:
254,252,14741,2,0,L|260:222,1,30,2|2,0:2|0:1,0:0:0:0:
328,164,15169,2,0,P|366:155|392:148,2,60,2|10|2,0:2|0:2|0:2,0:0:0:0:
281,125,15812,1,2,1:0:0:0:
231,21,16241,1,10,0:2:0:0:
231,21,16455,2,0,L|196:23,1,30,2|2,0:2|0:1,0:0:0:0:
116,54,16884,2,0,P|86:46|59:35,2,60,2|10|2,0:2|0:2|0:2,0:0:0:0:
139,109,17526,6,0,P|151:167|160:226,1,120,2|10,1:1|0:2,0:0:0:0:
132,279,18169,2,0,P|134:293|137:308,1,30,2|2,0:2|0:1,0:0:0:0:
225,325,18598,2,0,P|220:354|214:383,2,60,2|10|2,0:2|0:2|0:2,0:0:0:0:
272,288,19241,1,2,1:1:0:0:
385,340,19669,1,10,0:2:0:0:
385,340,19884,2,0,L|433:345,1,30,2|2,0:2|0:1,0:0:0:0:
485,287,20312,2,0,P|493:258|500:229,1,60,2|10,0:1|0:1,0:0:0:0:
486,170,20741,1,2,0:1:0:0:
462,114,20955,6,0,L|343:95,1,120,6|10,1:1|0:2,0:0:0:0:
292,63,21598,2,0,L|262:67,1,30,2|2,0:2|0:1,0:0:0:0:
212,142,22026,2,0,L|152:132,2,60,2|10|2,0:2|0:2|0:2,0:0:0:0:
252,186,22669,1,2,1:1:0:0:
313,295,23098,1,10,0:2:0:0:
313,295,23312,2,0,L|305:328,1,30,2|2,0:2|0:1,0:0:0:0:
215,326,23741,2,0,L|229:384,2,60,2|10|2,0:2|0:2|0:2,0:0:0:0:
164,292,24384,6,0,P|106:274|48:259,1,120,6|10,1:1|0:2,0:0:0:0:
12,211,25026,2,0,P|10:196|7:181,1,30,2|2,0:2|0:1,0:0:0:0:
61,108,25455,2,0,P|49:80|45:50,2,60,2|10|2,0:2|0:2|0:2,0:0:0:0:
114,135,26098,2,0,L|174:144,1,60,6|0,1:1|1:2,0:0:0:0:
206,193,26526,2,0,L|266:184,1,60,0|0,1:2|1:2,0:0:0:0:
315,150,26955,2,0,P|303:206|442:308,1,240,0|4,1:2|1:1,0:0:0:0:
507,221,28241,5,2,1:2:0:0:
477,104,28669,1,2,1:2:0:0:
367,54,29098,1,2,1:2:0:0:
366,54,29312,2,0,P|308:66|244:69,1,120,2|2,0:2|0:2,0:0:0:0:
133,60,30169,1,2,0:2:0:0:
133,60,30384,2,0,P|118:33|107:5,2,60,2|2|2,1:2|0:2|1:2,0:0:0:0:
131,119,31026,1,2,0:2:0:0:
26,265,31669,5,2,1:2:0:0:
93,364,32098,2,0,L|229:385,1,120,2|2,1:2|1:2,0:0:0:0:
270,370,32741,1,2,0:2:0:0:
187,283,33169,1,2,0:2:0:0:
232,171,33598,1,2,0:2:0:0:
232,171,33812,2,0,L|213:96,2,60,2|2|2,1:2|0:2|1:2,0:0:0:0:
284,201,34455,1,2,0:2:0:0:
361,38,35098,5,2,1:2:0:0:
476,67,35526,2,0,P|492:124|502:184,1,120,2|2,1:2|1:2,0:0:0:0:
471,235,36169,1,2,0:2:0:0:
498,352,36598,1,2,0:2:0:0:
382,383,37026,1,2,0:2:0:0:
382,383,37241,2,0,L|312:370,1,60,2|2,1:2|0:2,0:0:0:0:
263,376,37669,2,0,L|193:363,1,60,2|2,1:2|0:2,0:0:0:0:
145,380,38098,6,0,P|133:322|138:262,1,120,2|0,1:2|1:2,0:0:0:0:
246,209,38955,2,0,P|305:214|364:201,1,120,0|0,1:2|1:2,0:0:0:0:
408,160,39598,1,2,0:2:0:0:
408,160,39812,2,0,L|419:32,1,120,2|2,1:2|1:2,0:0:0:0:
374,0,40455,1,2,0:2:0:0:
273,66,40884,2,0,L|267:125,2,60,2|2|2,0:2|1:2|0:2,0:0:0:0:
234,20,41526,1,4,1:1:0:0:
125,71,41955,6,0,P|95:78|65:80,1,60,2|2,1:2|0:2,0:0:0:0:
9,58,42384,2,0,P|30:113|27:172,1,120,2|2,1:2|1:2,0:0:0:0:
0,226,43026,1,2,0:2:0:0:
36,340,43455,1,2,0:2:0:0:
146,292,43884,1,2,0:2:0:0:
146,292,44098,2,0,L|217:304,1,60,2|2,1:2|0:2,0:0:0:0:
251,348,44526,1,2,1:2:0:0:
251,348,44741,1,2,0:2:0:0:
348,196,45384,6,0,P|333:156|314:127,1,60,2|2,1:2|0:2,0:0:0:0:
272,111,45812,2,0,P|328:97|355:46,1,120,2|2,1:2|1:2,0:0:0:0:
405,11,46455,1,2,0:2:0:0:
496,88,46884,1,2,0:2:0:0:
453,200,47312,1,2,0:2:0:0:
453,200,47526,2,0,L|469:263,1,60,2|2,1:2|0:2,0:0:0:0:
464,322,47955,1,2,1:2:0:0:
464,322,48169,1,2,0:2:0:0:
293,378,48812,6,0,L|233:369,1,60,2|2,1:2|0:2,0:0:0:0:
174,379,49241,2,0,P|208:332|203:274,1,120,2|2,1:2|1:2,0:0:0:0:
158,234,49884,2,0,L|28:223,2,120,2|2|2,0:2|0:2|0:2,0:0:0:0:
200,191,50955,2,0,L|205:125,1,60,2|2,1:2|0:2,0:0:0:0:
162,88,51384,2,0,L|167:22,1,60,2|2,1:2|0:2,0:0:0:0:
220,1,51812,6,0,L|339:11,1,120,2|0,1:2|1:2,0:0:0:0:
420,99,52669,2,0,L|409:218,1,120,0|0,1:2|1:2,0:0:0:0:
375,269,53312,1,2,0:2:0:0:
375,269,53526,2,0,P|318:286|259:276,1,120,2|2,1:2|1:2,0:0:0:0:
202,295,54169,1,2,0:2:0:0:
132,196,54598,1,2,0:2:0:0:
24,243,55026,1,2,0:2:0:0:
24,243,55241,1,6,1:1:0:0:
84,73,62098,5,2,1:2:0:0:
48,187,62526,1,0,1:2:0:0:
162,223,62955,1,0,1:2:0:0:
198,109,63384,1,0,1:2:0:0:
314,109,63812,5,2,1:2:0:0:
350,223,64241,1,0,1:2:0:0:
464,187,64670,1,0,1:2:0:0:
428,73,65098,1,0,1:2:0:0:
256,192,65526,12,2,68098,1:2:0:0:
69,301,68955,5,4,1:1:0:0:
69,301,69169,2,0,P|62:269|58:237,1,66.0000020141602,2|10,0:2|0:2,0:0:0:0:
86,176,69598,2,0,P|101:170|117:168,1,33.0000010070801,2|2,0:2|0:2,0:0:0:0:
203,216,70026,2,0,P|235:222|268:224,1,66.0000020141602,2|10,0:2|0:2,0:0:0:0:
330,201,70455,1,2,0:2:0:0:
266,85,70884,2,0,P|270:52|281:21,1,66.0000020141602,2|10,0:2|0:2,0:0:0:0:
344,2,71312,2,0,L|383:10,1,33.0000010070801,2|2,0:2|0:2,0:0:0:0:
454,69,71741,2,0,L|469:132,1,66.0000020141602,2|10,0:2|0:2,0:0:0:0:
451,196,72169,1,2,0:2:0:0:
483,322,72598,6,0,P|454:339|423:350,1,66.0000020141602,2|10,0:2|0:2,0:0:0:0:
361,373,73026,2,0,L|322:368,1,33.0000010070801,2|2,0:2|0:2,0:0:0:0:
247,310,73455,2,0,L|181:320,2,66.0000020141602,2|10|2,0:2|0:2|0:2,0:0:0:0:
295,265,74098,2,0,L|307:196,1,66.0000020141602,2|2,1:2|0:2,0:0:0:0:
360,162,74526,1,10,0:2:0:0:
360,162,74741,1,2,0:2:0:0:
291,49,75169,1,2,0:2:0:0:
238,56,75384,1,10,0:2:0:0:
185,63,75598,2,0,L|111:51,1,66.0000020141602,2|4,0:2|1:2,0:0:0:0:
59,78,76026,5,2,0:2:0:0:
59,78,76241,2,0,P|39:129|32:180,1,99.0000030212403,10|2,0:2|0:2,0:0:0:0:
62,266,76884,2,0,P|31:277|-1:283,2,66.0000020141602,2|10|2,0:2|0:2|0:2,0:0:0:0:
170,341,77741,2,0,P|202:346|234:356,1,66.0000020141602,2|10,0:2|0:2,0:0:0:0:
294,384,78169,2,0,P|310:381|327:376,1,33.0000010070801,2|2,0:2|0:2,0:0:0:0:
389,300,78598,2,0,L|402:229,1,66.0000020141602,2|10,0:2|0:2,0:0:0:0:
366,185,79026,1,2,0:2:0:0:
366,185,79241,1,6,1:2:0:0:
249,241,79669,5,10,0:2:0:0:
249,241,79884,2,0,P|182:250|117:243,1,132.00000402832,2|2,0:2|0:2,0:0:0:0:
64,205,80526,2,0,L|56:140,1,66.0000020141602,10|2,0:2|0:2,0:0:0:0:
8,93,80955,2,0,P|58:105|128:36,1,132.00000402832,6|10,1:2|0:2,0:0:0:0:
163,11,81598,1,2,0:2:0:0:
273,83,82026,1,2,0:2:0:0:
394,29,82455,2,0,P|426:34|458:41,1,66.0000020141602,2|4,0:2|1:1,0:0:0:0:
495,96,82884,6,0,L|503:161,1,66.0000020141602,2|10,0:2|0:2,0:0:0:0:
474,220,83312,2,0,L|478:252,1,33.0000010070801,2|2,0:2|0:2,0:0:0:0:
427,337,83741,2,0,P|457:349|487:364,2,66.0000020141602,2|10|2,0:2|0:2|0:2,0:0:0:0:
303,383,84598,2,0,L|288:318,1,66.0000020141602,2|10,0:2|0:2,0:0:0:0:
308,255,85026,2,0,L|300:222,1,33.0000010070801,2|2,0:2|0:2,0:0:0:0:
348,135,85455,2,0,L|333:70,1,66.0000020141602,2|10,0:2|0:2,0:0:0:0:
276,38,85884,1,2,0:2:0:0:
150,13,86312,6,0,P|117:16|85:25,1,66.0000020141602,2|10,0:2|0:2,0:0:0:0:
47,79,86741,2,0,L|42:117,1,33.0000010070801,2|2,0:2|0:2,0:0:0:0:
12,205,87169,2,0,L|22:281,1,66.0000020141602,2|10,0:2|0:2,0:0:0:0:
4,334,87598,2,0,P|60:302|125:308,1,132.00000402832,2|2,0:2|0:2,0:0:0:0:
176,359,88241,1,10,0:2:0:0:
176,359,88455,1,2,0:2:0:0:
264,261,88884,2,0,L|273:196,1,66.0000020141602,2|10,0:2|0:2,0:0:0:0:
243,136,89312,1,2,0:2:0:0:
243,136,89526,6,0,L|372:163,1,132.00000402832,6|8,1:2|0:2,0:0:0:0:
455,60,90384,2,0,L|325:32,1,132.00000402832,0|8,1:2|0:2,0:0:0:0:
269,10,91026,1,2,0:2:0:0:
269,10,91241,2,0,L|200:19,1,66.0000020141602,2|2,1:2|0:2,0:0:0:0:
156,64,91669,1,10,0:2:0:0:
156,64,91884,1,2,0:2:0:0:
26,39,92312,1,2,0:2:0:0:
10,170,92741,1,2,0:2:0:0:
10,170,92955,6,0,L|22:240,1,66.0000020141602,4|2,1:2|0:2,0:0:0:0:
7,302,93384,1,10,0:2:0:0:
7,302,93598,1,2,0:2:0:0:
113,380,94026,1,2,0:2:0:0:
222,305,94455,1,2,0:2:0:0:
222,305,94669,2,0,L|286:316,1,66.0000020141602,2|0,1:2|1:0,0:0:0:0:
328,368,95098,2,0,L|392:356,1,66.0000020141602,2|2,1:2|1:2,0:0:0:0:
455,378,95526,2,0,B|456:326|433:292|433:292|475:231|475:231|455:202|452:116,1,264.000008056641,0|4,1:2|1:1,0:0:0:0:
96,352,108384,6,0,L|84:293,1,60,6|0,1:1|1:2,0:0:0:0:
36,256,108812,2,0,L|48:197,1,60,0|0,1:2|1:2,0:0:0:0:
19,144,109241,2,0,P|131:164|203:75,1,240,0|4,1:2|1:1,0:0:0:0:
305,12,110526,6,0,P|335:16|365:22,1,60,2|2,1:2|0:2,0:0:0:0:
423,9,110955,2,0,P|396:62|380:120,1,120,2|2,1:2|1:2,0:0:0:0:
394,179,111598,1,2,0:2:0:0:
489,250,112026,1,2,0:2:0:0:
431,355,112455,1,2,0:2:0:0:
431,355,112669,2,0,L|359:346,1,60,2|2,1:2|0:2,0:0:0:0:
318,376,113098,1,2,1:2:0:0:
318,376,113312,1,2,0:2:0:0:
210,231,113955,6,0,P|205:201|203:166,1,60,2|2,1:2|0:2,0:0:0:0:
237,121,114384,2,0,P|181:141|122:130,1,120,2|2,1:2|1:2,0:0:0:0:
81,87,115026,1,2,0:2:0:0:
5,180,115455,1,2,0:2:0:0:
39,300,115884,1,2,0:2:0:0:
39,300,116098,2,0,L|108:314,1,60,2|2,1:2|0:2,0:0:0:0:
142,360,116526,1,2,1:2:0:0:
142,360,116741,1,2,0:2:0:0:
249,215,117384,6,0,P|244:186|234:158,1,60,2|2,1:2|0:2,0:0:0:0:
181,130,117812,2,0,P|238:120|267:70,1,120,2|2,1:2|1:2,0:0:0:0:
240,16,118455,1,2,0:2:0:0:
359,0,118884,1,2,0:2:0:0:
458,67,119312,1,2,0:2:0:0:
458,67,119526,2,0,L|464:126,1,60,2|2,1:2|0:2,0:0:0:0:
502,173,119955,2,0,L|495:232,1,60,2|2,1:2|0:2,0:0:0:0:
480,290,120384,6,0,P|421:303|362:314,1,120,2|0,1:2|1:2,0:0:0:0:
249,272,121241,2,0,P|190:282|131:296,1,120,0|0,1:2|1:2,0:0:0:0:
93,343,121884,1,2,0:2:0:0:
93,343,122098,1,2,1:2:0:0:
16,250,122526,1,2,1:2:0:0:
16,250,122741,1,2,0:2:0:0:
86,153,123169,1,2,0:2:0:0:
25,49,123598,1,2,0:2:0:0:
25,49,123812,1,4,1:1:0:0:
340,123,125526,5,2,0:2:0:0:
113,198,127241,1,2,3:2:0:0:
184,293,127669,2,0,P|176:323|165:351,2,60,0|0|0,3:2|3:2|3:2,0:0:0:0:
301,259,128526,1,0,3:2:0:0:
301,259,128741,2,0,P|358:276|417:287,1,120,0|0,3:2|0:0,0:0:0:0:
510,211,129598,1,0,3:2:0:0:
510,211,129812,2,0,L|505:145,1,60,0|0,3:2|0:0,0:0:0:0:
510,91,130241,2,0,B|461:121|461:121|397:101,1,120,0|6,1:2|1:2,0:0:0:0:
286,67,131098,6,0,L|278:2,2,60,0|0|0,3:2|3:2|3:2,0:0:0:0:
206,157,131955,1,0,3:2:0:0:
206,157,132169,2,0,P|160:168|69:179,2,120,0|0|0,3:2|0:0|3:2,0:0:0:0:
262,173,133241,2,0,P|276:200|285:229,1,60,0|0,3:2|0:0,0:0:0:0:
270,287,133669,2,0,P|279:315|292:342,1,60,0|0,3:2|3:2,0:0:0:0:
346,367,134098,2,0,P|477:311|486:169,1,300,0|0,1:2|0:0,0:0:0:0:
411,74,135598,1,0,3:2:0:0:
411,74,135812,6,0,L|351:81,1,60,0|0,1:2|1:2,0:0:0:0:
308,123,136241,2,0,L|248:115,1,60,0|0,1:2|1:2,0:0:0:0:
204,75,136669,2,0,B|228:130|228:130|197:197|197:197|217:224|217:224|212:250|212:250|225:268|225:268|231:305,1,240,0|4,1:2|1:1,0:0:0:0:
401,358,138169,5,0,1:2:0:0:
401,358,138384,2,0,L|507:342,2,90,2|0|0,1:2|1:2|1:2,0:0:0:0:
342,343,139241,1,2,1:2:0:0:
410,179,139884,1,0,1:2:0:0:
410,179,140099,2,0,L|516:163,2,90,2|0|0,1:2|1:2|3:2,0:0:0:0:
351,164,140956,1,2,1:2:0:0:
194,88,141598,5,0,1:2:0:0:
194,88,141813,2,0,L|178:-18,2,90,2|0|0,1:2|1:2|1:2,0:0:0:0:
179,147,142670,1,2,1:2:0:0:
41,261,143312,1,0,1:2:0:0:
41,261,143527,2,0,L|25:367,2,90,2|0|0,1:2|1:2|3:2,0:0:0:0:
26,202,144384,1,6,1:2:0:0:
106,41,145026,5,0,1:2:0:0:
106,41,145241,2,0,P|149:50|192:65,1,90,2|0,1:2|1:2,0:0:0:0:
246,144,145884,1,0,1:2:0:0:
246,144,146098,1,2,1:2:0:0:
225,323,146741,1,0,1:2:0:0:
225,323,146956,2,0,P|268:313|311:298,1,90,2|0,1:2|1:2,0:0:0:0:
365,227,147599,1,0,3:2:0:0:
365,227,147813,1,2,1:2:0:0:
418,55,148455,5,0,1:2:0:0:
418,55,148669,2,0,P|462:48|504:32,2,90,2|0|0,1:2|1:2|1:2,0:0:0:0:
361,33,149526,2,0,L|301:26,1,60,0|0,1:2|1:2,0:0:0:0:
251,59,149955,2,0,L|191:52,1,60,0|0,1:2|1:2,0:0:0:0:
136,26,150384,2,0,B|112:81|112:81|144:135|144:135|122:161|122:161|133:190|133:190|115:219|115:219|109:256,1,240,0|4,1:2|1:1,0:0:0:0:
68,278,151455,5,2,0:2:0:0:
67,278,151669,2,0,P|19:269|-16:236,2,99.0000030212403,10|2|2,0:2|0:2|0:2,0:0:0:0:
103,333,152526,1,10,0:2:0:0:
103,333,152741,1,2,0:2:0:0:
226,287,153169,2,0,L|289:303,1,66.0000020141602,2|10,0:2|0:2,0:0:0:0:
329,356,153598,2,0,L|360:347,1,33.0000010070801,2|2,0:2|0:2,0:0:0:0:
454,379,154026,2,0,P|465:348|480:318,1,66.0000020141602,2|10,0:2|0:2,0:0:0:0:
470,252,154455,1,2,0:2:0:0:
506,127,154884,5,2,0:2:0:0:
506,127,155098,2,0,P|457:137|408:142,1,99.0000030212403,10|2,0:2|0:2,0:0:0:0:
337,211,155741,2,0,P|328:242|322:275,2,66.0000020141602,2|10|2,0:2|0:2|0:2,0:0:0:0:
296,158,156384,2,0,P|263:152|232:141,1,66.0000020141602,2|2,1:2|0:2,0:0:0:0:
191,97,156812,1,10,0:2:0:0:
191,97,157026,1,2,0:2:0:0:
68,147,157455,1,2,0:2:0:0:
43,195,157670,1,10,0:2:0:0:
19,242,157884,2,0,L|31:316,1,66.0000020141602,2|4,0:2|1:2,0:0:0:0:
71,356,158312,6,0,P|136:343|201:353,1,132.00000402832,2|2,0:2|0:2,0:0:0:0:
234,352,158848,2,0,P|242:320|251:254,1,99.0000030212403,2|2,0:2|0:2,0:0:0:0:
220,203,159384,1,10,0:2:0:0:
220,203,159598,1,2,0:2:0:0:
265,79,160026,2,0,P|328:62|394:60,1,132.00000402832,2|2,0:2|0:2,0:0:0:0:
422,77,160562,2,0,L|437:177,1,99.0000030212403,2|2,0:2|0:2,0:0:0:0:
493,219,161098,1,10,0:2:0:0:
493,219,161312,1,2,0:2:0:0:
405,318,161741,6,0,L|414:383,2,66.0000020141602,2|10|2,0:2|0:2|0:2,0:0:0:0:
297,241,162598,2,0,L|287:175,2,66.0000020141602,2|10|2,0:2|0:2|0:2,0:0:0:0:
274,303,163241,2,0,P|216:331|150:334,1,132.00000402832,6|10,1:2|0:2,0:0:0:0:
100,378,163884,1,2,0:2:0:0:
9,282,164312,1,2,0:2:0:0:
85,174,164741,2,0,L|97:106,1,66.0000020141602,2|4,0:2|1:1,0:0:0:0:
153,76,165169,6,0,P|185:87|217:92,1,66.0000020141602,2|10,0:2|0:2,0:0:0:0:
280,73,165598,1,2,0:2:0:0:
280,73,165812,2,0,P|292:42|296:10,2,66.0000020141602,2|2|10,1:2|0:2|0:2,0:0:0:0:
322,123,166455,1,2,0:2:0:0:
451,146,166884,2,0,P|466:174|477:206,1,66.0000020141602,2|10,0:2|0:2,0:0:0:0:
485,271,167312,2,0,L|476:314,1,33.0000010070801,2|2,0:2|0:2,0:0:0:0:
397,360,167741,2,0,L|319:366,1,66.0000020141602,2|10,0:2|0:2,0:0:0:0:
272,335,168169,1,2,0:2:0:0:
342,223,168598,6,0,L|357:156,1,66.0000020141602,2|10,0:2|0:2,0:0:0:0:
415,129,169026,2,0,L|408:96,1,33.0000010070801,2|2,0:2|0:2,0:0:0:0:
314,63,169455,2,0,L|329:-4,2,66.0000020141602,2|10|2,0:2|0:2|0:2,0:0:0:0:
263,107,170098,2,0,P|231:114|199:119,1,66.0000020141602,2|2,1:2|0:2,0:0:0:0:
139,105,170526,1,10,0:2:0:0:
139,105,170741,1,2,0:2:0:0:
26,175,171169,2,0,P|15:206|6:237,1,66.0000020141602,2|10,0:2|0:2,0:0:0:0:
24,306,171598,1,2,0:2:0:0:
24,306,171812,6,0,L|155:294,1,132.00000402832,6|8,1:2|0:2,0:0:0:0:
258,377,172669,2,0,L|389:365,1,132.00000402832,0|8,1:2|0:2,0:0:0:0:
438,321,173312,1,2,0:2:0:0:
438,321,173526,2,0,L|448:255,1,66.0000020141602,2|2,1:2|0:2,0:0:0:0:
502,216,173955,1,10,0:2:0:0:
502,216,174169,1,2,0:2:0:0:
469,88,174598,1,2,0:2:0:0:
350,145,175026,1,2,0:2:0:0:
350,144,175241,6,0,P|317:150|284:152,1,66.0000020141602,6|2,1:2|0:2,0:0:0:0:
226,121,175669,1,10,0:2:0:0:
226,121,175884,1,2,0:2:0:0:
202,250,176312,1,0,0:2:0:0:
77,294,176741,1,2,0:2:0:0:
77,294,176955,2,0,L|62:227,1,66.0000020141602,2|0,1:2|1:2,0:0:0:0:
15,182,177384,2,0,L|0:115,1,66.0000020141602,2|2,1:2|1:2,0:0:0:0:
33,60,177812,2,0,B|93:75|93:75|137:120|137:120|158:118|158:118|171:108|171:108|179:120|193:112|192:126|192:126|200:119|200:119|218:116|218:116|229:133|229:133|272:135,1,264.000008056641,0|4,1:2|1:1,0:0:0:0:
326,297,179312,6,0,L|385:290,1,60,0|8,1:2|0:2,0:0:0:0:
438,262,179741,2,0,L|444:322,2,60,0|0|0,1:2|1:2|1:0,0:0:0:0:
469,210,180384,1,2,1:2:0:0:
381,52,181026,2,0,L|321:58,1,60,0|8,1:2|0:2,0:0:0:0:
271,92,181455,2,0,L|264:151,1,60,0|0,1:2|1:2,0:0:0:0:
218,190,181883,1,8,0:2:0:0:
218,190,182098,1,6,1:2:0:0:
46,243,182741,6,0,L|52:302,1,60,0|8,1:2|0:2,0:0:0:0:
85,352,183170,2,0,L|26:358,2,60,0|0|0,1:2|1:2|1:0,0:0:0:0:
135,384,183813,1,6,1:2:0:0:
304,325,184455,2,0,L|297:265,1,60,0|8,1:2|0:2,0:0:0:0:
273,209,184884,2,0,L|213:202,1,60,0|0,1:2|1:2,0:0:0:0:
197,149,185312,1,0,1:2:0:0:
197,149,185527,1,6,1:2:0:0:
348,52,186169,6,0,L|341:111,1,60,0|8,1:2|0:2,0:0:0:0:
363,167,186598,2,0,L|304:173,2,60,0|0|0,1:2|1:2|1:0,0:0:0:0:
420,185,187241,1,2,1:2:0:0:
361,352,187884,2,0,L|301:345,1,60,0|8,1:2|0:2,0:0:0:0:
254,307,188313,2,0,L|260:247,1,60,0|0,1:2|1:2,0:0:0:0:
227,204,188741,1,8,0:2:0:0:
227,204,188956,1,6,1:2:0:0:
171,32,189598,6,0,L|111:39,1,60,0|8,1:2|0:2,0:0:0:0:
63,75,190027,2,0,L|57:15,2,60,0|0|0,1:2|1:2|1:0,0:0:0:0:
92,127,190670,1,6,1:2:0:0:
12,288,191312,2,0,L|72:281,1,60,0|8,1:2|0:2,0:0:0:0:
124,310,191741,2,0,L|184:304,1,60,0|0,1:2|1:2,0:0:0:0:
226,262,192169,1,0,1:2:0:0:
226,262,192384,1,6,1:2:0:0:
295,96,193026,6,0,P|323:85|353:79,1,60,0|8,1:2|0:2,0:0:0:0:
405,106,193455,2,0,P|410:77|421:49,2,60,0|0|0,1:2|1:2|1:0,0:0:0:0:
441,153,194098,1,2,1:2:0:0:
493,327,194741,2,0,P|465:337|435:343,1,60,0|8,1:2|0:2,0:0:0:0:
382,318,195170,2,0,P|376:288|365:260,1,60,0|0,1:2|1:2,0:0:0:0:
319,231,195599,1,8,0:2:0:0:
319,231,195813,1,6,1:2:0:0:
165,323,196455,6,0,P|137:333|107:339,1,60,0|8,1:2|0:2,0:0:0:0:
48,326,196884,2,0,P|58:353|64:383,2,60,0|0|0,1:2|1:2|1:0,0:0:0:0:
0,288,197527,1,6,1:2:0:0:
0,107,198170,2,0,P|27:96|57:90,1,60,0|8,1:2|0:2,0:0:0:0:
100,116,198599,2,0,P|105:145|116:173,1,60,0|0,1:2|1:2,0:0:0:0:
171,209,199026,1,0,1:2:0:0:
171,209,199241,1,6,1:2:0:0:
298,81,199884,6,0,L|356:70,1,60,0|8,1:2|0:2,0:0:0:0:
414,87,200312,2,0,L|426:29,2,60,0|0|0,1:2|1:2|1:0,0:0:0:0:
447,137,200955,1,2,1:2:0:0:
507,306,201598,2,0,L|448:294,1,60,0|8,1:2|0:2,0:0:0:0:
404,255,202026,2,0,L|345:266,1,60,0|0,1:2|1:2,0:0:0:0:
303,309,202455,1,8,0:2:0:0:
303,309,202669,1,6,1:2:0:0:
137,378,203312,6,0,L|125:320,1,60,0|8,1:2|0:2,0:0:0:0:
86,275,203740,2,0,L|97:217,1,60,0|0,1:2|1:2,0:0:0:0:
140,174,204169,1,0,1:2:0:0:
140,174,204384,2,0,L|128:116,1,60,2|0,1:2|1:2,0:0:0:0:
157,62,204812,2,0,L|216:50,1,60,2|2,1:2|1:2,0:0:0:0:
263,13,205241,2,0,B|235:69|235:69|259:133|259:133|230:228,1,210,0|0,1:0|1:0,0:0:0:0:
412,379,206955,6,0,B|461:393|524:340|524:340|514:302|514:302|519:274|519:274|506:205,1,240,2|4,1:2|1:1,0:0:0:0:
428,73,214669,5,2,1:2:0:0:
464,187,215097,1,0,1:2:0:0:
350,223,215526,1,0,1:2:0:0:
314,109,215955,1,0,1:2:0:0:
198,109,216383,5,2,1:2:0:0:
162,223,216812,1,0,1:2:0:0:
48,187,217241,1,0,1:2:0:0:
84,73,217669,1,0,1:2:0:0:
198,109,218098,6,0,L|257:101,1,60,2|0,1:2|1:2,0:0:0:0:
308,132,218526,2,0,L|315:191,1,60,0|0,1:2|1:2,0:0:0:0:
361,230,218955,2,0,L|420:222,1,60,2|0,1:2|1:2,0:0:0:0:
471,253,219383,2,0,L|478:312,1,60,0|0,1:2|1:2,0:0:0:0:
508,364,219812,2,0,B|421:343|421:343|340:368|340:368|276:356|276:356|280:303|280:303|256:272|256:272|265:227|265:227|246:197|246:197|254:176|254:176|246:168,1,420,2|0,1:2|1:2,0:0:0:0:
209,76,221741,6,0,L|144:84,1,60,0|4,0:0|1:1,0:0:0:0:
97,121,222169,2,0,L|93:153,1,33.0000010070801,2|2,0:2|0:2,0:0:0:0:
59,247,222598,2,0,P|29:259|-1:274,2,66.0000020141602,2|10|2,0:2|0:2|0:2,0:0:0:0:
140,350,223455,2,0,L|205:365,1,66.0000020141602,2|10,0:2|0:2,0:0:0:0:
267,346,223883,2,0,L|275:313,1,33.0000010070801,2|2,0:2|0:2,0:0:0:0:
206,242,224312,2,0,L|191:177,1,66.0000020141602,2|10,0:2|0:2,0:0:0:0:
145,130,224741,1,2,0:2:0:0:
216,19,225169,6,0,P|249:22|281:31,1,66.0000020141602,2|10,0:2|0:2,0:0:0:0:
324,80,225598,2,0,L|319:118,1,33.0000010070801,2|2,0:2|0:2,0:0:0:0:
270,198,226026,2,0,L|280:274,1,66.0000020141602,2|10,0:2|0:2,0:0:0:0:
262,327,226455,2,0,P|318:359|383:353,1,132.00000402832,2|2,0:2|0:2,0:0:0:0:
449,379,227098,1,10,0:2:0:0:
449,379,227312,1,2,0:2:0:0:
507,260,227741,2,0,L|498:195,1,66.0000020141602,2|10,0:2|0:2,0:0:0:0:
453,154,228169,1,2,0:2:0:0:
453,154,228383,6,0,L|324:127,1,132.00000402832,6|8,1:2|0:2,0:0:0:0:
229,33,229241,2,0,L|99:61,1,132.00000402832,0|8,1:2|0:2,0:0:0:0:
58,112,229883,1,2,0:2:0:0:
58,112,230098,2,0,L|49:181,1,66.0000020141602,2|2,1:2|0:2,0:0:0:0:
14,234,230526,1,10,0:2:0:0:
14,234,230741,1,2,0:2:0:0:
62,356,231169,1,2,0:2:0:0:
178,291,231598,1,2,0:2:0:0:
178,291,231812,6,0,L|248:279,1,66.0000020141602,6|2,1:2|0:2,0:0:0:0:
304,317,232241,1,10,0:2:0:0:
304,317,232455,1,2,0:2:0:0:
387,214,232883,1,2,0:2:0:0:
297,124,233312,1,2,0:2:0:0:
297,124,233526,2,0,L|361:113,1,66.0000020141602,2|0,1:2|1:2,0:0:0:0:
403,61,233955,2,0,L|467:73,1,66.0000020141602,2|2,1:2|1:2,0:0:0:0:
506,19,234383,2,0,B|507:71|484:105|484:105|526:166|526:166|506:195|503:281,1,264.000008056641,0|6,1:2|1:1,0:0:0:0:
419,363,235669,5,10,0:2:0:0:
419,363,235884,2,0,L|372:356,1,30,2|2,0:2|0:1,0:0:0:0:
305,326,236312,2,0,P|296:364|289:390,2,60,2|10|2,0:2|0:2|0:2,0:0:0:0:
289,267,236955,1,2,1:1:0:0:
371,179,237384,1,10,0:2:0:0:
371,179,237598,2,0,L|373:144,1,30,2|2,0:2|0:1,0:0:0:0:
391,60,238027,2,0,P|421:52|448:41,2,60,2|10|2,0:2|0:2|0:2,0:0:0:0:
333,42,238669,6,0,P|275:54|216:63,1,120,2|10,1:1|0:2,0:0:0:0:
182,113,239312,2,0,P|168:111|153:108,1,30,2|2,0:2|0:1,0:0:0:0:
66,80,239741,2,0,P|61:51|55:22,2,60,2|10|2,0:2|0:2|0:2,0:0:0:0:
39,133,240384,1,2,1:1:0:0:
81,250,240812,1,10,0:2:0:0:
81,250,241027,2,0,L|76:298,1,30,2|2,0:2|0:1,0:0:0:0:
43,362,241455,2,0,P|72:370|101:377,1,60,2|10,0:1|0:1,0:0:0:0:
158,360,241884,1,2,0:1:0:0:
206,325,242098,6,0,L|225:206,1,120,6|10,1:1|0:2,0:0:0:0:
209,148,242741,2,0,L|205:118,1,30,2|2,0:2|0:1,0:0:0:0:
153,44,243169,2,0,L|93:34,2,60,2|10|2,0:2|0:2|0:2,0:0:0:0:
208,20,243812,1,2,1:1:0:0:
313,77,244241,1,10,0:2:0:0:
313,77,244455,2,0,L|346:69,1,30,2|2,0:2|0:1,0:0:0:0:
432,74,244884,2,0,L|446:16,2,60,2|10|2,0:2|0:2|0:2,0:0:0:0:
466,123,245527,6,0,P|484:181|499:239,1,120,6|10,1:1|0:2,0:0:0:0:
489,297,246169,2,0,P|474:299|459:301,1,30,2|2,0:2|0:1,0:0:0:0:
373,327,246598,2,0,P|368:356|357:384,2,60,2|10|2,0:2|0:2|0:2,0:0:0:0:
335,279,247241,2,0,L|275:288,1,60,2|0,1:1|1:2,0:0:0:0:
243,337,247669,2,0,L|183:328,1,60,0|0,1:2|1:2,0:0:0:0:
134,362,248098,2,0,B|115:297|115:297|64:281|64:281|63:247|63:247|43:229|43:229|46:208|46:208|36:161,1,240,0|6,1:2|1:1,0:0:0:0:
7,61,249384,5,10,0:2:0:0:
7,61,249599,2,0,L|54:54,1,30,2|2,0:2|0:1,0:0:0:0:
126,57,250027,2,0,P|117:19|110:-7,2,60,2|10|2,0:2|0:2|0:2,0:0:0:0:
118,116,250669,1,2,1:2:0:0:
164,232,251099,1,10,0:2:0:0:
164,232,251313,2,0,L|199:234,1,30,2|2,0:2|0:1,0:0:0:0:
265,288,251742,2,0,P|273:318|284:345,2,60,2|10|0,0:2|0:2|0:0,0:0:0:0:
300,239,252384,6,0,P|312:181|321:122,1,120,2|10,1:1|0:2,0:0:0:0:
362,77,253027,2,0,P|376:74|391:71,1,30,2|2,0:2|0:1,0:0:0:0:
480,58,253456,2,0,P|485:29|491:0,2,60,2|10|2,0:2|0:2|0:2,0:0:0:0:
509,110,254099,1,2,1:1:0:0:
467,224,254527,1,10,0:2:0:0:
467,224,254742,2,0,L|462:272,1,30,2|2,0:2|0:1,0:0:0:0:
485,340,255170,2,0,P|456:348|427:355,1,60,2|10,0:1|0:1,0:0:0:0:
370,338,255599,1,2,0:1:0:0:
322,303,255813,6,0,L|303:184,1,120,6|10,1:1|0:2,0:0:0:0:
340,137,256456,2,0,L|336:107,1,30,2|2,0:2|0:1,0:0:0:0:
388,34,256884,2,0,L|448:24,2,60,2|10|2,0:2|0:2|0:2,0:0:0:0:
335,5,257527,1,2,1:1:0:0:
231,63,257956,1,10,0:2:0:0:
231,63,258170,2,0,L|198:55,1,30,2|2,0:2|0:1,0:0:0:0:
111,57,258598,2,0,L|97:-1,2,60,2|10|2,0:2|0:2|0:2,0:0:0:0:
65,96,259241,6,0,P|47:154|32:212,1,120,6|10,1:1|0:0,0:0:0:0:
40,270,259884,2,0,P|55:272|70:274,1,30,2|2,0:2|0:1,0:0:0:0:
142,327,260313,2,0,P|137:356|126:384,2,60,2|10|2,0:2|0:2|0:2,0:0:0:0:
194,298,260956,2,0,L|254:307,1,60,0|0,1:2|1:2,0:0:0:0:
286,356,261384,2,0,L|346:347,1,60,0|0,1:2|1:2,0:0:0:0:
402,363,261812,2,0,B|421:298|421:298|472:282|472:282|473:248|473:248|493:230|493:230|490:209|490:209|501:177,1,210,0|0,1:2|1:0,0:0:0:0:
