osu file format v14

[General]
AudioFilename: audio.mp3
AudioLeadIn: 0
PreviewTime: 51233
Countdown: 0
SampleSet: Soft
StackLeniency: 0.5
Mode: 0
LetterboxInBreaks: 0
WidescreenStoryboard: 1

[Editor]
Bookmarks: 10091,16176,61176,152548,183576
DistanceSpacing: 0.5
BeatDivisor: 4
GridSize: 8
TimelineZoom: 2.1

[Metadata]
Title:Present
TitleUnicode:プレゼント
Artist:FROZEN QUALIA
ArtistUnicode:FROZEN QUALIA
Creator:pnky
Version:Petal
Source:
Tags:藍月なくる aitsuki nakuru 花束 hanataba japanese j-rock jrock rock j-pop jpop pop sanairrt net0
BeatmapID:2999335
BeatmapSetID:1300435

[Difficulty]
HPDrainRate:5.5
CircleSize:4
OverallDifficulty:9
ApproachRate:9.3
SliderMultiplier:1.72
SliderTickRate:1

[Events]
//Background and Video events
0,0,"b.jpg",0,0
//Break Periods
//Storyboard Layer 0 (Background)
//Storyboard Layer 1 (Fail)
//Storyboard Layer 2 (Pass)
//Storyboard Layer 3 (Foreground)
//Storyboard Layer 4 (Overlay)
//Storyboard Sound Samples

[TimingPoints]
834,342.857142857143,4,2,2,40,1,0
834,-125,4,2,2,40,0,0
6318,-100,4,2,2,50,0,0
9061,-142.857142857143,4,2,2,50,0,0
10004,-100,4,2,2,5,0,0
10090,-100,4,2,2,50,0,0
10434,-100,4,2,2,60,0,0
17290,-333.333333333333,4,2,2,60,0,0
18319,-100,4,2,2,60,0,0
18661,-125,4,2,2,50,0,0
24148,-111.111111111111,4,2,2,50,0,0
26376,-111.111111111111,4,2,2,50,0,0
26434,-111.111111111111,4,2,2,50,0,0
29634,-125,4,2,2,50,0,0
34691,-125,4,2,2,5,0,0
34776,-125,4,2,2,50,0,0
35119,-100,4,2,2,50,0,0
40605,-100,4,2,2,50,0,0
45748,-250,4,2,2,50,0,0
46005,-250,4,2,2,50,0,0
46090,-83.3333333333333,4,2,2,50,0,0
48834,-142.857142857143,4,2,2,50,0,0
50034,-76.9230769230769,4,2,2,50,0,0
51234,-100,4,2,2,50,0,0
51405,-90.9090909090909,4,2,2,50,0,0
51576,-90.9090909090909,4,2,2,75,0,1
55691,-66.6666666666667,4,2,2,75,0,1
55776,-66.6666666666667,4,2,2,5,0,1
55862,-66.6666666666667,4,2,2,75,0,1
55948,-66.6666666666667,4,2,2,5,0,1
56034,-90.9090909090909,4,2,2,75,0,1
56291,-90.9090909090909,4,2,2,5,0,1
56376,-66.6666666666667,4,2,2,75,0,1
56462,-66.6666666666667,4,2,2,5,0,1
56548,-66.6666666666667,4,2,2,75,0,1
56634,-66.6666666666667,4,2,2,5,0,1
56719,-90.9090909090909,4,2,2,75,0,1
56976,-90.9090909090909,4,2,2,5,0,1
57062,-90.9090909090909,4,2,2,75,0,1
57919,-90.9090909090909,4,2,2,75,0,1
57976,-90.9090909090909,4,2,2,75,0,1
61176,-90.9090909090909,4,2,2,75,0,0
61691,-133.333333333333,4,2,2,75,0,0
61947,-90.9090909090909,4,2,2,75,0,0
62033,-90.9090909090909,4,2,2,75,0,0
62548,-90.9090909090909,4,2,2,75,0,1
67262,-90.9090909090909,4,2,2,5,0,1
67348,-90.9090909090909,4,2,2,75,0,1
74891,-100,4,2,2,75,0,0
76262,-100,4,2,2,60,0,0
83119,-142.857142857143,4,2,2,60,0,0
84147,-142.857142857143,4,2,2,60,0,0
84491,-125,4,2,2,50,0,0
89548,-125,4,2,2,5,0,0
89634,-125,4,2,2,50,0,0
89891,-125,4,2,2,50,0,0
89976,-111.111111111111,4,2,2,50,0,0
94776,-76.9230769230769,4,2,2,50,0,0
95119,-200,4,2,2,50,0,0
95461,-100,4,2,2,50,0,0
100948,-111.111111111111,4,2,2,50,0,0
106434,-125,4,2,2,50,0,0
111491,-125,4,2,2,50,0,0
111576,-250,4,2,2,50,0,0
111834,-250,4,2,2,50,0,0
111919,-100,4,2,2,50,0,0
113291,-100,4,2,2,50,0,0
114661,-142.857142857143,4,2,2,50,0,0
115776,-100,4,2,2,50,0,0
115861,-76.9230769230769,4,2,2,50,0,0
116719,-125,4,2,2,50,0,0
117405,-90.9090909090909,4,2,2,75,0,1
121519,-66.6666666666667,4,2,2,75,0,1
121605,-66.6666666666667,4,2,2,5,0,1
121691,-66.6666666666667,4,2,2,75,0,1
121776,-66.6666666666667,4,2,2,5,0,1
121862,-90.9090909090909,4,2,2,75,0,1
122119,-90.9090909090909,4,2,2,5,0,1
122205,-66.6666666666667,4,2,2,75,0,1
122291,-66.6666666666667,4,2,2,5,0,1
122376,-66.6666666666667,4,2,2,75,0,1
122462,-66.6666666666667,4,2,2,5,0,1
122548,-90.9090909090909,4,2,2,75,0,1
122805,-90.9090909090909,4,2,2,5,0,1
122891,-90.9090909090909,4,2,2,75,0,1
127005,-90.9090909090909,4,2,2,75,0,0
127519,-133.333333333333,4,2,2,75,0,0
127776,-133.333333333333,4,2,2,5,0,0
127862,-90.9090909090909,4,2,2,75,0,0
128376,-90.9090909090909,4,2,2,75,0,1
136605,-125,4,2,2,60,0,0
139262,-125,4,2,2,5,0,0
139348,-125,4,2,2,60,0,0
142005,-125,4,2,2,5,0,0
142091,-125,4,2,2,60,0,0
144748,-125,4,2,2,5,0,0
144834,-125,4,2,2,60,0,0
146891,-200,4,2,2,60,0,0
147234,-125,4,2,2,60,0,0
147575,-111.111111111111,4,2,2,60,0,0
149976,-200,4,2,2,60,0,0
150319,-111.111111111111,4,2,2,60,0,0
152375,-100,4,2,2,60,0,0
153062,-90.9090909090909,4,2,2,60,0,1
155719,-90.9090909090909,4,2,2,5,0,1
155805,-90.9090909090909,4,2,2,60,0,1
162833,-90.9090909090909,4,2,2,60,0,1
164034,-200,4,2,2,60,0,0
165319,-200,4,2,2,5,0,0
165405,-200,4,2,2,60,0,0
166691,-200,4,2,2,5,0,0
166776,-200,4,2,2,60,0,0
168062,-200,4,2,2,5,0,0
168148,-111.111111111111,4,2,2,60,0,0
168748,-111.111111111111,4,2,2,5,0,0
168834,-111.111111111111,4,2,2,60,0,0
169434,-111.111111111111,4,2,2,5,0,0
169519,-200,4,2,2,60,0,0
170805,-200,4,2,2,5,0,0
170891,-200,4,2,2,60,0,0
172176,-200,4,2,2,5,0,0
172262,-111.111111111111,4,2,2,60,0,0
173633,-100,4,2,2,60,0,0
175005,-90.9090909090909,4,2,2,75,0,1
179119,-66.6666666666667,4,2,2,75,0,1
179205,-66.6666666666667,4,2,2,5,0,1
179291,-66.6666666666667,4,2,2,75,0,1
179376,-66.6666666666667,4,2,2,5,0,1
179462,-90.9090909090909,4,2,2,75,0,1
179719,-90.9090909090909,4,2,2,75,0,1
179805,-66.6666666666667,4,2,2,75,0,1
179891,-66.6666666666667,4,2,2,5,0,1
179976,-66.6666666666667,4,2,2,75,0,1
180062,-66.6666666666667,4,2,2,5,0,1
180148,-90.9090909090909,4,2,2,75,0,1
180405,-90.9090909090909,4,2,2,75,0,1
180491,-90.9090909090909,4,2,2,75,0,1
184605,-90.9090909090909,4,2,2,75,0,0
185976,-90.9090909090909,4,2,2,75,0,1
193090,-90.9090909090909,4,2,2,75,0,1
193175,-90.9090909090909,4,2,2,75,0,1
195575,-90.9090909090909,4,2,2,75,0,1
196947,-90.9090909090909,4,2,2,75,0,1
197633,-90.9090909090909,4,2,2,75,0,1
198319,-100,4,2,2,75,0,0
199690,-142.857142857143,4,2,2,75,0,0
200633,-100,4,2,2,75,0,0
200718,-100,4,2,2,75,0,0
201062,-100,4,2,2,60,0,0
207919,-111.111111111111,4,2,2,60,0,0
209291,-333.333333333333,4,2,2,60,0,0
211948,-333.333333333333,4,2,2,5,0,0
212033,-100,4,2,2,5,0,0

[Colours]
Combo1 : 255,174,136
Combo2 : 255,174,255
Combo3 : 255,255,145
Combo4 : 182,108,255

[HitObjects]
232,160,833,5,2,0:0:0:0:
325,218,1005,2,0,P|370:216|405:186,1,68.8,2|2,0:0|0:0,0:0:0:0:
464,48,1348,2,0,P|440:104|480:176,2,137.6,2|2|2,0:0|0:0|0:0,0:0:0:0:
320,8,2205,5,2,0:0:0:0:
240,88,2376,1,2,0:0:0:0:
341,147,2548,1,2,0:0:0:0:
133,36,2719,2,0,P|85:44|45:132,2,137.6,2|2|2,0:0|0:0|0:0,0:0:0:0:
126,113,3576,5,2,0:0:0:0:
192,264,3919,1,2,0:0:0:0:
253,88,4262,2,0,P|351:63|412:140,1,206.4,2|2,0:0|0:0,0:0:0:0:
312,168,4948,6,0,B|271:278|345:277|312:392,1,206.4,2|2,0:0|0:0,0:0:0:0:
352,320,5634,2,0,P|400:296|452:308,2,91.7333333333333,2|0|2,0:0|0:0|0:0,0:0:0:0:
168,230,6319,5,6,3:2:0:0:
208,384,6491,1,2,3:2:0:0:
227,147,6662,5,2,3:2:0:0:
162,318,6834,1,2,3:2:0:0:
80,111,7005,5,2,3:2:0:0:
304,184,7176,1,2,3:2:0:0:
139,0,7348,5,2,3:2:0:0:
56,250,7519,1,2,3:2:0:0:
302,85,7691,5,2,3:2:0:0:
256,192,9062,12,0,10005,0:0:0:0:
416,88,10091,5,2,3:2:0:0:
400,113,10176,1,2,3:2:0:0:
392,142,10262,1,2,3:2:0:0:
393,172,10348,1,2,3:2:0:0:
400,200,10434,6,0,P|416:256|328:320,1,172,6|8,3:2|0:0,0:0:0:0:
216,256,10948,2,0,B|160:232|160:232|24:264,1,172,2|0,0:0|3:2,0:0:0:0:
152,320,11462,1,8,0:0:0:0:
216,168,11634,1,2,0:0:0:0:
56,48,11805,6,0,L|64:144,1,86,2|0,3:2|3:2,0:0:0:0:
144,32,12062,1,0,0:0:0:0:
144,32,12148,2,0,L|152:128,1,86,10|2,0:0|0:0,0:0:0:0:
336,16,12491,6,0,L|328:112,1,86,2|0,3:2|3:2,0:0:0:0:
248,0,12748,1,0,0:0:0:0:
248,0,12834,2,0,L|240:96,1,86,10|2,0:0|0:0,0:0:0:0:
240,168,13091,1,2,0:0:0:0:
240,192,13176,6,0,B|318:242|318:170|416:208,1,172,2|8,3:2|0:0,0:0:0:0:
432,360,13691,1,2,0:0:0:0:
488,176,13862,1,0,3:2:0:0:
476,269,14034,1,0,3:2:0:0:
419,112,14205,2,0,P|363:88|307:96,1,86,8|2,0:0|0:0,0:0:0:0:
112,176,14548,5,2,3:2:0:0:
168,96,14719,1,0,3:2:0:0:
56,256,14891,2,0,P|48:304|64:352,1,86,8|2,0:0|0:0,0:0:0:0:
224,256,15234,2,0,P|233:294|224:344,1,86,0|2,3:2|3:2,0:0:0:0:
22,168,15576,2,0,P|13:129|22:80,1,86,10|2,0:0|0:0,0:0:0:0:
271,93,15919,5,14,0:0:0:0:
112,176,16091,1,0,3:2:0:0:
368,168,16262,5,10,0:0:0:0:
168,96,16434,1,0,3:2:0:0:
378,46,16605,5,10,0:0:0:0:
338,278,16776,1,0,3:2:0:0:
168,96,16948,5,10,0:0:0:0:
208,328,17119,1,8,0:0:0:0:
208,328,17205,1,8,0:0:0:0:
208,328,17291,6,0,P|224:248|240:192,1,128.999996063233,6|0,3:2|0:0,0:0:0:0:
302,159,18319,1,10,0:0:0:0:
337,136,18404,1,10,0:0:0:0:
379,138,18490,1,2,3:2:0:0:
413,164,18576,1,4,0:3:0:0:
424,204,18662,6,0,P|382:263|462:367,1,206.4,6|2,3:2|0:0,0:0:0:0:
236,202,19348,1,2,3:3:0:0:
269,333,19519,2,0,P|285:293|269:245,1,68.8,2|2,0:0|3:3,0:0:0:0:
77,261,19862,2,0,P|141:293|213:269,1,137.6,2|2,0:0|0:0,0:0:0:0:
236,202,20376,2,0,L|212:58,2,137.6,2|2|2,3:3|3:3|3:3,0:0:0:0:
385,62,21234,1,2,0:0:0:0:
448,120,21405,6,0,L|424:259,1,137.6,2|2,3:3|3:3,0:0:0:0:
317,306,21919,2,0,P|251:320|198:264,2,137.6,2|2|2,0:0|0:0|0:0,0:0:0:0:
236,173,22776,1,2,3:3:0:0:
164,101,22948,1,2,0:0:0:0:
132,197,23119,1,2,3:3:0:0:
236,173,23291,1,2,0:0:0:0:
32,223,23462,2,0,P|32:183|50:145,1,68.8,2|2,3:3|0:0,0:0:0:0:
94,39,23805,1,2,3:3:0:0:
202,276,23976,1,8,0:0:0:0:
209,299,24061,1,8,0:0:0:0:
218,323,24148,6,0,P|299:332|353:287,1,154.799995275879,6|10,3:2|0:0,0:0:0:0:
236,173,24662,1,2,0:0:0:0:
128,322,24834,1,0,3:2:0:0:
42,156,25005,1,0,3:2:0:0:
217,324,25176,1,10,0:0:0:0:
291,99,25348,6,0,P|363:67|443:115,1,154.799995275879,6|0,3:2|3:2,0:0:0:0:
453,131,25776,1,0,0:0:0:0:
453,131,25862,2,0,B|448:172|448:172|451:179|451:179|442:239,1,77.3999976379395,10|2,0:0|0:0,0:0:0:0:
343,321,26205,2,0,P|311:305|267:305,1,77.3999976379395,2|0,3:2|3:2,0:0:0:0:
241,311,26462,1,0,0:0:0:0:
217,324,26548,1,10,0:0:0:0:
318,202,26719,1,2,0:0:0:0:
120,92,26891,6,0,P|152:44|248:36,1,154.799995275879,6|10,3:2|0:0,0:0:0:0:
61,190,27405,1,2,0:0:0:0:
61,190,27491,1,0,0:0:0:0:
61,190,27576,2,0,P|48:137|22:109,1,77.3999976379395,2|0,3:2|3:2,0:0:0:0:
209,116,27919,1,10,0:0:0:0:
421,307,28091,6,0,B|359:300|359:300|329:312|329:312|258:302,1,154.799995275879,6|0,3:2|3:2,0:0:0:0:
183,283,28605,1,4,0:3:0:0:
318,202,28776,1,2,0:0:0:0:
373,384,28948,1,2,3:2:0:0:
229,207,29119,1,0,3:2:0:0:
456,117,29291,1,8,0:0:0:0:
428,90,29376,1,10,0:0:0:0:
392,77,29462,1,4,0:3:0:0:
354,81,29548,1,4,0:3:0:0:
321,100,29634,6,0,P|252:114|195:82,1,137.6,6|2,3:2|3:2,0:0:0:0:
264,16,30148,1,2,0:0:0:0:
384,168,30319,1,2,3:2:0:0:
384,168,30491,2,0,L|363:249,1,68.8,2|0,0:0|3:2,0:0:0:0:
184,272,30834,2,0,P|127:235|62:251,1,137.6,2|2,0:0|0:0,0:0:0:0:
296,294,31348,2,0,P|352:330|417:314,2,137.6,2|2|2,3:2|3:2|3:2,0:0:0:0:
417,313,32205,1,2,0:0:0:0:
504,384,32376,2,0,L|512:240,1,137.6,2|2,3:2|3:2,0:0:0:0:
405,96,32891,2,0,L|412:233,2,137.6,2|2|2,0:0|0:0|0:0,0:0:0:0:
280,56,33748,5,2,3:2:0:0:
314,130,33919,1,2,0:0:0:0:
240,165,34091,1,2,3:2:0:0:
204,90,34262,1,2,0:0:0:0:
314,130,34434,2,0,P|320:192|288:232,1,103.2,2|0,3:2|0:0,0:0:0:0:
208,240,34776,1,2,3:2:0:0:
168,16,34948,1,8,0:0:0:0:
136,8,35034,1,8,0:0:0:0:
105,17,35119,6,0,B|97:81|97:81|105:112|105:112|97:192,1,172,6|8,3:2|0:0,0:0:0:0:
0,125,35634,1,2,0:0:0:0:
204,90,35805,2,0,P|244:82|291:97,1,86,2|0,3:2|3:2,0:0:0:0:
97,187,36148,1,10,0:0:0:0:
206,309,36319,2,0,P|254:270|246:167,1,172,6|0,3:2|3:2,0:0:0:0:
97,187,36834,1,10,0:0:0:0:
286,94,37005,1,2,0:0:0:0:
206,309,37176,2,0,B|110:296,1,86,2|0,3:2|3:2,0:0:0:0:
335,374,37519,2,0,B|425:381,1,86,10|2,0:0|0:0,0:0:0:0:
246,167,37862,6,0,P|198:206|206:309,1,172,6|8,3:2|2:2,0:0:0:0:
331,171,38376,1,2,0:0:0:0:
150,136,38548,2,0,P|106:127|63:136,1,86,2|0,3:2|3:2,0:0:0:0:
268,250,38891,1,10,0:0:0:0:
399,65,39062,6,0,P|466:104|465:192,1,172,6|2,3:2|3:2,0:0:0:0:
223,76,39576,1,10,0:0:0:0:
373,267,39748,1,2,0:0:0:0:
373,267,39834,1,2,3:2:0:0:
373,267,39919,1,2,3:2:0:0:
214,195,40091,1,8,0:0:0:0:
214,195,40176,1,2,3:2:0:0:
214,195,40262,2,0,P|233:175|283:155,1,43,4|0,0:3|0:0,0:0:0:0:
352,136,40434,2,0,P|378:142|420:175,1,43,0|0,3:2|3:2,0:0:0:0:
477,210,40605,6,0,L|467:384,1,172,6|2,3:2|0:3,0:0:0:0:
377,329,41119,2,0,L|383:222,1,86,2|2,3:2|0:3,0:0:0:0:
240,248,41634,1,2,0:3:0:0:
352,104,41976,2,0,P|273:70|160:81,1,172,2|2,3:2|0:3,0:0:0:0:
300,180,42491,2,0,P|251:159|184:166,1,86,2|2,3:2|0:3,0:0:0:0:
477,210,43005,1,2,0:3:0:0:
352,360,43348,6,0,P|267:331|182:341,1,172,2|2,3:2|0:3,0:0:0:0:
110,379,43862,1,2,3:2:0:0:
16,280,44034,2,0,B|32:246|24:215|24:215|60:203|72:152,1,129,2|2,0:3|0:0,0:0:0:0:
52,131,44376,1,0,0:0:0:0:
186,339,44548,1,2,0:0:0:0:
339,237,44719,6,0,B|250:245|278:159|170:177,1,172,2|2,3:2|0:3,0:0:0:0:
321,66,45234,2,0,P|386:82|394:181,1,172,2|2,3:2|0:0,0:0:0:0:
201,258,45748,1,4,0:3:0:0:
458,384,46091,5,14,0:0:0:0:
338,135,46262,1,0,3:2:0:0:
221,244,46434,1,2,3:2:0:0:
512,289,46605,5,10,0:0:0:0:
248,384,46776,1,0,3:2:0:0:
344,262,46948,1,2,3:2:0:0:
183,63,47119,2,0,P|235:69|275:117,1,103.199996850586,10|0,0:0|3:2,0:0:0:0:
344,262,47462,5,10,0:0:0:0:
82,287,47634,1,10,0:0:0:0:
37,247,47719,1,10,0:0:0:0:
25,189,47805,1,0,3:2:0:0:
52,137,47891,1,0,3:2:0:0:
96,109,47976,1,0,3:2:0:0:
142,115,48062,1,10,0:0:0:0:
172,142,48148,5,0,3:2:0:0:
203,154,48234,1,0,3:2:0:0:
231,157,48319,1,4,0:3:0:0:
253,150,48405,1,4,0:3:0:0:
266,139,48491,1,4,0:3:0:0:
272,129,48576,1,4,0:3:0:0:
274,117,48662,1,4,0:3:0:0:
273,110,48748,1,4,0:3:0:0:
269,103,48834,6,0,P|293:55|365:87,2,120.399996325684,2|2|2,3:2|0:0|0:0,0:0:0:0:
374,204,49862,5,2,0:0:0:0:
219,312,50034,2,0,B|264:248|219:176|219:176|155:200|171:256,1,223.599989764405,2|2,3:2|3:2,0:0:0:0:
268,378,50548,1,2,3:2:0:0:
168,152,51405,5,2,0:0:0:0:
352,296,51576,2,0,L|376:200,1,94.600002886963,6|0,3:2|0:0,0:0:0:0:
176,368,51919,1,10,0:0:0:0:
272,168,52091,1,2,0:0:0:0:
378,384,52262,2,0,P|422:354|427:281,1,94.600002886963,2|0,3:2|3:2,0:0:0:0:
233,76,52605,1,10,0:0:0:0:
207,244,52776,1,2,0:0:0:0:
453,316,52948,5,2,3:2:0:0:
496,54,53119,1,0,3:2:0:0:
352,296,53291,1,10,0:0:0:0:
333,83,53462,1,2,0:0:0:0:
473,320,53634,2,0,P|479:267|462:224,1,94.600002886963,2|0,3:2|3:2,0:0:0:0:
272,168,53976,1,10,0:0:0:0:
405,380,54148,1,2,0:0:0:0:
405,380,54234,1,0,0:0:0:0:
405,380,54319,6,0,P|453:364|493:316,1,94.600002886963,2|0,3:2|0:0,0:0:0:0:
333,83,54662,1,10,0:0:0:0:
214,322,55005,2,0,P|254:298|254:146,1,189.200005773926,2|10,3:2|0:0,0:0:0:0:
99,129,55519,1,0,0:0:0:0:
22,362,55691,6,0,L|38:258,1,64.5000024604798,2|0,3:2|0:0,0:0:0:0:
127,282,55862,2,0,L|118:346,1,64.5000024604798,0|0,3:2|0:0,0:0:0:0:
214,322,56034,2,0,L|232:181,1,141.900004330444,8|0,0:0|0:0,0:0:0:0:
408,237,56376,6,0,P|384:214|345:201,1,64.5000024604798,2|0,3:2|0:0,0:0:0:0:
364,119,56548,2,0,P|331:118|295:137,1,64.5000024604798,0|0,3:2|0:0,0:0:0:0:
260,59,56719,2,0,P|217:117|258:205,1,141.900004330444,10|0,0:0|0:0,0:0:0:0:
364,119,57062,5,6,3:2:0:0:
208,264,57234,1,0,0:0:0:0:
212,268,57319,1,0,0:0:0:0:
216,272,57405,1,10,0:0:0:0:
128,96,57576,1,2,0:0:0:0:
304,288,57748,2,0,P|280:336|224:360,1,94.600002886963,2|0,3:2|3:2,0:0:0:0:
216,363,58005,1,2,0:0:0:0:
184,357,58091,1,8,0:0:0:0:
109,203,58262,1,2,0:0:0:0:
320,96,58434,6,0,L|312:192,1,94.600002886963,2|0,3:2|3:2,0:0:0:0:
296,368,58776,1,10,0:0:0:0:
432,64,58948,2,0,L|416:288,1,189.200005773926,2|2,0:0|3:2,0:0:0:0:
408,384,59462,1,8,0:0:0:0:
312,190,59634,1,2,0:0:0:0:
128,376,59805,5,14,0:0:0:0:
248,80,59976,1,0,3:2:0:0:
363,315,60148,5,10,0:0:0:0:
132,47,60319,1,0,3:2:0:0:
437,218,60491,5,10,0:0:0:0:
96,288,60662,1,0,3:2:0:0:
248,80,60834,5,10,0:0:0:0:
363,315,61005,1,8,0:0:0:0:
347,341,61090,1,8,0:0:0:0:
319,355,61176,5,2,3:2:0:0:
416,184,61519,1,10,0:0:0:0:
431,157,61604,1,8,0:0:0:0:
464,144,61691,6,0,P|464:104|424:64,1,96.7500036907198,6|0,3:2|0:0,0:0:0:0:
320,16,62034,1,8,0:0:0:0:
325,63,62119,1,8,0:0:0:0:
330,110,62205,1,8,0:0:0:0:
335,157,62291,1,8,0:0:0:0:
340,204,62376,1,10,0:0:0:0:
346,251,62462,1,8,0:0:0:0:
351,298,62548,5,6,3:2:0:0:
216,376,62719,1,2,0:0:0:0:
335,157,62891,1,10,0:0:0:0:
408,359,63062,2,0,P|360:383|310:370,1,94.600002886963,2|0,0:0|3:2,0:0:0:0:
250,130,63405,2,0,P|296:129|334:156,1,94.600002886963,2|8,3:2|0:0,0:0:0:0:
263,290,63748,1,2,0:0:0:0:
95,130,63919,5,2,3:2:0:0:
32,325,64091,1,2,3:2:0:0:
176,174,64262,1,10,0:0:0:0:
242,372,64434,2,0,B|349:388|315:294|435:325,1,189.200005773926,2|0,0:0|3:2,0:0:0:0:
183,313,64948,1,8,0:0:0:0:
334,156,65119,1,2,0:0:0:0:
105,348,65291,6,0,L|97:244,1,94.600002886963,2|0,3:2|0:0,0:0:0:0:
258,35,65634,2,0,L|250:129,1,94.600002886963,10|2,0:0|0:0,0:0:0:0:
413,307,65976,1,2,3:2:0:0:
300,344,66148,1,0,3:2:0:0:
264,232,66319,1,8,0:0:0:0:
376,195,66491,1,2,0:0:0:0:
300,344,66662,6,0,P|228:348|191:320,1,94.600002886963,2|0,3:2|3:2,0:0:0:0:
344,104,67005,2,0,P|392:96|464:152,1,141.900004330444,8|0,0:0|0:0,0:0:0:0:
480,224,67348,2,0,B|448:288|496:304|455:366,1,141.900004330444,2|2,3:2|0:0,0:0:0:0:
385,384,67691,1,8,0:0:0:0:
272,232,67862,1,2,0:0:0:0:
142,10,68034,6,0,B|126:90|126:90|141:128|141:128|126:218,1,189.200005773926,6|8,3:2|0:0,0:0:0:0:
36,285,68548,1,2,0:0:0:0:
231,158,68719,2,0,P|295:151|343:190,1,94.600002886963,2|0,3:2|3:2,0:0:0:0:
52,141,69062,1,8,0:0:0:0:
210,338,69234,1,2,0:0:0:0:
220,76,69405,6,0,P|171:99|147:146,1,94.600002886963,2|0,3:2|3:2,0:0:0:0:
160,272,69748,1,10,0:0:0:0:
257,0,69919,2,0,P|298:38|292:105,1,94.600002886963,2|0,0:0|3:2,0:0:0:0:
152,0,70262,1,0,3:2:0:0:
352,147,70433,2,0,P|306:163|241:133,1,94.600002886963,10|0,0:0|0:0,0:0:0:0:
416,12,70776,5,10,0:0:0:0:
352,147,70948,1,2,3:2:0:0:
220,76,71119,1,10,0:0:0:0:
271,259,71291,1,2,3:2:0:0:
512,146,71462,5,10,0:0:0:0:
204,72,71634,1,2,3:2:0:0:
371,151,71805,1,8,0:0:0:0:
210,312,71976,1,2,3:2:0:0:
210,312,72062,1,2,0:0:0:0:
210,312,72148,6,0,P|153:323|108:280,1,94.600002886963,14|0,0:0|3:2,0:0:0:0:
362,242,72491,2,0,P|411:219|460:236,1,94.600002886963,8|2,0:0|3:2,0:0:0:0:
186,165,72834,6,0,L|204:68,1,94.600002886963,8|0,0:0|3:2,0:0:0:0:
362,242,73176,2,0,L|346:340,1,94.600002886963,8|8,0:0|0:0,0:0:0:0:
276,379,73433,1,8,0:0:0:0:
276,379,73519,5,6,3:2:0:0:
186,165,73691,1,2,3:2:0:0:
448,228,73862,5,2,3:2:0:0:
210,312,74034,1,2,3:2:0:0:
382,84,74205,5,2,3:2:0:0:
346,335,74376,1,2,3:2:0:0:
203,71,74548,5,2,3:2:0:0:
465,235,74719,1,2,3:2:0:0:
143,369,74891,5,10,0:0:0:0:
143,369,75576,6,0,L|197:362,3,43,8|8|2|0,0:0|0:0|3:2|3:2,0:0:0:0:
93,305,75919,2,0,L|39:298,3,43,2|2|2|2,3:2|3:2|3:2|3:2,0:0:0:0:
171,242,76262,6,0,P|171:157|93:125,1,172,6|10,3:2|0:0,0:0:0:0:
31,176,76776,1,2,0:0:0:0:
235,296,76948,2,0,P|273:266|331:277,1,86,0|2,3:2|3:2,0:0:0:0:
418,364,77291,1,8,0:0:0:0:
167,238,77462,1,2,0:0:0:0:
171,242,77548,1,2,0:0:0:0:
175,246,77634,5,2,3:2:0:0:
300,343,77805,1,0,3:2:0:0:
50,149,77976,2,0,L|60:45,1,86,10|2,0:0|0:0,0:0:0:0:
320,181,78319,1,2,3:2:0:0:
175,246,78490,1,0,3:2:0:0:
465,116,78662,2,0,L|458:214,1,86,10|2,0:0|0:0,0:0:0:0:
479,287,78919,1,2,0:0:0:0:
479,287,79005,6,0,B|432:294|399:263|399:263|360:293|311:271,1,172,2|8,3:2|0:0,0:0:0:0:
465,116,79519,1,2,0:0:0:0:
232,173,79691,1,0,3:2:0:0:
232,173,79862,1,0,3:2:0:0:
337,353,80034,2,0,P|333:295|294:257,1,86,8|2,0:0|0:0,0:0:0:0:
155,235,80376,5,2,3:2:0:0:
320,181,80548,1,0,3:2:0:0:
146,325,80719,2,0,L|52:313,1,86,8|2,0:0|0:0,0:0:0:0:
317,273,81062,2,0,L|409:262,1,86,0|2,3:2|3:2,0:0:0:0:
151,154,81405,2,0,P|114:159|79:206,1,86,10|0,0:0|0:0,0:0:0:0:
155,235,81662,1,0,0:0:0:0:
155,235,81748,5,14,0:0:0:0:
338,119,81919,1,0,3:2:0:0:
135,3,82091,5,10,0:0:0:0:
225,191,82262,1,0,3:2:0:0:
410,67,82434,5,10,0:0:0:0:
151,154,82605,1,0,3:2:0:0:
402,262,82776,5,10,0:0:0:0:
246,20,82948,1,8,0:0:0:0:
246,20,83034,1,8,0:0:0:0:
246,20,83119,6,0,L|122:41,2,120.399996325684,6|0|0,3:2|3:2|3:2,0:0:0:0:
296,96,84148,6,0,P|277:97|256:104,1,30.0999990814209,2|2,3:2|0:0,0:0:0:0:
246,183,84319,2,0,P|265:182|286:175,1,30.0999990814209,2|2,0:0|0:0,0:0:0:0:
188,126,84491,6,0,P|164:185|204:253,1,137.6,6|2,3:2|3:3,0:0:0:0:
279,267,85005,1,2,0:0:0:0:
360,160,85176,1,2,3:3:0:0:
360,160,85348,2,0,L|384:240,1,68.8,2|2,0:0|3:3,0:0:0:0:
449,332,85691,2,0,L|476:180,1,137.6,2|2,0:0|0:0,0:0:0:0:
399,86,86205,2,0,P|333:80|280:138,2,137.6,2|2|2,3:3|3:3|3:3,0:0:0:0:
360,160,87062,1,2,0:0:0:0:
289,212,87234,6,0,P|226:187|201:120,1,137.6,2|2,3:3|3:3,0:0:0:0:
114,28,87748,2,0,P|126:66|130:108,1,68.8,2|2,0:0|3:3,0:0:0:0:
61,162,88091,2,0,P|49:203|45:242,1,68.8,2|2,0:0|3:3,0:0:0:0:
96,307,88434,1,2,0:0:0:0:
307,296,88605,5,2,3:3:0:0:
223,316,88776,1,2,0:0:0:0:
203,230,88948,1,2,3:3:0:0:
289,212,89119,1,2,0:0:0:0:
223,316,89291,2,0,P|151:300|128:259,1,103.2,2|0,3:3|0:0,0:0:0:0:
203,230,89634,1,2,3:3:0:0:
316,61,89805,1,8,0:0:0:0:
316,61,89891,1,8,0:0:0:0:
316,61,89976,6,0,B|309:116|309:116|293:147|293:147|288:215,1,154.799995275879,6|8,3:2|0:0,0:0:0:0:
229,87,90491,1,2,0:0:0:0:
377,182,90662,2,0,L|464:193,2,77.3999976379395,2|0|10,3:2|3:2|0:0,0:0:0:0:
144,91,91176,2,0,P|182:18|248:3,1,154.799995275879,6|0,3:2|3:2,0:0:0:0:
316,61,91691,1,8,0:0:0:0:
194,163,91862,1,2,0:0:0:0:
391,257,92034,2,0,L|375:176,1,77.3999976379395,2|0,3:2|3:2,0:0:0:0:
370,146,92291,1,0,0:0:0:0:
370,146,92376,1,10,0:0:0:0:
286,238,92548,1,2,0:0:0:0:
110,155,92719,6,0,P|126:115|230:91,1,154.799995275879,6|8,3:2|0:0,0:0:0:0:
286,238,93234,1,2,0:0:0:0:
286,238,93405,2,0,L|272:317,1,77.3999976379395,2|2,3:2|3:2,0:0:0:0:
323,384,93748,1,10,0:0:0:0:
493,304,93919,2,0,L|477:120,1,154.799995275879,6|0,3:2|3:2,0:0:0:0:
357,306,94434,2,0,L|367:226,1,77.3999976379395,4|2,0:3|0:0,0:0:0:0:
275,86,94776,2,0,P|215:69|147:145,1,167.699992323304,2|0,3:2|0:0,0:0:0:0:
82,177,95119,2,0,L|90:257,1,64.5,8|4,0:0|0:3,0:0:0:0:
113,250,95462,6,0,L|124:369,1,86,6|0,3:2|0:0,0:0:0:0:
52,380,95719,1,0,0:0:0:0:
56,384,95805,1,0,3:2:0:0:
205,216,95976,1,2,0:0:0:0:
93,91,96148,1,2,3:2:0:0:
93,91,96319,2,0,L|80:184,1,86,2|0,0:0|3:2,0:0:0:0:
196,301,96662,6,0,B|289:312|259:224|366:253,1,172,10|2,0:0|0:0,0:0:0:0:
424,299,97176,2,0,L|411:396,1,86,2|2,3:2|0:0,0:0:0:0:
351,249,97519,1,2,3:2:0:0:
423,65,97691,1,8,0:0:0:0:
512,142,97862,1,2,3:2:0:0:
353,269,98034,1,8,0:0:0:0:
248,71,98205,6,0,P|152:55|100:124,1,172,2|2,3:2|3:2,0:0:0:0:
22,114,98719,2,0,P|35:156|75:185,1,86,2|0,0:0|3:2,0:0:0:0:
186,131,99062,1,2,0:0:0:0:
59,265,99234,2,0,P|96:262|139:212,1,86,0|10,3:2|0:0,0:0:0:0:
315,245,99576,6,0,P|274:220|228:223,1,86,0|2,3:2|0:0,0:0:0:0:
388,318,99919,2,0,P|424:317|463:286,1,86,0|2,3:2|0:0,0:0:0:0:
382,146,100262,1,2,3:2:0:0:
391,333,100434,1,8,0:0:0:0:
234,197,100605,1,2,3:2:0:0:
150,341,100776,1,8,0:0:0:0:
150,341,100862,1,8,0:0:0:0:
150,341,100948,6,0,B|68:347|103:277|0:281,1,154.799995275879,6|8,3:2|0:0,0:0:0:0:
255,300,101462,1,2,0:0:0:0:
19,363,101634,1,2,3:2:0:0:
112,212,101805,1,0,3:2:0:0:
255,300,101976,1,10,0:0:0:0:
34,193,102148,6,0,P|71:142|161:144,1,154.799995275879,6|0,3:2|3:2,0:0:0:0:
251,225,102662,2,0,P|261:271|243:321,1,77.3999976379395,10|2,0:0|0:0,0:0:0:0:
255,132,103005,2,0,P|299:146|334:186,1,77.3999976379395,2|0,3:2|3:2,0:0:0:0:
175,268,103348,2,0,P|140:299|87:309,1,77.3999976379395,10|2,0:0|0:0,0:0:0:0:
167,116,103691,6,0,P|198:65|302:56,1,154.799995275879,6|8,3:2|0:0,0:0:0:0:
321,166,104205,1,2,0:0:0:0:
91,87,104376,2,0,P|55:103|-1:98,1,77.3999976379395,2|0,3:2|3:2,0:0:0:0:
251,225,104719,1,10,0:0:0:0:
434,49,104891,6,0,B|441:113|441:113|432:139|432:139|441:218,1,154.799995275879,6|2,3:2|3:2,0:0:0:0:
497,255,105319,1,0,0:0:0:0:
500,281,105405,1,10,0:0:0:0:
356,180,105576,2,0,P|340:172|308:164,2,38.6999988189698,2|8|2,0:0|0:0|3:2,0:0:0:0:
178,257,105919,1,8,0:0:0:0:
178,277,106004,1,2,3:2:0:0:
183,296,106090,1,4,0:3:0:0:
318,362,106262,1,0,3:2:0:0:
318,362,106348,1,0,3:2:0:0:
318,362,106434,6,0,P|366:322|446:346,1,137.6,6|2,3:2|0:0,0:0:0:0:
318,362,106948,1,2,3:2:0:0:
228,173,107119,1,8,0:0:0:0:
228,173,107462,1,2,0:0:0:0:
370,43,107805,6,0,L|354:195,1,137.6,2|2,3:2|0:0,0:0:0:0:
233,104,108319,2,0,L|225:200,1,68.8,2|8,3:2|0:0,0:0:0:0:
233,104,108834,1,2,0:0:0:0:
370,43,109176,6,0,P|434:35|491:88,1,137.6,2|2,3:2|0:0,0:0:0:0:
370,43,109691,1,2,3:2:0:0:
512,204,109862,2,0,P|454:198|422:236,2,103.2,8|2|2,0:0|0:0|0:0,0:0:0:0:
389,312,110548,6,0,P|357:288|353:176,1,137.6,2|2,3:2|0:0,0:0:0:0:
309,358,111062,2,0,P|269:340|216:345,1,68.8,2|8,3:2|0:0,0:0:0:0:
169,349,111576,2,0,P|169:325|183:294,1,51.6,2|0,0:0|0:0,0:0:0:0:
247,260,111919,5,14,0:0:0:0:
19,376,112091,1,0,3:2:0:0:
57,242,112262,1,2,3:2:0:0:
309,358,112434,5,10,0:0:0:0:
179,130,112605,1,0,3:2:0:0:
334,217,112776,1,2,3:2:0:0:
60,106,112948,5,10,0:0:0:0:
169,349,113119,1,0,3:2:0:0:
318,65,113291,5,0,3:2:0:0:
366,53,113376,1,0,3:2:0:0:
412,69,113462,1,0,3:2:0:0:
443,108,113548,1,0,3:2:0:0:
447,157,113633,5,0,3:2:0:0:
424,201,113719,1,0,3:2:0:0:
381,225,113805,1,0,3:2:0:0:
334,217,113891,1,10,0:0:0:0:
308,193,113976,1,0,3:2:0:0:
280,182,114061,1,0,3:2:0:0:
254,180,114147,1,0,3:2:0:0:
229,188,114233,1,0,3:2:0:0:
214,203,114319,2,0,P|204:232|205:250,1,43,2|0,3:2|3:2,0:0:0:0:
268,281,114491,2,0,P|278:252|277:234,1,43,2|0,3:2|3:2,0:0:0:0:
168,136,114662,5,6,3:2:0:0:
92,105,115005,2,0,P|130:62|205:62,1,120.399996325684,2|2,0:0|0:0,0:0:0:0:
214,203,115691,1,2,0:0:0:0:
119,319,115862,2,0,B|155:204|54:222|98:78,1,223.599989764405,6|2,3:2|3:2,0:0:0:0:
41,273,116376,1,2,3:2:0:0:
41,273,116719,6,0,L|85:270,3,34.4,2|2|2|2,0:0|0:0|0:0|0:0,0:0:0:0:
182,222,117062,2,0,L|126:213,1,34.4,2|2,0:0|0:0,0:0:0:0:
245,288,117234,2,0,L|301:280,1,34.4,2|2,0:0|0:0,0:0:0:0:
392,224,117405,6,0,L|408:112,1,94.600002886963,6|0,3:2|0:0,0:0:0:0:
232,8,117748,1,10,0:0:0:0:
308,207,117919,1,2,0:0:0:0:
480,88,118091,2,0,P|432:48|376:48,1,94.600002886963,2|0,3:2|3:2,0:0:0:0:
208,128,118434,1,10,0:0:0:0:
405,130,118605,1,2,0:0:0:0:
212,280,118776,6,0,P|170:281|121:239,1,94.600002886963,2|0,3:2|3:2,0:0:0:0:
392,224,119119,2,0,P|443:226|480:263,1,94.600002886963,10|2,0:0|0:0,0:0:0:0:
224,373,119462,2,0,L|210:268,1,94.600002886963,2|0,3:2|3:2,0:0:0:0:
405,130,119805,1,10,0:0:0:0:
191,204,119976,1,2,0:0:0:0:
277,20,120148,6,0,L|381:44,1,94.600002886963,2|0,3:2|0:0,0:0:0:0:
484,203,120491,2,0,L|391:224,1,94.600002886963,10|0,0:0|0:0,0:0:0:0:
138,275,120834,2,0,P|106:219|186:114,1,189.200005773926,2|10,3:2|0:0,0:0:0:0:
391,223,121348,1,0,0:0:0:0:
171,352,121519,6,0,P|139:360|101:350,1,64.5000024604798,2|0,3:2|0:0,0:0:0:0:
220,240,121691,2,0,P|252:232|287:240,1,64.5000024604798,2|0,3:2|0:0,0:0:0:0:
171,352,121862,2,0,P|140:359|52:281,1,141.900004330444,8|0,0:0|0:0,0:0:0:0:
12,181,122205,6,0,L|4:109,1,64.5000024604798,2|0,3:2|0:0,0:0:0:0:
108,237,122376,2,0,L|116:165,1,64.5000024604798,0|0,3:2|0:0,0:0:0:0:
205,98,122548,2,0,L|222:259,1,141.900004330444,10|0,0:0|0:0,0:0:0:0:
255,317,122891,5,6,3:2:0:0:
416,224,123062,1,0,0:0:0:0:
416,224,123148,1,0,0:0:0:0:
416,224,123234,2,0,L|400:328,1,94.600002886963,10|2,0:0|0:0,0:0:0:0:
108,237,123576,2,0,L|122:330,1,94.600002886963,2|2,3:2|3:2,0:0:0:0:
127,353,123834,1,2,0:0:0:0:
131,375,123919,1,10,0:0:0:0:
307,201,124091,1,2,0:0:0:0:
32,222,124262,6,0,P|53:177|94:159,1,94.600002886963,2|2,3:2|3:2,0:0:0:0:
272,39,124605,1,10,0:0:0:0:
336,278,124776,2,0,P|289:282|250:257,1,94.600002886963,2|0,0:0|3:2,0:0:0:0:
161,110,125119,2,0,P|121:78|68:81,2,94.600002886963,2|8|2,3:2|0:0|0:0,0:0:0:0:
336,278,125634,5,14,0:0:0:0:
272,39,125805,1,0,3:2:0:0:
108,237,125976,5,10,0:0:0:0:
407,181,126147,1,0,3:2:0:0:
161,110,126319,5,10,0:0:0:0:
138,345,126490,1,0,3:2:0:0:
9,67,126662,5,10,0:0:0:0:
62,384,126833,1,8,0:0:0:0:
62,384,126919,1,8,0:0:0:0:
62,384,127005,5,2,3:2:0:0:
260,155,127348,2,0,L|268:203,1,47.3000014434815,10|8,0:0|0:0,0:0:0:0:
344,304,127519,2,0,L|352:199,1,96.7500036907198,6|0,3:2|0:0,0:0:0:0:
322,101,127862,5,8,0:0:0:0:
290,76,127947,1,8,0:0:0:0:
243,76,128033,1,8,0:0:0:0:
202,98,128119,1,8,0:0:0:0:
177,138,128204,1,10,0:0:0:0:
140,165,128290,1,8,0:0:0:0:
93,166,128376,5,6,3:2:0:0:
260,155,128548,1,2,0:0:0:0:
104,8,128719,1,10,0:0:0:0:
99,273,128891,2,0,P|158:259|181:232,1,94.600002886963,2|0,0:0|0:0,0:0:0:0:
323,37,129234,2,0,P|264:51|241:78,1,94.600002886963,2|8,3:2|0:0,0:0:0:0:
351,207,129576,1,2,0:0:0:0:
93,166,129748,5,2,3:2:0:0:
242,75,129919,1,2,3:2:0:0:
179,234,130091,1,10,0:0:0:0:
409,140,130262,2,0,P|426:250|338:297,1,189.200005773926,2|2,0:0|3:2,0:0:0:0:
260,155,130776,1,8,0:0:0:0:
479,102,130948,1,2,0:0:0:0:
479,102,131119,6,0,P|439:65|381:64,1,94.600002886963,2|0,3:2|0:0,0:0:0:0:
260,155,131462,2,0,L|282:259,1,94.600002886963,10|2,0:0|0:0,0:0:0:0:
106,384,131805,2,0,L|139:183,1,189.200005773926,2|8,3:2|0:0,0:0:0:0:
168,21,132319,1,2,0:0:0:0:
17,135,132491,6,0,L|33:231,1,94.600002886963,2|0,3:2|3:2,0:0:0:0:
192,376,132834,2,0,L|207:282,1,94.600002886963,8|2,0:0|0:0,0:0:0:0:
366,100,133176,2,0,P|428:93|478:168,2,141.900004330444,2|2|2,3:2|0:0|0:0,0:0:0:0:
363,288,133862,5,14,0:0:0:0:
283,91,134034,1,0,3:2:0:0:
115,189,134205,5,8,0:0:0:0:
402,165,134376,1,2,3:2:0:0:
239,340,134548,6,0,L|136:325,1,94.600002886963,10|2,0:0|2:3,0:0:0:0:
39,165,134891,2,0,P|67:123|130:109,1,94.600002886963,8|2,2:2|3:2,0:0:0:0:
303,245,135234,5,14,0:0:0:0:
184,32,135405,1,0,3:2:0:0:
81,270,135576,5,8,0:0:0:0:
312,104,135748,1,2,3:0:0:0:
344,384,135919,5,10,0:0:0:0:
184,144,136091,1,0,3:2:0:0:
464,64,136262,5,10,0:0:0:0:
459,118,136347,1,10,0:0:0:0:
454,172,136433,1,4,0:3:0:0:
449,226,136519,1,4,0:3:0:0:
444,280,136605,6,0,L|436:352,1,68.8,6|0,3:2|0:0,0:0:0:0:
360,248,136948,2,0,L|352:179,1,68.8,2|2,3:3|0:0,0:0:0:0:
352,336,137291,2,0,P|313:322|285:294,1,68.8,2|2,3:3|0:0,0:0:0:0:
248,232,137634,1,2,3:3:0:0:
248,232,137805,1,2,0:0:0:0:
148,297,137976,2,0,L|156:377,1,68.8,2|2,3:3|0:0,0:0:0:0:
248,232,138319,2,0,L|240:152,1,68.8,2|2,3:3|0:0,0:0:0:0:
112,104,138662,2,0,L|104:184,1,68.8,2|2,3:3|0:0,0:0:0:0:
148,297,139005,2,0,P|196:293|244:333,1,103.2,2|0,3:3|0:0,0:0:0:0:
313,306,139348,6,0,P|318:339|297:377,1,68.8,2|2,3:3|0:0,0:0:0:0:
74,334,139691,2,0,B|45:271|95:254|66:190,2,137.6,2|2|2,3:3|3:3|3:3,0:0:0:0:
7,384,140548,1,2,0:0:0:0:
148,297,140719,1,2,3:3:0:0:
148,297,140891,1,2,0:0:0:0:
238,323,141062,2,0,P|286:331|324:320,1,68.8,2|2,3:3|0:0,0:0:0:0:
306,244,141405,2,0,P|258:236|224:248,1,68.8,2|2,3:3|0:0,0:0:0:0:
389,328,141748,2,0,P|413:294|405:226,1,103.2,2|0,3:3|0:0,0:0:0:0:
402,133,142091,6,0,P|370:149|350:182,1,68.8,2|2,3:3|0:0,0:0:0:0:
474,98,142434,2,0,P|452:68|416:54,1,68.8,2|2,3:3|0:0,0:0:0:0:
352,175,142776,2,0,P|384:159|406:126,1,68.8,2|2,3:3|0:0,0:0:0:0:
328,94,143119,2,0,P|339:60|333:20,1,68.8,2|2,3:3|0:0,0:0:0:0:
186,94,143462,2,0,B|203:251,1,137.6,2|2,3:3|3:3,0:0:0:0:
247,345,143976,1,2,0:0:0:0:
247,345,144148,2,0,P|207:361|171:354,1,68.8,2|2,3:3|0:0,0:0:0:0:
99,302,144491,2,0,L|114:174,1,103.2,2|0,3:3|0:0,0:0:0:0:
65,127,144834,6,0,P|105:111|145:119,1,68.8,2|2,3:3|0:0,0:0:0:0:
173,29,145176,2,0,P|206:55|219:94,1,68.8,2|2,3:3|0:0,0:0:0:0:
304,79,145519,2,0,P|297:121|270:152,1,68.8,2|2,3:3|0:0,0:0:0:0:
328,208,145862,2,0,P|288:224|248:216,1,68.8,2|2,3:3|0:0,0:0:0:0:
200,168,146205,1,2,3:3:0:0:
144,224,146376,1,2,0:0:0:0:
168,296,146548,2,0,P|192:328|224:336,1,68.8,2|2,3:3|0:0,0:0:0:0:
316,298,146891,2,0,L|324:234,1,64.5,2|0,3:3|0:0,0:0:0:0:
328,208,147234,2,0,P|365:192|407:203,1,68.8,2|2,3:3|0:0,0:0:0:0:
484,315,147576,6,0,B|450:240|512:237|476:147,1,154.799995275879,6|2,3:2|3:3,0:0:0:0:
460,64,148091,2,0,P|397:108|386:185,2,154.799995275879,2|2|2,0:0|0:0|0:0,0:0:0:0:
291,164,148948,5,2,3:3:0:0:
276,260,149119,1,2,0:0:0:0:
371,274,149290,1,2,3:3:0:0:
385,180,149462,1,2,0:0:0:0:
276,260,149634,2,0,P|235:248|203:208,1,77.3999976379395,2|2,3:3|0:0,0:0:0:0:
120,152,149976,2,0,P|128:192|128:232,1,64.5,2|0,3:3|0:0,0:0:0:0:
126,254,150319,6,0,P|94:238|38:238,1,77.3999976379395,2|2,3:3|0:0,0:0:0:0:
153,77,150662,2,0,P|183:101|200:136,1,77.3999976379395,2|2,3:3|0:0,0:0:0:0:
276,260,151005,2,0,P|356:276|436:260,1,154.799995275879,2|2,3:3|3:3,0:0:0:0:
504,152,151519,1,2,0:0:0:0:
427,263,151691,6,0,P|428:308|420:348,1,77.3999976379395,2|2,3:3|0:0,0:0:0:0:
276,260,152034,2,0,P|275:215|283:175,1,77.3999976379395,2|2,3:3|0:0,0:0:0:0:
432,48,152376,5,10,0:0:0:0:
403,79,152461,1,8,0:0:0:0:
363,95,152547,1,8,0:0:0:0:
321,90,152633,1,8,0:0:0:0:
285,67,152718,1,8,0:0:0:0:
248,32,152805,1,8,0:0:0:0:
192,26,152890,1,8,0:0:0:0:
154,66,152976,1,8,0:0:0:0:
162,120,153062,5,6,3:2:0:0:
352,0,153234,1,2,3:2:0:0:
280,183,153405,5,10,0:0:0:0:
192,26,153577,1,2,3:2:0:0:
43,181,153748,5,10,0:0:0:0:
285,67,153919,1,2,3:2:0:0:
63,0,154091,1,10,0:0:0:0:
139,239,154262,6,0,B|216:244|216:244|247:269|247:269|336:278,1,189.200005773926,6|0,3:2|3:2,0:0:0:0:
458,197,154776,2,0,L|362:189,1,94.600002886963,10|2,0:0|3:2,0:0:0:0:
154,66,155119,2,0,L|250:74,1,94.600002886963,10|2,0:0|3:2,0:0:0:0:
467,74,155462,2,0,P|491:148|441:205,1,141.900004330444,10|0,0:0|0:0,0:0:0:0:
403,275,155805,5,14,0:0:0:0:
248,73,155976,1,2,3:2:0:0:
217,300,156148,5,10,0:0:0:0:
363,189,156319,1,2,3:2:0:0:
146,147,156491,5,10,0:0:0:0:
318,334,156662,1,2,3:2:0:0:
356,84,156834,1,10,0:0:0:0:
118,292,157005,6,0,P|84:205|151:145,1,189.200005773926,6|2,3:2|3:2,0:0:0:0:
255,230,157519,2,0,P|209:241|164:226,1,94.600002886963,10|2,0:0|3:2,0:0:0:0:
104,77,157862,2,0,P|149:66|195:84,1,94.600002886963,10|2,0:0|3:2,0:0:0:0:
346,192,158205,2,0,L|330:296,1,94.600002886963,10|0,0:0|3:2,0:0:0:0:
88,172,158548,5,14,0:0:0:0:
270,33,158719,1,2,3:2:0:0:
255,230,158891,5,10,0:0:0:0:
192,82,159062,1,2,3:2:0:0:
378,110,159234,5,10,0:0:0:0:
165,226,159405,1,2,3:2:0:0:
196,0,159576,1,10,0:0:0:0:
434,177,159748,6,0,B|466:247|419:300|419:300|378:298|356:340,1,189.200005773926,6|0,3:2|3:2,0:0:0:0:
282,334,160262,2,0,P|236:347|186:323,1,94.600002886963,10|2,0:0|3:2,0:0:0:0:
92,272,160519,1,0,0:0:0:0:
92,272,160605,2,0,L|108:384,1,94.600002886963,10|2,0:0|3:2,0:0:0:0:
325,138,160948,2,0,L|309:250,1,94.600002886963,10|2,0:0|3:2,0:0:0:0:
88,172,161291,5,14,0:0:0:0:
282,334,161462,1,2,3:2:0:0:
195,48,161634,5,14,0:0:0:0:
224,243,161805,1,2,3:2:0:0:
349,131,161976,5,14,0:0:0:0:
88,172,162148,1,2,3:2:0:0:
282,334,162319,1,14,0:0:0:0:
502,70,162491,6,0,P|431:14|346:58,1,189.200005773926,6|0,3:2|3:2,0:0:0:0:
418,251,163005,5,0,3:2:0:0:
421,95,163176,1,0,3:2:0:0:
272,172,163348,5,0,3:2:0:0:
351,307,163519,1,0,3:2:0:0:
224,95,163691,5,0,3:2:0:0:
168,341,163862,1,2,3:2:0:0:
509,254,164034,6,0,B|496:199|459:197|459:197|420:227|368:214|368:214|337:157|368:90|422:85,1,322.5,6|2,3:2|0:0,0:0:0:0:
422,85,165405,6,0,P|387:33|281:169,1,322.5,6|2,3:2|0:0,0:0:0:0:
294,181,166776,6,0,B|264:215|211:207|211:207|164:276|164:276|119:267|84:298|84:298|33:291|24:253,1,322.5,6|2,3:2|0:0,0:0:0:0:
16,242,168148,6,0,P|32:130|144:178,1,270.899991732788,6|0,3:2|0:0,0:0:0:0:
143,177,168834,2,0,P|191:210|303:66,1,270.899991732788,6|0,3:2|0:0,0:0:0:0:
312,87,169519,6,0,P|379:192|421:63,1,322.5,6|0,3:2|0:0,0:0:0:0:
408,55,170891,6,0,B|336:126|248:77|256:65|265:53|175:-10|100:49,1,322.5,6|0,3:2|0:0,0:0:0:0:
93,37,172262,6,0,P|63:80|98:187,1,154.799995275879,6|2,3:2|3:2,0:0:0:0:
153,246,172776,1,2,0:0:0:0:
153,246,172948,2,0,P|156:293|132:342,1,77.3999976379395,2|2,3:2|0:0,0:0:0:0:
4,305,173291,2,0,P|46:281|69:237,1,77.3999976379395,2|2,3:2|0:0,0:0:0:0:
93,37,173634,5,6,0:0:0:0:
244,206,173805,1,2,0:0:0:0:
197,4,173976,5,2,0:0:0:0:
62,257,174147,1,2,0:0:0:0:
303,64,174319,5,2,0:0:0:0:
303,64,174405,1,2,0:0:0:0:
303,64,174491,2,0,P|343:80|359:104,1,43,2|2,0:0|0:0,0:0:0:0:
483,221,174662,5,2,0:0:0:0:
483,221,174748,1,2,0:0:0:0:
483,221,174834,2,0,P|460:225|440:234,1,43,2|2,0:0|0:0,0:0:0:0:
204,323,175005,6,0,P|242:301|293:310,1,94.600002886963,6|0,0:0|0:0,0:0:0:0:
62,257,175348,1,10,0:0:0:0:
259,380,175519,1,0,0:0:0:0:
201,143,175691,2,0,P|162:112|96:115,1,94.600002886963,2|0,3:2|3:2,0:0:0:0:
107,336,176034,1,10,0:0:0:0:
265,211,176205,1,2,0:0:0:0:
178,232,176376,5,2,3:2:0:0:
342,79,176548,1,0,3:2:0:0:
432,333,176719,1,10,0:0:0:0:
287,140,176891,1,0,0:0:0:0:
204,323,177062,2,0,P|156:315|112:336,1,94.600002886963,2|0,3:2|3:2,0:0:0:0:
0,211,177405,1,10,0:0:0:0:
125,352,177576,1,2,0:0:0:0:
287,140,177748,6,0,P|335:132|379:158,1,94.600002886963,2|2,3:2|0:0,0:0:0:0:
178,232,178091,2,0,P|154:184|182:128,1,94.600002886963,10|2,0:0|0:0,0:0:0:0:
425,75,178434,2,0,P|465:147|412:240,1,189.200005773926,2|10,3:2|0:0,0:0:0:0:
178,232,178948,1,2,0:0:0:0:
425,75,179119,6,0,L|417:163,1,64.5000024604798,2|0,3:2|0:0,0:0:0:0:
290,18,179291,2,0,L|298:106,1,64.5000024604798,2|0,3:2|0:0,0:0:0:0:
164,146,179462,2,0,L|178:-16,1,141.900004330444,10|2,0:0|0:0,0:0:0:0:
96,199,179805,6,0,P|131:230|184:231,1,64.5000024604798,2|0,3:2|0:0,0:0:0:0:
18,125,179976,2,0,P|10:175|34:217,1,64.5000024604798,2|0,3:2|0:0,0:0:0:0:
94,303,180148,2,0,P|166:319|238:247,1,141.900004330444,10|2,0:0|0:0,0:0:0:0:
226,204,180491,5,6,3:2:0:0:
425,289,180662,1,0,0:0:0:0:
429,293,180748,1,0,0:0:0:0:
433,297,180834,1,10,0:0:0:0:
471,160,181005,1,2,0:0:0:0:
285,340,181176,2,0,P|241:368|173:364,1,94.600002886963,2|2,3:2|3:2,0:0:0:0:
173,364,181434,1,2,0:0:0:0:
149,348,181519,1,10,0:0:0:0:
92,197,181691,1,2,0:0:0:0:
326,140,181862,6,0,L|310:244,1,94.600002886963,2|2,3:2|3:2,0:0:0:0:
156,48,182205,1,10,0:0:0:0:
415,29,182376,2,0,B|407:93|407:93|415:133|415:133|399:237,1,189.200005773926,2|2,0:0|3:2,0:0:0:0:
225,362,182891,1,8,0:0:0:0:
311,233,183062,1,2,0:0:0:0:
460,384,183234,5,14,0:0:0:0:
326,140,183405,1,0,3:2:0:0:
213,281,183576,5,10,0:0:0:0:
489,247,183748,1,0,3:2:0:0:
336,32,183919,5,10,0:0:0:0:
293,309,184091,1,0,3:2:0:0:
75,114,184262,5,10,0:0:0:0:
381,291,184434,1,8,0:0:0:0:
381,291,184519,1,8,0:0:0:0:
381,291,184605,5,2,3:2:0:0:
78,259,184948,6,0,P|75:291|86:331,1,47.3000014434815,10|8,0:0|0:0,0:0:0:0:
145,358,185119,6,0,B|214:332|215:390|305:357,1,141.900004330444,6|0,3:2|0:0,0:0:0:0:
344,288,185462,1,8,0:0:0:0:
378,245,185547,1,8,0:0:0:0:
388,192,185633,1,8,0:0:0:0:
370,140,185719,1,8,0:0:0:0:
329,104,185804,1,10,0:0:0:0:
276,92,185890,1,8,0:0:0:0:
224,107,185976,5,6,3:2:0:0:
250,283,186148,1,2,0:0:0:0:
388,192,186319,1,10,0:0:0:0:
170,241,186491,2,0,P|122:238|79:208,1,94.600002886963,2|0,0:0|3:2,0:0:0:0:
68,28,186834,2,0,P|116:32|158:60,1,94.600002886963,2|0,0:0|3:2,0:0:0:0:
83,213,187176,1,2,0:0:0:0:
323,26,187348,5,2,3:2:0:0:
245,192,187519,1,2,3:2:0:0:
154,56,187691,1,10,0:0:0:0:
400,176,187862,2,0,L|426:379,1,189.200005773926,2|2,0:0|3:2,0:0:0:0:
498,225,188376,1,8,0:0:0:0:
240,168,188548,1,2,0:0:0:0:
240,168,188719,6,0,P|176:208|128:200,1,94.600002886963,2|0,3:2|0:0,0:0:0:0:
224,56,189062,2,0,P|288:64|328:104,1,94.600002886963,10|2,0:0|0:0,0:0:0:0:
400,176,189405,2,0,L|376:344,1,141.900004330444,2|0,3:2|0:0,0:0:0:0:
423,384,189748,1,8,0:0:0:0:
296,240,189919,1,2,0:0:0:0:
480,128,190091,6,0,P|432:88|376:88,1,94.600002886963,2|0,3:2|3:2,0:0:0:0:
224,56,190434,2,0,L|232:160,1,94.600002886963,8|2,0:0|0:0,0:0:0:0:
127,336,190776,2,0,P|96:288|60:271,1,94.600002886963,2|2,3:2|3:2,0:0:0:0:
40,265,191034,1,2,0:0:0:0:
16,267,191119,1,10,0:0:0:0:
23,384,191291,1,2,0:0:0:0:
201,231,191462,6,0,P|209:175|113:79,1,189.200005773926,14|8,0:0|0:0,0:0:0:0:
33,156,191976,1,2,0:0:0:0:
275,0,192148,2,0,L|257:105,1,94.600002886963,2|0,3:2|3:2,0:0:0:0:
350,268,192491,1,8,0:0:0:0:
480,173,192662,1,2,0:0:0:0:
270,259,192834,6,0,P|222:259|167:188,1,141.900004330444,2|0,3:2|0:0,0:0:0:0:
188,116,193176,1,8,0:0:0:0:
366,15,193348,2,0,B|356:86|356:86|330:123|330:123|318:199,1,189.200005773926,2|0,0:0|3:2,0:0:0:0:
492,65,193862,2,0,L|471:185,1,94.600002886963,10|2,0:0|0:0,0:0:0:0:
328,320,194205,5,14,0:0:0:0:
475,158,194376,1,2,3:2:0:0:
512,384,194548,1,10,0:0:0:0:
318,194,194719,1,2,3:2:0:0:
205,384,194891,1,10,0:0:0:0:
454,265,195062,1,2,3:2:0:0:
305,63,195234,1,10,0:0:0:0:
166,243,195405,1,2,3:2:0:0:
166,243,195491,1,2,0:0:0:0:
166,243,195576,6,0,P|110:227|86:171,1,94.600002886963,14|2,0:0|3:2,0:0:0:0:
305,63,195919,2,0,L|279:182,1,94.600002886963,8|2,0:0|3:2,0:0:0:0:
0,237,196262,6,0,L|26:118,1,94.600002886963,8|2,0:0|3:2,0:0:0:0:
146,15,196605,2,0,P|202:31|226:87,1,94.600002886963,8|8,0:0|0:0,0:0:0:0:
204,141,196862,1,8,0:0:0:0:
204,141,196948,5,2,3:2:0:0:
401,32,197119,1,0,3:2:0:0:
345,264,197291,5,0,3:2:0:0:
221,59,197462,1,2,3:2:0:0:
124,307,197634,5,2,3:2:0:0:
405,182,197805,1,0,3:2:0:0:
90,198,197976,5,0,3:2:0:0:
295,346,198148,1,2,3:2:0:0:
374,26,198319,5,10,0:0:0:0:
256,192,199691,12,0,200634,0:0:0:0:
144,64,200719,6,0,L|152:136,1,43,10|10,0:0|0:0,0:0:0:0:
184,184,200891,2,0,L|176:248,1,43,10|10,0:0|0:0,0:0:0:0:
136,328,201062,6,0,B|184:312|184:312|312:328,1,172,6|10,3:2|0:0,0:0:0:0:
464,352,201576,1,2,0:0:0:0:
280,152,201748,2,0,L|288:256,1,86,2|0,3:2|3:2,0:0:0:0:
440,88,202091,1,8,0:0:0:0:
376,280,202262,1,2,0:0:0:0:
380,284,202348,1,2,0:0:0:0:
384,288,202434,5,2,3:2:0:0:
192,208,202605,1,0,3:2:0:0:
380,26,202776,2,0,P|436:2|482:17,1,86,10|2,0:0|0:0,0:0:0:0:
280,152,203119,1,2,3:2:0:0:
144,16,203291,1,0,3:2:0:0:
41,210,203462,2,0,P|41:260|65:306,1,86,10|2,0:0|0:0,0:0:0:0:
72,320,203719,1,2,0:0:0:0:
88,344,203805,6,0,B|136:360|176:336|176:336|224:304|272:336,1,172,2|8,3:2|0:0,0:0:0:0:
123,237,204319,1,2,0:0:0:0:
276,345,204491,1,0,3:2:0:0:
276,345,204662,1,2,3:2:0:0:
54,292,204834,2,0,P|37:253|42:208,1,86,8|0,0:0|0:0,0:0:0:0:
326,160,205176,6,0,L|310:245,1,86,2|2,3:2|3:2,0:0:0:0:
244,25,205519,2,0,P|284:1|340:9,1,86,8|2,0:0|0:0,0:0:0:0:
460,142,205862,1,0,3:2:0:0:
302,80,206034,1,2,3:2:0:0:
317,323,206205,2,0,P|266:313|240:265,1,86,10|2,0:0|0:0,0:0:0:0:
387,97,206548,5,14,0:0:0:0:
202,213,206719,1,0,3:2:0:0:
460,142,206891,5,10,0:0:0:0:
244,25,207062,1,0,3:2:0:0:
314,247,207234,5,10,0:0:0:0:
392,86,207405,1,0,3:2:0:0:
453,317,207576,5,10,0:0:0:0:
211,362,207748,1,8,0:0:0:0:
215,366,207834,1,8,0:0:0:0:
219,370,207919,5,6,3:2:0:0:
170,298,208091,1,8,0:0:0:0:
180,224,208262,1,0,3:2:0:0:
242,181,208434,1,8,0:0:0:0:
388,189,208605,5,8,0:0:0:0:
371,199,208691,1,8,0:0:0:0:
353,205,208776,2,0,P|324:199|306:180,1,38.6999988189698,0|0,3:2|3:2,0:0:0:0:
243,60,208948,1,4,0:3:0:0:
200,37,209033,1,4,0:3:0:0:
152,40,209119,1,4,0:3:0:0:
112,66,209205,1,4,0:3:0:0:
90,108,209291,6,0,B|123:176|210:167|210:167|147:198|160:275|160:275|227:225|298:263,1,412.799987402344,6|0,3:2|0:0,0:0:0:0:
