osu file format v14

[General]
AudioFilename: audio.mp3
AudioLeadIn: 0
PreviewTime: 51233
Countdown: 0
SampleSet: Soft
StackLeniency: 0.7
Mode: 0
LetterboxInBreaks: 0
WidescreenStoryboard: 1

[Editor]
Bookmarks: 33833,80034,102576,103605,202775,206204
DistanceSpacing: 1.2
BeatDivisor: 4
GridSize: 8
TimelineZoom: 1.7

[Metadata]
Title:Present
TitleUnicode:プレゼント
Artist:FROZEN QUALIA
ArtistUnicode:FROZEN QUALIA
Creator:pnky
Version:Hard
Source:
Tags:藍月なくる aitsuki nakuru 花束 hanataba japanese j-rock jrock rock j-pop jpop pop sanairrt net0
BeatmapID:3157948
BeatmapSetID:1300435

[Difficulty]
HPDrainRate:5
CircleSize:4.2
OverallDifficulty:7
ApproachRate:8
SliderMultiplier:1.3
SliderTickRate:1

[Events]
//Background and Video events
0,0,"b.jpg",0,0
//Break Periods
//Storyboard Layer 0 (Background)
//Storyboard Layer 1 (Fail)
//Storyboard Layer 2 (Pass)
//Storyboard Layer 3 (Foreground)
//Storyboard Layer 4 (Overlay)
//Storyboard Sound Samples

[TimingPoints]
834,342.857142857143,4,2,2,40,1,0
834,-100,4,2,2,40,0,0
6318,-100,4,2,2,50,0,0
9061,-100,4,2,2,50,0,0
10004,-100,4,2,2,50,0,0
10090,-80,4,2,2,50,0,0
10434,-80,4,2,2,60,0,0
17290,-133.333333333333,4,2,2,60,0,0
18318,-100,4,2,2,60,0,0
18661,-100,4,2,2,50,0,0
23719,-100,4,2,2,5,0,0
23805,-100,4,2,2,50,0,0
24147,-100,4,2,2,50,0,0
40604,-90.9090909090909,4,2,2,50,0,0
46090,-80,4,2,2,50,0,0
46347,-80,4,2,2,50,0,0
46433,-80,4,2,2,50,0,0
46861,-80,4,2,2,50,0,0
46947,-80,4,2,2,50,0,0
48834,-80,4,2,2,50,0,0
51405,-80,4,2,2,50,0,0
51576,-80,4,2,2,75,0,1
56291,-80,4,2,2,5,0,1
56376,-80,4,2,2,75,0,1
56976,-80,4,2,2,5,0,1
57062,-80,4,2,2,75,0,1
61176,-80,4,2,2,75,0,0
61947,-80,4,2,2,75,0,0
62033,-80,4,2,2,75,0,0
62548,-80,4,2,2,75,0,1
69661,-80,4,2,2,5,0,1
69747,-80,4,2,2,75,0,1
70176,-80,4,2,2,5,0,1
70262,-80,4,2,2,75,0,1
74891,-90.9090909090909,4,2,2,75,0,0
76262,-90.9090909090909,4,2,2,60,0,0
83118,-133.333333333333,4,2,2,60,0,0
84147,-100,4,2,2,60,0,0
84491,-100,4,2,2,50,0,0
89891,-100,4,2,2,50,0,0
89975,-100,4,2,2,50,0,0
95376,-100,4,2,2,50,0,0
95461,-100,4,2,2,50,0,0
100947,-100,4,2,2,50,0,0
106433,-90.9090909090909,4,2,2,50,0,0
114661,-133.333333333333,4,2,2,50,0,0
115861,-80,4,2,2,50,0,0
117233,-80,4,2,2,50,0,0
117405,-80,4,2,2,75,0,1
122119,-80,4,2,2,5,0,1
122205,-80,4,2,2,75,0,1
122805,-80,4,2,2,5,0,1
122891,-80,4,2,2,75,0,1
127005,-80,4,2,2,75,0,0
128376,-80,4,2,2,75,0,1
136605,-100,4,2,2,60,0,0
147575,-90.9090909090909,4,2,2,60,0,0
152375,-80,4,2,2,60,0,0
153062,-80,4,2,2,60,0,1
162747,-80,4,2,2,60,0,1
162833,-80,4,2,2,60,0,1
164034,-125,4,2,2,60,0,0
167975,-100,4,2,2,60,0,0
168147,-100,4,2,2,60,0,0
168661,-100,4,2,2,60,0,0
168748,-100,4,2,2,5,0,0
168833,-100,4,2,2,60,0,0
169347,-100,4,2,2,60,0,0
169434,-100,4,2,2,5,0,0
169518,-125,4,2,2,60,0,0
172090,-100,4,2,2,60,0,0
172261,-100,4,2,2,60,0,0
173634,-80,4,2,2,60,0,0
175005,-80,4,2,2,75,0,1
179719,-80,4,2,2,75,0,1
179805,-80,4,2,2,75,0,1
180405,-80,4,2,2,75,0,1
180491,-80,4,2,2,75,0,1
184605,-80,4,2,2,75,0,0
185118,-100,4,2,2,75,0,0
185376,-100,4,2,2,75,0,0
185462,-100,4,2,2,75,0,0
185633,-80,4,2,2,75,0,0
185976,-80,4,2,2,75,0,1
193090,-80,4,2,2,5,0,1
193175,-80,4,2,2,75,0,1
193605,-80,4,2,2,5,0,1
193691,-80,4,2,2,75,0,1
195575,-80,4,2,2,75,0,1
196947,-80,4,2,2,75,0,1
197633,-80,4,2,2,75,0,1
198319,-80,4,2,2,75,0,0
199690,-80,4,2,2,75,0,0
200633,-80,4,2,2,75,0,0
200718,-90.9090909090909,4,2,2,75,0,0
201062,-90.9090909090909,4,2,2,60,0,0
212033,-80,4,2,2,5,0,0

[Colours]
Combo1 : 255,174,136
Combo2 : 255,174,255
Combo3 : 255,255,145
Combo4 : 182,108,255

[HitObjects]
168,231,833,6,0,P|139:245|88:248,2,65,2|2|2,0:0|0:0|0:0,0:0:0:0:
196,157,1348,2,0,P|240:195|229:281,2,130,2|2|2,0:0|0:0|0:0,0:0:0:0:
127,107,2205,6,0,P|109:147|113:180,2,65,2|2|2,0:0|0:0|0:0,0:0:0:0:
192,63,2719,2,0,P|252:76|338:82,2,130,2|2|2,0:0|0:0|0:0,0:0:0:0:
118,20,3576,6,0,P|50:14|13:73,1,130,2|2,0:0|0:0,0:0:0:0:
5,227,4262,2,0,B|83:232|83:232|116:257|116:257|204:263,1,195,2|2,0:0|0:0,0:0:0:0:
267,224,4948,6,0,P|274:284|208:343,1,130,2|2,0:0|0:0,0:0:0:0:
200,182,5634,2,0,P|253:145|288:147,2,86.6666666666667,2|0|0,0:0|0:0|0:0,0:0:0:0:
267,224,6319,6,0,P|311:225|349:245,1,65,6|2,3:2|3:2,0:0:0:0:
385,296,6662,2,0,P|426:290|468:279,1,65,2|2,3:2|3:2,0:0:0:0:
495,214,7005,1,2,3:2:0:0:
495,214,7176,1,2,3:2:0:0:
436,152,7348,1,2,3:2:0:0:
436,152,7519,1,2,3:2:0:0:
483,81,7691,5,2,3:2:0:0:
336,88,10091,6,0,L|324:149,3,40.625,2|2|2|2,3:2|3:2|3:2|3:2,0:0:0:0:
314,166,10434,6,0,P|222:171|186:91,1,162.5,6|8,3:2|0:0,0:0:0:0:
223,46,10948,1,2,0:0:0:0:
142,50,11119,2,0,P|109:93|110:138,1,81.25,0|0,3:2|3:2,0:0:0:0:
129,196,11462,1,8,0:0:0:0:
85,277,11634,1,2,0:0:0:0:
85,277,11719,1,2,0:0:0:0:
85,277,11805,6,0,P|128:288|167:282,1,81.25,2|0,3:2|3:2,0:0:0:0:
234,323,12148,2,0,P|277:312|316:318,1,81.25,10|2,0:0|0:0,0:0:0:0:
386,368,12491,2,0,P|402:318|389:266,1,81.25,2|0,3:2|3:2,0:0:0:0:
438,218,12834,2,0,P|422:168|435:116,1,81.25,10|2,0:0|0:0,0:0:0:0:
442,103,13091,1,2,0:0:0:0:
442,103,13176,6,0,P|391:56|296:89,1,162.5,2|8,3:2|0:0,0:0:0:0:
280,153,13691,1,2,0:0:0:0:
213,199,13862,2,0,P|168:200|116:183,1,81.25,0|0,3:2|3:2,0:0:0:0:
81,127,14205,2,0,L|97:33,1,81.25,8|2,0:0|0:0,0:0:0:0:
177,8,14548,5,2,3:2:0:0:
177,8,14719,1,0,3:2:0:0:
227,67,14891,2,0,P|269:79|329:66,1,81.25,8|2,0:0|0:0,0:0:0:0:
368,23,15234,2,0,P|408:19|446:31,1,81.25,0|2,3:2|3:2,0:0:0:0:
492,98,15576,2,0,L|475:192,1,81.25,10|2,0:0|0:0,0:0:0:0:
419,245,15919,6,0,P|371:254|329:243,1,81.25,14|0,0:0|3:2,0:0:0:0:
279,181,16262,2,0,P|231:172|189:183,1,81.25,10|0,0:0|3:2,0:0:0:0:
131,236,16605,1,10,0:0:0:0:
49,198,16776,1,0,3:2:0:0:
40,108,16948,2,0,P|71:66|119:52,1,81.25,10|8,0:0|0:0,0:0:0:0:
139,64,17205,1,8,0:0:0:0:
139,64,17291,6,0,B|187:78|187:78|248:59,2,97.50000371933,6|0|0,3:2|3:2|3:2,0:0:0:0:
260,139,18319,6,0,L|253:192,3,32.5,10|10|2|4,0:0|0:0|3:2|0:3,0:0:0:0:
274,205,18662,6,0,P|311:219|350:214,1,65,6|0,3:2|0:0,0:0:0:0:
401,175,19005,2,0,L|415:104,1,65,2|2,3:3|0:0,0:0:0:0:
462,51,19348,1,2,3:3:0:0:
462,51,19519,2,0,P|425:36|384:37,1,65,2|2,0:0|3:3,0:0:0:0:
325,74,19862,2,0,P|255:98|191:71,1,130,2|2,0:0|0:0,0:0:0:0:
149,32,20376,1,2,3:3:0:0:
149,32,20548,1,2,0:0:0:0:
96,88,20719,2,0,L|104:162,1,65,2|2,3:3|0:0,0:0:0:0:
167,197,21062,2,0,L|159:271,1,65,2|2,3:3|0:0,0:0:0:0:
97,318,21405,6,0,P|153:345|228:304,1,130,2|2,3:3|3:3,0:0:0:0:
254,255,21919,2,0,P|297:249|330:264,1,65,2|2,0:0|3:3,0:0:0:0:
378,303,22262,2,0,P|397:245|346:178,1,130,2|2,0:0|0:0,0:0:0:0:
283,163,22776,2,0,P|298:130|332:108,1,65,2|2,3:3|0:0,0:0:0:0:
398,105,23119,2,0,P|383:66|352:43,1,65,2|2,3:3|0:0,0:0:0:0:
291,28,23462,2,0,P|236:38|174:48,1,97.5,2|0,3:3|0:0,0:0:0:0:
161,65,23805,2,0,L|156:104,3,32.5,2|0|8|8,3:3|0:0|0:0|0:0,0:0:0:0:
128,129,24148,6,0,P|151:174|92:201,1,130,6|10,3:2|0:0,0:0:0:0:
30,152,24662,1,2,0:0:0:0:
16,229,24834,2,0,P|30:267|31:314,1,65,0|0,3:2|3:2,0:0:0:0:
5,373,25176,1,10,0:0:0:0:
5,373,25348,2,0,P|58:339|121:358,1,130,6|0,3:2|3:2,0:0:0:0:
195,384,25862,2,0,P|238:364|258:334,1,65,10|2,0:0|0:0,0:0:0:0:
303,294,26205,2,0,P|295:222|287:187,2,97.5,2|0|2,3:2|0:0|0:0,0:0:0:0:
358,362,26891,6,0,P|407:370|479:336,1,130,6|10,3:2|0:0,0:0:0:0:
487,259,27405,1,2,0:0:0:0:
487,259,27576,2,0,L|465:182,1,65,2|0,3:2|3:2,0:0:0:0:
473,118,27919,1,10,0:0:0:0:
399,159,28091,2,0,B|345:168|345:168|253:140,1,130,6|0,3:2|3:2,0:0:0:0:
206,93,28605,2,0,P|174:89|128:96,1,65,4|2,0:3|0:0,0:0:0:0:
104,168,28948,2,0,P|136:172|182:165,1,65,2|0,3:2|3:2,0:0:0:0:
231,225,29291,2,0,L|225:269,3,32.5,8|10|4|4,0:0|0:0|0:3|0:3,0:0:0:0:
253,290,29634,6,0,P|309:311|376:264,1,130,6|2,3:2|3:2,0:0:0:0:
398,207,30148,1,2,0:0:0:0:
355,139,30319,1,2,3:2:0:0:
355,139,30491,2,0,P|396:125|428:131,1,65,2|0,0:0|3:2,0:0:0:0:
494,160,30834,2,0,P|510:203|479:283,1,130,2|2,0:0|0:0,0:0:0:0:
426,342,31348,2,0,P|391:336|355:337,1,65,2|2,3:2|0:0,0:0:0:0:
289,367,31691,2,0,P|257:372|224:372,1,65,2|2,3:2|0:0,0:0:0:0:
157,332,32034,2,0,P|122:326|86:327,1,65,2|2,3:2|0:0,0:0:0:0:
21,371,32376,6,0,P|8:323|60:247,1,130,2|2,3:2|3:2,0:0:0:0:
120,217,32891,2,0,B|235:244|235:244|269:235,2,130,2|2|2,0:0|0:0|0:0,0:0:0:0:
51,166,33748,2,0,P|49:134|76:95,1,65,2|2,3:2|0:0,0:0:0:0:
148,99,34091,2,0,P|169:74|215:66,1,65,2|2,3:2|0:0,0:0:0:0:
264,119,34434,2,0,P|296:117|335:144,1,65,2|2,3:2|0:0,0:0:0:0:
340,214,34776,1,2,3:2:0:0:
415,175,34948,1,8,0:0:0:0:
415,175,35034,1,8,0:0:0:0:
415,175,35119,6,0,P|424:104|383:41,1,130,6|8,3:2|0:0,0:0:0:0:
314,36,35634,1,2,0:0:0:0:
252,93,35805,2,0,L|188:76,1,65,2|0,3:2|3:2,0:0:0:0:
106,108,36148,1,10,0:0:0:0:
106,108,36319,2,0,B|92:155|92:155|110:252,1,130,6|0,3:2|3:2,0:0:0:0:
163,297,36834,2,0,P|196:280|232:278,1,65,10|2,0:0|0:0,0:0:0:0:
290,328,37176,2,0,P|322:323|350:308,1,65,2|0,3:2|3:2,0:0:0:0:
403,241,37519,2,0,P|393:198|383:158,1,65,10|2,0:0|0:0,0:0:0:0:
344,97,37862,6,0,P|282:90|220:156,1,130,6|8,3:2|0:0,0:0:0:0:
195,207,38376,1,2,0:0:0:0:
195,207,38548,2,0,P|228:216|259:210,1,65,2|0,3:2|3:2,0:0:0:0:
332,170,38891,1,10,0:0:0:0:
410,201,39062,6,0,L|395:345,1,130,6|2,3:2|3:2,0:0:0:0:
318,297,39576,1,10,0:0:0:0:
245,341,39748,2,0,L|195:331,1,32.5,2|8,0:0|0:0,0:0:0:0:
171,324,39919,1,2,3:2:0:0:
124,252,40091,1,8,0:0:0:0:
123,245,40176,1,2,3:2:0:0:
122,238,40262,1,4,0:3:0:0:
180,176,40434,1,0,3:2:0:0:
181,169,40520,1,0,3:2:0:0:
182,162,40605,6,0,P|241:123|307:153,1,143.000004364014,6|2,3:2|0:3,0:0:0:0:
341,224,41119,1,2,3:2:0:0:
341,224,41291,1,2,0:3:0:0:
217,343,41634,2,0,P|175:343|126:328,1,71.5000021820069,2|2,0:3|0:0,0:0:0:0:
77,285,41976,6,0,P|59:206|85:139,1,143.000004364014,2|2,3:2|0:3,0:0:0:0:
140,89,42491,1,2,3:2:0:0:
140,89,42662,1,2,0:3:0:0:
296,18,43005,2,0,L|387:32,1,71.5000021820069,2|2,0:3|0:0,0:0:0:0:
440,73,43348,6,0,B|431:129|431:129|443:167|443:167|433:222,1,143.000004364014,2|2,3:2|0:3,0:0:0:0:
374,274,43862,1,2,3:2:0:0:
374,274,44034,2,0,P|326:275|277:240,2,107.25000327301,2|2|2,0:3|0:0|0:0,0:0:0:0:
309,174,44719,6,0,P|235:185|208:266,1,143.000004364014,2|2,3:2|0:3,0:0:0:0:
232,328,45234,1,2,3:2:0:0:
232,328,45405,2,0,P|196:335|160:358,2,71.5000021820069,2|2|4,0:3|0:0|0:3,0:0:0:0:
47,182,46091,6,0,L|52:266,2,81.25,14|0|2,0:0|3:2|3:2,0:0:0:0:
125,127,46605,2,0,L|133:35,2,81.25,10|0|2,0:0|3:2|3:2,0:0:0:0:
195,186,47119,1,10,0:0:0:0:
195,186,47291,1,0,3:2:0:0:
256,110,47462,6,0,P|303:94|365:112,1,81.25,10|10,0:0|0:0,0:0:0:0:
366,129,47719,1,10,0:0:0:0:
366,129,47805,2,0,L|357:184,3,40.625,0|0|0|10,3:2|3:2|3:2|0:0,0:0:0:0:
334,201,48148,2,0,L|344:260,3,40.625,0|0|4|4,3:2|3:2|0:3|0:3,0:0:0:0:
369,268,48491,2,0,L|359:326,3,40.625,4|4|4|4,0:3|0:3|0:3|0:3,0:0:0:0:
332,341,48834,5,2,3:2:0:0:
332,341,50034,6,0,P|271:284|184:310,1,162.5,2|2,3:2|3:2,0:0:0:0:
158,365,50548,1,2,3:2:0:0:
158,365,51405,5,2,0:0:0:0:
107,291,51576,6,0,L|128:204,1,81.25,6|0,3:2|0:0,0:0:0:0:
181,141,51919,2,0,P|230:138|280:170,1,81.25,10|2,0:0|0:0,0:0:0:0:
308,225,52262,2,0,P|357:228|407:196,1,81.25,2|0,3:2|3:2,0:0:0:0:
438,144,52605,1,10,0:0:0:0:
438,144,52776,1,2,0:0:0:0:
376,68,52948,6,0,P|327:54|288:64,1,81.25,2|0,3:2|3:2,0:0:0:0:
230,118,53291,1,10,0:0:0:0:
230,118,53462,1,2,0:0:0:0:
172,186,53634,2,0,P|186:232|188:287,1,81.25,2|0,3:2|3:2,0:0:0:0:
129,330,53976,1,10,0:0:0:0:
218,358,54148,1,2,0:0:0:0:
218,358,54319,6,0,P|257:341|312:346,1,81.25,2|0,3:2|0:0,0:0:0:0:
379,372,54662,2,0,P|384:279|455:231,2,162.5,10|2|10,0:0|3:2|0:0,0:0:0:0:
318,203,55691,6,0,P|270:183|221:193,1,81.25,2|0,3:2|3:2,0:0:0:0:
171,240,56034,2,0,P|158:202|200:107,1,121.875,8|0,0:0|0:0,0:0:0:0:
217,102,56376,2,0,P|262:107|309:96,1,81.25,2|0,3:2|3:2,0:0:0:0:
379,65,56719,2,0,P|427:102|414:170,1,121.875,10|0,0:0|0:0,0:0:0:0:
404,198,57062,6,0,P|393:244|408:294,1,81.25,6|0,3:2|0:0,0:0:0:0:
444,297,57319,1,0,0:0:0:0:
444,297,57405,2,0,P|447:344|429:378,1,81.25,10|2,0:0|0:0,0:0:0:0:
344,358,57748,2,0,P|285:334|271:279,2,121.875,2|2|2,3:2|0:0|0:0,0:0:0:0:
328,220,58434,6,0,P|254:205|192:273,1,162.5,2|10,3:2|0:0,0:0:0:0:
159,342,58948,2,0,P|159:265|133:168,2,162.5,2|2|2,0:0|3:2|0:0,0:0:0:0:
249,382,59805,6,0,P|298:371|339:326,1,81.25,14|0,0:0|3:2,0:0:0:0:
330,255,60148,2,0,P|281:266|240:311,1,81.25,10|0,0:0|3:2,0:0:0:0:
321,352,60491,2,0,P|370:341|411:296,1,81.25,10|0,0:0|3:2,0:0:0:0:
442,237,60834,2,0,P|435:197|412:164,1,81.25,10|8,0:0|0:0,0:0:0:0:
375,147,61091,1,8,0:0:0:0:
375,147,61176,5,2,3:2:0:0:
252,55,61520,1,10,0:0:0:0:
244,56,61605,1,8,0:0:0:0:
235,57,61691,2,0,P|175:94|196:175,1,162.5,6|8,3:2|0:0,0:0:0:0:
218,211,62119,1,8,0:0:0:0:
218,211,62205,2,0,L|207:261,3,40.625,8|8|10|8,0:0|0:0|0:0|0:0,0:0:0:0:
174,279,62548,6,0,P|133:291|65:262,1,81.25,6|2,3:2|0:0,0:0:0:0:
52,205,62891,1,10,0:0:0:0:
0,278,63062,2,0,P|18:344|105:382,2,162.5,2|2|2,0:0|3:2|0:0,0:0:0:0:
52,205,63919,5,2,3:2:0:0:
52,205,64091,1,2,3:2:0:0:
0,130,64262,1,10,0:0:0:0:
59,63,64434,2,0,P|119:41|201:118,2,162.5,2|2|2,0:0|3:2|0:0,0:0:0:0:
115,132,65291,6,0,P|116:178|158:217,1,81.25,2|0,3:2|0:0,0:0:0:0:
211,253,65634,2,0,L|296:232,1,81.25,10|2,0:0|0:0,0:0:0:0:
339,159,65976,2,0,P|382:223|350:295,1,162.5,2|8,3:2|0:0,0:0:0:0:
280,348,66491,1,2,0:0:0:0:
280,348,66662,6,0,L|175:334,2,81.25,2|0|8,3:2|3:2|0:0,0:0:0:0:
362,384,67176,1,2,0:0:0:0:
434,331,67348,2,0,B|417:239|417:239|393:217,2,121.875,2|2|2,3:2|0:0|0:0,0:0:0:0:
321,251,68034,6,0,P|322:186|408:138,1,162.5,6|8,3:2|0:0,0:0:0:0:
477,180,68548,1,2,0:0:0:0:
492,92,68719,2,0,P|458:58|395:50,1,81.25,2|0,3:2|3:2,0:0:0:0:
342,65,69062,1,8,0:0:0:0:
342,65,69234,1,2,0:0:0:0:
276,137,69405,6,0,P|212:149|145:136,1,121.875,2|0,3:2|0:0,0:0:0:0:
116,119,69748,1,10,0:0:0:0:
71,41,69919,2,0,P|18:60|19:117,1,121.875,2|0,0:0|0:0,0:0:0:0:
47,152,70262,1,0,3:2:0:0:
86,232,70434,2,0,P|100:282|81:335,1,81.25,10|0,0:0|0:0,0:0:0:0:
13,346,70776,6,0,P|51:318|101:325,1,81.25,10|2,0:0|3:2,0:0:0:0:
155,371,71119,2,0,P|197:366|237:358,1,81.25,10|2,0:0|3:2,0:0:0:0:
310,309,71462,2,0,P|328:268|299:208,1,81.25,10|2,0:0|3:2,0:0:0:0:
265,163,71805,1,8,0:0:0:0:
204,228,71976,1,2,3:2:0:0:
150,145,72148,6,0,P|160:101|192:69,1,81.25,14|0,0:0|3:2,0:0:0:0:
267,44,72491,2,0,P|315:56|371:61,1,81.25,8|2,0:0|3:2,0:0:0:0:
409,123,72834,2,0,P|368:128|329:139,1,81.25,8|0,0:0|3:2,0:0:0:0:
264,199,73176,2,0,P|261:246|276:304,1,81.25,8|8,0:0|0:0,0:0:0:0:
286,325,73434,1,8,0:0:0:0:
286,325,73519,6,0,P|242:314|183:341,1,81.25,6|2,3:2|3:2,0:0:0:0:
141,262,73862,2,0,P|97:273|38:246,1,81.25,2|2,3:2|3:2,0:0:0:0:
12,186,74205,1,2,3:2:0:0:
12,186,74376,1,2,3:2:0:0:
81,106,74548,1,2,3:2:0:0:
81,106,74719,1,2,3:2:0:0:
19,26,74891,5,10,0:0:0:0:
160,143,75576,6,0,L|223:152,3,35.7500010910034,8|8|2|0,0:0|0:0|3:2|3:2,0:0:0:0:
227,176,75919,2,0,L|290:167,3,35.7500010910034,2|2|2|2,3:2|3:2|3:2|3:2,0:0:0:0:
295,142,76262,6,0,P|334:194|287:274,1,143.000004364014,6|10,3:2|0:0,0:0:0:0:
238,297,76776,2,0,P|165:288|75:284,2,143.000004364014,2|2|2,0:0|3:2|0:0,0:0:0:0:
269,333,77548,1,2,0:0:0:0:
269,333,77634,6,0,P|320:348|360:329,1,71.5000021820069,2|0,3:2|3:2,0:0:0:0:
397,294,77976,2,0,L|413:206,1,71.5000021820069,10|2,0:0|0:0,0:0:0:0:
451,156,78319,2,0,P|400:141|360:160,1,71.5000021820069,2|0,3:2|3:2,0:0:0:0:
323,195,78662,2,0,L|307:283,1,71.5000021820069,10|2,0:0|0:0,0:0:0:0:
282,298,78919,1,2,0:0:0:0:
282,298,79005,6,0,P|229:265|150:314,1,143.000004364014,2|8,3:2|0:0,0:0:0:0:
129,367,79519,1,2,0:0:0:0:
67,317,79691,2,0,P|81:283|82:222,1,71.5000021820069,0|0,3:2|3:2,0:0:0:0:
36,186,80034,2,0,P|40:150|54:117,1,71.5000021820069,8|2,0:0|0:0,0:0:0:0:
123,67,80376,5,2,3:2:0:0:
123,67,80548,1,0,3:2:0:0:
185,113,80719,2,0,P|243:113|272:101,1,71.5000021820069,8|2,0:0|0:0,0:0:0:0:
328,79,81062,2,0,P|331:120|304:172,1,71.5000021820069,0|2,3:2|3:2,0:0:0:0:
373,207,81405,2,0,P|370:248|397:300,1,71.5000021820069,10|2,0:0|0:0,0:0:0:0:
293,266,81748,6,0,L|214:272,1,71.5000021820069,14|0,0:0|3:2,0:0:0:0:
153,323,82091,2,0,L|74:317,1,71.5000021820069,10|0,0:0|3:2,0:0:0:0:
14,263,82434,1,10,0:0:0:0:
74,202,82605,1,0,3:2:0:0:
158,215,82776,2,0,P|196:193|221:158,1,71.5000021820069,10|8,0:0|0:0,0:0:0:0:
228,133,83034,1,8,0:0:0:0:
228,133,83119,6,0,P|292:123|325:152,2,97.50000371933,6|0|0,3:2|3:2|3:2,0:0:0:0:
372,193,84148,2,0,P|366:212|362:237,3,32.5,2|2|2|2,3:2|0:0|0:0|0:0,0:0:0:0:
380,260,84491,6,0,P|418:271|453:262,1,65,6|0,3:2|0:0,0:0:0:0:
484,200,84834,2,0,L|472:115,1,65,2|2,3:3|0:0,0:0:0:0:
425,75,85176,1,2,3:3:0:0:
425,75,85348,2,0,P|389:70|343:62,1,65,2|2,0:0|3:3,0:0:0:0:
289,19,85691,2,0,P|245:32|149:46,1,130,2|2,0:0|0:0,0:0:0:0:
93,17,86205,1,2,3:3:0:0:
93,17,86376,1,2,0:0:0:0:
35,70,86548,2,0,P|27:101|28:133,1,65,2|2,3:3|0:0,0:0:0:0:
93,176,86891,2,0,P|100:207|99:239,1,65,2|2,3:3|0:0,0:0:0:0:
46,305,87234,6,0,P|88:273|169:294,1,130,2|2,3:3|3:3,0:0:0:0:
224,330,87748,2,0,P|264:320|304:313,1,65,2|2,0:0|3:3,0:0:0:0:
350,269,88091,2,0,P|360:223|297:172,1,130,2|2,0:0|0:0,0:0:0:0:
219,163,88605,2,0,P|259:156|289:131,1,65,2|2,3:3|0:0,0:0:0:0:
333,86,88948,2,0,P|366:79|418:96,1,65,2|2,3:3|0:0,0:0:0:0:
457,133,89291,2,0,L|442:210,1,65,2|2,3:3|0:0,0:0:0:0:
471,270,89634,2,0,P|422:270|378:237,1,97.5,2|8,3:3|0:0,0:0:0:0:
352,215,89976,6,0,P|288:206|232:253,1,130,6|8,3:2|0:0,0:0:0:0:
198,310,90491,1,2,0:0:0:0:
140,257,90662,2,0,P|135:217|144:178,1,65,2|0,3:2|3:2,0:0:0:0:
203,137,91005,1,10,0:0:0:0:
203,137,91176,2,0,P|155:108|76:137,1,130,6|0,3:2|3:2,0:0:0:0:
39,188,91691,2,0,P|46:228|39:264,1,65,8|2,0:0|0:0,0:0:0:0:
2,318,92034,2,0,P|49:293|91:300,2,97.5,2|0|2,3:2|0:0|0:0,0:0:0:0:
60,369,92719,6,0,P|118:370|168:305,1,130,6|8,3:2|0:0,0:0:0:0:
167,245,93234,1,2,0:0:0:0:
167,245,93405,2,0,P|205:251|226:271,1,65,2|2,3:2|3:2,0:0:0:0:
266,333,93748,1,10,0:0:0:0:
330,279,93919,2,0,B|326:226|326:226|303:199|303:199|298:133,1,130,6|0,3:2|3:2,0:0:0:0:
340,89,94434,2,0,P|374:83|409:91,1,65,4|2,0:3|0:0,0:0:0:0:
436,159,94776,2,0,P|402:165|367:157,1,65,2|0,3:2|3:2,0:0:0:0:
340,89,95119,2,0,P|293:105|236:104,1,97.5,8|4,0:0|0:3,0:0:0:0:
208,91,95462,6,0,P|178:104|154:130,1,65,6|0,3:2|0:0,0:0:0:0:
153,205,95805,2,0,P|168:242|174:297,1,65,0|2,3:2|0:0,0:0:0:0:
126,329,96148,1,2,3:2:0:0:
54,298,96319,2,0,P|61:266|73:236,1,65,2|0,0:0|3:2,0:0:0:0:
153,205,96662,6,0,B|185:185|219:196|206:207|248:216|287:197,1,130,10|2,0:0|0:0,0:0:0:0:
330,141,97176,2,0,P|370:134|410:141,1,65,2|2,3:2|0:0,0:0:0:0:
459,180,97519,1,2,3:2:0:0:
459,180,97691,1,8,0:0:0:0:
396,226,97862,2,0,P|391:265|395:317,1,65,2|8,3:2|0:0,0:0:0:0:
450,341,98205,6,0,P|389:324|328:352,1,130,2|2,3:2|3:2,0:0:0:0:
258,380,98719,2,0,P|251:340|268:298,1,65,2|0,0:0|3:2,0:0:0:0:
227,244,99062,2,0,P|268:238|315:255,2,65,2|0|10,0:0|3:2|0:0,0:0:0:0:
148,274,99576,6,0,P|146:233|165:184,1,65,0|2,3:2|0:0,0:0:0:0:
214,163,99919,2,0,P|220:131|217:98,1,65,0|2,3:2|0:0,0:0:0:0:
164,41,100262,2,0,P|204:23|231:25,1,65,2|8,3:2|0:0,0:0:0:0:
296,54,100605,1,2,3:2:0:0:
373,21,100776,1,8,0:0:0:0:
379,22,100862,1,8,0:0:0:0:
385,23,100948,6,0,B|415:16|434:27|434:27|406:76|419:123,1,130,6|8,3:2|0:0,0:0:0:0:
435,178,101462,1,2,0:0:0:0:
383,236,101634,2,0,P|350:245|307:233,1,65,2|0,3:2|3:2,0:0:0:0:
261,186,101976,1,10,0:0:0:0:
261,186,102148,6,0,B|243:168|204:161|204:161|167:194|123:198,1,130,6|0,3:2|3:2,0:0:0:0:
76,240,102662,2,0,P|113:268|151:273,1,65,10|2,0:0|0:0,0:0:0:0:
184,329,103005,2,0,P|229:322|260:299,1,65,2|0,3:2|3:2,0:0:0:0:
322,302,103348,2,0,P|350:265|355:227,1,65,10|2,0:0|0:0,0:0:0:0:
394,168,103691,6,0,P|460:144|530:186,1,130,6|8,3:2|0:0,0:0:0:0:
454,217,104205,1,2,0:0:0:0:
394,168,104376,2,0,P|379:121|391:83,1,65,2|0,3:2|3:2,0:0:0:0:
445,50,104719,1,10,0:0:0:0:
445,50,104891,6,0,B|371:67|371:67|288:47,1,130,6|2,3:2|3:2,0:0:0:0:
249,17,105405,2,0,L|164:28,1,65,10|2,0:0|0:0,0:0:0:0:
149,33,105662,1,8,0:0:0:0:
149,33,105748,1,2,3:2:0:0:
82,72,105919,1,8,0:0:0:0:
143,120,106091,2,0,P|144:161|140:199,1,65,4|0,0:3|3:2,0:0:0:0:
87,251,106434,6,0,P|151:224|218:253,1,143.000004364014,6|2,3:2|0:0,0:0:0:0:
261,329,106948,1,2,3:2:0:0:
261,329,107119,1,8,0:0:0:0:
377,219,107462,2,0,P|376:173|368:140,1,71.5000021820069,2|0,0:0|0:0,0:0:0:0:
312,85,107805,6,0,P|243:109|160:105,1,143.000004364014,2|2,3:2|0:0,0:0:0:0:
101,70,108319,1,2,3:2:0:0:
101,70,108491,1,8,0:0:0:0:
33,227,108834,2,0,P|79:211|131:208,1,71.5000021820069,2|0,0:0|0:0,0:0:0:0:
184,228,109176,6,0,B|232:242|265:220|255:208|292:193|342:212,1,143.000004364014,2|2,3:2|0:0,0:0:0:0:
399,242,109691,1,2,3:2:0:0:
399,242,109862,2,0,P|406:184|374:135,2,107.25000327301,8|2|2,0:0|0:0|0:0,0:0:0:0:
340,305,110548,2,0,B|285:313|285:313|254:338|254:338|190:346,1,143.000004364014,2|2,3:2|0:0,0:0:0:0:
132,300,111062,1,2,3:2:0:0:
84,228,111234,2,0,P|152:216|206:260,1,143.000004364014,8|2,0:0|0:0,0:0:0:0:
361,185,111919,6,0,P|403:187|447:196,2,71.5000021820069,14|0|2,0:0|3:2|3:2,0:0:0:0:
284,131,112434,2,0,P|242:133|198:142,2,71.5000021820069,10|0|2,0:0|3:2|3:2,0:0:0:0:
363,80,112948,1,10,0:0:0:0:
363,80,113119,1,0,3:2:0:0:
277,43,113291,6,0,P|235:45|191:54,1,71.5000021820069,0|0,3:2|3:2,0:0:0:0:
167,60,113548,1,0,3:2:0:0:
167,60,113634,2,0,P|162:76|158:108,3,35.7500010910034,0|0|0|10,3:2|3:2|3:2|0:0,0:0:0:0:
123,124,113976,2,0,P|128:140|132:172,3,35.7500010910034,0|0|0|0,3:2|3:2|3:2|3:2,0:0:0:0:
159,195,114319,2,0,P|154:211|150:243,3,35.7500010910034,2|0|0|0,3:2|3:2|3:2|3:2,0:0:0:0:
123,265,114662,6,0,B|141:330|220:343|268:300|268:300|316:254|356:266|381:285,1,292.50001115799,6|2,3:2|0:0,0:0:0:0:
433,342,115862,6,0,P|455:274|392:186,1,162.5,6|2,3:2|3:2,0:0:0:0:
326,178,116376,1,2,3:2:0:0:
399,28,116719,6,0,L|407:87,3,40.625,2|2|2|2,0:0|0:0|0:0|0:0,0:0:0:0:
440,95,117062,2,0,L|432:154,3,40.625,2|2|2|2,0:0|0:0|0:0|0:0,0:0:0:0:
405,168,117405,6,0,P|358:180|289:164,1,81.25,6|0,3:2|0:0,0:0:0:0:
246,135,117748,2,0,P|193:135|144:165,1,81.25,10|2,0:0|0:0,0:0:0:0:
98,203,118091,2,0,P|102:249|109:301,1,81.25,2|0,3:2|3:2,0:0:0:0:
139,372,118434,1,10,0:0:0:0:
139,372,118605,1,2,0:0:0:0:
185,296,118776,6,0,P|227:276|285:288,1,81.25,2|0,3:2|3:2,0:0:0:0:
332,339,119119,1,10,0:0:0:0:
332,339,119291,1,2,0:0:0:0:
388,270,119462,2,0,P|384:220|410:175,1,81.25,2|0,3:2|3:2,0:0:0:0:
469,141,119805,1,10,0:0:0:0:
398,81,119976,1,2,0:0:0:0:
398,81,120148,6,0,L|303:92,1,81.25,2|0,3:2|0:0,0:0:0:0:
260,159,120491,2,0,P|228:96|276:21,2,162.5,10|2|10,0:0|3:2|0:0,0:0:0:0:
384,287,121519,6,0,P|327:273|277:279,1,81.25,2|2,3:2|3:2,0:0:0:0:
229,322,121862,2,0,P|160:320|110:255,1,121.875,8|0,0:0|0:0,0:0:0:0:
96,249,122205,2,0,B|96:205|96:205|107:156,1,81.25,2|0,3:2|3:2,0:0:0:0:
145,89,122548,2,0,P|172:107|190:197,1,121.875,10|0,0:0|0:0,0:0:0:0:
180,232,122891,6,0,P|226:218|274:229,1,81.25,6|0,3:2|0:0,0:0:0:0:
297,243,123148,1,0,0:0:0:0:
297,243,123234,2,0,P|351:254|402:236,1,81.25,10|2,0:0|0:0,0:0:0:0:
439,186,123576,2,0,P|465:239|456:299,2,121.875,2|2|2,3:2|0:0|0:0,0:0:0:0:
370,127,124262,6,0,B|304:135|304:135|273:161|273:161|191:172,1,162.5,2|10,3:2|0:0,0:0:0:0:
143,118,124776,2,0,P|188:178|150:255,2,162.5,2|2|2,0:0|3:2|0:0,0:0:0:0:
82,51,125634,6,0,P|127:29|167:31,1,81.25,14|0,0:0|3:2,0:0:0:0:
227,83,125976,2,0,P|262:102|302:105,1,81.25,10|0,0:0|3:2,0:0:0:0:
385,71,126319,2,0,P|391:115|376:156,1,81.25,10|0,0:0|3:2,0:0:0:0:
310,206,126662,2,0,P|304:250|319:291,1,81.25,10|8,0:0|0:0,0:0:0:0:
344,324,126919,1,8,0:0:0:0:
344,324,127005,5,2,3:2:0:0:
475,202,127348,5,10,0:0:0:0:
473,194,127434,1,8,0:0:0:0:
471,186,127519,2,0,P|452:139|350:150,1,162.5,6|8,3:2|0:0,0:0:0:0:
332,185,127948,1,8,0:0:0:0:
332,185,128034,2,0,P|299:186|276:183,3,40.625,8|8|10|8,0:0|0:0|0:0|0:0,0:0:0:0:
247,177,128376,6,0,P|256:235|245:262,1,81.25,6|2,3:2|0:0,0:0:0:0:
177,308,128719,1,10,0:0:0:0:
173,218,128891,2,0,B|142:174|165:122|171:144|196:98|179:63,2,162.5,2|2|2,0:0|3:2|0:0,0:0:0:0:
248,255,129748,5,2,3:2:0:0:
248,255,129919,1,2,3:2:0:0:
177,308,130091,1,10,0:0:0:0:
99,263,130262,2,0,P|82:216|97:100,2,162.5,2|2|2,0:0|3:2|0:0,0:0:0:0:
177,308,131119,6,0,L|271:301,1,81.25,2|0,3:2|0:0,0:0:0:0:
341,270,131462,2,0,P|348:226|335:171,1,81.25,10|2,0:0|0:0,0:0:0:0:
307,107,131805,2,0,P|376:108|430:186,1,162.5,2|8,3:2|0:0,0:0:0:0:
414,266,132319,1,2,0:0:0:0:
414,266,132491,6,0,P|453:264|502:230,2,81.25,2|0|8,3:2|3:2|0:0,0:0:0:0:
347,205,133005,1,2,0:0:0:0:
274,257,133176,2,0,B|263:301|263:301|283:374,2,121.875,2|2|2,3:2|0:0|0:0,0:0:0:0:
347,205,133862,6,0,P|248:171|193:220,1,162.5,14|8,0:0|0:0,0:0:0:0:
160,275,134376,1,2,3:2:0:0:
89,219,134548,2,0,P|106:174|110:117,1,81.25,10|2,0:0|2:3,0:0:0:0:
142,57,134891,2,0,P|181:51|228:61,1,81.25,8|2,0:0|3:2,0:0:0:0:
297,115,135234,5,14,0:0:0:0:
373,68,135405,1,0,3:2:0:0:
454,115,135576,1,8,0:0:0:0:
454,115,135748,1,2,3:0:0:0:
381,164,135919,1,10,0:0:0:0:
381,164,136091,1,0,3:2:0:0:
451,219,136262,2,0,P|456:242|459:271,3,40.625,10|10|4|4,0:0|0:0|0:3|0:3,0:0:0:0:
454,294,136605,6,0,P|419:308|378:303,1,65,6|0,3:2|0:0,0:0:0:0:
334,264,136948,2,0,P|301:264|272:277,1,65,2|2,3:3|0:0,0:0:0:0:
234,338,137291,2,0,P|204:351|172:351,1,65,2|2,3:3|0:0,0:0:0:0:
116,303,137634,1,2,3:3:0:0:
116,303,137805,1,2,0:0:0:0:
151,233,137976,6,0,P|180:219|212:219,1,65,2|2,3:3|0:0,0:0:0:0:
224,149,138319,2,0,P|254:160|277:183,1,65,2|2,3:3|0:0,0:0:0:0:
335,141,138662,2,0,P|348:170|348:202,1,65,2|2,3:3|0:0,0:0:0:0:
322,278,139005,1,2,3:3:0:0:
322,278,139176,1,2,0:0:0:0:
396,303,139348,6,0,P|432:298|471:278,1,65,2|2,3:3|0:0,0:0:0:0:
489,221,139691,2,0,L|479:70,2,130,2|2|2,3:3|3:3|3:3,0:0:0:0:
458,286,140548,1,2,0:0:0:0:
405,228,140719,5,2,3:3:0:0:
405,228,140891,1,2,0:0:0:0:
328,241,141062,2,0,P|283:236|251:199,1,65,2|2,3:3|0:0,0:0:0:0:
287,156,141405,2,0,P|332:161|364:198,1,65,2|2,3:3|0:0,0:0:0:0:
405,228,141748,1,2,3:3:0:0:
405,228,141919,1,2,0:0:0:0:
374,300,142091,6,0,P|341:316|295:315,1,65,2|2,3:3|0:0,0:0:0:0:
249,286,142434,2,0,P|191:266|123:292,2,130,2|2|2,3:3|3:3|3:3,0:0:0:0:
313,318,143291,1,2,0:0:0:0:
358,255,143462,5,2,3:3:0:0:
358,255,143634,1,2,0:0:0:0:
309,194,143805,2,0,P|303:150|312:113,1,65,2|2,3:3|0:0,0:0:0:0:
341,67,144148,2,0,P|296:56|253:77,1,65,2|2,3:3|0:0,0:0:0:0:
211,96,144491,1,2,3:3:0:0:
211,96,144662,1,2,0:0:0:0:
140,61,144834,6,0,P|133:105|143:134,1,65,2|2,3:3|0:0,0:0:0:0:
170,187,145176,2,0,P|184:279|163:340,2,130,2|2|2,3:3|3:3|3:3,0:0:0:0:
138,124,146034,1,2,0:0:0:0:
88,175,146205,5,2,3:3:0:0:
88,175,146376,1,2,0:0:0:0:
48,111,146548,2,0,P|63:66|87:46,1,65,2|2,3:3|0:0,0:0:0:0:
144,27,146891,2,0,L|293:42,1,130,2|2,3:3|3:3,0:0:0:0:
336,86,147405,1,2,0:0:0:0:
396,135,147576,6,0,P|401:171|391:213,1,71.5000021820069,6|0,3:2|0:0,0:0:0:0:
340,262,147919,2,0,B|301:262|301:262|237:257,1,71.5000021820069,2|2,3:3|0:0,0:0:0:0:
207,209,148262,1,2,3:3:0:0:
207,209,148434,1,2,0:0:0:0:
144,256,148605,2,0,P|141:293|154:344,1,71.5000021820069,2|2,3:3|0:0,0:0:0:0:
220,355,148948,6,0,L|309:365,1,71.5000021820069,2|2,3:3|0:0,0:0:0:0:
352,313,149291,2,0,L|441:303,1,71.5000021820069,2|2,3:3|0:0,0:0:0:0:
497,330,149634,2,0,P|499:281|479:244,1,71.5000021820069,2|2,3:3|0:0,0:0:0:0:
443,204,149976,1,2,3:3:0:0:
443,204,150148,1,2,0:0:0:0:
388,147,150319,6,0,P|386:98|406:61,1,71.5000021820069,2|2,3:3|0:0,0:0:0:0:
329,32,150662,2,0,P|295:44|249:33,1,71.5000021820069,2|2,3:3|0:0,0:0:0:0:
186,10,151005,2,0,P|150:4|117:16,1,71.5000021820069,2|2,3:3|0:0,0:0:0:0:
70,80,151348,2,0,L|86:162,1,71.5000021820069,2|2,3:3|0:0,0:0:0:0:
58,224,151691,6,0,P|116:224|158:136,1,143.000004364014,2|2,3:3|3:3,0:0:0:0:
162,83,152205,1,2,0:0:0:0:
162,82,152376,2,0,P|189:88|215:103,3,40.625,10|8|8|8,0:0|0:0|0:0|0:0,0:0:0:0:
236,120,152719,2,0,P|250:143|258:172,3,40.625,8|8|8|8,0:0|0:0|0:0|0:0,0:0:0:0:
263,199,153062,6,0,P|255:242|253:289,1,81.25,6|2,3:2|3:2,0:0:0:0:
179,315,153405,2,0,P|176:274|168:234,1,81.25,10|2,0:0|3:2,0:0:0:0:
103,185,153748,2,0,B|61:179|61:179|15:205,2,81.25,10|2|10,0:0|3:2|0:0,0:0:0:0:
181,141,154262,6,0,B|255:151|255:151|336:105,1,162.5,6|0,3:2|3:2,0:0:0:0:
403,67,154776,1,10,0:0:0:0:
403,67,154948,1,2,3:2:0:0:
463,121,155119,2,0,P|462:169|450:209,1,81.25,10|2,0:0|3:2,0:0:0:0:
401,263,155462,2,0,P|400:303|410:342,1,81.25,10|2,0:0|3:2,0:0:0:0:
321,346,155805,6,0,B|275:356|275:356|232:349,1,81.25,14|2,0:0|3:2,0:0:0:0:
197,281,156148,2,0,B|211:236|211:236|232:209,1,81.25,10|2,0:0|3:2,0:0:0:0:
314,206,156491,2,0,B|345:240|345:240|357:272,2,81.25,10|2|10,0:0|3:2|0:0,0:0:0:0:
398,175,157005,6,0,B|343:125|343:125|288:107|249:149,1,162.5,6|2,3:2|3:2,0:0:0:0:
232,217,157519,1,10,0:0:0:0:
232,217,157691,1,2,3:2:0:0:
186,284,157862,2,0,P|139:297|89:304,1,81.25,10|2,0:0|3:2,0:0:0:0:
31,334,158205,2,0,P|27:293|52:244,1,81.25,10|0,0:0|3:2,0:0:0:0:
115,206,158548,6,0,P|129:168|125:128,1,81.25,14|2,0:0|3:2,0:0:0:0:
58,82,158891,2,0,P|114:87|155:66,1,81.25,10|2,0:0|3:2,0:0:0:0:
202,30,159234,2,0,P|240:19|280:26,2,81.25,10|2|10,0:0|3:2|0:0,0:0:0:0:
247,107,159748,6,0,P|317:105|368:18,1,162.5,6|0,3:2|3:2,0:0:0:0:
448,13,160262,1,10,0:0:0:0:
448,13,160434,1,2,3:2:0:0:
488,83,160605,2,0,B|495:120|495:120|481:198,1,81.25,10|2,0:0|3:2,0:0:0:0:
441,230,160948,2,0,B|434:267|434:267|448:345,1,81.25,10|2,0:0|3:2,0:0:0:0:
362,351,161291,6,0,B|326:349|326:349|310:357|310:357|260:353,1,81.25,14|2,0:0|3:2,0:0:0:0:
220,302,161634,1,14,0:0:0:0:
161,358,161805,1,2,3:2:0:0:
102,302,161976,2,0,P|60:295|19:311,2,81.25,14|2|14,0:0|3:2|0:0,0:0:0:0:
159,232,162491,6,0,P|172:183|122:82,1,162.5,6|0,3:2|3:2,0:0:0:0:
49,60,163005,1,0,3:2:0:0:
49,60,163176,1,0,3:2:0:0:
121,7,163348,1,0,3:2:0:0:
121,7,163519,1,0,3:2:0:0:
204,39,163691,2,0,P|244:38|301:31,1,81.25,0|2,3:2|3:2,0:0:0:0:
364,9,164034,6,0,B|448:65|415:162|384:135|347:246|444:285,1,312,6|2,3:2|0:0,0:0:0:0:
435,281,165405,2,0,B|358:268|303:323|303:323|246:343|197:310|194:258|229:218,1,312,6|2,3:2|0:0,0:0:0:0:
218,232,166776,6,0,B|137:278|49:216|49:216|101:151|163:163,1,312,6|2,3:2|0:0,0:0:0:0:
161,162,168148,2,0,B|218:199|285:176|285:176|292:101|240:82,1,227.5,6|0,3:2|0:0,0:0:0:0:
237,77,168834,2,0,P|329:44|446:126,1,227.5,6|0,3:2|0:0,0:0:0:0:
438,124,169519,6,0,B|443:182|419:217|419:217|437:264|437:264|416:296|421:342|421:342|379:368|319:347,1,312,6|0,3:2|0:0,0:0:0:0:
340,353,170891,2,0,B|294:271|209:291|209:291|250:261|256:209|229:168|184:167|174:182,1,312,6|0,3:2|0:0,0:0:0:0:
189,174,172262,6,0,P|193:100|245:51,1,130,6|2,3:2|3:2,0:0:0:0:
306,41,172776,1,2,0:0:0:0:
359,97,172948,2,0,P|398:94|443:108,1,65,2|2,3:2|0:0,0:0:0:0:
452,172,173291,2,0,P|413:175|368:161,1,65,2|2,3:2|0:0,0:0:0:0:
333,233,173634,5,6,0:0:0:0:
333,233,173805,1,2,0:0:0:0:
239,242,173976,1,2,0:0:0:0:
239,242,174148,1,2,0:0:0:0:
181,323,174319,6,0,P|161:321|143:313,3,40.625,2|2|2|2,0:0|0:0|0:0|0:0,0:0:0:0:
107,286,174662,2,0,P|99:267|96:247,3,40.625,2|2|2|2,0:0|0:0|0:0|0:0,0:0:0:0:
105,203,175005,6,0,P|111:153|99:98,1,81.25,6|0,0:0|0:0,0:0:0:0:
59,46,175348,2,0,P|104:33|152:45,1,81.25,10|0,0:0|0:0,0:0:0:0:
203,99,175691,2,0,P|243:103|281:91,1,81.25,2|0,3:2|3:2,0:0:0:0:
345,28,176034,1,10,0:0:0:0:
345,28,176205,1,2,0:0:0:0:
417,93,176376,6,0,P|406:142|401:190,1,81.25,2|0,3:2|3:2,0:0:0:0:
348,244,176719,1,10,0:0:0:0:
348,244,176891,1,0,0:0:0:0:
383,325,177062,2,0,P|333:334|286:297,1,81.25,2|0,3:2|3:2,0:0:0:0:
251,258,177405,1,10,0:0:0:0:
251,258,177576,1,2,0:0:0:0:
194,177,177748,6,0,P|155:166|117:179,1,81.25,2|2,3:2|0:0,0:0:0:0:
59,247,178091,2,0,B|69:286|76:344|76:344|110:370|161:352,2,162.5,10|2|10,0:0|3:2|0:0,0:0:0:0:
136,67,179119,6,0,P|180:53|236:68,1,81.25,2|2,3:2|3:2,0:0:0:0:
286,109,179462,2,0,L|270:250,1,121.875,10|2,0:0|0:0,0:0:0:0:
294,268,179805,6,0,P|338:282|394:267,1,81.25,2|2,3:2|3:2,0:0:0:0:
415,199,180148,2,0,P|455:246|442:324,1,121.875,10|2,0:0|0:0,0:0:0:0:
429,341,180491,6,0,P|391:357|336:361,1,81.25,6|0,3:2|0:0,0:0:0:0:
312,352,180748,1,0,0:0:0:0:
312,352,180834,2,0,P|271:357|234:372,1,81.25,10|2,0:0|0:0,0:0:0:0:
145,359,181176,2,0,P|156:296|108:241,2,121.875,2|2|2,3:2|0:0|0:0,0:0:0:0:
50,263,181862,2,0,P|57:217|183:206,1,162.5,2|10,3:2|0:0,0:0:0:0:
228,235,182376,2,0,P|191:205|245:91,2,162.5,2|2|2,0:0|3:2|0:0,0:0:0:0:
308,291,183234,6,0,P|341:275|414:262,1,81.25,14|0,0:0|3:2,0:0:0:0:
439,194,183576,2,0,P|399:184|362:166,1,81.25,10|0,0:0|3:2,0:0:0:0:
303,99,183919,2,0,P|254:96|210:110,1,81.25,10|0,0:0|3:2,0:0:0:0:
163,170,184262,2,0,P|123:178|83:174,1,81.25,10|8,0:0|0:0,0:0:0:0:
48,145,184519,1,8,0:0:0:0:
48,145,184605,5,2,3:2:0:0:
197,32,184948,5,10,0:0:0:0:
207,32,185033,1,8,0:0:0:0:
218,33,185119,2,0,B|271:51|271:51|293:89|270:138,1,130,6|8,3:2|0:0,0:0:0:0:
265,159,185548,1,8,0:0:0:0:
265,159,185634,2,0,P|262:186|267:213,3,40.625,8|8|10|8,0:0|0:0|0:0|0:0,0:0:0:0:
287,236,185976,6,0,P|329:250|386:234,1,81.25,6|2,3:2|0:0,0:0:0:0:
444,203,186319,1,10,0:0:0:0:
500,133,186491,2,0,B|441:117|441:117|396:134|396:134|341:117,2,162.5,2|2|2,0:0|3:2|0:0,0:0:0:0:
444,203,187348,6,0,P|456:245|441:297,1,81.25,2|2,3:2|3:2,0:0:0:0:
377,334,187691,1,10,0:0:0:0:
297,294,187862,2,0,P|216:283|127:337,2,162.5,2|2|2,0:0|3:2|0:0,0:0:0:0:
253,206,188719,6,0,P|245:159|257:105,1,81.25,2|0,3:2|0:0,0:0:0:0:
305,55,189062,2,0,P|266:39|214:46,1,81.25,10|2,0:0|0:0,0:0:0:0:
156,95,189405,2,0,P|86:95|16:23,1,162.5,2|8,3:2|0:0,0:0:0:0:
50,119,189919,1,2,0:0:0:0:
94,196,190091,6,0,P|104:247|91:295,1,81.25,2|0,3:2|3:2,0:0:0:0:
24,324,190434,2,0,P|80:292|118:303,1,81.25,8|2,0:0|0:0,0:0:0:0:
173,333,190776,2,0,B|236:348|236:348|308:312,2,121.875,2|2|2,3:2|0:0|0:0,0:0:0:0:
287,246,191462,6,0,P|349:277|355:363,1,162.5,14|8,0:0|0:0,0:0:0:0:
399,284,191976,1,2,0:0:0:0:
474,235,192148,2,0,P|484:187|467:134,1,81.25,2|0,3:2|3:2,0:0:0:0:
408,99,192491,1,8,0:0:0:0:
408,99,192662,1,2,0:0:0:0:
322,146,192834,6,0,P|263:154|196:114,1,121.875,2|0,3:2|0:0,0:0:0:0:
180,93,193176,1,8,0:0:0:0:
114,20,193348,2,0,P|81:77|91:142,1,121.875,2|0,0:0|0:0,0:0:0:0:
111,167,193691,1,0,3:2:0:0:
165,237,193862,2,0,P|163:280|146:319,1,81.25,10|2,0:0|0:0,0:0:0:0:
51,329,194205,6,0,P|91:314|133:323,1,81.25,14|2,0:0|3:2,0:0:0:0:
207,362,194548,2,0,P|246:368|284:353,1,81.25,10|2,0:0|3:2,0:0:0:0:
332,278,194891,2,0,L|315:192,1,81.25,10|2,0:0|3:2,0:0:0:0:
252,135,195234,1,10,0:0:0:0:
252,135,195405,1,2,3:2:0:0:
317,62,195576,6,0,P|368:51|406:64,1,81.25,14|2,0:0|3:2,0:0:0:0:
448,130,195919,2,0,L|432:209,1,81.25,8|2,0:0|3:2,0:0:0:0:
359,262,196262,2,0,P|319:269|280:258,1,81.25,8|2,0:0|3:2,0:0:0:0:
196,227,196605,2,0,P|192:281|217:322,1,81.25,8|8,0:0|0:0,0:0:0:0:
235,334,196862,1,8,0:0:0:0:
235,334,196948,6,0,P|192:328|148:342,1,81.25,2|0,3:2|3:2,0:0:0:0:
65,375,197291,2,0,P|80:317|69:278,1,81.25,0|2,3:2|3:2,0:0:0:0:
24,214,197634,1,2,3:2:0:0:
24,214,197805,1,0,3:2:0:0:
94,147,197976,1,0,3:2:0:0:
94,147,198148,1,2,3:2:0:0:
23,68,198319,5,10,0:0:0:0:
174,233,200719,6,0,L|182:292,3,35.7500010910034,10|10|10|10,0:0|0:0|0:0|0:0,0:0:0:0:
202,300,201062,2,0,P|269:321|359:282,1,143.000004364014,6|10,3:2|0:0,0:0:0:0:
408,268,201576,2,0,P|466:295|495:383,2,143.000004364014,2|0|2,0:0|3:2|0:0,0:0:0:0:
383,236,202348,1,2,0:0:0:0:
383,236,202434,6,0,P|373:190|394:141,1,71.5000021820069,2|0,3:2|3:2,0:0:0:0:
306,120,202776,2,0,P|316:85|310:50,1,71.5000021820069,10|2,0:0|0:0,0:0:0:0:
232,81,203119,1,2,3:2:0:0:
232,81,203291,1,0,3:2:0:0:
156,40,203462,2,0,P|145:74|151:109,1,71.5000021820069,10|2,0:0|0:0,0:0:0:0:
177,143,203719,1,2,0:0:0:0:
177,143,203805,6,0,B|172:202|172:202|185:237|185:237|177:304,1,143.000004364014,2|8,3:2|0:0,0:0:0:0:
112,324,204319,1,2,0:0:0:0:
178,366,204491,2,0,P|222:357|257:313,1,71.5000021820069,0|2,3:2|3:2,0:0:0:0:
298,285,204834,2,0,P|340:280|384:303,1,71.5000021820069,8|0,0:0|0:0,0:0:0:0:
429,348,205176,5,2,3:2:0:0:
429,348,205348,1,2,3:2:0:0:
482,291,205519,2,0,L|469:203,1,71.5000021820069,8|2,0:0|0:0,0:0:0:0:
414,166,205862,2,0,P|372:174|318:159,1,71.5000021820069,0|2,3:2|3:2,0:0:0:0:
278,126,206205,2,0,P|242:122|207:130,1,71.5000021820069,10|2,0:0|0:0,0:0:0:0:
142,186,206548,6,0,L|152:282,1,71.5000021820069,14|0,0:0|3:2,0:0:0:0:
69,290,206891,2,0,L|61:218,1,71.5000021820069,10|0,0:0|3:2,0:0:0:0:
76,134,207234,1,10,0:0:0:0:
155,103,207405,1,0,3:2:0:0:
222,155,207576,2,0,P|268:172|317:164,1,71.5000021820069,10|8,0:0|0:0,0:0:0:0:
330,156,207834,1,8,0:0:0:0:
330,156,207919,6,0,P|312:198|318:227,1,71.5000021820069,6|8,3:2|0:0,0:0:0:0:
374,275,208262,1,0,3:2:0:0:
440,232,208434,1,8,0:0:0:0:
485,296,208605,1,8,0:0:0:0:
484,303,208691,1,8,0:0:0:0:
483,310,208776,2,0,P|459:318|439:333,1,35.7500010910034,0|0,3:2|3:2,0:0:0:0:
421,355,208948,2,0,P|399:366|374:364,3,35.7500010910034,4|4|4|4,0:3|0:3|0:3|0:3,0:0:0:0:
346,354,209291,5,6,3:2:0:0:
256,192,209376,12,0,212034,0:0:0:0:
