osu file format v14

[General]
AudioFilename: audio.mp3
AudioLeadIn: 0
PreviewTime: 63137
Countdown: 1
SampleSet: Soft
StackLeniency: 0.7
Mode: 0
LetterboxInBreaks: 0
WidescreenStoryboard: 1

[Editor]
Bookmarks: 11383,22085,32139,42518,52896,58410,63274,84031,97004,104781,115491,125545,133004,135923,156680,167058,177437,187815,204680,226734,252680
DistanceSpacing: 0.7
BeatDivisor: 4
GridSize: 16
TimelineZoom: 1.8

[Metadata]
Title:M'aider
TitleUnicode:M'aider
Artist:FROZEN QUALIA
ArtistUnicode:FROZEN QUALIA
Creator:Hishiro Chizuru
Version:Lasse's Petal
Source:
Tags:amb1d3x AIR Garden lasse yumeno yuki brasse 夢乃ゆき japanese pop maider kazuki
BeatmapID:2694798
BeatmapSetID:1296276

[Difficulty]
HPDrainRate:6
CircleSize:4
OverallDifficulty:8
ApproachRate:9
SliderMultiplier:2
SliderTickRate:1

[Events]
//Background and Video events
0,0,"4house.jpg",0,0
//Break Periods
2,188014,196945
//Storyboard Layer 0 (Background)
//Storyboard Layer 1 (Fail)
//Storyboard Layer 2 (Pass)
//Storyboard Layer 3 (Foreground)
//Storyboard Layer 4 (Overlay)
//Storyboard Sound Samples

[TimingPoints]
1021,648.648648648649,4,2,34,30,1,0
1021,-100,4,2,34,30,0,0
4912,-100,4,2,34,34,0,0
5561,-100,4,2,34,36,0,0
6194,-83.3333333333333,4,2,34,40,0,0
7491,-71.4285714285714,4,2,34,42,0,0
8804,641.025641025641,4,2,99,44,1,0
8804,-166.666666666667,4,2,99,44,0,0
10086,324.324324324324,4,2,99,40,1,0
10734,-133.333333333333,4,2,34,60,0,0
11383,324.324324324324,4,2,34,65,1,0
11383,-100,4,2,34,65,0,0
21599,-100,4,2,34,60,0,0
22085,-153.846153846153,4,2,34,50,0,0
32139,-111.111111111111,4,2,34,60,0,0
41220,-111.111111111111,4,2,34,64,0,0
42031,-111.111111111111,4,2,34,62,0,0
42193,-200,4,2,34,60,0,0
42355,-200,4,2,34,55,0,0
42518,-125,4,2,34,58,0,0
52896,-166.666666666667,4,2,34,56,0,0
55491,-166.666666666667,4,2,34,58,0,0
57761,-166.666666666667,4,2,34,60,0,0
58086,-111.111111111111,4,2,34,65,0,0
60680,-111.111111111111,4,2,34,67,0,0
63274,-100,4,2,34,70,0,1
63355,-100,4,2,34,70,0,0
73653,-100,4,2,34,70,0,1
73734,-100,4,2,34,70,0,0
84032,-100,4,2,34,65,0,0
94410,-100,4,2,34,50,0,0
96355,-250,4,2,34,40,0,0
97004,-133.333333333333,4,2,22,42,0,0
103004,-133.333333333333,4,2,22,44,0,0
103166,-133.333333333333,4,2,22,46,0,0
103328,-133.333333333333,4,2,22,48,0,0
103491,-133.333333333333,4,2,34,38,0,0
104788,-111.111111111111,4,2,34,60,0,0
115166,-133.333333333333,4,2,34,60,0,0
125545,-90.9090909090909,4,2,34,65,0,0
129437,-90.9090909090909,4,2,34,68,0,0
130410,-90.9090909090909,4,2,34,60,0,0
130518,-90.9090909090909,4,2,34,55,0,0
130626,-90.9090909090909,4,2,34,50,0,0
130734,-133.333333333333,4,2,99,40,0,0
133004,-133.333333333333,4,2,34,65,0,0
133328,-100,4,2,34,65,0,0
135923,-90.9090909090909,4,2,34,70,0,1
136004,-90.9090909090909,4,2,34,70,0,0
146301,-90.9090909090909,4,2,34,70,0,1
146382,-90.9090909090909,4,2,34,70,0,0
156031,-90.9090909090909,4,2,34,68,0,0
156193,-90.9090909090909,4,2,34,66,0,0
156355,-90.9090909090909,4,2,34,64,0,0
156518,-90.9090909090909,4,2,34,60,0,0
156680,-133.333333333333,4,2,34,60,0,0
157004,-133.333333333333,4,2,34,55,0,0
166247,-133.333333333333,4,2,34,60,0,0
166734,-100,4,2,34,62,0,0
167058,-90.9090909090909,4,2,34,65,0,0
172247,-90.9090909090909,4,2,34,67,0,0
173545,-83.3333333333333,4,2,34,68,0,0
174842,-100,4,2,34,60,0,0
175815,-100,4,2,34,65,0,0
176139,-100,4,2,34,62,0,0
177437,-83.3333333333333,4,2,34,68,0,0
178410,-125,4,2,34,68,0,0
178572,-125,4,2,34,55,0,0
179058,-90.9090909090909,4,2,34,68,0,0
180031,-76.9230769230769,4,2,34,68,0,0
181004,-114.942528735632,4,2,34,68,0,0
181166,-114.942528735632,4,2,34,55,0,0
181653,-90.9090909090909,4,2,34,68,0,0
182626,-83.3333333333333,4,2,34,68,0,0
183599,-125,4,2,34,68,0,0
183761,-125,4,2,34,55,0,0
184248,-90.9090909090909,4,2,34,68,0,0
184896,-90.9090909090909,4,2,34,68,0,0
185220,-71.4285714285714,4,2,34,68,0,0
186193,-200,4,2,34,68,0,0
186274,-357.142857142857,4,2,99,28,0,0
197545,-200,4,2,34,40,0,0
198193,-125,4,2,34,50,0,0
203869,-125,4,2,34,55,0,0
204355,-125,4,2,34,60,0,0
205653,-90.9090909090908,4,2,34,40,0,0
205680,-90.9090909090908,4,2,34,20,0,0
205977,-83.3333333333333,4,2,34,72,0,1
206058,-83.3333333333333,4,2,34,72,0,0
206302,-83.3333333333333,4,2,34,72,0,0
216355,-83.3333333333333,4,2,34,72,0,1
216437,-83.3333333333333,4,2,34,72,0,0
226734,-90.9090909090909,4,2,34,65,0,0
241815,-133.333333333333,4,2,34,65,0,0
242301,-76.9230769230769,4,2,34,70,0,0
246680,-100,4,2,34,65,0,0
247004,-100,4,2,34,62,0,0
247328,-100,4,2,34,60,0,0
247815,-277.777777777778,4,2,34,55,0,0
247896,-277.777777777778,4,2,34,5,0,0
252680,-277.777777777778,4,2,99,14,0,0

[Colours]
Combo1 : 250,180,240
Combo2 : 120,200,230
Combo3 : 255,230,130
Combo4 : 160,230,150

[HitObjects]
78,73,1021,6,0,P|27:88|8:139,1,100,2|0,0:2|0:2,0:2:0:0:
7,177,1507,1,0,0:2:0:0:
34,218,1669,1,0,0:2:0:0:
83,223,1831,1,0,0:2:0:0:
131,209,1993,2,0,P|170:188|230:189,1,100,0|0,0:2|0:2,0:2:0:0:
356,335,2642,5,0,0:2:0:0:
356,335,2804,2,0,L|239:327,1,100,0|0,0:2|0:2,0:2:0:0:
371,353,3615,6,0,P|398:308|386:249,1,100,2|0,0:2|0:2,0:2:0:0:
371,217,4102,1,0,0:2:0:0:
325,195,4264,1,0,0:2:0:0:
310,147,4426,1,0,0:2:0:0:
328,100,4588,1,0,0:2:0:0:
374,80,4750,1,0,0:2:0:0:
420,99,4912,5,2,0:2:0:0:
419,107,5237,1,0,0:2:0:0:
298,19,5561,5,2,0:2:0:0:
297,27,5885,1,0,0:2:0:0:
185,95,6210,6,0,P|145:76|53:94,1,119.999996337891,2|0,0:2|0:2,0:2:0:0:
61,161,6696,2,0,P|116:182|175:173,1,119.999996337891,0|0,0:2|0:2,0:2:0:0:
248,149,7183,2,0,L|271:88,1,59.9999981689454,0|0,0:2|0:2,0:2:0:0:
355,43,7507,6,0,P|402:62|408:167,1,139.999995727539,2|0,0:2|0:2,0:2:0:0:
373,202,7993,2,0,B|290:202|331:144|227:150,1,139.999995727539,0|0,0:2|0:2,0:2:0:0:
170,167,8480,2,0,P|148:203|145:239,1,69.9999978637696,0|0,0:2|0:2,0:2:0:0:
205,309,8804,6,4,B|348:264|298:373|444:322,1,239.999992675781,10|4,0:2|0:2,0:2:0:0:
508,384,10734,5,8,0:2:0:0:
477,361,10815,1,8,0:2:0:0:
487,325,10896,1,8,0:2:0:0:
455,305,10977,1,8,0:2:0:0:
455,267,11058,1,8,0:2:0:0:
422,248,11140,1,8,0:2:0:0:
420,210,11221,1,8,0:2:0:0:
389,188,11302,1,8,0:2:0:0:
394,149,11383,6,0,B|418:82|340:84|368:3,1,150,6|0,1:2|0:2,0:2:0:0:
381,1,11707,2,0,P|381:65|255:68,1,200,8|0,0:2|1:2,0:2:0:0:
214,24,12193,1,0,1:2:0:0:
134,15,12355,1,8,1:2:0:0:
76,70,12518,1,0,1:2:0:0:
205,166,12680,5,2,1:2:0:0:
264,219,12842,2,0,P|275:249|251:324,1,100,0|8,1:2|0:2,0:2:0:0:
129,218,13166,2,0,L|30:209,1,100,2|0,0:2|1:2,0:2:0:0:
260,99,13491,1,2,1:2:0:0:
260,99,13572,1,0,1:2:0:0:
260,99,13653,2,0,B|331:90|331:90|375:114|375:114|462:103,1,200,8|0,0:2|1:2,0:2:0:0:
507,46,14139,1,0,0:2:0:0:
386,162,14301,6,0,P|366:118|381:55,1,100,10|0,0:2|0:2,0:2:0:0:
512,221,14626,1,2,1:2:0:0:
512,221,14788,1,0,1:2:0:0:
456,331,14950,2,0,L|300:309,1,150,10|0,0:2|0:2,0:2:0:0:
294,323,15274,5,2,1:2:0:0:
134,285,15437,2,0,L|149:392,1,100,0|8,1:2|0:2,0:2:0:0:
256,217,15761,2,0,P|267:178|253:114,1,100,2|0,0:2|1:2,0:2:0:0:
0,182,16085,2,0,P|4:132|29:90,1,100,2|8,1:2|0:2,0:2:0:0:
161,21,16410,5,8,0:2:0:0:
161,21,16491,1,8,0:2:0:0:
161,21,16572,2,0,B|117:84|185:98|146:163,1,150,6|0,1:2|0:2,0:2:0:0:
141,182,16896,2,0,P|77:178|12:311,1,200,12|0,0:1|1:2,0:2:0:0:
23,357,17382,1,0,1:2:0:0:
98,382,17545,1,8,1:2:0:0:
173,357,17707,1,0,1:2:0:0:
256,192,17869,5,2,1:2:0:0:
318,244,18031,2,0,P|339:292|338:355,1,100,0|8,1:2|0:2,0:2:0:0:
194,140,18355,2,0,P|173:92|174:29,1,100,2|0,0:2|1:2,0:2:0:0:
335,168,18680,1,2,1:2:0:0:
335,168,18761,1,0,1:2:0:0:
335,168,18842,2,0,P|395:146|496:243,1,200,8|0,0:2|1:2,0:2:0:0:
488,302,19328,1,0,0:2:0:0:
322,384,19491,6,0,L|325:264,1,100,10|0,0:2|0:2,0:2:0:0:
240,89,19815,2,0,P|216:120|212:195,1,100,2|0,1:2|1:2,0:2:0:0:
425,66,20139,2,0,P|463:96|482:142,1,100,10|0,0:2|0:2,0:2:0:0:
255,0,20464,5,6,1:1:0:0:
363,162,20626,1,0,1:2:0:0:
363,162,20707,1,0,1:2:0:0:
363,162,20788,1,12,2:2:0:0:
198,277,20950,2,0,B|205:242|205:242|199:221|199:221|211:164,1,100,2|12,1:1|0:2,0:2:0:0:
221,97,21274,5,2,1:1:0:0:
82,236,21437,1,8,0:2:0:0:
252,377,21599,1,8,0:2:0:0:
252,377,21680,1,8,0:2:0:0:
252,377,21761,1,4,1:2:0:0:
252,377,22085,6,0,B|232:304|269:321|245:248,1,129.999994049073,2|0,3:2|3:2,0:2:0:0:
334,120,22734,1,0,3:2:0:0:
334,120,22896,2,0,P|312:146|211:144,1,129.999994049073,2|0,0:2|0:2,0:2:0:0:
136,189,23382,2,0,L|144:121,1,64.9999970245363,0|0,3:2|0:2,0:2:0:0:
88,30,23707,2,0,P|48:79|56:142,1,129.999994049073,0|0,3:2|3:2,2:2:0:0:
153,212,24193,5,0,0:2:0:0:
153,212,24274,1,0,0:2:0:0:
153,212,24355,2,0,L|292:195,1,129.999994049073,2|0,3:2|3:2,0:2:0:0:
350,299,24842,2,0,L|211:282,1,129.999994049073,2|0,0:2|0:2,0:2:0:0:
372,210,25328,2,0,L|359:146,1,64.9999970245363,0|0,3:2|0:2,0:2:0:0:
431,46,25653,6,0,P|475:62|481:158,1,129.999994049073,2|0,3:2|3:2,0:2:0:0:
500,231,26139,2,0,L|348:205,1,129.999994049073,2|0,0:2|0:2,0:2:0:0:
312,261,26626,2,0,L|320:307,3,32.4999985122681,0|0|0|0,3:2|0:2|0:2|0:2,0:2:0:0:
321,310,26950,6,0,P|281:342|195:325,1,129.999994049073,2|0,3:2|3:2,0:2:0:0:
133,384,27437,2,0,L|117:244,1,129.999994049073,2|0,0:2|0:2,0:2:0:0:
109,180,27923,1,0,3:2:0:0:
109,180,28085,1,0,0:2:0:0:
178,86,28247,6,0,P|115:99|58:71,1,129.999994049073,2|0,3:2|3:2,0:2:0:0:
196,170,28734,2,0,P|258:156|315:184,1,129.999994049073,2|0,0:2|0:2,0:2:0:0:
345,263,29220,2,0,L|393:217,1,64.9999970245363,0|0,3:2|0:2,0:2:0:0:
479,181,29545,5,2,3:2:0:0:
417,132,29707,1,0,0:2:0:0:
466,72,29869,1,0,3:2:0:0:
383,10,30031,2,0,P|340:41|256:29,1,129.999994049073,2|0,0:2|0:2,0:2:0:0:
224,103,30518,1,0,3:2:0:0:
224,103,30680,1,0,0:2:0:0:
146,63,30842,6,0,P|137:29|145:-10,1,64.9999970245363,2|0,3:2|3:2,0:2:0:0:
224,103,31166,2,0,P|233:137|225:176,1,64.9999970245363,0|0,3:2|0:2,0:2:0:0:
169,227,31491,1,0,3:2:0:0:
157,225,31572,1,0,0:2:0:0:
146,224,31653,1,0,0:2:0:0:
135,223,31734,1,0,0:2:0:0:
124,221,31815,1,2,3:2:0:0:
191,348,32139,6,0,P|105:370|25:332,1,179.999994506836,6|8,1:2|0:2,0:2:0:0:
123,220,32626,2,0,P|62:158|53:70,1,179.999994506836,2|0,0:2|1:2,0:2:0:0:
200,99,33112,2,0,P|208:38|226:8,1,89.9999972534181,10|0,0:2|0:2,0:2:0:0:
414,158,33437,2,0,P|406:70|344:7,1,179.999994506836,2|8,1:2|0:2,0:2:0:0:
208,106,33923,1,0,3:2:0:0:
208,106,34004,1,0,3:2:0:0:
208,106,34085,2,0,L|195:209,1,89.9999972534181,0|0,1:2|1:2,0:2:0:0:
304,295,34410,6,0,L|414:279,1,89.9999972534181,10|0,0:2|0:2,0:2:0:0:
238,378,34734,2,0,B|175:362|175:362|135:384|135:384|48:366,1,179.999994506836,2|8,1:2|0:2,0:2:0:0:
67,369,35220,1,2,0:2:0:0:
179,280,35382,2,0,P|197:245|190:176,1,89.9999972534181,0|0,1:2|1:2,0:2:0:0:
15,279,35707,2,0,P|9:190|46:106,1,179.999994506836,10|0,0:2|1:2,0:2:0:0:
102,57,36193,1,0,1:2:0:0:
177,48,36355,1,8,0:2:0:0:
245,100,36518,1,2,3:2:0:0:
245,100,36599,1,0,3:2:0:0:
245,100,36680,2,0,P|293:106|347:71,1,89.9999972534181,0|0,1:2|1:2,0:2:0:0:
428,193,37004,6,0,P|468:175|512:182,1,89.9999972534181,10|0,0:2|0:2,0:2:0:0:
392,381,37328,2,0,L|340:186,1,179.999994506836,2|8,1:2|0:2,0:2:0:0:
294,365,37815,1,2,3:2:0:0:
294,365,37896,1,0,3:2:0:0:
294,365,37977,2,0,L|268:267,1,89.9999972534181,0|0,1:2|1:2,0:2:0:0:
128,160,38301,6,0,P|70:195|62:325,1,179.999994506836,10|0,1:2|1:2,1:2:0:0:
83,367,38788,1,0,1:2:0:0:
157,383,38950,1,8,0:2:0:0:
279,286,39112,1,2,3:2:0:0:
279,286,39193,1,0,3:2:0:0:
279,286,39274,2,0,L|252:172,1,89.9999972534181,0|0,1:2|1:2,0:2:0:0:
29,201,39599,2,0,L|56:87,1,89.9999972534181,10|0,0:2|0:2,0:2:0:0:
198,33,39923,6,0,P|228:91|293:96,1,134.999995880127,2|0,1:2|0:2,0:2:0:0:
312,87,40247,2,0,P|323:53|303:-5,1,89.9999972534181,8|0,0:2|0:2,0:2:0:0:
308,2,40491,1,8,0:2:0:0:
308,2,40572,1,2,1:2:0:0:
197,112,40734,1,0,1:2:0:0:
299,221,40896,1,8,0:2:0:0:
233,300,41058,1,8,0:2:0:0:
269,379,41220,5,2,1:2:0:0:
154,285,41382,1,0,1:2:0:0:
299,221,41545,1,8,0:2:0:0:
195,134,41707,1,0,1:2:0:0:
307,82,41869,1,10,0:2:0:0:
240,0,42031,1,8,0:2:0:0:
240,0,42112,1,8,0:2:0:0:
240,0,42193,2,0,B|236:23|236:23|238:29|238:29|235:58,1,50,8|4,0:3|0:3,0:2:0:0:
186,162,42518,5,6,3:2:0:0:
50,124,42680,1,2,3:2:0:0:
137,234,43004,1,2,3:2:0:0:
131,93,43166,1,2,3:2:0:0:
52,210,43491,1,10,0:2:0:0:
257,304,43815,5,2,3:2:0:0:
393,266,43977,1,2,3:2:0:0:
306,376,44301,1,2,3:2:0:0:
312,235,44464,1,2,3:2:0:0:
391,352,44788,1,10,0:2:0:0:
231,186,45112,5,2,3:2:0:0:
349,85,45274,1,2,3:2:0:0:
312,235,45599,1,2,3:2:0:0:
255,91,45761,1,2,3:2:0:0:
386,173,46085,1,10,2:2:0:0:
186,332,46410,5,2,3:2:0:0:
124,187,46572,1,2,3:2:0:0:
90,338,46896,1,2,3:2:0:0:
205,235,47058,1,2,3:2:0:0:
51,249,47382,1,10,0:2:0:0:
252,119,47707,5,2,3:2:0:0:
342,263,47869,1,2,3:2:0:0:
352,94,48193,1,2,3:2:0:0:
246,225,48355,1,2,3:2:0:0:
410,183,48680,1,10,2:2:0:0:
205,40,49004,5,2,3:2:0:0:
115,184,49166,1,2,3:2:0:0:
104,15,49491,1,2,3:2:0:0:
211,146,49653,1,2,3:2:0:0:
46,104,49977,1,10,0:2:0:0:
343,67,50301,5,2,3:2:0:0:
438,219,50464,1,2,3:2:0:0:
449,41,50788,1,2,3:2:0:0:
336,179,50950,1,2,3:2:0:0:
510,135,51274,1,10,0:2:0:0:
321,327,51599,5,2,3:2:0:0:
215,159,51761,1,2,3:2:0:0:
202,354,52085,1,2,3:2:0:0:
327,201,52247,1,10,0:2:0:0:
136,250,52572,1,10,0:2:0:0:
338,190,52896,5,6,3:2:0:0:
401,231,53058,1,0,3:2:0:0:
468,196,53220,1,0,3:2:0:0:
472,120,53382,1,0,3:2:0:0:
408,80,53545,1,0,3:2:0:0:
341,115,53707,1,0,3:2:0:0:
288,275,53869,5,2,3:2:0:0:
288,275,54031,1,0,3:2:0:0:
230,134,54193,5,2,3:2:0:0:
167,175,54355,1,0,3:2:0:0:
100,140,54518,1,0,3:2:0:0:
96,64,54680,1,0,3:2:0:0:
160,24,54842,1,0,3:2:0:0:
227,59,55004,1,0,3:2:0:0:
295,210,55166,5,2,3:2:0:0:
295,210,55328,1,0,3:2:0:0:
207,327,55491,5,2,3:2:0:0:
178,252,55653,1,0,3:2:0:0:
103,280,55815,1,0,3:2:0:0:
0,201,55977,5,2,3:2:0:0:
25,125,56139,1,0,3:2:0:0:
99,153,56301,1,0,3:2:0:0:
200,48,56464,5,2,3:2:0:0:
200,48,56626,1,0,3:2:0:0:
320,182,56788,5,2,3:2:0:0:
408,213,56950,1,0,3:2:0:0:
464,139,57112,1,0,3:2:0:0:
412,61,57274,1,2,3:2:0:0:
323,89,57437,1,0,3:2:0:0:
320,182,57599,1,0,3:2:0:0:
431,231,57761,5,2,1:2:0:0:
449,258,57842,1,0,1:2:0:0:
458,292,57923,1,0,1:2:0:0:
455,327,58004,1,0,1:2:0:0:
441,360,58085,1,6,1:2:0:0:
146,294,58410,6,0,L|129:399,1,89.9999972534181,10|0,0:2|0:2,0:2:0:0:
279,193,58734,2,0,L|312:285,1,89.9999972534181,2|0,1:2|1:2,0:2:0:0:
48,158,59058,2,0,L|3:244,1,89.9999972534181,10|0,0:2|0:2,0:2:0:0:
218,89,59382,6,0,B|331:66|247:19|386:0,1,179.999994506836,2|8,1:2|0:2,0:2:0:0:
512,223,59869,2,0,B|399:200|483:153|344:134,1,179.999994506836,2|0,0:2|1:2,0:2:0:0:
171,239,60355,5,10,0:2:0:0:
171,239,60518,1,0,0:2:0:0:
232,330,60680,5,6,1:1:0:0:
60,245,60842,1,0,1:2:0:0:
219,138,61004,1,8,0:2:0:0:
110,361,61166,5,2,1:1:0:0:
110,361,61247,1,0,1:2:0:0:
110,361,61328,1,8,0:2:0:0:
94,124,61491,1,0,1:2:0:0:
307,229,61653,2,0,P|355:234|412:196,1,89.9999972534181,10|0,0:1|1:2,0:2:0:0:
272,54,61977,5,8,0:2:0:0:
299,72,62058,1,8,0:2:0:0:
331,78,62139,1,8,0:2:0:0:
364,69,62220,1,8,0:2:0:0:
389,47,62301,1,8,0:2:0:0:
413,24,62382,1,8,0:2:0:0:
446,15,62464,1,8,0:2:0:0:
479,20,62545,1,8,0:2:0:0:
507,40,62626,5,8,0:3:0:0:
502,70,62707,1,8,0:3:0:0:
499,100,62788,1,8,0:3:0:0:
497,132,62869,1,8,0:3:0:0:
492,162,62950,1,4,0:3:0:0:
489,194,63031,1,4,0:3:0:0:
487,225,63112,1,4,0:3:0:0:
484,255,63193,1,4,0:3:0:0:
512,276,63274,6,0,B|527:174|432:199|458:78,1,200,4|8,1:1|0:2,0:2:0:0:
278,130,63761,1,0,0:2:0:0:
211,6,63923,2,0,L|186:109,1,100,2|0,1:2|1:2,0:2:0:0:
0,243,64247,2,0,P|78:185|174:201,1,200,10|0,0:2|1:2,0:2:0:0:
238,248,64734,1,0,1:2:0:0:
244,327,64896,1,8,1:2:0:0:
175,369,65058,1,0,1:3:0:0:
85,239,65220,6,0,P|79:190|111:119,1,100,2|0,1:2|1:2,0:2:0:0:
0,281,65545,2,0,P|-15:183|20:91,1,200,10|0,0:2|1:2,0:2:0:0:
103,34,66031,1,0,2:2:0:0:
195,183,66193,2,0,L|184:306,1,100,10|0,0:2|0:2,0:2:0:0:
365,200,66518,2,0,P|437:209|487:177,1,100,2|0,1:2|1:2,0:2:0:0:
482,188,66761,1,0,1:2:0:0:
500,171,66842,2,0,L|511:48,1,100,10|0,0:2|0:2,0:2:0:0:
255,10,67166,6,0,B|216:54|216:54|143:66|72:19,1,200,2|8,1:2|2:2,0:2:0:0:
219,152,67653,1,0,2:2:0:0:
23,172,67815,1,2,1:2:0:0:
219,152,67977,1,0,1:2:0:0:
56,309,68139,1,10,0:2:0:0:
282,279,68301,5,0,1:2:0:0:
282,279,68382,1,0,1:2:0:0:
282,279,68464,2,2,B|376:312|376:312|467:246,1,200,6|8,1:1|0:2,0:1:0:0:
509,193,68950,1,2,0:2:0:0:
512,114,69112,1,0,1:2:0:0:
458,56,69274,1,0,1:2:0:0:
282,152,69437,6,0,P|242:170|175:157,1,100,10|0,0:2|0:2,0:2:0:0:
62,6,69761,2,2,P|5:52|2:197,1,200,2|8,1:1|0:2,0:1:0:0:
13,248,70247,1,2,0:2:0:0:
84,284,70410,1,0,1:2:0:0:
162,266,70572,1,0,1:2:0:0:
223,154,70734,5,0,3:2:0:0:
211,131,70815,1,0,3:2:0:0:
209,106,70896,1,0,3:2:0:0:
216,82,70977,1,0,3:2:0:0:
235,66,71058,2,2,B|321:56|259:10|379:2,1,150,6|0,1:2|0:2,0:1:0:0:
442,0,71382,1,8,0:2:0:0:
512,181,71545,2,0,B|496:260|390:272|354:198,1,200,2|0,0:2|0:2,0:2:0:0:
298,124,72031,5,10,0:1:0:0:
259,370,72193,1,8,0:2:0:0:
259,370,72274,1,8,0:2:0:0:
259,370,72355,1,6,1:1:0:0:
358,207,72518,1,0,1:2:0:0:
161,321,72680,1,10,0:1:0:0:
70,198,72842,5,8,2:2:0:0:
66,164,72923,1,8,2:1:0:0:
63,131,73004,1,8,2:1:0:0:
59,98,73085,1,8,2:1:0:0:
78,76,73166,5,8,0:3:0:0:
73,101,73247,1,8,0:3:0:0:
69,125,73328,1,8,0:3:0:0:
64,150,73410,1,8,0:3:0:0:
60,174,73491,1,8,0:3:0:0:
56,199,73572,1,8,0:3:0:0:
51,224,73653,6,0,B|91:262|91:262|174:276|224:191,1,200,4|8,1:1|0:2,0:2:0:0:
338,30,74139,1,0,0:2:0:0:
460,114,74301,2,0,L|441:10,1,100,2|0,1:2|1:2,0:2:0:0:
396,216,74626,2,0,B|326:188|326:188|308:141|308:141|215:104,1,200,10|0,0:2|1:2,0:2:0:0:
159,103,75112,1,0,1:2:0:0:
96,153,75274,1,8,1:2:0:0:
95,232,75437,1,0,1:2:0:0:
231,317,75599,6,0,L|348:296,1,100,2|0,1:2|1:2,0:2:0:0:
409,375,75923,1,10,0:2:0:0:
458,201,76085,1,8,0:2:0:0:
458,201,76166,1,8,0:2:0:0:
458,201,76247,2,0,P|519:264|494:394,2,200,0|10|2,1:2|0:2|1:2,0:2:0:0:
382,176,77058,1,0,1:2:0:0:
306,203,77220,1,10,0:2:0:0:
215,110,77382,5,8,0:2:0:0:
215,110,77464,1,8,0:2:0:0:
215,110,77545,2,0,P|222:47|193:2,1,100,2|0,1:2|1:2,0:2:0:0:
48,194,77869,2,0,P|30:122|56:52,1,150,10|0,0:2|0:2,0:2:0:0:
77,39,78193,1,0,1:2:0:0:
138,204,78355,1,0,1:2:0:0:
287,160,78518,1,10,0:2:0:0:
357,274,78680,5,8,0:2:0:0:
357,274,78761,1,8,0:2:0:0:
357,274,78842,2,0,B|409:332|515:284|492:195,1,200,6|8,1:2|0:2,0:2:0:0:
366,134,79328,1,2,0:2:0:0:
485,0,79491,1,0,1:2:0:0:
512,121,79653,1,0,1:2:0:0:
325,19,79815,1,10,0:2:0:0:
208,124,79977,5,8,0:2:0:0:
208,124,80058,1,8,0:2:0:0:
208,124,80139,2,0,P|105:114|24:186,1,200,2|0,1:2|1:2,0:2:0:0:
218,320,80626,1,2,0:2:0:0:
105,373,80788,1,0,1:2:0:0:
209,217,80950,1,0,1:2:0:0:
321,381,81112,1,10,0:2:0:0:
321,381,81274,1,0,0:2:0:0:
463,295,81437,6,0,P|486:227|450:87,1,200,2|8,1:2|0:2,0:2:0:0:
419,38,81923,1,0,0:2:0:0:
303,212,82085,2,0,P|269:231|200:222,1,100,2|0,1:2|0:2,0:2:0:0:
145,26,82410,2,0,P|62:26|18:123,2,200,10|0|8,0:2|1:2|0:2,0:2:0:0:
210,72,83220,1,0,0:2:0:0:
341,310,83382,5,8,2:2:0:0:
327,272,83464,1,8,2:2:0:0:
358,247,83545,1,8,2:2:0:0:
346,208,83626,1,8,2:2:0:0:
371,177,83707,1,8,2:2:0:0:
354,139,83788,1,8,2:2:0:0:
377,106,83869,1,8,2:2:0:0:
360,69,83950,1,8,2:2:0:0:
384,37,84031,6,0,P|452:31|502:107,1,150,6|0,1:2|0:2,0:2:0:0:
497,107,84355,2,0,B|417:122|417:122|395:152|395:152|315:169,1,200,8|0,0:2|1:2,0:2:0:0:
237,155,84842,1,0,1:2:0:0:
196,87,85004,1,8,1:2:0:0:
228,15,85166,1,0,1:2:0:0:
388,115,85328,5,2,1:2:0:0:
429,181,85491,2,0,B|444:229|444:229|429:277,1,100,0|8,1:2|0:2,0:2:0:0:
248,384,85815,2,0,B|237:354|237:354|239:332|239:332|223:287,1,100,2|0,0:2|1:2,0:2:0:0:
105,164,86139,1,2,1:2:0:0:
105,164,86220,1,0,1:2:0:0:
105,164,86301,2,0,B|32:197|52:286|52:286|72:294|96:318,1,200,8|0,0:2|1:2,0:2:0:0:
141,382,86788,1,0,0:2:0:0:
208,201,86950,6,0,B|214:167|214:167|209:150|209:150|217:96,1,100,10|0,0:2|0:2,0:2:0:0:
335,225,87274,1,2,1:2:0:0:
428,250,87437,1,0,1:2:0:0:
483,172,87599,2,0,P|494:99|473:28,1,150,10|0,0:2|0:2,0:2:0:0:
451,10,87923,5,2,1:2:0:0:
319,127,88085,2,0,L|338:244,1,100,0|8,1:2|0:2,0:2:0:0:
98,81,88410,2,0,L|190:4,1,100,2|0,0:2|1:2,0:2:0:0:
170,296,88734,2,0,L|58:254,1,100,2|8,1:2|0:2,0:2:0:0:
327,134,89058,5,8,0:2:0:0:
327,134,89139,1,8,0:2:0:0:
327,134,89220,2,0,B|415:124|357:76|455:62,1,150,6|0,1:2|0:2,0:2:0:0:
467,62,89545,2,0,P|502:98|486:264,1,200,12|0,0:1|1:2,0:2:0:0:
463,308,90031,1,0,1:2:0:0:
386,330,90193,1,8,1:2:0:0:
312,299,90355,1,0,1:2:0:0:
256,128,90518,5,2,1:2:0:0:
323,171,90680,2,0,P|377:171|425:133,1,100,0|8,1:2|0:2,0:2:0:0:
221,55,91004,2,0,P|178:29|129:30,1,100,2|0,0:2|1:2,0:2:0:0:
210,209,91328,1,2,1:2:0:0:
210,209,91410,1,0,1:2:0:0:
210,209,91491,2,0,P|188:260|37:245,1,200,8|0,0:2|1:2,0:2:0:0:
0,321,91977,1,0,0:2:0:0:
194,379,92139,6,0,P|240:362|290:359,1,100,10|0,0:2|0:2,0:2:0:0:
121,207,92464,2,0,P|97:163|100:112,1,100,2|0,1:2|1:2,0:2:0:0:
393,256,92788,2,0,P|426:219|437:171,1,100,10|0,0:2|0:2,0:2:0:0:
286,0,93112,5,6,1:1:0:0:
258,224,93274,1,0,1:2:0:0:
258,224,93355,1,0,1:2:0:0:
258,224,93437,1,12,2:2:0:0:
178,94,93599,1,2,1:1:0:0:
386,28,93761,1,12,0:2:0:0:
306,329,93923,1,2,1:1:0:0:
122,191,94085,1,8,0:2:0:0:
426,132,94247,1,8,0:2:0:0:
426,132,94328,1,8,0:2:0:0:
426,132,94410,1,14,1:2:0:0:
78,377,96355,2,0,B|96:312|60:332|78:256,1,120,0|0,0:2|0:2,0:2:0:0:
110,185,97004,5,10,0:2:0:0:
183,237,97328,1,8,0:2:0:0:
268,208,97653,1,8,0:2:0:0:
289,120,97977,1,8,0:2:0:0:
376,98,98139,1,8,0:1:0:0:
445,154,98301,2,0,P|474:213|446:317,1,150.000005722046,10|8,0:2|0:2,0:2:0:0:
358,384,98950,6,0,L|330:303,1,75.0000028610231,10|8,0:2|0:1,0:2:0:0:
302,244,99274,1,8,0:2:0:0:
302,244,99437,1,8,0:1:0:0:
191,306,99599,6,0,B|121:334|121:334|51:304,1,150.000005722046,10|8,0:2|0:2,0:2:0:0:
125,238,100085,2,0,P|117:174|159:95,1,150.000005722046,2|0,0:2|0:2,0:2:0:0:
225,51,100572,1,10,0:2:0:0:
225,51,100734,1,8,0:1:0:0:
338,102,100896,6,0,P|415:115|482:71,1,150.000005722046,10|8,0:2|0:2,0:2:0:0:
386,216,101382,2,0,P|309:203|242:247,1,150.000005722046,2|8,0:2|0:1,0:2:0:0:
145,299,101869,2,0,L|155:212,1,75.0000028610231,10|8,0:2|0:1,0:2:0:0:
167,132,102193,5,2,0:2:0:0:
249,237,102518,1,8,0:2:0:0:
167,132,102842,1,8,0:2:0:0:
238,161,103004,1,2,0:2:0:0:
299,113,103166,1,8,0:2:0:0:
287,36,103328,1,2,0:2:0:0:
214,7,103491,5,2,0:2:0:0:
226,84,103815,5,2,0:2:0:0:
322,128,104139,5,2,0:2:0:0:
430,62,104464,5,2,0:2:0:0:
437,52,104788,6,0,P|508:102|511:195,1,179.999994506836,6|8,1:2|0:2,0:2:0:0:
438,335,105274,1,2,3:2:0:0:
438,335,105355,1,0,3:2:0:0:
438,335,105437,2,0,L|420:221,1,89.9999972534181,0|0,1:2|1:2,0:2:0:0:
358,205,105761,1,8,0:2:0:0:
266,312,105923,1,0,0:2:0:0:
215,369,106085,2,0,P|143:318|138:231,1,179.999994506836,2|8,1:2|0:2,0:2:0:0:
73,111,106572,5,2,0:2:0:0:
15,161,106734,1,0,1:2:0:0:
36,234,106896,1,0,1:2:0:0:
200,158,107058,6,0,P|241:145|306:157,1,89.9999972534181,10|0,0:2|0:2,0:2:0:0:
398,289,107382,2,0,P|431:221|384:107,1,179.999994506836,2|8,1:2|0:2,0:2:0:0:
303,242,107869,1,2,3:2:0:0:
303,242,107950,1,0,3:2:0:0:
303,242,108031,2,0,P|262:255|197:243,1,89.9999972534181,0|0,1:2|1:2,0:2:0:0:
117,139,108355,2,0,P|87:221|120:303,2,179.999994506836,10|0|8,0:2|1:2|0:2,0:2:0:0:
233,36,109166,5,2,0:2:0:0:
297,77,109328,1,0,1:2:0:0:
367,46,109491,1,0,1:2:0:0:
500,142,109653,6,0,L|402:130,1,89.9999972534181,10|0,0:2|0:2,0:2:0:0:
507,235,109977,2,0,P|438:221|366:318,1,179.999994506836,2|8,1:2|0:2,0:2:0:0:
229,384,110464,1,2,3:2:0:0:
229,384,110545,1,0,3:2:0:0:
229,384,110626,2,0,L|218:265,1,89.9999972534181,0|0,1:2|1:2,0:2:0:0:
450,311,110950,6,0,L|466:131,1,179.999994506836,10|0,0:2|1:2,0:2:0:0:
407,82,111437,1,0,1:2:0:0:
290,175,111599,1,8,0:2:0:0:
224,136,111761,2,0,P|158:127|80:212,1,179.999994506836,2|0,0:2|1:2,0:2:0:0:
1,308,112247,2,0,L|101:296,1,89.9999972534181,10|0,0:2|0:2,0:2:0:0:
293,375,112572,6,0,B|261:277|337:301|289:189,1,179.999994506836,2|8,1:2|0:2,0:2:0:0:
374,337,113058,1,2,3:2:0:0:
374,337,113139,1,0,3:2:0:0:
374,337,113220,1,0,1:2:0:0:
224,250,113382,1,0,1:2:0:0:
341,134,113545,1,8,3:2:0:0:
267,47,113707,1,0,3:2:0:0:
328,234,113869,6,0,P|406:249|496:184,1,179.999994506836,2|8,1:2|0:2,0:2:0:0:
356,25,114355,1,2,1:2:0:0:
474,92,114518,1,8,0:2:0:0:
287,143,114680,1,8,0:3:0:0:
264,140,114761,1,8,0:2:0:0:
242,137,114842,1,8,0:2:0:0:
220,134,114923,1,8,0:2:0:0:
197,131,115004,1,8,0:3:0:0:
175,128,115085,1,8,0:3:0:0:
153,125,115166,6,0,B|119:129|99:149|99:149|-24:128,1,150.000005722046,6|8,1:2|0:2,0:2:0:0:
71,178,115653,1,2,1:2:0:0:
95,248,115815,1,2,0:2:0:0:
87,322,115977,1,0,1:2:0:0:
37,378,116139,1,10,0:2:0:0:
187,241,116464,6,0,B|275:217|252:279|349:245,1,150.000005722046,2|8,1:2|0:2,0:2:0:0:
270,208,116950,1,2,1:2:0:0:
243,137,117112,1,2,0:2:0:0:
272,68,117274,1,0,1:2:0:0:
341,35,117437,1,10,0:2:0:0:
341,35,117599,1,0,0:2:0:0:
427,126,117761,6,0,P|450:190|414:282,1,150.000005722046,2|8,1:2|0:2,0:2:0:0:
368,311,118247,1,2,1:2:0:0:
298,280,118410,1,2,0:2:0:0:
226,301,118572,1,0,1:2:0:0:
191,367,118734,1,10,0:2:0:0:
31,295,119058,6,0,P|23:221|60:157,1,150.000005722046,2|8,1:2|0:2,0:2:0:0:
128,126,119545,1,2,1:2:0:0:
195,158,119707,1,2,0:2:0:0:
267,140,119869,1,0,1:2:0:0:
300,74,120031,1,10,0:2:0:0:
300,74,120193,1,0,0:2:0:0:
174,25,120355,6,0,B|117:22|117:22|94:36|94:36|13:30,1,150.000005722046,2|8,1:2|0:2,0:2:0:0:
128,126,120842,2,0,P|158:160|151:270,1,150.000005722046,2|0,1:2|1:2,0:2:0:0:
113,326,121328,1,10,0:2:0:0:
113,326,121491,1,0,0:2:0:0:
254,383,121653,6,0,L|430:366,1,150.000005722046,2|8,1:2|0:2,0:2:0:0:
512,282,122139,2,0,L|336:265,1,150.000005722046,2|0,1:2|1:2,0:2:0:0:
294,183,122626,1,10,0:2:0:0:
294,183,122950,6,0,B|279:120|324:88|324:88|294:48,1,150.000005722046,2|8,1:2|0:2,0:2:0:0:
232,15,123437,1,2,1:2:0:0:
168,54,123599,1,2,0:2:0:0:
93,52,123761,1,0,1:2:0:0:
25,19,123923,1,10,0:2:0:0:
219,193,124247,6,0,L|315:180,1,75.0000028610231,2|0,1:2|0:2,0:2:0:0:
367,114,124572,1,8,3:2:0:0:
356,98,124653,1,0,3:2:0:0:
350,80,124734,1,0,3:2:0:0:
349,62,124815,1,0,3:2:0:0:
354,43,124896,1,10,3:2:0:0:
512,179,125220,5,10,3:2:0:0:
195,350,125545,6,2,P|145:348|65:308,1,110.000003356934,14|0,0:2|0:2,0:1:0:0:
195,34,125869,2,2,P|145:35|65:75,1,110.000003356934,10|0,0:2|0:2,0:1:0:0:
412,301,126193,2,2,P|361:321|306:324,1,110.000003356934,10|0,0:2|0:2,0:1:0:0:
412,83,126518,2,2,P|361:62|306:59,1,110.000003356934,10|0,1:2|1:2,0:1:0:0:
64,164,126842,6,2,P|77:115|92:37,1,110.000003356934,10|0,0:2|0:2,0:1:0:0:
289,346,127166,2,2,P|240:359|164:385,1,110.000003356934,10|0,0:2|0:2,0:1:0:0:
334,59,127491,2,2,P|369:94|429:146,1,110.000003356934,10|0,2:2|1:2,0:1:0:0:
144,240,127815,5,10,2:1:0:0:
310,182,127977,1,0,1:2:0:0:
360,267,128139,2,0,P|455:269|512:163,1,220.000006713867,10|10,0:1|0:1,0:1:0:0:
303,53,128626,1,0,1:2:0:0:
223,232,128788,2,2,P|220:299|263:347,1,110.000003356934,10|0,0:1|0:2,0:1:0:0:
340,384,129112,5,10,0:1:0:0:
340,384,129274,1,0,1:2:0:0:
129,267,129437,5,10,0:1:0:0:
317,287,129599,1,0,0:2:0:0:
130,175,129761,5,10,0:1:0:0:
31,365,129923,1,0,0:2:0:0:
209,222,130085,5,10,0:1:0:0:
7,107,130247,1,0,1:2:0:0:
293,74,130410,5,10,2:2:0:0:
268,0,130518,1,0,2:2:0:0:
217,58,130626,1,0,2:2:0:0:
259,43,130734,5,8,2:2:0:0:
308,316,133004,1,0,0:2:0:0:
309,306,133085,1,0,0:2:0:0:
311,297,133166,1,0,0:2:0:0:
313,288,133247,1,0,0:2:0:0:
314,279,133328,5,8,0:2:0:0:
169,250,133491,1,8,0:2:0:0:
343,134,133653,1,8,0:2:0:0:
198,105,133815,1,8,0:2:0:0:
230,320,133977,5,8,0:1:0:0:
127,166,134139,1,8,0:2:0:0:
281,63,134301,1,8,0:2:0:0:
384,217,134464,1,8,0:2:0:0:
469,168,134626,5,8,3:2:0:0:
470,154,134707,1,0,3:2:0:0:
471,141,134788,1,0,3:2:0:0:
472,128,134869,1,0,3:2:0:0:
473,115,134950,1,8,3:2:0:0:
474,103,135031,1,0,3:2:0:0:
475,90,135112,1,0,3:2:0:0:
477,77,135193,1,0,3:2:0:0:
478,64,135274,5,8,3:3:0:0:
447,85,135355,1,8,3:3:0:0:
435,119,135437,1,8,3:3:0:0:
441,154,135518,1,8,3:3:0:0:
466,179,135599,1,4,3:3:0:0:
495,199,135680,1,4,3:3:0:0:
508,232,135761,1,4,3:3:0:0:
510,267,135842,1,4,3:3:0:0:
494,299,135923,6,0,P|401:331|280:255,1,220.000006713867,4|8,1:1|0:2,0:2:0:0:
340,146,136410,1,0,0:2:0:0:
128,76,136572,2,0,P|110:127|116:181,1,110.000003356934,2|0,1:2|1:2,0:2:0:0:
260,32,136896,2,0,P|352:0|479:78,1,220.000006713867,10|0,0:2|1:2,0:2:0:0:
505,122,137382,1,0,1:2:0:0:
507,209,137545,1,8,1:2:0:0:
441,268,137707,1,0,1:3:0:0:
296,181,137869,6,0,P|251:165|180:173,1,110.000003356934,2|0,1:2|1:2,0:2:0:0:
19,273,138193,1,8,3:2:0:0:
19,273,138274,1,0,3:2:0:0:
19,273,138355,1,0,3:2:0:0:
19,273,138437,1,0,3:2:0:0:
19,273,138518,2,0,P|-1:205|57:60,1,220.000006713867,2|8,1:2|0:0,0:0:0:0:
157,6,139004,1,0,0:0:0:0:
210,154,139166,2,0,L|194:282,1,110.000003356934,2|0,1:2|1:2,0:2:0:0:
343,384,139491,2,0,L|359:256,1,110.000003356934,10|0,0:2|0:2,0:2:0:0:
512,116,139815,6,0,P|531:222|484:319,1,220.000006713867,2|8,1:2|2:2,0:2:0:0:
360,153,140301,1,0,2:2:0:0:
207,185,140464,1,2,1:2:0:0:
428,230,140626,1,0,1:2:0:0:
206,294,140788,1,10,0:2:0:0:
275,104,140950,5,0,1:2:0:0:
275,104,141031,1,0,1:2:0:0:
275,104,141112,2,2,P|376:112|440:9,1,220.000006713867,6|8,1:1|0:2,0:1:0:0:
360,153,141599,1,2,0:2:0:0:
341,250,141761,1,0,1:2:0:0:
390,335,141923,1,0,1:2:0:0:
512,281,142085,6,0,P|520:233|487:166,1,110.000003356934,10|0,0:2|0:2,0:2:0:0:
280,363,142410,2,2,P|225:270|248:161,1,220.000006713867,2|8,1:1|0:2,0:1:0:0:
329,112,142896,1,2,0:2:0:0:
418,153,143058,1,0,1:2:0:0:
499,96,143220,1,0,1:2:0:0:
327,22,143382,5,0,3:2:0:0:
299,25,143464,1,0,3:2:0:0:
272,29,143545,1,0,3:2:0:0:
245,32,143626,1,0,3:2:0:0:
217,35,143707,2,2,B|168:20|168:20|141:76|59:70,1,165.000005035401,6|0,1:2|0:2,0:1:0:0:
0,53,144031,1,8,0:2:0:0:
205,121,144193,2,0,P|278:178|265:323,1,220.000006713867,2|0,0:2|0:2,0:2:0:0:
222,384,144680,5,10,0:1:0:0:
417,258,144842,1,8,0:2:0:0:
417,258,144923,1,8,0:2:0:0:
417,258,145004,1,6,1:1:0:0:
145,189,145166,1,0,1:2:0:0:
299,0,145328,1,10,0:1:0:0:
381,156,145491,5,8,2:2:0:0:
413,151,145572,1,8,2:1:0:0:
447,146,145653,1,8,2:1:0:0:
481,142,145734,1,8,2:1:0:0:
512,164,145815,5,8,0:3:0:0:
474,158,145896,1,8,0:3:0:0:
436,152,145977,1,8,0:3:0:0:
399,146,146058,1,8,0:3:0:0:
362,140,146139,1,8,0:3:0:0:
325,134,146220,1,8,0:3:0:0:
287,128,146301,6,0,P|189:170|181:294,1,220.000006713867,4|8,1:1|0:2,0:2:0:0:
363,222,146788,1,0,0:2:0:0:
488,369,146950,2,0,P|493:313|451:250,1,110.000003356934,2|0,1:2|1:2,0:2:0:0:
232,357,147274,2,0,P|127:366|65:281,1,220.000006713867,10|0,0:2|1:2,0:2:0:0:
42,195,147761,1,0,1:2:0:0:
76,114,147923,1,8,1:2:0:0:
158,84,148085,1,0,1:2:0:0:
254,229,148247,6,0,P|311:239|371:208,1,110.000003356934,2|0,1:2|1:2,0:2:0:0:
337,88,148572,1,10,0:2:0:0:
468,31,148734,1,8,0:2:0:0:
468,31,148815,1,8,0:2:0:0:
468,31,148896,2,0,P|519:125|495:254,1,220.000006713867,0|8,1:2|0:2,0:2:0:0:
448,300,149382,1,0,0:0:0:0:
332,224,149545,1,2,1:2:0:0:
255,266,149707,1,0,1:2:0:0:
112,190,149869,1,10,0:2:0:0:
26,223,150031,5,8,0:2:0:0:
26,223,150112,1,8,0:2:0:0:
26,223,150193,2,0,P|13:157|33:114,1,110.000003356934,2|0,1:2|1:2,0:2:0:0:
116,302,150518,2,0,P|194:317|255:264,1,165.000005035401,10|0,0:2|0:2,0:2:0:0:
269,243,150842,1,0,1:2:0:0:
112,190,151004,1,0,1:2:0:0:
160,32,151166,1,10,0:2:0:0:
320,152,151328,5,8,0:2:0:0:
320,152,151410,1,8,0:2:0:0:
320,152,151491,2,0,L|302:385,1,220.000006713867,6|8,1:2|0:2,0:2:0:0:
402,206,151977,1,2,0:2:0:0:
498,384,152139,1,0,1:2:0:0:
502,170,152301,1,0,1:2:0:0:
399,348,152464,1,10,0:2:0:0:
223,269,152626,5,8,0:2:0:0:
223,269,152707,1,8,0:2:0:0:
223,269,152788,2,0,B|107:227|127:309|4:273,1,220.000006713867,2|0,1:2|1:2,0:2:0:0:
165,361,153274,1,2,0:2:0:0:
62,181,153437,1,0,1:2:0:0:
220,50,153599,1,0,1:2:0:0:
144,240,153761,1,10,0:2:0:0:
127,0,153923,1,0,0:2:0:0:
304,203,154085,6,0,P|407:228|492:143,1,220.000006713867,2|8,1:2|0:2,0:2:0:0:
505,49,154572,1,0,0:2:0:0:
404,4,154734,1,2,1:2:0:0:
320,75,154896,1,0,0:2:0:0:
109,112,155058,6,0,P|99:58|119:8,1,110.000003356934,10|0,0:2|0:0,0:2:0:0:
304,203,155382,2,0,P|355:221|388:264,1,110.000003356934,0|0,1:2|0:0,0:0:0:0:
127,326,155707,2,0,P|85:361|31:368,1,110.000003356934,8|0,0:2|0:2,0:0:0:0:
235,94,156031,5,2,1:2:0:0:
254,321,156193,1,8,0:0:0:0:
47,224,156355,1,8,0:3:0:0:
183,221,156518,5,4,0:3:0:0:
183,221,156599,1,4,0:3:0:0:
183,221,156680,2,0,P|252:274|331:245,1,150.000005722046,6|0,1:2|1:0,0:0:0:0:
399,236,157166,2,0,P|392:278|388:326,1,75.0000028610231,2|0,0:2|1:2,0:2:0:0:
470,323,157491,1,2,0:2:0:0:
481,240,157653,2,0,P|487:203|491:165,1,75.0000028610231,0|0,1:2|0:2,0:2:0:0:
413,87,157977,5,2,1:2:0:0:
413,87,158139,2,0,L|320:77,1,75.0000028610231,2|0,0:2|1:2,0:2:0:0:
353,169,158464,2,0,P|302:160|225:233,1,150.000005722046,2|0,0:2|0:2,0:2:0:0:
144,297,158950,6,0,L|132:207,1,75.0000028610231,2|0,1:2|0:2,0:2:0:0:
46,143,159274,2,0,P|14:202|36:288,2,150.000005722046,2|0|0,1:2|1:2|1:2,0:2:0:0:
117,101,160085,1,0,0:2:0:0:
198,116,160247,2,0,P|235:116|276:91,1,75.0000028610231,0|0,1:2|0:2,0:2:0:0:
361,13,160572,5,2,1:2:0:0:
361,13,160734,2,0,L|348:115,1,75.0000028610231,2|0,0:2|1:2,0:2:0:0:
470,169,161058,2,0,P|426:155|389:160,1,75.0000028610231,2|0,0:2|1:2,0:2:0:0:
473,255,161382,2,0,P|423:240|312:267,1,150.000005722046,2|0,0:2|0:2,0:2:0:0:
236,346,161869,6,0,L|245:174,1,150.000005722046,2|0,1:2|1:2,0:2:0:0:
163,239,162355,2,0,P|125:242|90:231,1,75.0000028610231,2|0,0:2|1:2,0:2:0:0:
26,178,162680,1,2,0:2:0:0:
6,258,162842,2,0,P|10:299|34:341,1,75.0000028610231,0|0,1:2|0:2,0:2:0:0:
136,365,163166,5,2,1:2:0:0:
136,365,163328,2,0,P|170:350|219:346,1,75.0000028610231,2|0,0:2|1:2,0:2:0:0:
318,383,163653,2,0,B|330:310|281:313|306:228,1,150.000005722046,2|0,0:2|0:2,0:2:0:0:
428,175,164139,6,0,L|345:160,1,75.0000028610231,2|0,1:2|0:2,0:2:0:0:
242,88,164464,2,0,L|402:67,1,150.000005722046,2|0,1:2|1:2,0:2:0:0:
390,67,164950,1,0,0:2:0:0:
493,90,165112,2,0,P|494:47|474:9,1,75.0000028610231,2|0,1:2|0:2,0:2:0:0:
354,161,165437,2,0,P|353:204|373:242,1,75.0000028610231,2|0,1:2|2:2,0:2:0:0:
365,232,165680,1,0,2:2:0:0:
365,232,165761,1,2,1:2:0:0:
293,337,165923,2,0,L|197:328,1,75.0000028610231,2|0,0:2|1:2,0:2:0:0:
91,384,166247,5,8,2:2:0:0:
91,384,166328,1,8,2:2:0:0:
91,384,166410,1,8,0:2:0:0:
183,229,166572,1,8,0:2:0:0:
17,112,166734,1,8,0:2:0:0:
13,136,166815,1,8,0:2:0:0:
10,161,166896,1,8,0:2:0:0:
7,186,166977,1,8,0:2:0:0:
4,211,167058,6,0,B|94:215|126:143|126:143|211:136,1,220.000006713867,6|8,1:2|0:2,0:2:0:0:
336,21,167545,2,0,P|283:20|213:3,1,110.000003356934,2|0,0:2|1:2,0:2:0:0:
336,189,167869,1,2,1:2:0:0:
478,66,168031,1,8,3:2:0:0:
350,6,168193,1,0,3:2:0:0:
467,197,168355,2,0,B|502:238|502:238|518:326|442:393,1,220.000006713867,2|8,1:2|0:2,0:2:0:0:
317,245,168842,1,2,3:2:0:0:
317,245,168923,1,0,3:2:0:0:
317,245,169004,2,0,B|266:226|266:226|193:241,1,110.000003356934,0|0,1:2|1:2,0:2:0:0:
36,333,169328,6,0,P|33:279|62:223,1,110.000003356934,10|0,0:2|0:2,0:2:0:0:
170,343,169653,2,0,B|274:382|274:382|378:343,1,220.000006713867,2|8,1:2|0:2,0:2:0:0:
481,383,170139,1,0,0:2:0:0:
383,198,170301,2,0,P|438:195|492:218,1,110.000003356934,2|0,1:2|1:2,0:2:0:0:
294,278,170626,2,0,P|271:328|273:386,1,110.000003356934,10|0,0:2|0:2,0:2:0:0:
166,187,170950,2,0,P|74:190|-2:82,2,220.000006713867,2|8|0,1:2|0:2|1:2,0:2:0:0:
205,108,171761,1,0,1:2:0:0:
256,192,171923,5,10,0:2:0:0:
256,192,172085,1,2,0:2:0:0:
171,267,172247,5,10,0:1:0:0:
341,117,172410,1,0,1:2:0:0:
137,151,172572,5,10,0:1:0:0:
373,231,172734,1,0,1:2:0:0:
228,57,172896,5,10,0:1:0:0:
282,325,173058,1,0,1:2:0:0:
256,192,173220,5,10,0:1:0:0:
256,192,173382,1,0,1:2:0:0:
373,231,173545,6,2,L|507:219,1,119.999996337891,10|0,0:2|1:2,0:1:0:0:
137,151,173869,2,2,L|3:163,1,119.999996337891,10|0,0:2|1:2,0:1:0:0:
341,117,174193,2,2,B|357:58|357:58|323:-5,1,119.999996337891,10|0,0:2|1:2,0:1:0:0:
171,267,174518,2,2,B|155:326|155:326|188:389,1,119.999996337891,10|0,0:2|1:2,0:1:0:0:
363,228,174842,5,6,1:2:0:0:
370,233,174923,1,0,3:2:0:0:
378,238,175004,1,0,3:2:0:0:
386,242,175085,1,0,3:2:0:0:
395,245,175166,1,0,1:2:0:0:
405,246,175247,1,0,3:2:0:0:
414,247,175328,1,0,3:2:0:0:
423,247,175410,1,0,3:2:0:0:
433,245,175491,1,0,1:2:0:0:
441,242,175572,1,0,3:2:0:0:
450,238,175653,1,0,3:2:0:0:
458,233,175734,1,0,3:2:0:0:
465,228,175815,5,2,1:2:0:0:
458,190,175896,1,0,3:2:0:0:
452,153,175977,1,0,3:2:0:0:
446,116,176058,1,0,3:2:0:0:
440,79,176139,5,2,1:2:0:0:
433,89,176220,1,0,3:2:0:0:
425,99,176301,1,0,3:2:0:0:
415,106,176382,1,0,3:2:0:0:
404,111,176464,1,0,1:2:0:0:
391,113,176545,1,0,3:2:0:0:
379,113,176626,1,0,3:2:0:0:
367,109,176707,1,0,3:2:0:0:
356,103,176788,5,2,1:2:0:0:
361,89,176869,1,0,3:2:0:0:
364,75,176950,1,0,3:2:0:0:
363,61,177031,1,0,3:2:0:0:
359,48,177112,1,0,1:2:0:0:
352,35,177193,1,0,3:2:0:0:
342,25,177274,1,0,3:2:0:0:
330,17,177355,1,0,3:2:0:0:
312,14,177437,6,2,P|267:79|289:238,1,239.999992675781,14|0,1:2|1:2,0:1:0:0:
32,184,177923,2,2,P|144:217|207:316,1,239.999992675781,14|0,0:2|1:2,0:1:0:0:
474,218,178410,2,2,P|370:273|330:384,1,239.999992675781,14|0,1:2|0:2,0:1:0:0:
211,321,179058,5,10,0:2:0:0:
211,321,179220,1,0,0:2:0:0:
330,382,179382,2,2,L|342:267,1,110.000003356934,10|0,0:2|1:2,0:1:0:0:
115,299,179707,2,2,L|103:184,1,110.000003356934,10|0,0:2|1:2,0:1:0:0:
306,78,180031,6,2,B|348:151|443:120|443:120|446:60|505:37,1,259.999988098145,14|0,1:2|1:1,0:1:0:0:
192,202,180518,2,2,B|156:125|58:147|58:147|50:207|-9:225,1,259.999988098145,14|0,1:2|1:1,0:1:0:0:
267,364,181004,2,2,B|301:286|398:306|398:306|408:366|460:381,1,261.000002190399,14|0,1:1|0:2,0:1:0:0:
317,262,181653,5,14,0:2:0:0:
317,262,181815,1,0,0:2:0:0:
469,200,181977,1,10,0:1:0:0:
348,87,182139,1,0,1:2:0:0:
196,149,182301,1,8,0:2:0:0:
169,155,182382,1,8,0:2:0:0:
142,154,182464,1,8,0:2:0:0:
115,146,182545,1,8,0:2:0:0:
92,131,182626,6,2,B|66:87|-14:101|-30:205|73:248,1,239.999992675781,14|0,1:2|1:2,0:1:0:0:
286,90,183112,2,2,B|299:40|380:33|422:129|334:198,1,239.999992675781,14|0,1:2|1:2,0:1:0:0:
78,268,183599,2,2,B|26:271|3:348|88:410|173:338,1,239.999992675781,14|0,1:2|0:2,0:1:0:0:
227,245,184247,5,14,2:2:0:0:
227,245,184410,1,0,0:2:0:0:
306,373,184572,1,10,0:1:0:0:
490,282,184734,1,0,1:2:0:0:
411,154,184896,1,8,3:2:0:0:
397,129,184977,1,8,3:2:0:0:
384,105,185058,1,8,3:2:0:0:
371,81,185139,1,8,3:2:0:0:
358,57,185220,6,2,P|270:77|89:-17,1,279.999991455078,14|0,1:2|1:2,0:1:0:0:
235,335,185707,2,2,P|139:236|3:215,1,279.999991455078,14|0,1:2|1:2,0:1:0:0:
353,384,186193,6,0,B|248:216|377:6|584:94|524:295|409:246|409:246,1,500,14|4,1:1|0:2,0:2:0:0:
40,346,197545,6,0,B|124:329|124:329|154:344|149:385,1,150,0|0,0:2|0:2,0:2:0:0:
21,343,198193,6,0,P|11:304|11:264,1,80,6|0,1:2|0:2,0:2:0:0:
139,213,198518,2,0,P|149:252|148:291,1,80,2|0,1:2|0:2,0:2:0:0:
47,161,198842,2,0,P|37:122|37:82,1,80,2|0,1:2|0:2,0:2:0:0:
124,23,199166,2,0,P|178:37|277:1,2,160,2|0|0,1:2|1:2|1:2,0:2:0:0:
124,23,199977,1,0,0:2:0:0:
187,114,200139,6,0,L|286:98,1,80,2|0,1:2|0:2,0:2:0:0:
379,214,200464,2,0,P|306:181|229:194,1,160,2|0,1:2|1:2,0:2:0:0:
229,193,200950,1,0,0:2:0:0:
141,286,201112,6,0,L|147:197,1,80,2|0,1:2|0:2,0:2:0:0:
260,305,201437,2,0,L|254:384,1,80,2|0,1:2|0:2,0:2:0:0:
373,293,201761,2,0,L|379:204,1,80,2|0,1:2|0:2,0:2:0:0:
456,112,202085,6,0,P|493:151|484:263,1,160,2|0,1:2|1:2,0:2:0:0:
491,252,202572,1,0,0:2:0:0:
378,213,202734,2,0,P|337:199|288:204,1,80,2|0,1:2|0:2,0:2:0:0:
326,341,203058,2,0,P|286:341|248:328,1,80,2|0,1:2|0:2,0:2:0:0:
159,222,203382,5,8,0:2:0:0:
157,202,203464,1,8,0:2:0:0:
155,182,203545,1,8,0:2:0:0:
153,162,203626,1,8,0:2:0:0:
151,142,203707,1,8,0:2:0:0:
149,122,203788,1,8,0:2:0:0:
164,101,203869,5,8,0:2:0:0:
160,126,203950,1,8,0:2:0:0:
157,154,204031,1,8,0:2:0:0:
155,182,204112,1,8,0:2:0:0:
152,209,204193,1,8,0:2:0:0:
149,239,204274,1,8,0:2:0:0:
168,249,204355,5,8,0:2:0:0:
164,209,204437,1,8,0:2:0:0:
159,169,204518,1,8,0:2:0:0:
156,131,204599,1,8,0:2:0:0:
152,91,204680,1,14,1:2:0:0:
10,359,205653,6,0,L|5:384,9,18.3333338928223,2|0|0|0|0|0|0|0|0|0,0:2|0:2|0:2|0:2|0:2|0:2|0:2|0:2|0:2|0:2,0:2:0:0:
10,359,205977,6,0,B|148:343|75:262|229:252,1,239.999992675781,4|8,1:1|0:2,0:2:0:0:
306,287,206464,1,0,0:2:0:0:
130,174,206626,2,0,P|105:116|120:48,1,119.999996337891,2|0,1:2|1:2,0:2:0:0:
306,287,206950,2,0,P|422:278|491:185,1,239.999992675781,10|0,0:2|1:2,0:2:0:0:
509,90,207437,1,0,1:2:0:0:
443,19,207599,1,8,1:2:0:0:
347,26,207761,1,0,1:3:0:0:
258,175,207923,6,0,B|201:202|201:202|146:185,1,119.999996337891,2|0,1:2|1:2,0:2:0:0:
68,23,208247,1,8,3:2:0:0:
68,23,208328,1,0,3:2:0:0:
68,23,208410,1,0,3:2:0:0:
68,23,208491,1,0,3:2:0:0:
68,23,208572,2,0,P|12:74|22:243,1,239.999992675781,2|8,1:2|0:0,0:0:0:0:
5,324,209058,1,0,0:0:0:0:
146,185,209220,2,0,L|277:165,1,119.999996337891,2|0,1:2|1:2,0:2:0:0:
288,357,209545,2,0,L|419:377,1,119.999996337891,10|0,0:2|0:2,0:2:0:0:
376,287,209788,5,8,0:0:0:0:
376,287,209869,2,0,P|484:276|511:159,1,239.999992675781,2|8,1:2|2:2,0:2:0:0:
472,57,210355,1,0,2:2:0:0:
250,173,210518,1,2,1:2:0:0:
414,203,210680,1,0,1:2:0:0:
261,20,210842,1,10,0:2:0:0:
152,242,211004,5,0,1:2:0:0:
152,242,211085,1,0,1:2:0:0:
152,242,211166,2,2,P|43:231|17:114,1,239.999992675781,6|8,1:1|0:2,0:1:0:0:
52,30,211653,1,2,0:2:0:0:
145,7,211815,1,0,1:2:0:0:
227,55,211977,1,0,1:2:0:0:
365,188,212139,6,0,B|423:199|423:199|490:157,1,119.999996337891,10|0,0:2|0:2,0:2:0:0:
346,373,212464,2,2,P|342:253|300:142,1,239.999992675781,2|8,1:1|0:2,0:1:0:0:
227,55,212950,1,2,0:2:0:0:
113,42,213112,1,0,1:2:0:0:
22,110,213274,1,0,1:2:0:0:
87,290,213437,5,0,3:2:0:0:
115,287,213518,1,0,3:2:0:0:
142,283,213599,1,0,3:2:0:0:
169,280,213680,1,0,3:2:0:0:
197,276,213761,2,2,B|269:273|269:273|293:305|293:305|380:321,1,179.999994506836,6|0,1:2|0:2,0:1:0:0:
433,335,214085,1,8,0:2:0:0:
311,173,214247,2,0,P|291:88|416:3,1,239.999992675781,2|0,0:2|0:2,0:2:0:0:
470,75,214734,5,10,0:1:0:0:
165,112,214896,1,8,0:2:0:0:
165,112,214977,1,8,0:2:0:0:
165,112,215058,1,6,1:1:0:0:
398,1,215220,1,0,1:2:0:0:
185,217,215382,1,10,0:1:0:0:
397,115,215545,5,8,2:2:0:0:
427,102,215626,1,8,2:1:0:0:
459,97,215707,1,8,2:1:0:0:
490,106,215788,1,8,2:1:0:0:
512,130,215869,5,8,0:3:0:0:
474,152,215950,1,8,0:3:0:0:
430,145,216031,1,8,0:3:0:0:
397,115,216112,1,8,0:3:0:0:
358,93,216193,1,8,0:3:0:0:
314,97,216274,1,8,0:3:0:0:
280,130,216355,6,0,B|224:231|323:247|277:363,1,239.999992675781,4|8,1:1|0:2,0:2:0:0:
41,216,216842,1,0,0:2:0:0:
3,320,217004,2,0,B|62:328|62:328|114:299,1,119.999996337891,2|0,1:2|1:2,0:2:0:0:
392,154,217328,2,0,B|309:123|309:123|288:77|288:77|193:44,1,239.999992675781,10|0,0:2|1:2,0:2:0:0:
86,17,217815,1,0,1:2:0:0:
5,88,217977,1,8,1:2:0:0:
28,193,218139,1,0,1:2:0:0:
211,292,218301,6,0,B|223:248|223:248|217:225|217:225|233:158,1,119.999996337891,2|0,1:2|1:2,0:2:0:0:
367,39,218626,1,10,0:2:0:0:
458,108,218788,1,8,0:2:0:0:
458,108,218869,1,8,0:2:0:0:
458,108,218950,2,0,P|489:211|453:348,1,239.999992675781,0|8,1:2|0:2,0:2:0:0:
374,382,219437,1,0,0:0:0:0:
230,195,219599,1,2,1:2:0:0:
258,311,219761,1,0,1:2:0:0:
375,285,219923,1,10,0:2:0:0:
347,164,220085,5,8,0:2:0:0:
347,164,220166,1,8,0:2:0:0:
347,164,220247,2,0,B|331:132|331:132|337:98|337:98|319:51,1,119.999996337891,2|0,1:2|1:2,0:2:0:0:
64,184,220572,2,0,P|41:82|87:21,1,179.999994506836,10|0,0:2|0:2,0:2:0:0:
113,8,220896,1,0,1:2:0:0:
162,203,221058,1,0,1:2:0:0:
347,164,221220,1,10,0:2:0:0:
242,260,221382,5,8,0:2:0:0:
242,260,221464,1,8,0:2:0:0:
242,260,221545,2,0,B|154:246|154:246|107:284|107:284|18:267,1,239.999992675781,6|8,1:2|0:2,0:2:0:0:
142,384,222031,1,2,0:2:0:0:
71,155,222193,1,0,1:2:0:0:
251,63,222355,1,0,1:2:0:0:
321,291,222518,1,10,0:2:0:0:
472,337,222680,5,8,0:2:0:0:
472,337,222761,1,8,0:2:0:0:
472,337,222842,2,0,B|521:307|521:307|532:204|488:122,1,239.999992675781,2|0,1:2|1:2,0:2:0:0:
428,52,223328,1,2,0:2:0:0:
287,244,223491,1,0,1:2:0:0:
329,7,223653,1,0,1:2:0:0:
406,236,223815,1,10,0:2:0:0:
329,7,223977,1,0,0:2:0:0:
177,205,224139,6,0,P|76:230|8:119,1,239.999992675781,2|8,1:2|0:2,0:2:0:0:
27,36,224626,1,0,0:2:0:0:
229,125,224788,1,2,1:2:0:0:
272,12,224950,1,0,1:2:0:0:
431,128,225112,6,0,P|455:84|438:-11,1,119.999996337891,10|0,0:2|0:0,0:2:0:0:
160,238,225437,2,0,P|120:193|109:135,1,119.999996337891,0|0,1:2|0:0,0:0:0:0:
431,267,225761,2,0,P|481:237|511:186,1,119.999996337891,8|0,0:2|0:2,0:0:0:0:
317,0,226085,5,8,2:2:0:0:
332,44,226166,1,8,2:2:0:0:
302,81,226247,1,8,2:2:0:0:
323,123,226328,1,8,2:2:0:0:
292,160,226410,1,8,2:2:0:0:
308,204,226491,1,8,2:2:0:0:
278,241,226572,1,8,2:2:0:0:
296,285,226653,1,8,2:2:0:0:
278,325,226734,6,0,P|207:346|148:282,1,165.000005035401,6|0,1:2|0:2,0:2:0:0:
135,277,227058,2,0,B|159:212|159:212|143:157|143:157|183:52,1,220.000006713867,8|0,0:2|1:2,0:2:0:0:
235,158,227545,1,0,1:2:0:0:
313,198,227707,1,8,1:2:0:0:
397,172,227869,1,0,1:2:0:0:
460,29,228031,5,2,1:2:0:0:
509,101,228193,2,0,B|530:152|530:152|510:211,1,110.000003356934,0|8,1:2|0:2,0:2:0:0:
334,325,228518,2,0,B|321:290|321:290|326:265|326:265|309:209,1,110.000003356934,2|0,0:2|1:2,0:2:0:0:
160,117,228842,1,2,1:2:0:0:
160,117,228923,1,0,1:2:0:0:
160,117,229004,2,0,P|90:184|111:300,1,220.000006713867,8|0,0:2|1:2,0:2:0:0:
169,360,229491,1,0,0:2:0:0:
312,219,229653,6,0,B|355:209|355:209|376:218|376:218|431:210,1,110.000003356934,10|0,0:2|0:2,0:2:0:0:
423,305,229977,1,2,1:2:0:0:
512,197,230139,1,0,1:2:0:0:
404,108,230301,2,0,B|348:99|348:99|312:116|312:116|243:104,1,165.000005035401,10|0,0:2|0:2,0:2:0:0:
225,101,230626,5,2,1:2:0:0:
100,128,230788,2,0,B|90:77|90:77|123:20,1,110.000003356934,0|8,1:2|0:2,0:2:0:0:
236,200,231112,1,2,3:2:0:0:
236,200,231193,1,0,3:2:0:0:
236,200,231274,1,0,1:0:0:0:
53,224,231437,1,0,1:0:0:0:
299,292,231599,1,8,0:2:0:0:
46,345,231761,1,8,0:2:0:0:
177,384,231923,6,0,B|184:302|128:317|149:217,1,165.000005035401,6|0,1:2|0:2,0:2:0:0:
160,210,232247,2,0,B|213:159|180:68|180:68|243:4,1,220.000006713867,12|0,0:1|1:2,0:2:0:0:
274,166,232734,1,0,1:2:0:0:
348,212,232896,1,8,1:2:0:0:
435,200,233058,1,0,1:2:0:0:
512,54,233220,5,2,1:2:0:0:
421,103,233382,2,0,L|296:83,1,110.000003356934,0|8,1:2|0:2,0:2:0:0:
405,280,233707,2,0,P|416:325|393:391,1,110.000003356934,2|0,0:2|1:2,0:2:0:0:
201,254,234031,1,2,1:2:0:0:
201,254,234112,1,0,1:2:0:0:
201,254,234193,2,0,B|159:157|222:156|178:38,1,220.000006713867,8|0,0:2|1:2,0:2:0:0:
104,9,234680,1,0,0:2:0:0:
283,191,234842,6,0,P|341:187|391:136,1,110.000003356934,10|0,0:2|0:2,0:2:0:0:
426,329,235166,2,0,P|482:345|519:406,1,110.000003356934,2|0,1:2|1:2,0:2:0:0:
380,156,235491,2,0,P|402:106|393:53,1,110.000003356934,10|0,0:2|0:2,0:2:0:0:
238,0,235815,5,6,1:1:0:0:
117,169,235977,1,0,1:2:0:0:
117,169,236058,1,0,1:2:0:0:
117,169,236139,1,12,2:2:0:0:
339,250,236301,2,0,B|383:244|383:244|401:255|401:255|447:251,1,110.000003356934,2|12,1:1|0:2,0:2:0:0:
123,358,236626,2,0,B|78:352|78:352|60:363|60:363|14:359,1,110.000003356934,2|8,1:1|0:2,0:0:0:0:
319,242,236950,5,8,0:2:0:0:
319,242,237031,1,8,0:2:0:0:
319,242,237112,2,0,P|354:168|326:82,1,165.000005035401,6|0,1:2|0:2,0:2:0:0:
313,70,237437,2,0,B|187:21|232:122|88:68,1,220.000006713867,8|0,0:2|1:2,0:2:0:0:
21,36,237923,1,0,1:2:0:0:
30,123,238085,1,8,1:2:0:0:
102,73,238247,1,0,1:2:0:0:
257,141,238410,5,2,1:2:0:0:
296,241,238572,2,0,P|303:299|284:345,1,110.000003356934,0|8,1:2|0:2,0:2:0:0:
417,174,238896,2,0,L|537:153,1,110.000003356934,2|0,0:2|1:2,0:2:0:0:
306,62,239220,1,2,1:2:0:0:
306,62,239301,1,0,1:2:0:0:
306,62,239382,2,0,B|225:49|225:49|188:79|188:79|84:62,1,220.000006713867,8|0,0:2|1:2,0:2:0:0:
22,20,239869,1,0,0:2:0:0:
176,108,240031,6,0,P|200:165|185:222,1,110.000003356934,10|0,0:2|0:2,0:2:0:0:
83,313,240355,1,2,1:2:0:0:
83,313,240518,1,0,1:2:0:0:
231,369,240680,2,0,B|308:384|308:384|418:337,1,165.000005035401,10|0,0:2|0:2,0:2:0:0:
413,332,241004,5,2,1:2:0:0:
273,176,241166,2,0,P|249:225|257:278,1,110.000003356934,0|8,1:2|0:2,0:2:0:0:
462,144,241491,2,0,P|501:181|512:234,1,110.000003356934,2|0,0:0|1:0,0:0:0:0:
170,134,241815,5,8,1:0:0:0:
170,134,241896,1,8,1:0:0:0:
170,134,241977,2,0,P|162:112|166:89,3,37.5000014305115,8|8|8|8,0:3|0:3|0:3|0:3,0:0:0:0:
181,17,242301,5,14,0:0:0:0:
273,176,242464,1,0,1:0:0:0:
22,109,242626,1,8,0:0:0:0:
114,268,242788,1,0,1:0:0:0:
259,77,242950,5,10,0:0:0:0:
212,254,243112,1,0,1:0:0:0:
82,30,243274,1,8,0:0:0:0:
35,207,243437,1,0,1:0:0:0:
316,165,243599,5,10,1:2:0:0:
374,238,243761,2,0,B|436:254|436:254|502:213,1,129.999994049073,2|8,1:2|0:0,0:0:0:0:
198,356,244085,2,0,B|136:372|136:372|70:331,1,129.999994049073,2|8,1:2|2:2,2:0:0:0:
323,172,244410,5,2,1:2:0:0:
323,172,244491,1,0,1:0:0:0:
323,172,244572,2,0,P|346:122|324:40,1,129.999994049073,8|0,0:0|1:0,0:0:0:0:
34,208,244896,2,0,P|-2:155|0:91,1,129.999994049073,8|0,0:0|1:0,0:0:0:0:
180,0,245220,5,10,0:0:0:0:
122,177,245382,1,0,1:1:0:0:
273,288,245545,5,10,0:0:0:0:
190,100,245707,1,0,1:1:0:0:
366,0,245869,5,10,0:0:0:0:
254,185,246031,1,0,1:1:0:0:
435,323,246193,5,14,0:0:0:0:
331,105,246355,2,0,L|466:80,1,129.999994049073,2|8,1:2|0:0,0:0:0:0:
281,295,246680,5,2,1:2:0:0:
281,295,246761,1,0,1:0:0:0:
281,295,246842,2,0,L|330:285,1,50,8|8,0:0|0:0,0:0:0:0:
153,175,247004,5,10,0:0:0:0:
153,175,247085,1,8,0:0:0:0:
153,175,247166,2,0,L|202:165,1,50,8|8,0:3|0:3,0:0:0:0:
56,299,247328,6,0,L|105:289,1,50,4|4,0:3|0:3,0:0:0:0:
245,74,247815,6,0,B|203:6|118:16|61:79|70:164|118:227|167:268|243:260|317:360|317:360|369:246|445:238|485:189|518:117|509:32|438:-19|355:-9|325:67,1,1080.00002636719,6|4,1:2|0:0,0:0:0:0:
