osu file format v14

[General]
AudioFilename: audio.mp3
AudioLeadIn: 0
PreviewTime: 63137
Countdown: 1
SampleSet: Soft
StackLeniency: 0.7
Mode: 0
LetterboxInBreaks: 0
WidescreenStoryboard: 1

[Editor]
DistanceSpacing: 0.4
BeatDivisor: 4
GridSize: 32
TimelineZoom: 1.8

[Metadata]
Title:M'aider
TitleUnicode:M'aider
Artist:FROZEN QUALIA
ArtistUnicode:FROZEN QUALIA
Creator:Hishiro Chizuru
Version:AIR's Insane
Source:
Tags:amb1d3x AIR Garden lasse yumeno yuki brasse 夢乃ゆき japanese pop maider kazuki
BeatmapID:2696257
BeatmapSetID:1296276

[Difficulty]
HPDrainRate:5
CircleSize:4.5
OverallDifficulty:7.5
ApproachRate:9
SliderMultiplier:1.8
SliderTickRate:1

[Events]
//Background and Video events
0,0,"4house.jpg",0,0
//Break Periods
2,84231,88296
//Storyboard Layer 0 (Background)
//Storyboard Layer 1 (Fail)
//Storyboard Layer 2 (Pass)
//Storyboard Layer 3 (Foreground)
//Storyboard Layer 4 (Overlay)
//Storyboard Sound Samples

[TimingPoints]
1021,648.648648648649,4,2,69,50,1,0
1021,-100,4,2,69,50,0,0
4912,-100,4,2,69,50,0,0
5561,-100,4,2,69,50,0,0
6194,-83.3333333333333,4,2,69,50,0,0
7491,-71.4285714285714,4,2,69,50,0,0
8804,641.025641025641,4,2,69,50,1,0
8804,-166.666666666667,4,2,69,50,0,0
10086,324.324324324324,4,2,69,60,1,0
10734,-133.333333333333,4,2,69,70,0,0
11383,324.324324324324,4,2,69,75,1,0
11383,-100,4,2,69,75,0,0
21599,-100,4,2,69,75,0,0
22079,-100,4,2,69,65,0,0
22085,-153.846153846153,4,2,69,65,0,0
32133,-153.846153846153,4,2,69,70,0,0
32139,-111.111111111111,4,2,69,70,0,0
41220,-111.111111111111,4,2,69,70,0,0
42031,-111.111111111111,4,2,69,70,0,0
42193,-200,4,2,69,70,0,0
42355,-200,4,2,69,70,0,0
42518,-125,4,2,69,70,0,0
52328,-125,4,2,69,5,0,0
52572,-125,4,2,69,70,0,0
52653,-125,4,2,69,5,0,0
52896,-166.666666666667,4,2,69,70,0,0
55491,-166.666666666667,4,2,69,70,0,0
57761,-166.666666666667,4,2,69,70,0,0
58079,-166.666666666667,4,2,69,75,0,0
58085,-111.111111111111,4,2,69,75,0,0
60680,-111.111111111111,4,2,69,75,0,0
63268,-111.111111111111,4,2,69,85,0,0
63274,-100,4,2,69,85,0,0
63355,-100,4,2,69,85,0,0
73653,-100,4,2,69,85,0,0
73734,-100,4,2,69,85,0,0
84032,-100,4,2,69,80,0,0
94410,-166.666666666667,4,2,69,80,0,0
94734,-166.666666666667,4,2,69,60,0,0
96349,-166.666666666667,4,2,69,60,0,0
96997,-166.666666666667,4,2,69,65,0,0
97004,-133.333333333333,4,2,69,65,0,0
103004,-133.333333333333,4,2,69,65,0,0
103166,-133.333333333333,4,2,69,65,0,0
103328,-133.333333333333,4,2,69,65,0,0
103491,-133.333333333333,4,2,69,65,0,0
104781,-133.333333333333,4,2,69,70,0,0
104788,-111.111111111111,4,2,69,70,0,0
115167,-133.333333333333,4,2,69,70,0,0
125538,-133.333333333333,4,2,69,75,0,0
125545,-90.9090909090909,4,2,69,75,0,0
129437,-90.9090909090909,4,2,69,75,0,0
130410,-90.9090909090909,4,2,69,75,0,0
130518,-90.9090909090909,4,2,69,75,0,0
130626,-90.9090909090909,4,2,69,75,0,0
130727,-90.9090909090909,4,2,69,60,0,0
130734,-133.333333333333,4,2,69,60,0,0
133004,-133.333333333333,4,2,69,60,0,0
133328,-100,4,2,69,75,0,0
135916,-100,4,2,69,85,0,0
135923,-90.9090909090909,4,2,69,85,0,0
136004,-90.9090909090909,4,2,69,85,0,0
146301,-90.9090909090909,4,2,69,85,0,0
146382,-90.9090909090909,4,2,69,85,0,0
156031,-90.9090909090909,4,2,69,85,0,0
156193,-90.9090909090909,4,2,69,85,0,0
156355,-90.9090909090909,4,2,69,85,0,0
156518,-90.9090909090909,4,2,69,85,0,0
156673,-90.9090909090909,4,2,69,70,0,0
156680,-133.333333333333,4,2,69,70,0,0
157004,-133.333333333333,4,2,69,70,0,0
166247,-133.333333333333,4,2,69,70,0,0
166727,-133.333333333333,4,2,69,80,0,0
166734,-100,4,2,69,80,0,0
167058,-90.9090909090909,4,2,69,80,0,0
172247,-90.9090909090909,4,2,69,80,0,0
173545,-83.3333333333333,4,2,69,80,0,0
174842,-100,4,2,69,80,0,0
175815,-100,4,2,69,80,0,0
176139,-100,4,2,69,80,0,0
177430,-100,4,2,69,75,0,0
177437,-83.3333333333333,4,2,69,75,0,0
178410,-125,4,2,69,75,0,0
178572,-125,4,2,69,75,0,0
179058,-90.9090909090909,4,2,69,75,0,0
180031,-76.9230769230769,4,2,69,75,0,0
181004,-114.942528735632,4,2,69,75,0,0
181166,-114.942528735632,4,2,69,75,0,0
181653,-90.9090909090909,4,2,69,75,0,0
182626,-83.3333333333333,4,2,69,75,0,0
183599,-125,4,2,69,75,0,0
183761,-125,4,2,69,75,0,0
184247,-90.9090909090909,4,2,69,75,0,0
184896,-90.9090909090909,4,2,69,75,0,0
185220,-71.4285714285714,4,2,69,75,0,0
186193,-666.666666666667,4,2,69,75,0,0
187734,-357.142857142857,4,2,69,40,0,0
187815,-166.666666666667,4,2,69,40,0,0
197538,-166.666666666667,4,2,69,45,0,0
198187,-166.666666666667,4,2,69,55,0,0
198193,-100,4,2,69,55,0,0
203382,-100,4,2,69,65,0,0
205646,-100,4,2,69,70,0,0
205653,-90.9090909090908,4,2,69,70,0,0
205680,-90.9090909090908,4,2,69,70,0,0
205970,-90.9090909090908,4,2,69,85,0,0
205977,-83.3333333333333,4,2,69,85,0,0
206058,-83.3333333333333,4,2,69,85,0,0
206302,-83.3333333333333,4,2,69,85,0,0
216355,-83.3333333333333,4,2,69,85,0,0
216437,-83.3333333333333,4,2,69,85,0,0
226734,-90.9090909090909,4,2,69,80,0,0
241815,-133.333333333333,4,2,69,80,0,0
242301,-76.9230769230769,4,2,69,80,0,0
246680,-100,4,2,69,80,0,0
247004,-100,4,2,69,80,0,0
247328,-100,4,2,69,80,0,0
247815,-277.777777777778,4,2,69,80,0,0
247896,-277.777777777778,4,2,69,80,0,0
252518,-277.777777777778,4,2,69,35,0,0
252680,-277.777777777778,4,2,69,35,0,0

[Colours]
Combo1 : 250,180,240
Combo2 : 120,200,230
Combo3 : 255,230,130
Combo4 : 160,230,150

[HitObjects]
92,255,1021,5,2,0:0:0:0:
92,255,1345,2,0,L|22:261,1,45
200,207,1669,2,0,L|130:213,1,45,2|0,0:0|0:0,0:0:0:0:
310,158,1993,2,0,L|240:164,1,45,2|0,0:0|0:0,0:0:0:0:
378,112,2318,1,0,0:0:0:0:
464,74,2642,1,0,0:0:0:0:
378,112,2966,2,0,B|486:85|486:85|454:69,1,135,2|0,0:0|0:0,0:0:0:0:
462,180,3615,6,0,P|481:198|493:234,1,45,2|0,0:0|0:0,0:0:0:0:
417,248,3939,2,0,P|422:273|398:312,1,45,2|0,0:0|0:0,0:0:0:0:
339,270,4264,2,0,P|325:296|289:298,1,45,2|0,0:0|0:0,0:0:0:0:
265,233,4588,1,2,0:0:0:0:
302,160,4750,1,0,0:0:0:0:
217,165,4912,1,2,0:0:0:0:
138,147,5075,1,0,0:0:0:0:
138,147,5237,2,0,L|157:70,1,45,2|0,0:0|0:0,0:0:0:0:
77,73,5561,2,0,L|92:21,1,45,2|0,0:0|0:0,0:0:0:0:
7,17,5885,1,2,0:0:0:0:
197,344,6210,6,0,L|76:369,1,107.999996704102,2|0,0:0|0:0,0:0:0:0:
84,357,6696,2,0,P|40:318|66:281,1,107.999996704102,2|0,0:0|0:0,0:0:0:0:
138,220,7183,1,2,0:0:0:0:
193,163,7345,1,0,0:0:0:0:
186,84,7507,2,0,L|310:108,1,125.999996154785,2|0,0:0|0:0,0:0:0:0:
324,108,7993,2,0,P|375:54|352:9,1,125.999996154785,2|0,0:0|0:0,0:0:0:0:
458,84,8480,1,2,0:0:0:0:
470,80,8561,1,0,0:0:0:0:
475,70,8642,1,0,0:0:0:0:
476,58,8723,1,0,0:0:0:0:
469,48,8804,6,0,P|454:78|506:254,1,215.999993408203,2|2,0:0|0:0,0:0:0:0:
14,103,10734,1,8,0:0:0:0:
14,103,10815,1,0,1:0:0:0:
14,103,10896,1,0,1:0:0:0:
14,103,10977,1,0,1:0:0:0:
14,103,11058,2,0,L|61:125,1,33.7500012874604,0|0,1:0|1:0,0:0:0:0:
129,135,11221,2,0,L|176:157,1,33.7500012874604,0|0,1:0|1:0,0:0:0:0:
255,174,11383,6,0,B|269:182|269:182|253:306,1,135,6|0,1:0|0:0,0:0:0:0:
247,313,11707,2,0,L|157:368,1,90,8|0,0:0|0:0,0:0:0:0:
348,306,12031,2,0,L|446:329,1,90,2|0,1:0|1:0,0:0:0:0:
267,164,12355,2,0,L|140:127,1,90,8|0,0:0|0:0,0:0:0:0:
373,98,12680,1,2,1:0:0:0:
455,36,12842,2,0,B|510:24|510:24|474:15,1,90,2|8,1:0|0:0,0:0:0:0:
425,168,13166,2,0,L|404:274,1,90,2|0,0:0|1:0,0:0:0:0:
373,98,13491,1,2,1:0:0:0:
402,247,13653,2,0,L|509:158,1,135,8|0,0:0|0:0,0:0:0:0:
503,148,13977,6,0,P|468:126|458:170,1,90,2|0,1:0|0:0,0:0:0:0:
288,304,14301,2,0,P|263:317|220:273,1,90,10|0,0:0|0:0,0:0:0:0:
89,136,14626,2,0,L|-8:120,1,90,2|0,1:0|1:0,0:0:0:0:
202,85,14950,2,0,B|210:39|210:39|169:82,1,90,10|0,0:0|0:0,0:0:0:0:
318,132,15274,1,2,1:0:0:0:
173,80,15437,2,0,L|183:180,1,90,2|8,1:0|0:0,0:0:0:0:
326,140,15761,2,0,L|341:251,1,90,2|0,0:0|1:0,0:0:0:0:
398,76,16085,1,2,1:0:0:0:
330,235,16247,2,0,P|268:247|252:219,1,90,8|8,0:0|0:0,0:0:0:0:
315,139,16491,1,8,0:0:0:0:
328,133,16572,6,0,L|462:175,1,135,6|0,1:0|0:0,0:0:0:0:
498,152,16896,2,0,B|518:110|518:110|458:138,1,90,12|0,0:0|0:0,0:0:0:0:
421,309,17220,2,0,L|427:205,1,90,2|0,1:0|1:0,0:0:0:0:
203,278,17545,2,0,P|234:316|217:380,1,90,8|0,0:0|0:0,0:0:0:0:
21,358,17869,1,2,1:0:0:0:
158,341,18031,2,0,L|98:275,1,90,2|8,1:0|0:0,0:0:0:0:
282,221,18355,2,0,L|226:122,1,90,2|0,0:0|1:0,0:0:0:0:
356,36,18680,1,2,1:0:0:0:
230,150,18842,2,0,P|172:125|195:56,1,135,8|0,0:0|0:0,0:0:0:0:
99,42,19166,6,0,L|10:8,1,90,2|0,1:0|0:0,0:0:0:0:
243,134,19491,2,0,L|327:166,1,90,10|0,0:0|0:0,0:0:0:0:
183,64,19815,2,0,B|227:33|227:33|182:33,1,90,2|0,1:0|1:0,0:0:0:0:
394,115,20139,2,0,L|413:222,1,90,10|0,0:0|0:0,0:0:0:0:
502,29,20464,1,14,0:0:0:0:
418,205,20626,1,2,1:0:0:0:
386,117,20788,1,8,0:0:0:0:
385,307,20950,1,2,1:0:0:0:
496,257,21112,1,8,0:0:0:0:
287,323,21274,1,2,1:0:0:0:
385,307,21437,1,8,0:0:0:0:
208,270,21599,1,2,1:0:0:0:
218,269,21680,1,0,1:0:0:0:
228,268,21761,6,0,L|82:256,1,135,12|0,0:0|0:0,0:0:0:0:
84,246,22085,6,0,L|12:246,1,58.4999973220826,2|2,3:2|0:0,0:0:0:0:
36,343,22410,2,0,P|7:339|1:310,1,58.4999973220826,2|0,3:2|0:0,0:0:0:0:
137,181,22734,1,2,3:2:0:0:
59,99,22896,2,0,B|81:74|76:28|76:28|46:72,1,116.999994644165,2|0,0:0|0:0,0:0:0:0:
165,56,23382,2,0,P|196:37|193:15,1,58.4999973220826,2|0,3:2|0:0,0:0:0:0:
281,58,23707,2,0,L|297:132,1,58.4999973220826,2|0,3:2|0:0,0:0:0:0:
394,127,24031,2,0,L|410:189,1,58.4999973220826,2|0,3:2|3:0,0:0:0:0:
441,191,24274,1,0,3:0:0:0:
467,190,24355,6,0,L|496:251,1,58.4999973220826,2|0,3:2|0:0,0:0:0:0:
433,316,24680,1,2,3:2:0:0:
327,279,24842,2,0,P|303:302|333:322,2,58.4999973220826,2|0|0,0:0|3:0|0:0,0:0:0:0:
433,316,25328,2,0,L|407:379,1,58.4999973220826,0|0,3:0|0:0,0:0:0:0:
323,321,25653,1,2,3:2:0:0:
366,212,25815,1,0,0:0:0:0:
245,238,25977,1,2,3:2:0:0:
194,301,26139,1,2,0:0:0:0:
165,227,26301,1,0,3:0:0:0:
248,243,26464,1,0,0:0:0:0:
188,305,26626,2,0,L|140:309,1,29.2499986610413,2|0,3:2|3:0,0:0:0:0:
115,323,26788,2,0,L|70:326,1,29.2499986610413,2|0,3:2|3:0,0:0:0:0:
29,341,26950,6,0,L|10:211,1,116.999994644165,2|2,3:2|3:2,0:0:0:0:
130,78,27437,2,0,P|154:125|103:147,1,116.999994644165,2|0,0:0|0:0,0:0:0:0:
57,61,27923,1,2,3:2:0:0:
234,32,28085,1,2,0:0:0:0:
314,78,28247,2,0,L|439:63,1,116.999994644165,2|2,3:2|3:2,0:0:0:0:
421,172,28734,2,0,P|389:216|439:272,1,116.999994644165,2|0,0:0|0:0,0:0:0:0:
498,272,29220,1,2,3:2:0:0:
501,172,29382,1,0,3:0:0:0:
501,172,29464,1,0,3:0:0:0:
501,172,29545,5,2,3:2:0:0:
421,172,29707,1,0,0:0:0:0:
416,265,29869,1,0,3:0:0:0:
300,184,30031,2,0,B|284:309,1,116.999994644165,2|0,0:0|0:0,0:0:0:0:
215,225,30518,1,0,3:0:0:0:
363,218,30680,1,0,0:0:0:0:
152,182,30842,5,2,3:2:0:0:
192,312,31004,1,0,0:0:0:0:
215,225,31166,1,2,3:2:0:0:
124,257,31328,1,0,0:0:0:0:
192,312,31491,1,2,3:2:0:0:
209,314,31572,1,0,3:0:0:0:
226,316,31653,1,0,3:0:0:0:
243,318,31734,1,0,3:0:0:0:
260,320,31815,1,2,1:0:0:0:
426,49,32139,6,0,L|539:28,1,80.9999975280763,6|0,1:0|0:0,0:0:0:0:
365,83,32464,1,10,0:0:0:0:
258,51,32626,2,0,B|218:39|218:39|258:31,1,80.9999975280763,2|0,0:0|1:0,0:0:0:0:
365,83,32950,1,0,0:0:0:0:
241,154,33112,1,8,0:0:0:0:
241,154,33274,1,0,0:0:0:0:
145,105,33437,1,2,1:0:0:0:
321,166,33599,1,0,1:0:0:0:
206,235,33761,2,0,L|176:328,1,80.9999975280763,10|0,0:0|0:0,0:0:0:0:
258,371,34085,1,2,1:0:0:0:
370,276,34247,1,0,1:0:0:0:
350,349,34410,2,0,P|407:372|432:363,1,80.9999975280763,10|0,0:0|0:0,0:0:0:0:
370,276,34734,6,0,P|319:248|252:268,1,121.499996292114,2|0,1:0|0:0,0:0:0:0:
246,281,35058,1,8,0:0:0:0:
131,205,35220,2,0,L|100:117,1,80.9999975280763,2|0,0:0|1:0,0:0:0:0:
104,128,35545,1,0,1:0:0:0:
0,36,35707,2,0,P|61:49|70:79,1,80.9999975280763,10|0,0:0|0:0,0:0:0:0:
22,128,36031,1,2,1:0:0:0:
150,58,36193,1,0,1:0:0:0:
240,77,36355,1,8,0:0:0:0:
210,2,36518,1,2,0:0:0:0:
251,157,36680,1,0,1:0:0:0:
251,157,36842,1,0,1:0:0:0:
347,115,37004,2,0,P|403:90|410:49,1,80.9999975280763,10|0,0:0|0:0,0:0:0:0:
332,217,37328,6,0,L|318:306,1,80.9999975280763,2|0,1:0|0:0,0:0:0:0:
420,248,37653,1,10,0:0:0:0:
486,186,37815,2,0,B|509:128|509:128|398:176,1,161.999995056153,2|0,0:0|1:0,0:0:0:0:
420,248,38301,2,0,L|410:329,1,80.9999975280763,10|0,0:0|0:0,0:0:0:0:
253,325,38626,2,0,P|202:346|180:321,1,80.9999975280763,2|0,1:0|1:0,0:0:0:0:
59,245,38950,1,10,0:0:0:0:
141,275,39112,1,2,0:0:0:0:
6,308,39274,1,0,1:0:0:0:
6,308,39437,1,0,1:0:0:0:
122,184,39599,2,0,L|143:99,1,80.9999975280763,10|0,0:0|0:0,0:0:0:0:
61,47,39923,5,2,1:0:0:0:
6,108,40085,1,0,0:0:0:0:
147,104,40247,2,0,P|188:142|192:180,1,80.9999975280763,8|0,0:0|1:0,0:0:0:0:
186,174,40491,1,0,1:0:0:0:
172,180,40572,1,0,1:0:0:0:
316,78,40734,1,0,1:0:0:0:
320,195,40896,1,8,0:0:0:0:
395,22,41058,1,8,0:0:0:0:
246,47,41220,5,2,1:0:0:0:
316,78,41382,1,0,1:0:0:0:
480,30,41545,1,8,0:0:0:0:
395,22,41707,1,0,1:0:0:0:
505,128,41869,1,10,0:0:0:0:
418,109,42031,1,8,0:0:0:0:
418,109,42112,1,8,0:0:0:0:
418,109,42193,2,0,P|399:135|400:139,1,22.5,10|0,0:0|0:0,0:0:0:0:
412,213,42355,2,0,P|423:228|431:230,1,22.5,0|0,1:0|0:0,0:0:0:0:
511,236,42518,5,6,1:0:0:0:
511,236,42680,2,0,L|356:297,1,144,0|0,1:0|1:0,0:0:0:0:
260,180,43166,2,0,L|107:232,1,144,2|8,1:0|0:0,0:0:0:0:
6,73,43815,1,2,1:0:0:0:
83,50,43977,2,0,P|110:59|160:164,1,144,0|0,1:0|1:0,0:0:0:0:
290,201,44464,2,0,P|295:256|394:303,1,144,2|8,1:0|0:0,0:0:0:0:
75,377,45112,5,2,1:0:0:0:
168,326,45274,2,0,B|218:303|218:303|111:313,1,144,0|0,1:0|1:0,0:0:0:0:
253,191,45761,2,0,B|218:152|218:152|249:41,1,144,2|8,1:0|0:0,0:0:0:0:
505,363,46410,1,2,1:0:0:0:
428,305,46572,2,0,P|407:291|449:298,1,144,0|0,1:0|1:0,0:0:0:0:
503,121,47058,2,0,B|517:104|517:104|451:132|451:132|422:179,1,144,2|8,1:0|0:0,0:0:0:0:
439,188,47545,1,0,0:0:0:0:
460,191,47707,5,2,1:0:0:0:
364,127,47869,2,0,L|217:154,1,144,0|0,1:0|1:0,0:0:0:0:
141,98,48355,2,0,L|-28:129,1,144,2|8,1:0|0:0,0:0:0:0:
209,365,49004,1,2,1:0:0:0:
143,318,49166,2,0,L|298:358,1,144,0|0,1:0|1:0,0:0:0:0:
391,328,49653,2,0,P|407:323|510:387,1,144,2|8,1:0|0:0,0:0:0:0:
248,88,50301,5,2,1:0:0:0:
304,32,50464,2,0,L|149:84,1,144,0|0,1:0|1:0,0:0:0:0:
377,78,50950,2,0,P|445:77|494:16,1,144,2|8,1:0|0:0,0:0:0:0:
99,284,51599,1,2,1:0:0:0:
90,209,51761,2,0,L|60:380,1,144,0|0,1:0|1:0,0:0:0:0:
99,284,52247,2,0,L|146:285,1,36,10|0,0:0|0:0,0:0:0:0:
413,284,52572,2,0,L|366:285,1,36,10|0,0:0|0:0,0:0:0:0:
441,154,52896,6,0,P|481:167|484:146,2,53.9999983520508,6|0|0,1:0|0:0|1:0,0:0:0:0:
337,73,53382,1,0,0:0:0:0:
272,29,53545,2,0,L|210:17,1,53.9999983520508,0|0,1:0|0:0,0:0:0:0:
70,75,53869,2,0,P|31:65|27:46,1,53.9999983520508,2|0,1:0|0:0,0:0:0:0:
181,105,54193,1,2,1:0:0:0:
227,177,54355,1,0,0:0:0:0:
168,239,54518,1,0,1:0:0:0:
304,209,54680,1,0,0:0:0:0:
221,184,54842,1,0,1:0:0:0:
373,163,55004,1,0,0:0:0:0:
314,287,55166,2,0,L|309:365,1,53.9999983520508,2|0,1:0|0:0,0:0:0:0:
447,376,55491,5,2,1:0:0:0:
447,376,55653,1,0,0:0:0:0:
461,290,55815,2,0,L|497:231,1,53.9999983520508,0|0,1:0|0:0,0:0:0:0:
468,134,56139,2,0,P|481:102|465:72,1,53.9999983520508,0|0,1:0|0:0,0:0:0:0:
302,31,56464,1,2,1:0:0:0:
397,90,56626,1,0,0:0:0:0:
272,112,56788,2,0,L|216:140,1,53.9999983520508,2|0,1:0|0:0,0:0:0:0:
104,89,57112,2,0,L|35:127,1,53.9999983520508,0|0,1:0|0:0,0:0:0:0:
6,54,57437,1,0,1:0:0:0:
169,40,57599,1,0,0:0:0:0:
107,98,57761,2,0,L|48:168,1,80.9999975280763,8|0,0:0|1:0,0:0:0:0:
33,185,58085,6,0,P|15:230|18:269,1,80.9999975280763,4|0,1:0|0:0,0:0:0:0:
246,305,58410,2,0,P|262:279|225:290,1,80.9999975280763,10|0,0:0|0:0,0:0:0:0:
195,368,58734,1,2,1:0:0:0:
357,279,58896,1,0,1:0:0:0:
433,307,59058,2,0,L|515:286,1,80.9999975280763,10|0,0:0|0:0,0:0:0:0:
339,189,59382,2,0,B|271:178|271:178|292:176,1,80.9999975280763,2|0,1:0|0:0,0:0:0:0:
357,279,59707,1,10,0:0:0:0:
444,138,59869,2,0,L|477:52,1,80.9999975280763,2|0,0:0|1:0,0:0:0:0:
473,62,60193,1,0,1:0:0:0:
327,66,60355,1,10,0:0:0:0:
512,0,60518,1,10,0:0:0:0:
426,147,60680,6,0,L|411:260,1,80.9999975280763,14|0,0:0|1:0,0:0:0:0:
190,172,61004,1,10,0:0:0:0:
86,147,61166,2,0,L|101:260,1,80.9999975280763,2|8,1:0|0:0,0:0:0:0:
190,172,61491,1,0,1:0:0:0:
33,82,61653,2,0,B|-7:62|-7:62|41:60,1,80.9999975280763,10|0,0:0|1:0,0:0:0:0:
103,94,61896,1,0,1:0:0:0:
111,136,61977,6,0,P|130:184|111:270,1,121.499996292114,2|0,1:0|1:0,0:0:0:0:
207,269,62301,2,0,P|227:226|230:143,1,121.499996292114,8|0,0:0|1:0,0:0:0:0:
304,123,62626,1,8,0:0:0:0:
327,118,62707,1,0,1:0:0:0:
350,114,62788,1,0,1:0:0:0:
373,110,62869,1,0,1:0:0:0:
396,106,62950,1,8,0:0:0:0:
420,102,63031,1,0,1:0:0:0:
444,98,63112,1,0,1:0:0:0:
468,94,63193,1,0,1:0:0:0:
500,88,63274,6,0,L|357:73,1,135,6|0,1:0|0:0,0:0:0:0:
311,44,63599,2,0,L|212:28,1,90,10|0,0:0|0:0,0:0:0:0:
406,3,63923,1,2,1:0:0:0:
406,3,64085,1,0,1:0:0:0:
462,173,64247,2,0,P|487:220|484:269,1,90,10|0,0:0|0:0,0:0:0:0:
291,291,64572,2,0,P|292:321|260:296,1,90,0|0,1:0|1:0,0:0:0:0:
145,243,64896,2,0,L|42:224,1,90,10|0,0:0|0:0,0:0:0:0:
122,351,65220,2,0,B|85:381|85:381|101:339,1,90,2|0,1:0|1:0,0:0:0:0:
245,211,65545,2,0,L|334:173,1,90,10|0,0:0|0:0,0:0:0:0:
157,138,65869,5,6,1:0:0:0:
157,138,66031,1,0,0:0:0:0:
83,72,66193,2,0,L|149:-2,1,90,10|0,0:0|0:0,0:0:0:0:
312,70,66518,2,0,P|370:65|385:36,1,90,2|0,1:0|1:0,0:0:0:0:
464,191,66842,2,0,P|506:209|502:171,1,90,10|0,0:0|1:0,0:0:0:0:
306,262,67166,2,0,P|261:306|250:373,1,90,2|0,1:0|1:0,0:0:0:0:
86,239,67491,2,0,L|191:264,1,90,10|0,0:0|0:0,0:0:0:0:
25,316,67815,1,2,1:0:0:0:
25,316,67977,1,0,1:0:0:0:
184,167,68139,1,10,0:0:0:0:
95,111,68301,1,0,1:0:0:0:
101,113,68382,1,0,1:0:0:0:
108,115,68464,6,0,B|27:86|27:86|125:56,1,180,6|8,1:0|0:0,0:0:0:0:
221,96,68950,1,2,0:0:0:0:
313,56,69112,2,0,L|426:42,1,90,0|0,1:0|0:0,0:0:0:0:
485,188,69437,2,0,P|443:220|394:205,1,90,10|0,0:0|0:0,0:0:0:0:
186,280,69761,2,0,P|167:339|116:281,1,135,2|0,1:0|0:0,0:0:0:0:
96,312,70085,1,8,0:0:0:0:
257,248,70247,2,0,L|434:349,1,180,2|0,0:0|0:0,0:0:0:0:
250,220,70734,2,0,B|309:235|309:235|284:200,1,90,10|0,0:0|1:0,0:0:0:0:
408,100,71058,6,0,L|499:77,1,90,6|0,1:0|0:0,0:0:0:0:
359,156,71382,1,10,0:0:0:0:
499,69,71545,2,0,L|404:56,1,90,2|0,0:0|1:0,0:0:0:0:
512,0,71869,1,0,0:0:0:0:
403,54,72031,2,0,B|436:76|436:76|463:178,1,135,2|8,1:0|0:0,0:0:0:0:
468,180,72355,2,0,L|455:280,1,90,10|0,0:0|1:0,0:0:0:0:
248,219,72680,1,10,0:0:0:0:
240,228,72761,1,0,0:0:0:0:
229,229,72842,1,2,1:0:0:0:
218,224,72923,1,0,1:0:0:0:
212,213,73004,2,0,L|241:169,1,45,0|0,1:0|1:0,0:0:0:0:
322,147,73166,2,0,P|350:165|348:180,1,45,2|0,1:0|1:0,0:0:0:0:
364,254,73328,2,0,L|342:308,1,45,0|0,1:0|1:0,0:0:0:0:
270,327,73491,2,0,P|245:331|233:302,1,45,0|0,1:0|1:0,0:0:0:0:
142,277,73653,6,0,L|19:168,1,135,6|0,1:0|0:0,0:0:0:0:
36,128,73977,2,0,P|92:122|96:171,1,90,10|0,0:0|0:0,0:0:0:0:
235,85,74301,1,2,1:0:0:0:
235,85,74464,1,0,1:0:0:0:
311,35,74626,2,0,L|413:30,1,90,10|0,0:0|0:0,0:0:0:0:
445,183,74950,2,0,P|507:180|509:145,1,90,0|0,1:0|1:0,0:0:0:0:
366,286,75274,2,0,L|351:380,1,90,10|0,0:0|0:0,0:0:0:0:
229,281,75599,2,0,B|183:263|183:263|239:250,1,90,2|0,1:0|1:0,0:0:0:0:
310,185,75923,2,0,B|325:159|325:159|327:88,1,90,10|0,0:0|1:0,0:0:0:0:
234,170,76247,5,6,1:0:0:0:
234,170,76410,1,0,0:0:0:0:
411,81,76572,2,0,B|437:53|437:53|386:56,1,90,10|0,0:0|0:0,0:0:0:0:
191,85,76896,2,0,L|97:93,1,90,2|0,1:0|1:0,0:0:0:0:
84,244,77220,2,0,P|18:259|8:240,1,90,10|0,0:0|1:0,0:0:0:0:
177,279,77545,2,0,L|195:377,1,90,2|0,1:0|1:0,0:0:0:0:
286,294,77869,2,0,P|322:272|373:302,1,90,10|0,0:0|0:0,0:0:0:0:
487,328,78193,1,2,1:0:0:0:
487,328,78355,1,0,1:0:0:0:
335,373,78518,1,10,0:0:0:0:
438,233,78680,1,0,1:0:0:0:
431,237,78761,1,0,1:0:0:0:
423,243,78842,6,0,B|482:194|482:194|369:204,1,180,6|8,1:0|0:0,0:0:0:0:
256,168,79328,1,2,0:0:0:0:
149,96,79491,2,0,L|88:23,1,90,0|0,1:0|0:0,0:0:0:0:
88,174,79815,2,0,L|-1:130,1,90,2|0,1:0|0:0,0:0:0:0:
84,30,80139,6,0,L|212:126,1,135,2|0,1:0|0:0,0:0:0:0:
214,107,80464,1,8,0:0:0:0:
5,144,80626,2,0,L|178:232,1,180,2|0,0:0|0:0,0:0:0:0:
293,338,81112,2,0,P|346:347|353:313,1,90,10|0,0:0|0:0,0:0:0:0:
168,235,81437,2,0,L|75:274,1,90,2|0,1:0|0:0,0:0:0:0:
256,267,81761,1,0,1:0:0:0:
256,267,81923,1,0,0:0:0:0:
129,371,82085,2,0,P|192:349|193:311,1,90,2|0,1:0|0:0,0:0:0:0:
386,221,82410,2,0,L|417:82,1,135,10|0,0:0|0:0,0:0:0:0:
407,86,82734,6,0,L|441:196,1,90,0|0,1:0|0:0,0:0:0:0:
174,176,83058,2,0,P|164:170|184:162,3,45,8|0|0|0,0:0|0:0|0:0|0:0,0:0:0:0:
246,203,83382,1,10,0:0:0:0:
273,174,83464,1,0,1:0:0:0:
287,128,83545,1,0,1:0:0:0:
268,84,83626,1,0,1:0:0:0:
218,59,83707,1,0,1:0:0:0:
166,70,83788,1,0,1:0:0:0:
135,113,83869,1,2,1:0:0:0:
139,168,83950,1,0,1:0:0:0:
183,160,84031,1,6,1:0:0:0:
143,297,88896,5,8,0:0:0:0:
176,223,89058,1,8,0:0:0:0:
176,223,89139,1,8,0:0:0:0:
176,223,89220,2,0,L|270:267,1,90,6|0,1:0|0:0,0:0:0:0:
91,366,89545,2,0,L|-3:374,1,90,12|0,0:0|0:0,0:0:0:0:
143,297,89869,2,0,B|86:287|86:287|137:280,1,90,2|0,1:0|1:0,0:0:0:0:
289,195,90193,2,0,L|395:184,1,90,10|0,0:0|0:0,0:0:0:0:
495,107,90518,1,2,1:0:0:0:
426,45,90680,2,0,L|333:78,1,90,2|8,1:0|0:0,0:0:0:0:
385,194,91004,2,0,P|444:229|487:206,1,90,2|0,0:0|1:0,0:0:0:0:
283,189,91328,1,2,1:0:0:0:
227,113,91491,2,0,P|178:103|152:149,1,90,8|0,0:0|0:0,0:0:0:0:
206,19,91815,6,0,L|53:13,1,135,2|0,1:0|0:0,0:0:0:0:
51,15,92139,2,0,B|21:16|21:16|2:102,1,90,10|0,0:0|0:0,0:0:0:0:
0,209,92464,2,0,B|30:208|30:208|42:149,1,90,2|0,1:0|1:0,0:0:0:0:
207,224,92788,1,10,0:0:0:0:
132,280,92950,1,0,0:0:0:0:
244,127,93112,1,10,0:0:0:0:
301,324,93274,1,2,1:0:0:0:
125,283,93437,1,8,0:0:0:0:
207,224,93599,1,2,1:0:0:0:
373,264,93761,1,8,0:0:0:0:
235,375,93923,1,2,1:0:0:0:
84,280,94085,1,8,0:0:0:0:
219,296,94247,1,10,0:0:0:0:
219,296,94328,1,8,0:0:0:0:
219,296,94410,6,0,L|334:313,1,107.999996704102,4|2,1:0|0:0,0:0:0:0:
416,149,95058,2,0,P|469:151|489:99,1,107.999996704102,2|0,0:0|0:0,0:0:0:0:
479,113,95545,2,0,L|496:241,1,107.999996704102,2|0,0:0|0:0,0:0:0:0:
341,221,96031,2,0,P|298:237|297:264,1,53.9999983520508,2|0,0:0|0:0,0:0:0:0:
245,188,96355,2,0,P|202:204|201:231,1,53.9999983520508
146,157,96680,2,0,P|103:173|102:200,1,53.9999983520508,2|0,0:0|0:0,0:0:0:0:
13,117,97004,6,0,L|35:42,2,67.5000025749208,2|0|2,3:2|0:0|3:2,0:0:0:0:
111,181,97491,1,2,0:0:0:0:
66,250,97653,2,0,L|42:332,1,67.5000025749208,0|0,3:0|0:0,0:0:0:0:
199,170,97977,2,0,L|221:86,1,67.5000025749208,2|2,3:2|1:0,0:0:0:0:
290,217,98301,2,0,L|305:297,1,67.5000025749208,2|0,3:2|0:0,0:0:0:0:
398,310,98626,2,0,L|414:383,1,67.5000025749208,0|0,3:0|0:0,0:0:0:0:
496,274,98950,2,0,L|480:195,1,67.5000025749208,0|0,3:0|1:0,0:0:0:0:
501,85,99274,1,2,3:2:0:0:
501,85,99437,1,2,1:0:0:0:
421,123,99599,6,0,L|280:123,1,135.000005149842,2|2,3:2|3:2,0:0:0:0:
178,68,100085,2,0,B|115:50|115:50|203:20,1,135.000005149842,2|0,0:0|0:0,0:0:0:0:
277,21,100572,2,0,B|296:34|296:34|288:94,1,67.5000025749208,2|2,3:2|1:0,0:0:0:0:
215,191,100896,2,0,B|184:232|184:232|200:319,1,135.000005149842,2|2,3:2|3:2,0:0:0:0:
316,277,101382,2,0,B|384:251|384:251|312:236,1,135.000005149842,2|0,0:0|1:0,0:0:0:0:
192,325,101869,2,0,L|118:345,1,67.5000025749208,2|0,3:2|1:0,0:0:0:0:
18,290,102193,5,2,3:2:0:0:
62,210,102355,1,0,0:0:0:0:
5,142,102518,1,0,3:0:0:0:
100,100,102680,1,0,0:0:0:0:
74,211,102842,1,0,3:0:0:0:
118,311,103004,1,0,0:0:0:0:
15,302,103166,1,2,3:2:0:0:
87,204,103328,1,2,0:0:0:0:
15,133,103491,6,0,L|158:119,1,135.000005149842,2|2,0:0|0:0,0:0:0:0:
497,251,104139,2,0,L|354:265,1,135.000005149842,2|2,0:0|0:0,0:0:0:0:
257,87,104788,6,0,P|222:74|246:29,1,80.9999975280763,6|0,1:0|0:0,0:0:0:0:
324,126,105112,1,8,0:0:0:0:
267,212,105274,2,0,L|225:303,1,80.9999975280763,2|0,0:0|1:0,0:0:0:0:
203,163,105599,1,0,1:0:0:0:
90,139,105761,1,8,0:0:0:0:
90,139,105923,1,0,0:0:0:0:
23,44,106085,1,2,1:0:0:0:
153,100,106247,1,0,1:0:0:0:
48,211,106410,2,0,L|17:296,1,80.9999975280763,10|0,0:0|0:0,0:0:0:0:
74,363,106734,1,2,1:0:0:0:
238,305,106896,1,0,1:0:0:0:
361,285,107058,2,0,B|384:297|384:297|456:269,1,80.9999975280763,10|0,0:0|0:0,0:0:0:0:
495,141,107382,6,0,B|506:120|506:120|405:171,1,121.499996292114,2|0,1:0|0:0,0:0:0:0:
408,187,107707,1,8,0:0:0:0:
291,76,107869,2,0,L|186:57,1,80.9999975280763,2|0,0:0|1:0,0:0:0:0:
211,61,108193,1,0,1:0:0:0:
78,89,108355,2,0,P|26:98|12:69,1,80.9999975280763,10|0,0:0|0:0,0:0:0:0:
127,29,108680,1,2,1:0:0:0:
86,229,108842,1,0,1:0:0:0:
150,167,109004,1,8,0:0:0:0:
2,252,109166,1,2,0:0:0:0:
104,345,109328,1,0,1:0:0:0:
104,345,109491,1,0,1:0:0:0:
202,279,109653,6,0,L|224:379,1,80.9999975280763,10|0,0:0|0:0,0:0:0:0:
345,248,109977,2,0,B|357:208|357:208|318:237,1,80.9999975280763,2|0,1:0|0:0,0:0:0:0:
341,338,110301,1,8,0:0:0:0:
315,226,110464,2,0,L|423:98,1,161.999995056153,2|0,0:0|1:0,0:0:0:0:
254,93,110950,2,0,B|268:64|268:64|225:87,1,80.9999975280763,10|0,0:0|0:0,0:0:0:0:
416,92,111274,2,0,L|477:8,1,80.9999975280763,2|0,1:0|1:0,0:0:0:0:
338,89,111599,1,10,0:0:0:0:
149,120,111761,1,2,0:0:0:0:
234,191,111923,1,0,1:0:0:0:
234,191,112085,1,0,1:0:0:0:
70,132,112247,2,0,B|30:126|30:126|71:109,1,80.9999975280763,10|0,0:0|0:0,0:0:0:0:
151,31,112572,5,2,1:0:0:0:
90,216,112734,1,0,0:0:0:0:
158,288,112896,2,0,L|128:376,1,80.9999975280763,8|0,0:0|0:0,0:0:0:0:
131,364,113139,1,0,3:0:0:0:
131,364,113220,1,2,3:2:0:0:
257,245,113382,1,2,1:0:0:0:
150,285,113545,1,8,0:0:0:0:
346,237,113707,1,0,0:0:0:0:
219,117,113869,5,2,1:0:0:0:
257,245,114031,1,0,1:0:0:0:
439,287,114193,1,8,0:0:0:0:
349,238,114355,1,0,1:0:0:0:
359,335,114518,1,10,0:0:0:0:
439,287,114680,1,0,1:0:0:0:
447,284,114761,1,0,1:0:0:0:
456,279,114842,2,0,B|465:261|465:261|460:237,1,40.4999987640381,10|8,0:0|0:0,0:0:0:0:
360,329,115004,2,0,B|369:346|369:346|363:370,1,40.4999987640381,0|0,1:0|1:0,0:0:0:0:
290,306,115167,6,0,L|162:324,1,101.250003862381,6|0,1:0|0:0,1:0:0:0:
171,316,115491,1,10,0:0:0:0:
74,312,115653,1,0,1:0:0:0:
26,252,115815,2,0,P|18:235|56:212,1,67.5000025749208,0|0,0:0|1:0,0:0:0:0:
74,312,116139,2,0,B|83:328|83:328|69:382,1,67.5000025749208,10|0,0:0|0:0,0:0:0:0:
133,220,116464,2,0,L|208:208,1,67.5000025749208,2|0,1:0|0:0,0:0:0:0:
145,117,116788,2,0,B|109:111|109:111|126:141,1,67.5000025749208,8|0,0:0|1:0,0:0:0:0:
26,77,117112,2,0,L|14:1,1,67.5000025749208,0|0,0:0|1:0,0:0:0:0:
152,108,117437,2,0,L|223:106,1,67.5000025749208,10|0,0:0|0:0,0:0:0:0:
324,66,117761,6,0,P|357:75|361:40,1,67.5000025749208,2|0,1:0|0:0,0:0:0:0:
466,10,118085,1,8,0:0:0:0:
501,79,118247,2,0,B|505:94|505:94|487:159,1,67.5000025749208,2|0,1:0|0:0,0:0:0:0:
429,209,118572,1,0,1:0:0:0:
429,209,118734,2,0,B|438:225|438:225|434:289,1,67.5000025749208,10|0,0:0|0:0,0:0:0:0:
339,168,119058,1,2,1:0:0:0:
256,188,119220,2,0,L|174:201,1,67.5000025749208,0|8,0:0|0:0,0:0:0:0:
339,168,119545,1,0,1:0:0:0:
279,112,119707,2,0,P|258:98|206:122,1,67.5000025749208,0|0,0:0|1:0,0:0:0:0:
245,275,120031,2,0,P|286:268|296:240,1,67.5000025749208,10|2,0:0|0:0,0:0:0:0:
184,198,120355,6,0,L|87:202,1,67.5000025749208,2|0,1:0|0:0,0:0:0:0:
0,159,120680,1,10,0:0:0:0:
32,233,120842,2,0,P|87:224|67:152,1,135.000005149842,2|0,1:0|1:0,0:0:0:0:
146,282,121328,2,0,P|134:329|161:343,1,67.5000025749208,10|2,0:0|0:0,0:0:0:0:
297,303,121653,2,0,B|303:295|303:295|250:305|250:305|250:382,1,135.000005149842,2|10,1:0|0:0,0:0:0:0:
374,347,122139,1,2,1:0:0:0:
428,290,122301,2,0,B|442:299|442:299|505:293,1,67.5000025749208,0|0,0:0|1:0,0:0:0:0:
406,206,122626,2,0,B|399:200|399:200|335:200,1,67.5000025749208,10|0,0:0|0:0,0:0:0:0:
481,150,122950,6,0,L|506:38,1,101.250003862381,2|0,1:0|0:0,0:0:0:0:
493,51,123274,2,0,L|511:132,1,67.5000025749208,8|0,0:0|1:0,0:0:0:0:
400,30,123599,1,0,0:0:0:0:
400,30,123761,1,0,1:0:0:0:
300,65,123923,2,0,L|219:67,1,67.5000025749208,10|0,0:0|0:0,0:0:0:0:
106,93,124247,1,2,1:0:0:0:
37,48,124410,1,0,0:0:0:0:
177,116,124572,1,10,0:0:0:0:
107,183,124734,1,0,1:0:0:0:
106,93,124896,2,0,L|115:54,1,33.7500012874604,10|0,0:0|0:0,0:0:0:0:
406,93,125220,2,0,L|397:54,1,33.7500012874604,10|0,0:0|0:0,0:0:0:0:
460,157,125545,6,0,L|516:163,2,49.5000015106202,14|0|0,0:0|0:0|0:0,0:0:0:0:
308,226,125869,2,0,L|252:220,2,49.5000015106202,10|0|0,0:0|0:0|0:0,0:0:0:0:
412,322,126193,2,0,B|423:332|423:332|415:385,2,49.5000015106202,10|0|0,0:0|0:0|0:0,0:0:0:0:
205,319,126518,2,0,P|183:313|198:299,2,49.5000015106202,2|0|0,1:0|0:0|1:0,0:0:0:0:
82,247,126842,6,0,L|138:229,2,49.5000015106202,10|0|0,0:0|0:0|0:0,0:0:0:0:
0,197,127166,2,0,L|56:179,2,49.5000015106202,10|0|0,0:0|0:0|0:0,0:0:0:0:
0,303,127491,2,0,L|56:321,2,49.5000015106202,10|0|0,0:0|0:0|1:0,0:0:0:0:
144,214,127815,2,0,L|200:196,2,49.5000015106202,10|0|2,0:0|0:0|1:0,0:0:0:0:
274,79,128139,6,0,B|282:56|282:56|240:79,2,49.5000015106202,10|0|0,0:0|0:0|0:0,0:0:0:0:
174,67,128464,2,0,L|172:13,2,49.5000015106202,8|0|2,0:0|0:0|0:0,0:0:0:0:
364,71,128788,2,0,L|362:125,2,49.5000015106202,8|0|0,0:0|0:0|0:0,0:0:0:0:
458,40,129112,2,0,L|511:32,2,49.5000015106202,10|0|0,0:0|0:0|1:0,0:0:0:0:
326,198,129437,6,0,P|303:199|299:162,2,49.5000015106202,10|0|0,0:0|0:0|0:0,0:0:0:0:
429,237,129761,2,0,L|442:296,2,49.5000015106202,10|0|0,0:0|0:0|0:0,0:0:0:0:
83,237,130085,2,0,L|70:296,2,49.5000015106202,10|0|0,0:0|0:0|1:0,0:0:0:0:
186,198,130410,6,0,P|211:172|245:214,2,66.0000020141602,8|2|2,0:0|0:0|0:0,0:0:0:0:
245,194,130734,6,0,P|176:160|167:105,1,135.000005149842,2|0,0:0|0:0,0:0:0:0:
468,85,131382,1,2,0:0:0:0:
44,85,131707,1,2,0:0:0:0:
267,190,132031,6,0,P|336:224|345:279,1,135.000005149842,2|2,0:0|0:0,0:0:0:0:
247,302,132518,2,0,B|236:309|236:309|238:381,1,67.5000025749208
61,318,133004,1,2,0:0:0:0:
50,311,133085,1,2,0:0:0:0:
44,299,133166,1,2,0:0:0:0:
45,285,133247,1,0,0:0:0:0:
52,274,133328,5,2,1:0:0:0:
141,296,133491,1,0,1:0:0:0:
14,377,133653,1,2,1:0:0:0:
0,202,133815,1,2,1:0:0:0:
140,110,133977,1,0,1:0:0:0:
115,188,134139,1,0,1:0:0:0:
61,129,134301,1,2,1:0:0:0:
140,110,134464,1,0,1:0:0:0:
227,47,134626,6,0,L|378:60,1,135,6|0,1:0|1:0,0:0:0:0:
430,94,134950,2,0,B|461:154|461:154|405:215,1,135,8|0,0:0|1:0,0:0:0:0:
347,240,135274,1,8,0:0:0:0:
320,241,135355,1,0,1:0:0:0:
292,242,135437,1,0,1:0:0:0:
265,243,135518,1,0,1:0:0:0:
238,245,135599,1,8,0:0:0:0:
211,247,135680,1,0,1:0:0:0:
184,249,135761,1,0,1:0:0:0:
157,251,135842,1,0,1:0:0:0:
127,253,135923,6,0,P|59:228|89:137,1,148.50000453186,6|0,1:0|0:0,0:0:0:0:
119,150,136247,2,0,P|142:189|97:259,1,99.0000030212403,10|0,0:0|0:0,0:0:0:0:
6,98,136572,1,2,1:0:0:0:
6,98,136734,1,0,1:0:0:0:
123,40,136896,2,0,L|246:21,1,99.0000030212403,10|0,0:0|0:0,0:0:0:0:
392,108,137220,2,0,L|269:127,1,99.0000030212403,0|0,1:0|1:0,0:0:0:0:
476,60,137545,2,0,B|492:66|492:66|475:162,1,99.0000030212403,10|0,0:0|0:0,0:0:0:0:
289,130,137869,2,0,B|235:117|235:117|294:96,1,99.0000030212403,2|0,1:0|1:0,0:0:0:0:
378,253,138193,2,0,B|384:282|384:282|366:355,1,99.0000030212403,10|0,0:0|1:0,0:0:0:0:
465,276,138518,5,6,1:0:0:0:
465,276,138680,1,0,0:0:0:0:
362,355,138842,2,0,L|250:373,1,99.0000030212403,10|0,0:0|0:0,0:0:0:0:
145,273,139166,2,0,L|242:257,1,99.0000030212403,2|0,1:0|1:0,0:0:0:0:
55,328,139491,2,0,B|21:363|21:363|24:302,1,99.0000030212403,10|0,0:0|1:0,0:0:0:0:
244,262,139815,2,0,L|139:297,1,99.0000030212403,2|0,1:0|1:0,0:0:0:0:
276,148,140139,2,0,L|393:108,1,99.0000030212403,10|0,0:0|0:0,0:0:0:0:
208,103,140464,1,2,1:0:0:0:
208,103,140626,1,0,1:0:0:0:
110,114,140788,1,10,0:0:0:0:
17,38,140950,1,0,1:0:0:0:
27,39,141031,1,0,1:0:0:0:
36,40,141112,6,0,B|10:24|10:24|96:35|96:35|115:140,1,198.000006042481,6|8,1:0|0:0,0:0:0:0:
208,205,141599,1,2,0:0:0:0:
304,181,141761,2,0,B|325:175|325:175|315:268,1,99.0000030212403,0|0,1:0|0:0,0:0:0:0:
409,164,142085,2,0,B|456:146|456:146|408:122,1,99.0000030212403,10|0,0:0|0:0,0:0:0:0:
304,181,142410,2,0,L|367:329,1,148.50000453186,2|0,1:0|0:0,0:0:0:0:
383,328,142734,1,8,0:0:0:0:
412,124,142896,2,0,B|318:86|318:86|426:43,1,198.000006042481,2|0,0:0|1:0,0:0:0:0:
304,181,143382,2,0,L|196:196,1,99.0000030212403,10|0,0:0|1:0,0:0:0:0:
68,294,143707,6,0,P|2:272|-1:216,1,99.0000030212403,6|0,1:0|0:0,0:0:0:0:
156,337,144031,1,10,0:0:0:0:
205,194,144193,2,0,P|257:222|266:278,1,99.0000030212403,2|0,0:0|1:0,0:0:0:0:
156,337,144518,1,0,0:0:0:0:
268,257,144680,2,0,P|237:196|287:126,1,148.50000453186,2|8,1:0|0:0,0:0:0:0:
290,134,145004,2,0,P|328:200|297:248,1,99.0000030212403,10|0,0:0|1:0,0:0:0:0:
481,122,145328,1,10,0:0:0:0:
489,116,145410,1,0,0:0:0:0:
493,106,145491,1,2,1:0:0:0:
491,96,145572,1,0,1:0:0:0:
485,86,145653,2,0,L|442:55,1,49.5000015106202,0|0,1:0|1:0,0:0:0:0:
393,160,145815,2,0,L|452:175,1,49.5000015106202,2|0,1:0|1:0,0:0:0:0:
319,75,145977,2,0,L|256:49,1,49.5000015106202,0|0,1:0|1:0,0:0:0:0:
240,193,146139,2,0,L|297:199,1,49.5000015106202,0|0,1:0|1:0,0:0:0:0:
165,80,146301,6,0,B|140:54|140:54|16:84,1,148.50000453186,6|0,1:0|0:0,0:0:0:0:
0,126,146626,2,0,B|-15:166|-15:166|21:229,1,99.0000030212403,10|0,0:0|0:0,0:0:0:0:
7,8,146950,1,2,1:0:0:0:
7,8,147112,1,0,1:0:0:0:
8,130,147274,2,0,L|125:137,1,99.0000030212403,10|0,0:0|0:0,0:0:0:0:
138,295,147599,2,0,L|260:302,1,99.0000030212403,0|0,1:0|1:0,0:0:0:0:
374,295,147923,2,0,L|252:302,1,99.0000030212403,10|0,0:0|0:0,0:0:0:0:
504,130,148247,2,0,L|387:137,1,99.0000030212403,2|0,1:0|1:0,0:0:0:0:
461,235,148572,2,0,P|482:257|461:340,1,99.0000030212403,10|0,0:0|1:0,0:0:0:0:
385,373,148896,5,6,1:0:0:0:
385,373,149058,1,0,0:0:0:0:
264,219,149220,2,0,B|216:203|216:203|268:191,1,99.0000030212403,10|0,0:0|0:0,0:0:0:0:
310,116,149545,2,0,B|336:102|336:102|341:19,1,99.0000030212403,2|0,1:0|1:0,0:0:0:0:
299,114,149869,2,0,L|195:122,1,99.0000030212403,10|0,0:0|1:0,0:0:0:0:
34,68,150193,2,0,P|-5:80|12:35,1,99.0000030212403,2|0,1:0|1:0,0:0:0:0:
74,225,150518,2,0,P|99:270|101:337,1,99.0000030212403,10|0,0:0|0:0,0:0:0:0:
5,201,150842,1,2,1:0:0:0:
5,201,151004,1,0,1:0:0:0:
67,377,151166,1,10,0:0:0:0:
240,308,151328,1,0,1:0:0:0:
231,312,151410,1,0,1:0:0:0:
221,318,151491,6,0,B|204:300|204:300|286:320|286:320|373:385,1,198.000006042481,6|8,1:0|0:0,0:0:0:0:
489,265,151977,1,2,0:0:0:0:
366,370,152139,2,0,L|322:267,1,99.0000030212403,0|0,1:0|0:0,0:0:0:0:
242,182,152464,2,0,B|200:150|200:150|256:166,1,99.0000030212403,2|0,1:0|0:0,0:0:0:0:
474,223,152788,2,0,L|317:185,1,148.50000453186,2|0,1:0|0:0,0:0:0:0:
316,174,153112,1,8,0:0:0:0:
195,202,153274,2,0,B|100:132|100:132|195:147,1,198.000006042481,2|0,0:0|0:0,0:0:0:0:
381,96,153761,2,0,L|493:78,1,99.0000030212403,10|0,0:0|0:0,0:0:0:0:
329,211,154085,6,0,L|199:234,1,99.0000030212403,2|0,1:0|0:0,0:0:0:0:
87,310,154410,1,0,1:0:0:0:
87,310,154572,1,0,0:0:0:0:
16,204,154734,2,0,P|42:163|19:111,1,99.0000030212403,2|0,1:0|0:0,0:0:0:0:
231,18,155058,2,0,P|219:101|295:163,1,148.50000453186,10|0,0:0|0:0,0:0:0:0:
309,120,155382,2,0,P|317:61|285:18,1,99.0000030212403,0|0,1:0|0:0,0:0:0:0:
309,264,155707,2,0,P|317:323|285:366,1,99.0000030212403,8|0,0:0|0:0,0:0:0:0:
238,301,156031,1,10,0:0:0:0:
410,200,156193,1,0,1:0:0:0:
309,364,156355,1,0,1:0:0:0:
133,266,156518,1,2,1:0:0:0:
238,301,156680,6,0,L|394:321,1,135.000005149842,6|0,1:0|3:0,0:0:0:0:
499,296,157166,2,0,P|512:310|512:366,2,67.5000025749208,2|0|2,0:0|3:0|0:0,0:0:0:0:
385,207,157653,1,2,3:2:0:0:
351,137,157815,1,0,3:0:0:0:
351,137,157896,1,0,3:0:0:0:
351,137,157977,2,0,P|319:95|360:29,1,135.000005149842,2|0,1:0|3:0,0:0:0:0:
228,125,158464,2,0,L|201:196,1,67.5000025749208,2|0,0:0|0:0,0:0:0:0:
115,214,158788,1,0,0:0:0:0:
115,214,158950,2,0,L|82:293,1,67.5000025749208,2|0,3:2|0:0,0:0:0:0:
40,165,159274,6,0,P|14:172|-4:126,1,67.5000025749208,2|0,1:0|3:0,0:0:0:0:
204,188,159599,2,0,P|241:198|247:159,1,67.5000025749208,2|0,1:0|3:0,0:0:0:0:
429,174,159923,2,0,P|398:199|369:183,1,67.5000025749208,2|0,3:2|3:0,0:0:0:0:
368,87,160247,2,0,P|398:75|429:108,1,67.5000025749208,2|0,1:0|3:0,0:0:0:0:
273,104,160572,1,0,1:0:0:0:
201,32,160734,1,2,0:0:0:0:
357,83,160896,1,0,3:0:0:0:
256,199,161058,1,2,0:0:0:0:
273,115,161220,1,0,3:0:0:0:
146,211,161382,1,2,0:0:0:0:
282,280,161545,1,0,3:0:0:0:
256,199,161707,1,0,3:0:0:0:
245,195,161788,1,0,3:0:0:0:
235,190,161869,6,0,L|368:218,1,135.000005149842,2|2,1:0|3:2,0:0:0:0:
217,344,162355,2,0,P|172:367|150:360,1,67.5000025749208,2|0,0:0|3:0,0:0:0:0:
27,267,162680,1,2,0:0:0:0:
99,232,162842,2,0,L|170:248,1,67.5000025749208,2|0,3:2|0:0,0:0:0:0:
144,80,163166,2,0,L|-6:40,1,135.000005149842,2|0,1:0|3:0,0:0:0:0:
238,51,163653,2,0,P|283:50|305:24,1,67.5000025749208,2|0,0:0|3:0,0:0:0:0:
407,42,163977,1,0,0:0:0:0:
407,42,164139,2,0,P|452:41|474:15,1,67.5000025749208,2|0,3:2|0:0,0:0:0:0:
504,147,164464,6,0,L|492:266,1,101.250003862381,2|0,1:0|0:0,0:0:0:0:
452,271,164788,2,0,P|409:265|390:232,1,67.5000025749208,2|0,3:2|0:0,0:0:0:0:
202,184,165112,2,0,L|209:265,1,67.5000025749208,2|0,3:2|0:0,0:0:0:0:
60,271,165437,2,0,P|103:265|122:232,1,67.5000025749208,2|0,3:2|0:0,0:0:0:0:
118,240,165680,1,0,3:0:0:0:
110,231,165761,5,2,3:2:0:0:
11,198,165923,1,2,0:0:0:0:
131,346,166085,1,0,1:0:0:0:
216,250,166247,1,0,1:0:0:0:
20,196,166410,1,8,0:0:0:0:
296,212,166572,1,2,1:0:0:0:
216,250,166734,1,8,0:0:0:0:
189,248,166815,1,8,0:0:0:0:
174,225,166896,1,8,0:0:0:0:
179,198,166977,1,8,0:0:0:0:
205,185,167058,6,0,P|278:302|272:351,1,148.50000453186,14|0,0:0|0:0,0:0:0:0:
254,354,167382,1,8,0:0:0:0:
103,355,167545,2,0,L|87:253,1,99.0000030212403,2|0,0:0|1:0,0:0:0:0:
266,135,167869,1,2,1:0:0:0:
343,96,168031,2,0,B|395:77|395:77|346:68,1,99.0000030212403,8|2,0:0|0:0,0:0:0:0:
469,26,168355,2,0,P|431:131|437:184,1,148.50000453186,2|0,1:0|0:0,0:0:0:0:
465,202,168680,1,8,0:0:0:0:
321,59,168842,2,0,L|200:29,2,99.0000030212403,2|0|0,0:0|1:0|1:0,0:0:0:0:
106,104,169328,2,0,P|130:169|132:207,1,99.0000030212403,10|0,0:0|0:0,0:0:0:0:
29,120,169653,6,0,L|0:22,1,99.0000030212403,2|0,1:0|0:0,0:0:0:0:
209,184,169977,2,0,L|250:303,1,99.0000030212403,10|0,0:0|0:0,0:0:0:0:
68,285,170301,2,0,P|56:295|16:232,1,99.0000030212403,2|0,1:0|1:0,0:0:0:0:
256,288,170626,2,0,P|309:300|326:257,1,99.0000030212403,10|0,0:0|0:0,0:0:0:0:
448,189,170950,2,0,P|488:127|492:47,1,148.50000453186,2|0,1:0|0:0,0:0:0:0:
474,50,171274,2,0,P|491:110|519:154,1,99.0000030212403,8|0,0:0|0:0,0:0:0:0:
410,274,171599,2,0,P|465:326|493:343,1,99.0000030212403,0|0,1:0|1:0,0:0:0:0:
448,189,171923,1,10,0:0:0:0:
383,374,172085,1,2,0:0:0:0:
233,229,172247,6,0,L|219:116,1,99.0000030212403,10|0,0:0|1:0,0:0:0:0:
138,290,172572,2,0,B|151:293|151:293|140:384,1,99.0000030212403,10|0,0:0|1:0,0:0:0:0:
64,210,172896,2,0,B|0:193|0:193|38:193,1,99.0000030212403,10|0,0:0|1:0,0:0:0:0:
216,114,173220,2,0,L|316:92,1,99.0000030212403,10|0,0:0|1:0,0:0:0:0:
129,9,173545,6,0,B|113:26|113:26|132:132,1,107.999996704102,10|0,0:0|1:0,0:0:0:0:
325,96,173869,2,0,B|379:80|379:80|324:62,1,107.999996704102,10|0,0:0|1:0,0:0:0:0:
458,125,174193,2,0,L|493:10,1,107.999996704102,10|0,0:0|1:0,0:0:0:0:
458,259,174518,2,0,L|493:374,1,107.999996704102,10|0,0:0|1:0,0:0:0:0:
331,245,174842,6,0,L|270:247,3,45,10|0|0|0,0:0|1:0|1:0|1:0,0:0:0:0:
268,175,175166,2,0,L|339:156,3,45,8|0|0|0,0:0|1:0|1:0|1:0,0:0:0:0:
362,226,175491,1,8,0:0:0:0:
369,251,175572,1,0,1:0:0:0:
363,277,175653,1,0,1:0:0:0:
347,299,175734,1,0,1:0:0:0:
322,309,175815,1,10,0:0:0:0:
295,307,175896,1,0,1:0:0:0:
270,296,175977,1,0,1:0:0:0:
254,273,176058,1,0,1:0:0:0:
247,246,176139,5,10,0:0:0:0:
260,212,176220,1,0,1:0:0:0:
264,176,176301,1,0,1:0:0:0:
249,143,176382,1,0,1:0:0:0:
218,123,176464,1,8,0:0:0:0:
182,118,176545,1,0,1:0:0:0:
149,132,176626,1,0,1:0:0:0:
129,161,176707,1,0,1:0:0:0:
120,195,176788,2,0,B|132:206|132:206|129:251,1,45,10|0,0:0|1:0,0:0:0:0:
35,276,176950,2,0,P|15:277|10:242,1,45,0|0,1:0|1:0,0:0:0:0:
5,170,177112,2,0,P|15:151|37:151,1,45,8|0,0:0|1:0,0:0:0:0:
120,195,177274,2,0,P|128:221|110:239,1,45,0|0,1:0|1:0,0:0:0:0:
56,213,177437,6,0,L|230:205,1,161.999995056153,14|0,0:0|0:0,0:0:0:0:
217,205,177761,1,0,1:0:0:0:
301,253,177923,2,0,P|319:288|307:373,2,107.999996704102,10|0|0,0:0|0:0|1:0,0:0:0:0:
450,173,178410,6,0,L|475:21,1,144,14|0,0:0|0:0,0:0:0:0:
473,30,179058,6,0,L|359:49,1,99.0000030212403,10|0,0:0|0:0,0:0:0:0:
261,149,179382,2,0,L|142:169,1,99.0000030212403,10|0,0:0|1:0,0:0:0:0:
1,49,179707,2,0,P|65:57|80:19,1,99.0000030212403,10|0,0:0|1:0,0:0:0:0:
169,162,180031,6,0,P|98:158|74:269,1,175.499991966248,14|0,0:0|0:0,0:0:0:0:
60,243,180355,1,0,1:0:0:0:
191,241,180518,2,0,P|174:302|116:296,2,116.999994644165,10|0|0,0:0|0:0|1:0,0:0:0:0:
279,362,181004,6,0,L|448:347,1,156.60000131424,14|0,0:0|0:0,0:0:0:0:
434,348,181653,6,0,L|327:329,1,99.0000030212403,10|0,0:0|0:0,0:0:0:0:
305,196,181977,2,0,L|198:177,1,99.0000030212403,10|0,0:0|1:0,0:0:0:0:
420,84,182301,2,0,P|477:48|492:8,1,99.0000030212403,10|0,0:0|1:0,0:0:0:0:
472,29,182545,1,0,1:0:0:0:
452,38,182626,6,0,L|476:203,1,161.999995056153,14|0,0:0|0:0,0:0:0:0:
475,198,182950,1,0,1:0:0:0:
370,129,183112,2,0,P|330:125|274:178,2,107.999996704102,10|0|0,0:0|0:0|1:0,0:0:0:0:
154,98,183599,6,0,P|233:85|270:8,1,144,14|0,0:0|0:0,0:0:0:0:
266,35,184247,6,0,L|256:140,1,99.0000030212403,10|0,0:0|0:0,0:0:0:0:
154,260,184572,6,0,P|122:272|97:202,1,99.0000030212403,10|0,0:0|1:0,0:0:0:0:
36,135,184896,6,0,L|-3:117,5,33.0000010070801,10|0|0|0|0|0,0:0|0:0|0:0|1:0|0:0|0:0,0:0:0:0:
6,115,185220,6,0,B|80:135|80:135|102:135|102:135|196:160,1,188.999994232178,14|0,0:0|0:0,0:0:0:0:
189,158,185545,1,0,1:0:0:0:
332,188,185707,2,0,B|267:201|267:201|244:219|244:219|126:243,1,188.999994232178,10|0,0:0|0:0,0:0:0:0:
149,236,186031,1,0,1:0:0:0:
257,325,186193,6,0,L|365:349,1,107.999996704102,14|0,0:0|0:0,0:0:0:0:
364,353,187815,6,0,L|247:369,1,107.999996704102,2|0,0:0|0:0,0:0:0:0:
469,277,188464,1,0,0:0:0:0:
422,170,188788,2,0,B|449:146|449:146|437:67,2,107.999996704102,2|0|0,0:0|0:0|0:0,0:0:0:0:
43,277,189761,1,2,0:0:0:0:
90,170,190085,2,0,B|63:146|63:146|75:67,1,107.999996704102
321,33,190734,5,2,0:0:0:0:
343,129,191058,1,2,0:0:0:0:
255,181,191382,1,2,0:0:0:0:
169,129,191707,1,2,0:0:0:0:
191,33,192031,1,2,0:0:0:0:
255,181,192355,2,0,B|263:203|263:203|254:294,1,107.999996704102,2|0,0:0|0:0,0:0:0:0:
357,151,193004,6,0,B|420:133|420:133|371:124,1,107.999996704102,2|0,0:0|0:0,0:0:0:0:
246,189,193491,2,0,L|134:214,1,107.999996704102,2|0,0:0|0:0,0:0:0:0:
71,271,193977,2,0,P|42:272|23:251,1,53.9999983520508,2|0,0:0|0:0,0:0:0:0:
128,209,194301,2,0,P|108:168|32:177,1,107.999996704102,2|0,0:0|0:0,0:0:0:0:
223,297,194788,2,0,P|253:325|293:285,1,107.999996704102,2|0,0:0|0:0,0:0:0:0:
409,287,195274,2,0,B|426:296|426:296|418:346,1,53.9999983520508,2|0,0:0|0:0,0:0:0:0:
462,214,195599,6,0,L|514:189,1,53.9999983520508,2|0,0:0|0:0,0:0:0:0:
462,214,195923,1,0,0:0:0:0:
385,161,196085,2,0,L|262:159,1,107.999996704102,2|0,0:0|0:0,0:0:0:0:
277,159,196572,1,2,0:0:0:0:
484,92,196896,1,2,0:0:0:0:
28,92,197220,1,2,0:0:0:0:
97,54,197382,1,0,0:0:0:0:
415,54,197707,2,0,B|425:101|425:101|415:164,1,107.999996704102,2|2,0:0|0:0,0:0:0:0:
259,248,198193,6,0,P|247:243|270:245,1,90,6|0,1:0|0:0,0:0:0:0:
157,274,198518,2,0,P|145:269|168:271,1,90,2|0,3:2|0:0,0:0:0:0:
55,305,198842,2,0,P|43:300|66:302,1,90,2|0,3:2|0:0,0:0:0:0:
128,356,199166,2,0,P|80:379|42:355,1,90,2|0,3:2|0:0,0:0:0:0:
90,184,199491,2,0,L|-5:173,1,90,0|0,3:0|0:0,0:0:0:0:
158,117,199815,2,0,B|123:89|123:89|170:101,1,90,0|0,3:0|0:0,0:0:0:0:
314,184,200139,2,0,L|232:139,1,90,2|0,3:2|0:0,0:0:0:0:
382,135,200464,2,0,L|359:20,1,90,2|0,3:2|0:0,0:0:0:0:
512,109,200788,6,0,P|491:150|439:155,1,90,0|0,3:0|0:0,0:0:0:0:
459,48,201112,2,0,P|419:58|410:121,1,90,2|0,3:2|0:0,0:0:0:0:
428,281,201437,2,0,L|529:238,1,90,2|0,3:2|0:0,0:0:0:0:
334,366,201761,2,0,L|437:324,1,90,2|0,3:2|0:0,0:0:0:0:
223,305,202085,2,0,B|196:338|196:338|267:322,1,90,2|0,3:2|0:0,0:0:0:0:
94,344,202410,2,0,L|148:258,1,90,2|0,3:2|0:0,0:0:0:0:
8,359,202734,2,0,L|15:248,1,90,2|0,3:2|0:0,0:0:0:0:
71,163,203058,2,0,B|105:142|105:142|42:146,1,90,2|0,3:2|0:0,0:0:0:0:
287,159,203382,6,0,P|309:155|287:136,3,45,10|0|0|0,0:0|1:0|1:0|1:0,0:0:0:0:
222,158,203707,1,8,0:0:0:0:
201,140,203788,1,0,1:0:0:0:
195,113,203869,1,0,1:0:0:0:
202,87,203950,1,0,1:0:0:0:
221,68,204031,1,10,0:0:0:0:
246,59,204112,1,0,1:0:0:0:
272,63,204193,1,8,0:0:0:0:
293,79,204274,1,0,1:0:0:0:
307,101,204355,1,10,0:0:0:0:
308,128,204437,1,0,1:0:0:0:
295,152,204518,1,0,1:0:0:0:
274,169,204599,1,0,1:0:0:0:
247,174,204680,5,2,3:2:0:0:
475,19,205653,2,0,L|482:85,3,49.5000015106202,2|0|0|0,0:0|0:0|0:0|0:0,0:0:0:0:
448,40,205977,6,0,L|475:205,1,161.999995056153,6|0,1:0|0:0,0:0:0:0:
471,254,206301,2,0,L|480:368,1,107.999996704102,10|0,0:0|0:0,0:0:0:0:
311,265,206626,1,2,1:0:0:0:
311,265,206788,1,0,1:0:0:0:
234,239,206950,2,0,L|230:358,1,107.999996704102,10|0,0:0|0:0,0:0:0:0:
84,361,207274,2,0,P|54:373|3:318,1,107.999996704102,0|0,1:0|1:0,0:0:0:0:
68,233,207599,2,0,P|121:253|121:311,1,107.999996704102,10|0,0:0|0:0,0:0:0:0:
30,148,207923,2,0,B|-10:105|-10:105|51:125,1,107.999996704102,2|0,1:0|1:0,0:0:0:0:
155,120,208247,2,0,L|77:41,1,107.999996704102,10|0,0:0|0:0,0:0:0:0:
241,131,208572,5,6,1:0:0:0:
241,131,208734,1,0,0:0:0:0:
331,112,208896,2,0,L|288:-2,1,107.999996704102,10|0,0:0|0:0,0:0:0:0:
458,109,209220,2,0,B|427:81|427:81|504:97,1,107.999996704102,2|0,1:0|1:0,0:0:0:0:
482,214,209545,2,0,L|380:167,1,107.999996704102,10|0,0:0|1:0,0:0:0:0:
291,362,209869,2,0,P|228:380|201:349,1,107.999996704102,2|0,1:0|1:0,0:0:0:0:
260,240,210193,2,0,P|314:255|323:308,1,107.999996704102,10|0,0:0|0:0,0:0:0:0:
194,280,210518,1,2,1:0:0:0:
194,280,210680,1,0,1:0:0:0:
404,249,210842,1,10,0:0:0:0:
480,307,211004,1,0,1:0:0:0:
470,312,211085,1,0,1:0:0:0:
461,317,211166,6,0,B|442:328|442:328|479:221|479:221|378:258,1,215.999993408203,6|8,1:0|0:0,0:0:0:0:
215,126,211653,1,2,0:0:0:0:
291,78,211815,2,0,L|389:27,1,107.999996704102,0|0,1:0|0:0,0:0:0:0:
215,126,212139,2,0,B|192:171|192:171|186:89,1,107.999996704102,10|0,0:0|0:0,0:0:0:0:
386,28,212464,2,0,L|206:51,1,161.999995056153,2|0,1:0|0:0,0:0:0:0:
189,36,212788,1,8,0:0:0:0:
215,126,212950,2,0,B|80:173|144:55|-1:107,1,215.999993408203,2|0,0:0|0:0,0:0:0:0:
85,233,213437,2,0,B|97:253|97:253|71:349,1,107.999996704102,10|0,0:0|1:0,0:0:0:0:
198,265,213761,6,0,B|251:244|251:244|194:232,1,107.999996704102,6|0,1:0|0:0,0:0:0:0:
355,317,214085,1,10,0:0:0:0:
433,350,214247,2,0,L|476:226,1,107.999996704102,2|0,0:0|1:0,0:0:0:0:
468,247,214572,1,0,0:0:0:0:
437,96,214734,2,0,B|361:93|361:93|457:52,1,161.999995056153,2|8,1:0|0:0,0:0:0:0:
487,76,215058,2,0,B|504:90|504:90|475:185,1,107.999996704102,10|0,0:0|1:0,0:0:0:0:
265,130,215382,1,10,0:0:0:0:
254,126,215464,1,0,0:0:0:0:
245,116,215545,1,2,1:0:0:0:
244,106,215626,1,0,1:0:0:0:
247,94,215707,2,0,L|307:73,1,53.9999983520508,0|0,1:0|1:0,0:0:0:0:
345,155,215869,2,0,B|362:179|362:179|342:208,1,53.9999983520508,2|0,1:0|1:0,0:0:0:0:
236,232,216031,2,0,L|172:252,1,53.9999983520508,0|0,1:0|1:0,0:0:0:0:
96,218,216193,2,0,B|75:206|75:206|88:165,1,53.9999983520508,0|0,1:0|1:0,0:0:0:0:
240,244,216355,6,0,L|59:311,1,161.999995056153,6|0,1:0|0:0,0:0:0:0:
103,347,216680,2,0,L|0:377,1,107.999996704102,10|0,0:0|0:0,0:0:0:0:
5,258,217004,1,2,1:0:0:0:
5,258,217166,1,0,1:0:0:0:
113,347,217328,2,0,B|163:366|163:366|145:311,1,107.999996704102,10|0,0:0|0:0,0:0:0:0:
309,321,217653,2,0,B|332:312|332:312|340:201,1,107.999996704102,0|0,1:0|1:0,0:0:0:0:
409,355,217977,2,0,L|531:313,1,107.999996704102,10|0,0:0|0:0,0:0:0:0:
322,215,218301,2,0,L|174:264,1,107.999996704102,2|0,1:0|1:0,0:0:0:0:
400,145,218626,2,0,B|425:106|425:106|353:139,1,107.999996704102,10|0,0:0|1:0,0:0:0:0:
480,174,218950,5,6,1:0:0:0:
480,174,219112,1,0,0:0:0:0:
512,28,219274,2,0,L|419:110,1,107.999996704102,10|0,0:0|0:0,0:0:0:0:
230,136,219599,2,0,L|367:146,1,107.999996704102,2|0,1:0|1:0,0:0:0:0:
149,175,219923,2,0,L|49:231,1,107.999996704102,10|0,0:0|1:0,0:0:0:0:
227,143,220247,2,0,B|284:160|284:160|253:114,1,107.999996704102,2|0,1:0|1:0,0:0:0:0:
32,86,220572,2,0,L|174:96,1,107.999996704102,10|0,0:0|0:0,0:0:0:0:
292,37,220896,1,2,1:0:0:0:
292,37,221058,1,0,1:0:0:0:
202,223,221220,1,10,0:0:0:0:
292,210,221382,1,0,1:0:0:0:
301,216,221464,1,0,1:0:0:0:
311,223,221545,6,0,B|283:194|283:194|261:271|261:271|319:354,1,215.999993408203,6|8,1:0|0:0,0:0:0:0:
401,297,222031,1,2,0:0:0:0:
305,354,222193,2,0,L|200:289,1,107.999996704102,0|0,1:0|0:0,0:0:0:0:
69,340,222518,2,0,P|35:354|30:287,1,107.999996704102,2|0,1:0|0:0,0:0:0:0:
71,190,222842,2,0,P|131:200|124:298,1,161.999995056153,2|0,1:0|0:0,0:0:0:0:
119,294,223166,1,8,0:0:0:0:
28,130,223328,2,0,P|-19:207|101:241,1,215.999993408203,2|0,0:0|0:0,0:0:0:0:
193,194,223815,2,0,P|203:135|164:115,1,107.999996704102,10|0,0:0|0:0,0:0:0:0:
303,226,224139,6,0,B|321:237|321:237|305:333,1,107.999996704102,2|0,1:0|0:0,0:0:0:0:
417,196,224464,1,0,1:0:0:0:
417,196,224626,1,0,0:0:0:0:
489,123,224788,2,0,B|505:98|505:98|430:119,1,107.999996704102,2|0,1:0|0:0,0:0:0:0:
417,196,225112,2,0,L|451:15,1,161.999995056153,10|0,0:0|0:0,0:0:0:0:
398,45,225437,6,0,B|321:24|321:24|362:8,1,107.999996704102,0|0,1:0|0:0,0:0:0:0:
484,242,225761,2,0,B|496:265|496:265|486:350,1,107.999996704102,8|0,0:0|0:0,0:0:0:0:
242,278,226085,1,10,0:0:0:0:
200,266,226166,1,0,1:0:0:0:
158,254,226247,1,0,1:0:0:0:
116,242,226328,1,0,1:0:0:0:
158,231,226410,1,0,1:0:0:0:
199,220,226491,1,0,1:0:0:0:
240,209,226572,1,2,1:0:0:0:
282,199,226653,1,0,1:0:0:0:
320,190,226734,6,0,L|264:335,1,148.50000453186,6|0,1:0|0:0,0:0:0:0:
242,278,227058,2,0,L|344:356,1,99.0000030212403,8|0,0:0|0:0,0:0:0:0:
116,242,227382,2,0,B|54:237|54:237|100:223,1,99.0000030212403,2|0,1:0|1:0,0:0:0:0:
229,135,227707,2,0,B|240:120|240:120|252:23,1,99.0000030212403,10|0,0:0|0:0,0:0:0:0:
151,138,228031,1,2,1:0:0:0:
333,160,228193,2,0,B|373:166|373:166|325:129,1,99.0000030212403,2|8,1:0|0:0,0:0:0:0:
436,36,228518,2,0,P|470:80|516:81,1,99.0000030212403,2|0,0:0|1:0,0:0:0:0:
449,226,228842,1,2,1:0:0:0:
510,301,229004,2,0,P|462:307|436:348,1,99.0000030212403,8|0,0:0|0:0,0:0:0:0:
449,226,229328,6,0,L|286:272,1,148.50000453186,2|0,1:0|0:0,0:0:0:0:
271,261,229653,2,0,B|227:256|227:256|247:329,1,99.0000030212403,10|0,0:0|0:0,0:0:0:0:
112,295,229977,2,0,B|98:319|98:319|129:392,1,99.0000030212403,2|0,1:0|1:0,0:0:0:0:
42,267,230301,2,0,B|-5:254|-5:254|53:236,1,99.0000030212403,10|0,0:0|0:0,0:0:0:0:
112,295,230626,1,2,1:0:0:0:
39,157,230788,2,0,L|-3:60,1,99.0000030212403,2|8,1:0|0:0,0:0:0:0:
180,25,231112,1,2,0:0:0:0:
262,86,231274,2,0,P|294:101|278:64,1,99.0000030212403,0|2,1:0|1:0,0:0:0:0:
180,25,231599,1,8,0:0:0:0:
359,37,231761,1,8,0:0:0:0:
369,32,231842,1,8,0:0:0:0:
375,23,231923,6,0,P|438:74|506:70,1,148.50000453186,6|0,1:0|0:0,0:0:0:0:
490,62,232247,2,0,P|450:102|437:173,1,99.0000030212403,12|0,0:0|0:0,0:0:0:0:
457,290,232572,1,2,1:0:0:0:
457,290,232734,1,0,1:0:0:0:
298,225,232896,2,0,B|316:242|316:242|309:341,1,99.0000030212403,10|0,0:0|0:0,0:0:0:0:
381,197,233220,1,2,1:0:0:0:
209,234,233382,2,0,B|142:224|142:224|185:210,1,99.0000030212403,2|8,1:0|0:0,0:0:0:0:
297,233,233707,1,2,0:0:0:0:
188,337,233869,1,0,1:0:0:0:
188,337,234031,1,2,1:0:0:0:
58,299,234193,2,0,L|6:388,1,99.0000030212403,8|0,0:0|0:0,0:0:0:0:
163,214,234518,6,0,L|218:113,1,99.0000030212403,2|0,1:0|0:0,0:0:0:0:
60,157,234842,2,0,P|19:209|43:245,1,99.0000030212403,10|0,0:0|0:0,0:0:0:0:
186,60,235166,2,0,P|129:96|149:146,1,99.0000030212403,2|0,1:0|1:0,0:0:0:0:
331,21,235491,2,0,P|283:33|276:104,1,99.0000030212403,10|0,0:0|0:0,0:0:0:0:
337,93,235815,1,10,0:0:0:0:
186,60,235977,1,2,1:0:0:0:
401,54,236139,1,8,0:0:0:0:
330,199,236301,1,2,1:0:0:0:
337,93,236464,1,8,0:0:0:0:
379,268,236626,1,2,1:0:0:0:
188,238,236788,1,8,0:0:0:0:
330,199,236950,1,10,0:0:0:0:
320,200,237031,1,8,0:0:0:0:
310,201,237112,6,0,B|335:169|335:169|212:211,1,148.50000453186,6|0,1:0|0:0,0:0:0:0:
188,238,237437,2,0,L|74:271,1,99.0000030212403,8|0,0:0|0:0,0:0:0:0:
297,349,237761,2,0,P|231:350|206:318,1,99.0000030212403,2|2,1:0|1:0,0:0:0:0:
398,208,238085,2,0,P|451:206|489:251,1,99.0000030212403,10|0,0:0|0:0,0:0:0:0:
422,281,238410,1,0,1:0:0:0:
321,334,238572,2,0,P|352:333|403:382,1,99.0000030212403,2|8,1:0|0:0,0:0:0:0:
174,339,238896,2,0,P|126:354|74:309,1,99.0000030212403,2|0,0:0|1:0,0:0:0:0:
203,270,239220,1,2,1:0:0:0:
266,211,239382,2,0,B|303:97,1,99.0000030212403,8|0,0:0|0:0,0:0:0:0:
114,44,239707,6,0,B|73:28|73:28|186:13,1,148.50000453186,2|0,1:0|0:0,0:0:0:0:
225,25,240031,2,0,L|346:-6,1,99.0000030212403,10|0,0:0|0:0,0:0:0:0:
291,127,240355,2,0,P|251:128|225:73,1,99.0000030212403,2|0,1:0|1:0,0:0:0:0:
424,29,240680,2,0,B|443:40|443:40|437:118,1,99.0000030212403,10|0,0:0|0:0,0:0:0:0:
507,20,241004,1,2,1:0:0:0:
359,119,241166,1,2,1:0:0:0:
491,210,241328,1,8,0:0:0:0:
447,126,241491,1,2,0:0:0:0:
490,199,241653,2,0,L|433:229,1,49.5000015106202,0|0,1:0|0:0,0:0:0:0:
338,255,241815,2,0,L|393:229,1,33.7500012874604,8|8,0:0|0:0,0:0:0:0:
244,271,241977,1,2,1:0:0:0:
218,280,242058,1,0,0:0:0:0:
192,289,242139,1,8,3:0:0:0:
167,299,242220,1,4,3:0:0:0:
123,316,242301,6,0,L|2:300,1,116.999994644165,14|0,0:0|1:0,0:0:0:0:
202,185,242626,2,0,L|329:176,1,116.999994644165,8|0,0:0|1:0,0:0:0:0:
127,92,242950,2,0,B|68:72|68:72|126:69,1,116.999994644165,10|0,0:0|1:0,0:0:0:0:
321,84,243274,2,0,L|199:67,1,116.999994644165,8|0,0:0|1:0,0:0:0:0:
380,29,243599,1,10,0:0:0:0:
439,110,243761,2,0,P|478:129|507:66,1,116.999994644165,2|8,1:0|0:0,0:0:0:0:
421,208,244085,2,0,P|361:251|328:218,1,116.999994644165,2|8,1:0|0:0,0:0:0:0:
486,268,244410,1,2,1:0:0:0:
328,229,244572,2,0,P|282:273|227:234,1,116.999994644165,8|0,0:0|1:0,0:0:0:0:
92,225,244896,6,0,L|42:109,1,116.999994644165,10|0,0:0|1:0,0:0:0:0:
45,117,245220,1,10,0:0:0:0:
201,33,245382,1,0,1:0:0:0:
184,163,245545,1,10,0:0:0:0:
134,107,245707,1,0,1:0:0:0:
301,185,245869,1,10,0:0:0:0:
170,254,246031,1,0,1:0:0:0:
184,163,246193,5,14,0:0:0:0:
400,117,246355,1,2,1:0:0:0:
346,321,246518,1,8,0:0:0:0:
446,235,246680,1,2,1:0:0:0:
437,231,246761,1,0,1:0:0:0:
426,225,246842,2,0,L|488:230,1,45,10|0,0:0|1:0,0:0:0:0:
357,252,247004,2,0,L|312:247,1,45,0|0,1:0|1:0,0:0:0:0:
200,267,247166,2,0,L|258:274,1,45,4|0,3:0|1:0,0:0:0:0:
129,296,247328,2,0,L|63:287,1,45,4|2,3:0|1:0,0:0:0:0:
0,293,247815,5,10,0:0:0:0:
