osu file format v14

[General]
AudioFilename: audio.mp3
AudioLeadIn: 0
PreviewTime: 207884
Countdown: 0
SampleSet: Soft
StackLeniency: 0.2
Mode: 0
LetterboxInBreaks: 0
WidescreenStoryboard: 1

[Editor]
Bookmarks: 57112,61226,133913,138027,180541,183284,213455,216884,240884,246369,268312
DistanceSpacing: 0.7
BeatDivisor: 4
GridSize: 4
TimelineZoom: 1.7

[Metadata]
Title:Kaleidoscope
TitleUnicode:カレイドスコープ
Artist:FROZEN QUALIA
ArtistUnicode:FROZEN QUALIA
Creator:Hishiro Chizuru
Version:Insane
Source:
Tags:yumeno yuki 夢乃ゆき japanese pop lasse naotoshi amb1d3x nao tomori
BeatmapID:1868583
BeatmapSetID:892237

[Difficulty]
HPDrainRate:5
CircleSize:4
OverallDifficulty:8
ApproachRate:9
SliderMultiplier:1.7
SliderTickRate:1

[Events]
//Background and Video events
0,0,"bg.jpg",0,0
//Break Periods
//Storyboard Layer 0 (Background)
//Storyboard Layer 1 (Fail)
//Storyboard Layer 2 (Pass)
//Storyboard Layer 3 (Foreground)
//Storyboard Sound Samples

[TimingPoints]
888,342.857142857143,4,2,34,30,1,0
888,-166.666666666667,4,2,34,30,0,0
4659,-500,4,2,34,30,0,0
4830,-500,4,2,99,5,0,0
6030,-500,4,2,99,15,0,0
6373,-166.666666666667,4,2,34,20,0,0
6716,-166.666666666667,4,2,34,22,0,0
7059,-166.666666666667,4,2,34,26,0,0
7402,-166.666666666667,4,2,34,32,0,0
7745,-100,4,2,34,62,0,0
8002,-100,4,2,34,62,0,0
8088,-100,4,2,34,62,0,0
8516,-100,4,2,34,62,0,0
8602,-100,4,2,34,62,0,0
8773,-166.666666666667,4,2,34,62,0,0
9459,-100,4,2,34,62,0,0
10745,-100,4,2,34,62,0,0
10830,-100,4,2,34,62,0,0
11259,-100,4,2,34,62,0,0
11345,-100,4,2,34,62,0,0
11516,-166.666666666667,4,2,34,62,0,0
12202,-100,4,2,34,62,0,0
13488,-100,4,2,34,62,0,0
13573,-100,4,2,34,62,0,0
14002,-100,4,2,34,62,0,0
14088,-100,4,2,34,62,0,0
14259,-166.666666666667,4,2,34,62,0,0
14945,-100,4,2,34,62,0,0
17088,-100,4,2,99,5,0,0
18716,-133.333333333333,4,2,34,40,0,0
27973,-133.333333333333,4,2,34,47,0,0
28316,-100,4,2,34,55,0,0
28573,-100,4,2,34,55,0,0
28659,-100,4,2,34,55,0,0
28745,-100,4,2,99,5,0,0
28830,-100,4,2,34,60,0,0
29088,-100,4,2,99,5,0,0
29173,-100,4,2,34,50,0,0
29602,-100,4,2,99,5,0,0
29688,-100,4,2,34,54,0,0
40659,-133.333333333333,4,2,34,48,0,0
48888,-133.333333333333,4,2,34,50,0,0
50945,-133.333333333333,4,2,34,52,0,0
51630,-133.333333333333,4,2,34,54,0,0
53002,-125,4,2,34,54,0,0
54373,-125,4,2,34,56,0,0
56773,-125,4,2,34,58,0,0
57116,-125,4,2,34,60,0,0
57373,-125,4,2,34,20,0,0
57459,-125,4,2,34,60,0,0
58488,-125,4,2,34,62,0,0
58745,-125,4,2,34,20,0,0
58830,-125,4,2,34,62,0,0
59859,-125,4,2,34,64,0,0
60116,-125,4,2,34,20,0,0
60202,-125,4,2,34,64,0,0
62602,-90.9090909090909,4,2,34,66,0,1
64830,-90.9090909090909,4,2,34,66,0,1
64916,-90.9090909090909,4,2,34,66,0,1
65088,-90.9090909090909,4,2,34,66,0,1
65173,-90.9090909090909,4,2,34,66,0,1
72716,-90.9090909090909,4,2,34,70,0,1
73059,-90.9090909090909,4,2,34,66,0,1
73230,-90.9090909090909,4,2,34,60,0,1
73573,-90.9090909090909,4,2,34,66,0,1
75802,-90.9090909090909,4,2,34,66,0,1
75888,-90.9090909090909,4,2,34,66,0,1
76059,-90.9090909090909,4,2,34,66,0,1
76145,-90.9090909090909,4,2,34,66,0,1
77945,-90.9090909090909,4,2,34,30,0,1
78030,-90.9090909090909,4,2,34,66,0,1
84545,-111.111111111111,4,2,34,62,0,0
84802,-111.111111111111,4,2,34,62,0,0
84888,-111.111111111111,4,2,34,62,0,0
85316,-111.111111111111,4,2,34,62,0,0
85402,-111.111111111111,4,2,34,62,0,0
87545,-111.111111111111,4,2,34,62,0,0
87630,-111.111111111111,4,2,34,62,0,0
88059,-111.111111111111,4,2,34,62,0,0
88145,-111.111111111111,4,2,34,62,0,0
90288,-111.111111111111,4,2,34,62,0,0
90373,-111.111111111111,4,2,34,62,0,0
90802,-111.111111111111,4,2,34,62,0,0
90888,-111.111111111111,4,2,34,62,0,0
94316,-111.111111111111,4,2,34,58,0,0
94659,-200,4,2,34,52,0,0
95002,-200,4,2,34,50,0,0
95345,-200,4,2,34,48,0,0
95516,-133.333333333333,4,2,34,50,0,0
101002,-133.333333333333,4,2,34,54,0,0
101516,-133.333333333333,4,2,34,56,0,0
101859,-133.333333333333,4,2,34,50,0,0
102373,-133.333333333333,4,2,34,54,0,0
102888,-133.333333333333,4,2,34,56,0,0
103059,-133.333333333333,4,2,34,52,0,0
103745,-133.333333333333,4,2,34,50,0,0
104945,-133.333333333333,4,2,34,48,0,0
105116,-133.333333333333,4,2,34,46,0,0
105288,-133.333333333333,4,2,34,44,0,0
105459,-133.333333333333,4,2,34,42,0,0
105630,-133.333333333333,4,2,34,46,0,0
105673,-133.333333333333,4,2,99,5,0,0
106488,-125,4,2,34,54,0,0
117459,-125,4,2,34,48,0,0
125688,-125,4,2,34,50,0,0
127059,-125,4,2,34,52,0,0
128430,-125,4,2,34,54,0,0
131173,-125,4,2,34,56,0,0
132545,-125,4,2,34,58,0,0
133916,-125,4,2,34,60,0,0
134173,-125,4,2,34,20,0,0
134259,-125,4,2,34,60,0,0
135288,-125,4,2,34,62,0,0
135545,-125,4,2,34,20,0,0
135630,-125,4,2,34,62,0,0
136659,-125,4,2,34,64,0,0
136916,-125,4,2,34,20,0,0
137002,-125,4,2,34,64,0,0
139402,-90.9090909090909,4,2,34,66,0,1
141630,-90.9090909090909,4,2,34,66,0,1
141716,-90.9090909090909,4,2,34,66,0,1
141888,-90.9090909090909,4,2,34,66,0,1
141973,-90.9090909090909,4,2,34,66,0,1
149516,-90.9090909090909,4,2,34,70,0,1
149859,-90.9090909090909,4,2,34,66,0,1
150030,-90.9090909090909,4,2,34,60,0,1
150373,-90.9090909090909,4,2,34,66,0,1
152602,-90.9090909090909,4,2,34,66,0,1
152688,-90.9090909090909,4,2,34,66,0,1
152859,-90.9090909090909,4,2,34,66,0,1
152945,-90.9090909090909,4,2,34,66,0,1
154745,-90.9090909090909,4,2,34,30,0,1
154830,-90.9090909090909,4,2,34,66,0,1
161345,-100,4,2,34,64,0,0
162545,-100,4,2,34,60,0,0
162716,-100,4,2,34,64,0,0
163916,-100,4,2,34,60,0,0
164088,-100,4,2,34,64,0,0
165288,-100,4,2,34,60,0,0
165459,-100,4,2,34,64,0,0
165630,-100,4,2,34,60,0,0
165802,-100,4,2,34,64,0,0
166659,-100,4,2,34,60,0,0
166830,-100,4,2,34,64,0,0
169402,-100,4,2,34,60,0,0
169573,-100,4,2,34,64,0,0
170945,-100,4,2,34,66,0,0
171802,-100,4,2,34,60,0,0
172316,-125,4,2,34,64,0,0
175145,-125,4,2,34,64,0,0
175573,-125,4,2,34,64,0,0
175745,-125,4,2,34,64,0,0
175830,-125,4,2,34,64,0,0
176259,-125,4,2,34,64,0,0
176430,-125,4,2,34,64,0,0
177116,-125,4,2,34,68,0,0
177288,-125,4,2,34,58,0,0
177373,-125,4,2,34,68,0,0
177545,-125,4,2,34,58,0,0
177630,-125,4,2,34,66,0,0
177802,-125,4,2,34,64,0,0
179002,-125,4,2,34,60,0,0
179173,-125,4,2,34,64,0,0
180373,-125,4,2,34,62,0,0
180545,-90.9090909090909,4,2,34,66,0,0
181916,-90.9090909090909,4,2,34,68,0,0
183288,-90.9090909090909,4,2,34,40,0,0
183373,-90.9090909090909,4,2,99,5,0,0
184316,-90.9090909090909,4,2,34,30,0,0
186030,-90.9090909090909,4,2,34,32,0,0
186115,-90.9090909090909,4,2,99,5,0,0
187059,-90.9090909090909,4,2,34,30,0,0
188773,-90.9090909090909,4,2,34,32,0,0
188858,-90.9090909090909,4,2,99,5,0,0
189802,-90.9090909090909,4,2,34,30,0,0
191516,-90.9090909090909,4,2,34,32,0,0
191601,-90.9090909090909,4,2,99,5,0,0
192545,-90.9090909090909,4,2,34,30,0,0
193573,-90.9090909090909,4,2,34,48,0,0
194259,-111.111111111111,4,2,34,52,0,0
204545,-200,4,2,34,48,0,0
204888,-200,4,2,34,46,0,0
205230,-200,4,2,34,44,0,0
206430,-200,4,2,99,5,0,0
206602,-133.333333333333,4,2,34,40,0,0
206945,-133.333333333333,4,2,34,42,0,0
207288,-133.333333333333,4,2,34,44,0,0
207630,-133.333333333333,4,2,34,46,0,0
207973,-133.333333333333,4,2,34,60,0,0
209345,-133.333333333333,4,2,34,62,0,0
210716,-133.333333333333,4,2,34,64,0,0
211402,-133.333333333333,4,2,34,50,0,0
211659,-133.333333333333,4,2,34,48,0,0
211916,-133.333333333333,4,2,34,46,0,0
212088,-90.9090909090909,4,2,34,56,0,0
213459,-90.9090909090909,4,2,34,60,0,0
217573,-90.9090909090909,4,2,34,62,0,0
218945,-200,4,2,34,54,0,0
223745,-133.333333333333,4,2,34,56,0,0
224430,-105.263157894737,4,2,34,60,0,0
228545,-105.263157894737,4,2,34,62,0,0
229230,-105.263157894737,4,2,34,64,0,0
229916,-90.9090909090909,4,2,34,66,0,1
232145,-90.9090909090909,4,2,34,66,0,1
232230,-90.9090909090909,4,2,34,66,0,1
232402,-90.9090909090909,4,2,34,66,0,1
232488,-90.9090909090909,4,2,34,66,0,1
239516,-90.9090909090909,4,2,34,66,0,0
240030,-90.9090909090909,4,2,34,70,0,0
240373,-90.9090909090909,4,2,34,66,0,0
240545,-90.9090909090909,4,2,34,60,0,0
240888,-90.9090909090909,4,2,34,68,0,0
246373,-100,4,2,34,66,0,0
251859,-100,4,2,34,62,0,0
252116,-100,4,2,34,62,0,0
252202,-100,4,2,34,62,0,0
252630,-100,4,2,34,62,0,0
252716,-100,4,2,34,62,0,0
254859,-100,4,2,34,62,0,0
254945,-100,4,2,34,62,0,0
255373,-100,4,2,34,62,0,0
255458,-100,4,2,34,62,0,0
257602,-100,4,2,34,62,0,0
257688,-100,4,2,34,62,0,0
258116,-100,4,2,34,62,0,0
258202,-100,4,2,34,62,0,0
261202,-100,4,2,99,5,0,0
262488,-100,4,2,99,25,0,0
262830,-100,4,2,34,28,0,0
263173,-100,4,2,34,26,0,0
263345,-100,4,2,34,22,0,0
263688,-100,4,2,34,26,0,0
263860,-100,4,2,34,22,0,0
264545,-100,4,2,34,26,0,0
264888,-100,4,2,34,22,0,0
265573,-100,4,2,34,26,0,0
265916,-100,4,2,34,24,0,0
266088,-100,4,2,34,20,0,0
266430,-100,4,2,34,24,0,0
266602,-100,4,2,34,20,0,0
268312,352.941176470588,4,2,34,26,1,0
268664,-100,4,2,34,22,0,0
268841,-100,4,2,34,18,0,0
269194,-100,4,2,34,22,0,0
269371,-100,4,2,34,18,0,0
270102,375,4,2,34,22,1,0
270477,-100,4,2,34,18,0,0
271273,419.58041958042,4,2,34,20,1,0
271692,-100,4,2,34,18,0,0
271902,-100,4,2,34,14,0,0
272366,480,4,2,34,16,1,0
272606,-100,4,2,34,12,0,0
275786,-100,4,2,34,8,0,0
275846,-100,4,2,34,14,0,0

[Colours]
Combo1 : 250,190,230
Combo2 : 130,200,230
Combo3 : 255,230,140
Combo4 : 170,245,170

[HitObjects]
68,40,888,6,0,P|50:88|63:139,1,101.999996887207,2|0,0:0|0:0,0:0:0:0:
114,200,1402,1,2,0:0:0:0:
114,200,1745,1,0,0:0:0:0:
172,268,1916,2,0,P|190:316|177:367,1,101.999996887207,2|0,0:0|0:0,0:0:0:0:
178,363,2602,1,2,0:0:0:0:
103,319,2945,1,2,0:0:0:0:
201,183,3288,1,2,0:0:0:0:
228,358,3630,6,0,L|160:363,1,50.9999984436036,2|0,0:0|0:0,0:0:0:0:
103,319,3973,1,0,0:0:0:0:
219,266,4145,2,0,L|334:272,1,101.999996887207,2|0,0:0|0:0,0:0:0:0:
409,345,4659,2,0,P|404:265|423:196,1,153,2|0,0:0|0:0,0:0:0:0:
452,121,6373,6,0,L|400:116,1,50.9999984436036,2|0,0:0|0:0,0:0:0:0:
334,69,6716,2,0,L|282:73,1,50.9999984436036,2|0,0:0|0:0,0:0:0:0:
207,157,7059,1,2,0:0:0:0:
228,252,7230,1,0,0:0:0:0:
117,87,7402,1,2,0:0:0:0:
89,189,7573,1,0,0:0:0:0:
260,44,7745,6,0,P|322:36|382:56,1,127.5,14|0,0:0|0:0,0:0:0:0:
401,73,8088,1,8,0:1:0:0:
453,289,8259,2,0,P|415:238|402:176,1,127.5,14|0,0:0|0:0,0:0:0:0:
412,149,8602,1,8,0:1:0:0:
320,272,8773,1,14,0:2:0:0:
320,272,9288,1,8,0:1:0:0:
150,368,9459,2,0,P|161:319|146:271,1,85,14|0,0:0|0:0,0:0:0:0:
88,220,9802,2,0,P|77:171|92:123,1,85,10|0,0:0|0:0,0:0:0:0:
264,202,10145,2,0,L|176:194,1,85,10|0,0:0|0:0,0:0:0:0:
280,56,10488,6,0,L|407:44,1,127.5,14|0,0:0|0:0,0:0:0:0:
434,41,10830,1,8,0:1:0:0:
473,175,11002,2,0,L|345:163,1,127.5,14|0,0:0|0:0,0:0:0:0:
320,160,11345,1,8,0:1:0:0:
235,318,11516,1,14,0:0:0:0:
235,318,12030,1,8,0:1:0:0:
323,360,12202,2,0,L|414:351,1,85,12|0,0:0|0:0,0:0:0:0:
309,261,12545,1,12,0:0:0:0:
235,318,12716,1,8,0:1:0:0:
174,166,12888,1,0,1:0:0:0:
129,368,13059,1,0,1:0:0:0:
133,372,13145,1,0,1:0:0:0:
137,376,13230,6,0,P|102:322|98:260,1,127.5,14|0,0:0|0:0,0:0:0:0:
119,244,13573,1,8,0:1:0:0:
38,181,13745,2,0,P|72:127|76:65,1,127.5,14|0,0:0|0:0,0:0:0:0:
64,47,14088,1,8,0:1:0:0:
233,228,14259,1,14,0:0:0:0:
233,228,14773,1,8,0:1:0:0:
253,66,14945,2,0,P|292:80|318:113,1,85,14|0,0:1|0:0,0:0:0:0:
233,228,15288,2,0,P|225:186|240:147,1,85,10|0,0:0|0:0,0:0:0:0:
445,248,15630,2,0,L|440:196,3,42.5,0|0|0|0,1:0|1:0|1:0|1:0,0:0:0:0:
438,202,15973,6,0,L|310:190,1,127.5,14|8,0:1|0:0,0:0:0:0:
284,187,16316,1,10,2:2:0:0:
178,295,16488,2,0,L|305:283,1,127.5,14|8,0:1|0:0,0:0:0:0:
329,281,16830,1,10,2:2:0:0:
429,361,17002,1,14,0:1:0:0:
256,192,17173,12,0,18545,0:0:0:0:
172,103,18716,6,0,L|103:96,2,63.7500024318696,2|0|0,3:2|0:0|0:0,0:0:0:0:
315,113,19230,2,0,P|345:167|339:230,1,127.500004863739,2|0,0:0|0:0,0:0:0:0:
192,189,19745,2,0,L|256:184,1,63.7500024318696,0|0,3:0|1:0,0:0:0:0:
458,338,20088,6,0,P|427:283|433:220,2,127.500004863739,2|0|2,3:2|0:0|1:2,0:0:0:0:
458,338,21116,1,2,0:0:0:0:
390,293,21288,1,0,0:0:0:0:
297,360,21459,2,0,L|285:232,1,127.500004863739,2|0,0:0|0:0,0:0:0:0:
240,138,21973,2,0,P|299:126|358:156,1,127.500004863739,2|0,0:0|0:0,0:0:0:0:
397,236,22488,1,0,3:0:0:0:
438,124,22659,1,0,1:0:0:0:
482,309,22830,6,0,L|418:314,1,63.7500024318696,2|0,3:2|1:0,0:0:0:0:
337,297,23173,1,0,0:0:0:0:
261,348,23345,1,0,0:0:0:0:
135,278,23516,2,0,L|206:271,1,63.7500024318696,2|0,1:2|0:0,0:0:0:0:
320,198,23859,2,0,L|249:192,1,63.7500024318696,2|0,0:0|0:0,0:0:0:0:
80,44,24202,6,0,P|141:35|186:77,1,127.500004863739,2|0,3:2|0:0,0:0:0:0:
25,180,24716,2,0,L|31:108,1,63.7500024318696,0|0,0:0|1:0,0:0:0:0:
88,249,25059,1,0,0:0:0:0:
118,120,25230,1,2,3:2:0:0:
211,205,25402,1,0,1:0:0:0:
271,85,25573,6,0,L|334:91,1,63.7500024318696,2|0,3:2|1:0,0:0:0:0:
449,157,25916,2,0,L|385:163,1,63.7500024318696,2|0,3:2|0:0,0:0:0:0:
305,283,26259,1,2,1:2:0:0:
393,263,26430,1,0,0:0:0:0:
223,225,26602,2,0,L|217:288,1,63.7500024318696,2|0,0:0|0:0,0:0:0:0:
63,352,26945,6,0,L|50:213,1,127.500004863739,2|0,3:2|0:0,0:0:0:0:
37,109,27459,2,0,B|64:100|101:105|85:131|134:138|157:119,1,127.500004863739,2|0,0:0|0:0,0:0:0:0:
270,73,27973,2,0,L|222:77,3,31.8750012159348,0|0|0|0,0:0|0:0|0:0|0:0,0:0:0:0:
235,80,28316,6,0,L|222:219,1,127.5,14|0,0:1|0:0,0:0:0:0:
239,230,28659,1,0,0:0:0:0:
199,324,28830,2,0,P|261:320|309:280,1,127.5,14|0,0:1|0:0,0:0:0:0:
414,248,29173,2,0,P|334:241|309:164,1,170,14|0,0:1|0:0,0:0:0:0:
421,37,29688,5,14,0:1:0:0:
421,36,30030,2,0,P|410:77|411:119,1,85,8|2,0:0|0:0,0:0:0:0:
446,196,30373,1,8,0:1:0:0:
381,263,30545,1,8,0:1:0:0:
246,131,30716,2,0,P|288:121|330:122,1,85,10|0,0:0|0:0,0:0:0:0:
282,280,31059,6,0,L|198:288,1,85,10|0,0:1|0:0,0:0:0:0:
358,346,31402,2,0,P|376:308|376:266,1,85,8|2,0:0|0:0,0:0:0:0:
322,172,31745,1,8,0:1:0:0:
289,252,31916,1,8,0:1:0:0:
411,185,32088,1,10,0:0:0:0:
255,99,32259,1,2,0:0:0:0:
202,318,32430,6,0,P|200:275|183:236,1,85,10|0,0:1|0:0,0:0:0:0:
113,176,32773,2,0,P|114:133|131:94,1,85,8|2,0:0|0:0,0:0:0:0:
207,35,33116,1,8,2:1:0:0:
203,148,33288,1,10,2:1:0:0:
129,5,33459,2,0,L|220:13,1,85,8|0,0:2|0:0,0:0:0:0:
321,206,33802,6,0,B|280:190|235:205|248:231|191:240|159:212,1,170,10|8,0:1|0:0,0:0:0:0:
98,159,34316,1,2,0:0:0:0:
289,285,34488,2,0,L|281:372,2,85,10|8|10,0:1|0:1|0:0,0:0:0:0:
300,189,35002,1,0,0:0:0:0:
366,302,35173,6,0,P|308:360|229:343,1,170,10|8,0:1|0:0,0:0:0:0:
169,272,35688,1,2,0:0:0:0:
132,375,35859,1,8,0:1:0:0:
90,233,36030,1,8,0:1:0:0:
132,364,36202,1,10,0:0:0:0:
161,190,36373,1,2,0:0:0:0:
132,353,36545,6,0,P|90:353|51:326,1,85,10|0,0:1|0:0,0:0:0:0:
9,252,36888,1,8,0:0:0:0:
158,143,37059,2,0,L|166:234,1,85,2|8,0:0|0:1,0:0:0:0:
66,172,37402,1,10,0:1:0:0:
155,57,37573,2,0,P|196:60|227:88,1,85,8|0,0:0|0:0,0:0:0:0:
319,268,37916,6,0,L|334:92,1,170,10|8,0:1|0:0,0:0:0:0:
344,14,38430,1,2,0:0:0:0:
414,91,38602,1,8,2:1:0:0:
253,163,38773,1,8,0:1:0:0:
338,18,38945,1,10,0:0:0:0:
398,214,39116,1,2,0:0:0:0:
232,61,39288,6,0,P|153:86|118:161,1,170,10|8,0:1|0:0,0:0:0:0:
158,261,39802,1,2,1:0:0:0:
162,265,39888,1,0,1:0:0:0:
166,269,39973,1,8,1:1:0:0:
217,158,40145,1,10,1:2:0:0:
271,295,40316,1,8,0:3:0:0:
70,231,40488,1,8,0:3:0:0:
302,150,40659,6,0,L|314:292,1,127.500004863739,14|0,0:1|0:0,0:0:0:0:
186,89,41345,2,0,L|173:231,1,127.500004863739,10|2,0:0|0:0,0:0:0:0:
128,303,41859,1,8,0:0:0:0:
229,293,42030,5,8,2:1:0:0:
330,283,42202,1,8,0:0:0:0:
431,273,42373,1,0,0:0:0:0:
331,265,42545,1,8,0:1:0:0:
231,275,42716,5,10,0:0:0:0:
332,247,42888,1,0,0:0:0:0:
432,255,43059,1,0,0:0:0:0:
333,229,43230,1,0,0:0:0:0:
232,257,43402,6,0,L|221:129,1,127.500004863739,10|0,0:1|0:0,0:0:0:0:
432,255,44088,2,0,L|442:127,1,127.500004863739,10|2,0:0|0:0,0:0:0:0:
486,37,44602,1,8,0:0:0:0:
385,47,44773,5,10,0:1:0:0:
284,57,44945,1,8,0:0:0:0:
183,67,45116,1,0,0:0:0:0:
283,75,45288,1,8,0:1:0:0:
383,65,45459,5,10,0:0:0:0:
282,93,45630,1,0,0:0:0:0:
182,85,45802,1,0,0:0:0:0:
281,111,45973,1,0,0:0:0:0:
382,83,46145,6,0,L|392:210,1,127.500004863739,8|0,0:1|0:0,0:0:0:0:
182,85,46830,2,0,L|171:212,1,127.500004863739,10|2,0:0|0:0,0:0:0:0:
121,292,47345,1,8,0:0:0:0:
78,208,47516,5,10,0:1:0:0:
250,180,47688,1,8,0:0:0:0:
71,217,47859,1,0,0:0:0:0:
243,189,48030,1,8,0:1:0:0:
174,307,48202,5,10,0:0:0:0:
141,98,48373,1,0,0:0:0:0:
181,310,48545,1,8,0:0:0:0:
148,101,48716,1,8,0:0:0:0:
152,105,48802,1,8,0:0:0:0:
156,109,48888,5,14,0:1:0:0:
433,27,49573,1,14,0:1:0:0:
156,109,50259,1,14,0:1:0:0:
433,27,50945,1,14,0:1:0:0:
467,310,51373,1,0,1:0:0:0:
432,309,51459,1,0,1:0:0:0:
398,296,51545,1,0,1:0:0:0:
377,270,51630,6,0,P|330:258|283:264,1,95.6250036478044,14|0,0:1|0:0,0:0:0:0:
267,278,51973,1,8,0:1:0:0:
223,360,52145,1,0,0:0:0:0:
182,237,52316,1,8,0:1:0:0:
350,195,52488,1,0,0:0:0:0:
270,157,52659,1,8,0:0:0:0:
438,122,52830,1,0,0:0:0:0:
270,157,53002,6,0,L|263:228,1,68,8|0,0:1|0:0,0:0:0:0:
194,339,53345,2,0,L|188:271,1,68,8|8,0:1|0:0,0:0:0:0:
300,383,53688,1,10,0:1:0:0:
336,220,53859,1,8,0:0:0:0:
369,317,54030,1,8,0:1:0:0:
205,281,54202,1,8,0:0:0:0:
261,117,54373,6,0,P|287:179|271:254,1,136,14|12,0:1|2:1,0:0:0:0:
151,67,54888,1,8,0:0:0:0:
151,67,54973,1,8,0:0:0:0:
151,67,55059,2,0,L|205:62,1,34,8|0,0:1|0:0,0:0:0:0:
271,138,55230,1,8,0:0:0:0:
271,138,55316,1,8,0:0:0:0:
271,138,55402,2,0,L|319:142,1,34,8|8,0:3|0:3,0:0:0:0:
395,71,55573,1,4,0:3:0:0:
395,71,55659,1,4,0:3:0:0:
395,71,55745,5,14,0:1:0:0:
501,123,55916,1,8,0:1:0:0:
414,218,56088,2,0,L|370:221,3,34,0|0|0|0,1:0|1:0|1:0|1:0,0:0:0:0:
310,266,56430,2,0,L|266:262,3,34,0|0|0|0,1:0|1:0|1:0|1:0,0:0:0:0:
226,194,56773,2,0,L|182:197,3,34,8|8|8|8,0:3|0:3|0:3|0:3,0:0:0:0:
122,162,57116,5,14,0:2:0:0:
97,239,57288,1,0,0:0:0:0:
143,81,57459,5,10,0:0:0:0:
118,158,57630,1,8,0:1:0:0:
164,0,57802,5,10,0:0:0:0:
139,77,57973,1,8,0:1:0:0:
293,60,58145,2,0,L|213:66,1,68,10|8,0:0|0:1,0:0:0:0:
356,130,58488,5,10,0:2:0:0:
377,49,58659,1,10,0:2:0:0:
339,215,58830,5,10,0:0:0:0:
360,134,59002,1,8,0:1:0:0:
322,300,59173,5,10,0:0:0:0:
343,219,59345,1,8,0:1:0:0:
187,242,59516,2,0,L|262:235,1,68,10|8,0:0|0:1,0:0:0:0:
96,196,59859,5,10,0:0:0:0:
50,287,60030,1,0,0:0:0:0:
141,333,60202,5,10,0:0:0:0:
187,242,60373,1,8,0:1:0:0:
50,287,60545,5,10,0:0:0:0:
141,333,60716,1,8,0:1:0:0:
96,196,60888,5,10,0:0:0:0:
195,250,61059,1,0,1:0:0:0:
195,250,61145,1,0,1:0:0:0:
195,250,61230,1,10,1:1:0:0:
31,299,62602,6,0,P|109:249|201:242,1,187.000005706787,14|8,0:1|0:0,0:0:0:0:
277,297,63116,1,2,0:0:0:0:
375,215,63288,2,0,P|332:197|286:205,1,93.5000028533936,8|8,0:1|0:1,0:0:0:0:
447,291,63630,2,0,L|456:187,1,93.5000028533936,8|0,0:0|0:0,0:0:0:0:
469,65,63973,6,0,B|424:47|375:63|389:92|327:102|292:71,1,187.000005706787,10|8,0:1|0:0,0:0:0:0:
225,15,64488,1,2,0:0:0:0:
89,117,64659,2,0,P|133:128|177:114,1,93.5000028533936,10|8,0:1|0:1,0:0:0:0:
204,96,64916,2,0,L|208:205,1,93.5000028533936,2|0,0:0|0:0,0:0:0:0:
210,216,65173,1,8,0:1:0:0:
424,233,65345,6,0,P|381:155|292:161,1,187.000005706787,10|8,0:1|0:0,0:0:0:0:
341,232,65859,1,2,0:0:0:0:
378,123,66030,1,8,0:1:0:0:
428,237,66202,1,8,0:1:0:0:
440,70,66373,2,0,P|403:44|351:48,1,93.5000028533936,8|2,0:0|0:0,0:0:0:0:
135,189,66716,6,0,B|180:171|229:187|215:216|277:226|312:195,1,187.000005706787,10|8,0:1|0:0,0:0:0:0:
374,140,67230,1,2,0:0:0:0:
417,230,67402,1,10,0:1:0:0:
465,146,67573,1,8,0:1:0:0:
311,195,67745,1,8,0:0:0:0:
418,66,67916,1,0,0:0:0:0:
432,324,68088,5,14,0:1:0:0:
432,324,68430,2,0,P|384:294|327:306,1,93.5000028533936,10|2,0:0|0:0,0:0:0:0:
186,307,68773,2,0,P|234:337|291:325,1,93.5000028533936,8|2,0:1|0:0,0:0:0:0:
263,158,69116,2,0,L|272:261,1,93.5000028533936,10|0,0:0|0:0,0:0:0:0:
351,123,69459,1,8,0:1:0:0:
274,74,69630,1,0,0:0:0:0:
91,143,69802,2,0,L|186:134,1,93.5000028533936,10|2,0:0|0:0,0:0:0:0:
314,222,70145,2,0,L|214:213,1,93.5000028533936,8|2,0:1|0:0,0:0:0:0:
7,154,70488,2,0,P|13:108|44:75,1,93.5000028533936,10|0,0:0|0:0,0:0:0:0:
182,169,70830,1,8,0:1:0:0:
79,223,71002,1,0,0:0:0:0:
176,80,71173,2,0,P|222:85|257:114,1,93.5000028533936,10|0,0:0|0:0,0:0:0:0:
337,211,71516,2,0,P|293:228|267:265,1,93.5000028533936,10|0,0:1|0:0,0:0:0:0:
314,15,71859,5,0,1:0:0:0:
333,16,71945,1,0,1:0:0:0:
353,18,72030,1,0,1:0:0:0:
369,19,72116,1,0,1:0:0:0:
389,21,72202,1,10,0:1:0:0:
495,33,72373,1,10,0:1:0:0:
495,33,72716,6,0,P|453:82|447:157,1,140.25000428009,14|0,2:1|0:0,0:0:0:0:
464,263,73059,1,8,0:0:0:0:
464,263,73145,1,0,0:0:0:0:
464,263,73230,2,0,L|401:257,3,46.7500014266968,2|0|0|0,1:2|1:0|1:0|1:0,0:0:0:0:
414,255,73573,6,0,B|369:237|320:253|334:282|272:292|237:261,1,187.000005706787,14|8,0:1|0:0,0:0:0:0:
177,187,74088,1,2,0:0:0:0:
147,274,74259,1,8,0:1:0:0:
279,189,74430,1,8,0:1:0:0:
116,118,74602,2,0,P|90:156|89:203,1,93.5000028533936,8|0,0:0|0:0,0:0:0:0:
308,259,74945,6,0,P|265:181|176:186,1,187.000005706787,10|8,0:1|0:0,0:0:0:0:
110,241,75459,1,2,0:0:0:0:
222,375,75630,2,0,P|210:329|217:284,1,93.5000028533936,10|8,0:1|0:1,0:0:0:0:
223,260,75888,2,0,L|330:273,1,93.5000028533936,2|0,0:0|0:0,0:0:0:0:
342,274,76145,1,0,0:0:0:0:
369,145,76316,6,0,B|321:120|274:137|285:161|228:176|190:149,1,187.000005706787,10|8,0:1|0:0,0:0:0:0:
131,223,76830,1,2,0:0:0:0:
9,142,77002,2,0,P|53:130|97:143,1,93.5000028533936,10|8,0:1|0:1,0:0:0:0:
245,62,77345,2,0,P|200:50|156:63,1,93.5000028533936,10|0,0:0|0:0,0:0:0:0:
121,263,77688,6,0,P|200:224|200:135,1,187.000005706787,2|12,2:1|0:0,0:0:0:0:
153,58,78202,1,8,0:1:0:0:
130,176,78373,1,14,2:2:0:0:
130,176,78716,2,0,L|193:181,1,46.7500014266968,0|0,1:0|0:0,0:0:0:0:
188,329,78888,1,0,1:0:0:0:
188,329,78973,1,0,1:0:0:0:
188,329,79059,6,0,L|299:319,1,93.5000028533936,14|0,0:1|0:0,0:0:0:0:
447,181,79402,2,0,L|335:171,1,93.5000028533936,8|2,0:0|0:0,0:0:0:0:
358,349,79745,2,0,P|393:320|400:275,1,93.5000028533936,8|0,0:1|0:0,0:0:0:0:
275,199,80088,2,0,P|281:244|317:272,1,93.5000028533936,8|0,0:0|0:0,0:0:0:0:
301,111,80430,2,0,P|255:104|213:123,1,93.5000028533936,10|0,0:1|0:0,0:0:0:0:
93,199,80773,2,0,P|138:192|180:211,1,93.5000028533936,8|2,0:0|0:0,0:0:0:0:
309,278,81116,2,0,P|263:271|221:290,1,93.5000028533936,8|0,0:1|0:1,0:0:0:0:
190,370,81459,1,10,0:0:0:0:
128,272,81630,1,2,0:0:0:0:
290,316,81802,6,0,L|401:306,1,93.5000028533936,10|0,0:1|0:0,0:0:0:0:
436,217,82145,1,10,0:0:0:0:
340,233,82316,1,2,0:0:0:0:
423,383,82488,2,0,P|458:354|465:309,1,93.5000028533936,8|2,0:1|0:0,0:0:0:0:
340,233,82831,2,0,P|346:278|382:306,1,93.5000028533936,8|2,0:0|0:0,0:0:0:0:
462,85,83173,5,14,0:1:0:0:
369,37,83345,1,8,0:0:0:0:
369,37,83430,1,0,0:0:0:0:
369,37,83516,1,10,0:1:0:0:
288,110,83688,1,8,0:0:0:0:
288,110,83773,1,8,0:0:0:0:
288,110,83859,1,10,0:1:0:0:
167,36,84030,1,8,0:0:0:0:
164,73,84116,1,8,0:0:0:0:
161,110,84202,1,2,1:2:0:0:
159,147,84288,1,0,1:2:0:0:
158,184,84373,1,2,1:2:0:0:
156,221,84459,1,0,1:2:0:0:
154,254,84545,6,0,P|219:228|255:170,1,114.749996498108,14|0,0:0|0:0,0:0:0:0:
243,167,84888,1,8,0:1:0:0:
454,215,85059,2,0,P|389:189|353:131,1,114.749996498108,14|0,0:0|0:0,0:0:0:0:
373,135,85402,1,8,0:1:0:0:
395,339,85573,1,14,0:2:0:0:
395,339,86088,1,8,0:1:0:0:
326,267,86259,2,0,L|242:274,1,76.4999976654053,14|0,0:0|0:0,0:0:0:0:
119,190,86602,2,0,L|202:197,1,76.4999976654053,10|0,0:0|0:0,0:0:0:0:
218,353,86945,2,0,P|186:332|168:299,1,76.4999976654053,10|0,0:0|0:0,0:0:0:0:
200,94,87288,6,0,P|265:120|301:178,1,114.749996498108,14|0,0:0|0:0,0:0:0:0:
281,173,87631,1,8,0:1:0:0:
426,202,87802,2,0,P|361:228|325:286,1,114.749996498108,14|0,0:0|0:0,0:0:0:0:
344,285,88145,1,8,0:1:0:0:
386,42,88316,1,14,0:0:0:0:
386,42,88830,1,8,0:1:0:0:
436,129,89002,2,0,L|426:232,1,76.4999976654053,12|0,0:0|0:0,0:0:0:0:
364,268,89345,2,0,L|373:371,1,76.4999976654053,12|8,0:0|0:1,0:0:0:0:
341,184,89688,1,0,1:0:0:0:
236,301,89859,1,0,1:0:0:0:
232,305,89945,1,0,1:0:0:0:
228,309,90030,6,0,L|215:169,1,114.749996498108,14|0,0:0|0:0,0:0:0:0:
214,170,90373,1,8,0:1:0:0:
88,240,90545,2,0,L|100:100,1,114.749996498108,14|0,0:0|0:0,0:0:0:0:
101,101,90888,1,8,0:1:0:0:
142,332,91059,1,14,0:0:0:0:
142,332,91573,1,8,0:1:0:0:
61,272,91745,2,0,P|55:234|64:197,1,76.4999976654053,14|0,0:1|0:0,0:0:0:0:
115,120,92088,2,0,P|120:82|111:45,1,76.4999976654053,10|0,0:0|0:0,0:0:0:0:
171,205,92430,2,0,L|226:200,3,38.2499988327027,0|0|0|0,1:0|1:0|1:0|1:0,0:0:0:0:
214,198,92773,6,0,P|279:180|343:202,1,114.749996498108,14|8,0:1|0:0,0:0:0:0:
334,213,93116,1,10,2:2:0:0:
377,95,93288,2,0,P|424:143|437:208,1,114.749996498108,14|8,0:1|0:0,0:0:0:0:
426,209,93631,1,10,2:2:0:0:
458,28,93802,1,14,0:1:0:0:
458,28,94145,5,0,0:0:0:0:
408,101,94316,1,8,0:0:0:0:
408,101,94402,1,8,0:0:0:0:
308,25,94659,6,0,P|266:21|226:36,2,85,8|4|8,0:3|0:3|0:3,0:0:0:0:
275,110,95516,6,0,L|268:181,1,63.7500024318696,14|0,0:1|0:0,0:0:0:0:
260,262,95859,1,0,0:0:0:0:
130,200,96030,2,0,P|161:196|192:201,1,63.7500024318696,8|0,0:0|0:0,0:0:0:0:
85,288,96373,1,8,0:1:0:0:
41,204,96545,2,0,L|46:136,1,63.7500024318696,8|0,0:0|0:0,0:0:0:0:
114,27,96888,6,0,L|118:90,1,63.7500024318696,10|8,0:1|0:1,0:0:0:0:
126,174,97230,1,0,0:0:0:0:
256,108,97402,2,0,L|261:44,1,63.7500024318696,8|0,0:0|0:0,0:0:0:0:
286,191,97745,1,8,0:0:0:0:
207,229,97916,2,0,L|200:157,1,63.7500024318696,8|0,0:1|0:1,0:0:0:0:
256,308,98259,5,10,0:1:0:0:
299,230,98430,2,0,P|330:228|361:236,1,63.7500024318696,0|0,0:0|0:0,0:0:0:0:
448,290,98773,2,0,L|454:218,2,63.7500024318696,8|0|8,0:0|0:0|0:1,0:0:0:0:
365,331,99288,2,0,P|333:332|302:324,1,63.7500024318696,8|0,0:0|0:0,0:0:0:0:
232,270,99630,5,10,0:1:0:0:
163,315,99802,1,8,0:1:0:0:
88,279,99973,1,2,0:0:0:0:
83,197,100145,1,8,0:0:0:0:
223,186,100316,1,10,0:0:0:0:
152,151,100488,1,8,0:3:0:0:
111,83,100659,1,6,0:3:0:0:
154,17,100830,1,8,0:3:0:0:
159,234,101002,6,0,L|230:227,1,63.7500024318696,10|10,0:1|0:1,0:0:0:0:
142,222,101516,2,0,L|303:207,1,127.500004863739,14|8,0:0|0:1,0:0:0:0:
353,205,102030,1,8,0:0:0:0:
465,132,102373,6,0,L|393:125,1,63.7500024318696,10|10,0:1|0:1,0:0:0:0:
484,116,102888,1,14,0:2:0:0:
313,106,103059,1,8,0:1:0:0:
309,110,103145,1,0,0:0:0:0:
305,114,103230,2,0,L|309:165,1,31.8750012159348,8|8,0:0|0:0,0:0:0:0:
430,288,103402,1,8,0:3:0:0:
409,303,103488,1,8,0:3:0:0:
383,306,103573,1,8,0:3:0:0:
359,295,103659,1,8,0:3:0:0:
342,279,103745,6,0,P|283:255|222:269,1,127.500004863739,14|0,0:1|0:0,0:0:0:0:
152,318,104259,1,12,0:0:0:0:
114,220,104430,2,0,L|38:226,1,63.7500024318696,8|10,0:0|0:3,0:0:0:0:
158,132,104773,1,8,0:3:0:0:
248,144,104945,1,0,0:0:0:0:
89,70,105116,6,0,P|73:97|70:129,2,63.7500024318696,0|0|0,0:0|0:0|0:0,0:0:0:0:
145,4,105630,2,0,L|166:2,1,15.9375006079674,2|0,0:0|0:0,0:0:0:0:
415,32,106488,6,0,P|439:94|425:160,1,136,14|8,0:1|0:0,0:0:0:0:
372,240,107002,1,2,0:0:0:0:
336,157,107173,1,8,0:1:0:0:
294,293,107345,1,8,0:1:0:0:
473,243,107516,2,0,L|480:326,1,68,10|0,0:0|0:0,0:0:0:0:
336,157,107859,6,0,B|302:143|265:156|275:177|228:185|206:165,1,136,10|8,0:1|0:0,0:0:0:0:
141,108,108373,1,2,0:0:0:0:
53,196,108545,2,0,L|133:193,1,68,8|8,0:1|0:1,0:0:0:0:
254,265,108888,2,0,L|173:262,1,68,10|2,0:0|0:0,0:0:0:0:
24,318,109230,6,0,P|59:261|52:195,1,136,10|8,0:1|0:0,0:0:0:0:
4,124,109745,1,2,0:0:0:0:
70,32,109916,2,0,L|137:37,1,68,8|10,2:1|2:1,0:0:0:0:
254,112,110259,2,0,L|186:117,1,68,8|0,0:2|0:0,0:0:0:0:
383,41,110602,5,10,0:1:0:0:
383,41,110945,2,0,P|396:73|392:106,1,68,8|2,0:0|0:0,0:0:0:0:
351,186,111288,2,0,P|343:218|354:251,1,68,10|8,0:1|0:1,0:0:0:0:
506,177,111630,2,0,P|472:171|440:180,1,68,10|0,0:0|0:0,0:0:0:0:
374,330,111973,6,0,B|340:344|303:331|313:310|266:302|244:322,1,136,10|8,0:1|0:0,0:0:0:0:
177,380,112488,1,2,0:0:0:0:
136,249,112659,1,8,0:1:0:0:
177,367,112830,1,8,0:1:0:0:
221,221,113002,1,10,0:0:0:0:
177,354,113173,1,2,0:0:0:0:
161,160,113345,6,0,P|226:135|294:177,1,136,10|8,0:1|0:0,0:0:0:0:
333,231,113859,1,2,0:0:0:0:
383,115,114030,1,8,0:1:0:0:
433,195,114202,1,10,0:1:0:0:
486,42,114373,2,0,L|480:109,1,68,8|0,0:0|0:0,0:0:0:0:
312,36,114716,6,0,L|176:47,1,136,10|8,0:1|0:0,0:0:0:0:
88,54,115230,1,2,0:0:0:0:
137,136,115402,1,8,2:1:0:0:
176,46,115573,1,8,0:1:0:0:
45,140,115745,2,0,P|51:180|75:210,1,68,10|2,0:0|0:0,0:0:0:0:
251,260,116088,5,10,0:1:0:0:
251,260,116430,1,8,0:0:0:0:
361,184,116602,2,0,L|356:235,1,34,2|0,1:0|1:0,0:0:0:0:
352,308,116773,1,8,1:1:0:0:
472,208,116945,1,2,1:2:0:0:
472,208,117030,1,0,1:2:0:0:
472,208,117116,2,0,P|459:239|432:258,1,68,8|4,0:3|0:3,0:0:0:0:
250,304,117459,6,0,P|241:237|196:188,1,136,14|0,0:1|0:0,0:0:0:0:
268,104,118145,2,0,P|206:78|141:92,1,136,10|0,0:0|0:0,0:0:0:0:
111,172,118659,1,8,0:2:0:0:
223,177,118830,5,10,2:1:0:0:
324,167,119002,1,8,0:0:0:0:
425,157,119173,1,0,0:0:0:0:
325,149,119345,1,8,0:1:0:0:
225,159,119516,5,10,0:0:0:0:
326,131,119688,1,0,0:0:0:0:
426,139,119859,1,0,0:0:0:0:
327,113,120030,1,0,0:0:0:0:
226,141,120202,6,0,L|214:3,1,136,10|0,0:1|0:0,0:0:0:0:
349,261,120888,2,0,L|360:123,1,136,10|2,0:0|0:0,0:0:0:0:
420,53,121402,1,8,0:0:0:0:
308,48,121573,5,10,0:1:0:0:
207,58,121745,1,8,0:0:0:0:
106,68,121916,1,0,0:0:0:0:
206,76,122088,1,8,0:1:0:0:
306,66,122259,5,10,0:0:0:0:
205,94,122431,1,8,0:0:0:0:
105,86,122602,1,8,0:3:0:0:
204,112,122773,1,4,0:3:0:0:
305,84,122945,6,0,P|321:149|303:216,1,136,8|0,0:1|0:0,0:0:0:0:
477,299,123630,2,0,P|416:269|343:283,1,136,10|2,0:0|0:0,0:0:0:0:
285,341,124145,1,8,0:0:0:0:
242,257,124316,5,10,0:1:0:0:
414,229,124488,1,8,0:0:0:0:
235,266,124659,1,8,0:0:0:0:
407,238,124830,1,8,0:1:0:0:
342,371,125002,5,14,0:0:0:0:
306,151,125173,1,8,0:0:0:0:
348,375,125345,1,8,0:3:0:0:
313,154,125516,1,4,0:3:0:0:
353,379,125688,5,14,0:1:0:0:
406,236,126030,2,0,L|445:239,3,34,0|0|0|0,1:0|1:0|1:0|1:0,0:0:0:0:
353,299,126373,5,14,0:1:0:0:
290,122,126716,2,0,L|250:125,3,34,0|0|0|0,1:0|1:0|1:0|1:0,0:0:0:0:
350,178,127059,5,14,0:1:0:0:
416,0,127402,2,0,L|455:3,3,34,0|0|0|0,1:0|1:0|1:0|1:0,0:0:0:0:
348,52,127745,5,14,0:1:0:0:
350,215,128088,2,0,L|353:176,3,34,0|0|0|0,1:0|1:0|1:0|1:0,0:0:0:0:
350,178,128430,6,0,L|274:184,1,68,14|0,0:1|0:0,0:0:0:0:
148,258,128773,2,0,L|223:264,1,68,8|2,0:0|0:0,0:0:0:0:
239,114,129116,2,0,P|212:135|199:165,1,68,8|2,0:1|0:0,0:0:0:0:
307,244,129459,2,0,P|301:210|282:183,1,68,8|0,0:0|0:0,0:0:0:0:
248,343,129802,6,0,L|303:338,1,34,10|0,0:1|0:0,0:0:0:0:
431,260,129973,2,0,L|375:255,1,34,0|0,0:0|0:0,0:0:0:0:
244,347,130145,2,0,L|299:342,1,34,14|0,0:0|0:0,0:0:0:0:
435,264,130316,2,0,L|395:260,1,34,0|0,1:0|1:0,0:0:0:0:
369,375,130488,1,8,1:1:0:0:
369,375,130573,1,8,1:1:0:0:
369,375,130659,2,0,L|372:335,1,34,0|0,1:1|1:1,0:0:0:0:
268,217,130830,1,8,0:3:0:0:
268,217,130915,1,8,0:3:0:0:
268,217,131002,2,0,L|274:271,1,34,4|4,0:3|0:3,0:0:0:0:
174,338,131173,6,0,P|135:331|103:310,1,68,14|0,0:1|0:0,0:0:0:0:
106,282,131430,1,2,0:0:0:0:
106,282,131516,1,0,0:0:0:0:
171,208,131688,1,10,0:0:0:0:
320,251,131859,2,0,P|290:268|256:273,1,68,8|8,0:1|0:0,0:0:0:0:
422,268,132202,2,0,L|417:336,1,68,2|10,0:3|0:0,0:0:0:0:
486,84,132545,5,14,2:1:0:0:
402,161,132716,1,8,0:0:0:0:
398,165,132802,1,8,0:0:0:0:
394,169,132888,2,0,L|350:165,1,34,8|8,0:1|0:1,0:0:0:0:
282,115,133059,2,0,L|238:119,1,34,8|8,0:1|0:1,0:0:0:0:
162,170,133230,1,8,0:3:0:0:
161,177,133316,1,8,0:3:0:0:
160,185,133402,1,8,0:3:0:0:
159,193,133488,1,8,0:3:0:0:
159,201,133573,1,6,0:3:0:0:
158,209,133659,1,4,0:3:0:0:
157,217,133745,2,0,L|153:252,1,34,4|4,0:3|0:3,0:0:0:0:
278,228,133916,5,14,0:2:0:0:
299,309,134088,1,0,0:0:0:0:
253,151,134259,5,10,0:0:0:0:
274,232,134430,1,8,0:1:0:0:
228,68,134602,5,10,0:0:0:0:
249,155,134773,1,8,0:1:0:0:
132,33,134945,2,0,L|126:100,1,68,10|8,0:0|0:1,0:0:0:0:
84,223,135288,5,10,0:2:0:0:
0,239,135459,1,0,0:0:0:0:
164,211,135630,5,10,0:0:0:0:
80,227,135802,1,8,0:1:0:0:
244,199,135973,5,10,0:0:0:0:
160,215,136145,1,8,0:1:0:0:
304,111,136316,2,0,L|383:117,1,68,10|8,0:0|0:1,0:0:0:0:
378,220,136659,5,10,0:0:0:0:
312,282,136830,1,0,0:0:0:0:
374,348,137002,5,10,0:0:0:0:
440,286,137173,1,8,0:1:0:0:
312,282,137345,5,10,0:0:0:0:
440,286,137516,1,8,0:1:0:0:
374,348,137688,5,10,0:0:0:0:
385,227,137859,1,0,1:0:0:0:
385,227,137945,1,0,1:0:0:0:
385,227,138030,1,10,1:1:0:0:
468,325,139402,6,0,P|427:242|439:150,1,187.000005706787,14|8,0:1|0:0,0:0:0:0:
506,81,139916,1,2,0:0:0:0:
312,76,140088,2,0,L|415:66,1,93.5000028533936,8|8,0:1|0:1,0:0:0:0:
247,17,140430,2,0,P|228:59|231:105,1,93.5000028533936,8|0,0:0|0:0,0:0:0:0:
361,184,140773,6,0,B|316:166|267:182|281:211|219:221|184:190,1,187.000005706787,10|8,0:1|0:0,0:0:0:0:
142,109,141288,1,2,0:0:0:0:
289,213,141459,2,0,L|280:306,1,93.5000028533936,10|8,0:1|0:1,0:0:0:0:
277,330,141716,2,0,P|320:313|364:325,1,93.5000028533936,2|0,0:0|0:0,0:0:0:0:
385,340,141973,1,8,0:1:0:0:
497,203,142145,6,0,P|454:281|365:275,1,187.000005706787,10|8,0:1|0:0,0:0:0:0:
293,209,142659,1,2,0:0:0:0:
304,326,142830,1,8,0:1:0:0:
415,204,143002,1,8,0:1:0:0:
220,159,143173,2,0,P|208:203|213:250,1,93.5000028533936,8|2,0:0|0:0,0:0:0:0:
340,330,143516,6,0,B|295:312|246:328|260:357|198:367|163:336,1,187.000005706787,10|8,0:1|0:0,0:0:0:0:
208,270,144030,1,2,0:0:0:0:
127,246,144202,1,10,0:1:0:0:
83,167,144373,1,8,0:1:0:0:
60,62,144545,1,8,0:0:0:0:
44,234,144716,1,0,0:0:0:0:
132,106,144888,5,14,0:1:0:0:
132,106,145230,2,0,L|233:114,1,93.5000028533936,10|2,0:0|0:0,0:0:0:0:
357,204,145573,2,0,L|255:212,1,93.5000028533936,8|2,0:1|0:0,0:0:0:0:
270,44,145916,2,0,P|306:81|306:133,1,93.5000028533936,10|0,0:0|0:0,0:0:0:0:
140,158,146259,1,8,0:1:0:0:
225,113,146430,1,0,0:0:0:0:
200,276,146602,2,0,L|100:284,1,93.5000028533936,10|2,0:0|0:0,0:0:0:0:
263,212,146945,2,0,L|362:220,1,93.5000028533936,8|2,0:1|0:0,0:0:0:0:
192,365,147288,2,0,P|184:319|199:275,1,93.5000028533936,10|0,0:0|0:0,0:0:0:0:
356,219,147630,1,8,0:1:0:0:
302,302,147802,1,0,0:0:0:0:
84,177,147973,2,0,L|179:185,1,93.5000028533936,10|0,0:0|0:0,0:0:0:0:
328,100,148316,2,0,L|232:108,1,93.5000028533936,10|0,0:1|0:0,0:0:0:0:
241,259,148659,5,0,1:0:0:0:
260,260,148745,1,0,1:0:0:0:
280,262,148830,1,0,1:0:0:0:
296,263,148916,1,0,1:0:0:0:
316,265,149002,1,10,0:1:0:0:
422,277,149173,1,10,0:1:0:0:
422,277,149516,6,0,P|441:213|415:135,1,140.25000428009,14|0,2:1|0:0,0:0:0:0:
357,90,149859,1,8,0:0:0:0:
353,86,149945,1,0,0:0:0:0:
349,82,150030,2,0,L|355:19,3,46.7500014266968,2|0|0|0,1:2|1:0|1:0|1:0,0:0:0:0:
349,39,150373,6,0,B|304:57|255:41|269:12|207:2|172:33,1,187.000005706787,14|8,0:1|0:0,0:0:0:0:
115,113,150888,1,2,0:0:0:0:
85,26,151059,1,8,0:1:0:0:
217,111,151230,1,8,0:1:0:0:
54,182,151402,2,0,P|28:144|27:97,1,93.5000028533936,8|0,0:0|0:0,0:0:0:0:
246,39,151745,6,0,P|203:117|114:112,1,187.000005706787,10|8,0:1|0:0,0:0:0:0:
161,39,152259,1,2,0:0:0:0:
250,125,152430,2,0,L|239:233,1,93.5000028533936,10|8,0:1|0:1,0:0:0:0:
235,245,152688,2,0,P|277:224|323:227,1,93.5000028533936,2|0,0:0|0:0,0:0:0:0:
346,240,152945,1,0,0:0:0:0:
390,46,153116,6,0,B|342:71|295:54|306:30|249:15|211:42,1,187.000005706787,10|8,0:1|0:0,0:0:0:0:
157,121,153630,1,2,0:0:0:0:
34,39,153802,2,0,P|77:25|120:42,1,93.5000028533936,10|8,0:1|0:1,0:0:0:0:
111,199,154145,2,0,P|77:167|70:122,1,93.5000028533936,10|0,0:0|0:0,0:0:0:0:
319,66,154488,6,0,P|227:62|156:120,1,187.000005706787,2|12,2:1|0:0,0:0:0:0:
115,203,155002,1,8,0:1:0:0:
286,240,155173,2,0,P|253:207|208:196,1,93.5000028533936,14|8,2:2|0:1,0:0:0:0:
273,327,155516,1,8,1:0:0:0:
376,250,155688,1,0,1:0:0:0:
376,250,155773,1,0,1:0:0:0:
376,250,155859,6,0,L|475:258,1,93.5000028533936,14|0,0:1|0:0,0:0:0:0:
310,173,156202,2,0,L|210:181,1,93.5000028533936,8|2,0:0|0:0,0:0:0:0:
357,337,156545,2,0,P|378:296|375:249,1,93.5000028533936,8|0,0:1|0:0,0:0:0:0:
329,86,156888,2,0,P|307:126|310:173,1,93.5000028533936,8|0,0:0|0:0,0:0:0:0:
496,153,157230,2,0,L|396:161,1,93.5000028533936,10|0,0:1|0:0,0:0:0:0:
195,249,157573,2,0,L|294:257,1,93.5000028533936,8|2,0:0|0:0,0:0:0:0:
140,181,157916,2,0,P|109:215|103:261,1,93.5000028533936,8|0,0:1|0:1,0:0:0:0:
161,339,158259,1,10,0:0:0:0:
288,257,158430,1,2,0:0:0:0:
98,110,158602,6,0,B|146:85|193:102|182:126|239:141|277:114,1,187.000005706787,10|10,0:1|0:0,0:0:0:0:
337,49,159116,1,2,0:0:0:0:
458,121,159288,2,0,P|419:145|374:138,1,93.5000028533936,8|2,0:1|0:0,0:0:0:0:
366,271,159630,2,0,P|325:249|308:207,1,93.5000028533936,8|2,0:0|0:0,0:0:0:0:
384,45,159973,6,0,L|373:148,1,93.5000028533936,10|8,0:1|0:0,0:0:0:0:
318,300,160316,2,0,L|308:207,1,93.5000028533936,14|8,0:1|0:0,0:0:0:0:
225,65,160659,1,2,1:0:0:0:
223,82,160745,1,0,1:0:0:0:
221,100,160830,1,0,1:0:0:0:
220,118,160916,1,0,1:0:0:0:
218,136,161002,1,2,1:0:0:0:
217,154,161088,1,0,1:0:0:0:
215,172,161173,1,0,1:0:0:0:
214,190,161259,1,0,1:0:0:0:
212,206,161345,6,0,P|134:182|77:240,1,170,14|8,0:1|0:0,0:0:0:0:
71,326,161859,1,2,0:0:0:0:
163,361,162030,2,0,L|154:276,2,85,8|10|8,0:1|0:1|0:0,0:0:0:0:
142,194,162545,1,2,0:0:0:0:
71,326,162716,5,10,0:1:0:0:
3,271,162888,2,0,P|37:244|80:241,1,85,2|8,0:0|0:0,0:0:0:0:
235,214,163230,2,0,P|204:183|160:176,1,85,2|8,0:0|0:1,0:0:0:0:
23,148,163573,2,0,P|51:115|93:103,1,85,10|8,0:1|0:0,0:0:0:0:
188,79,163916,1,2,0:0:0:0:
173,241,164088,6,0,L|345:254,2,170,10|8|8,0:1|0:0|0:1,0:0:0:0:
93,232,164945,1,10,0:1:0:0:
53,163,165116,1,8,0:0:0:0:
93,93,165288,1,2,0:0:0:0:
170,136,165459,5,10,0:1:0:0:
254,140,165630,1,2,0:0:0:0:
294,71,165802,1,10,0:0:0:0:
422,134,165973,2,0,L|338:141,1,85,2|8,0:0|0:1,0:0:0:0:
213,212,166316,2,0,L|296:219,1,85,10|8,0:1|0:0,0:0:0:0:
351,285,166659,1,2,0:0:0:0:
422,134,166830,6,0,P|345:99|261:109,1,170,14|8,0:1|0:0,0:0:0:0:
185,166,167345,2,0,L|177:78,1,85,2|8,0:0|0:1,0:0:0:0:
122,236,167688,2,0,L|114:323,1,85,10|8,0:1|0:0,0:0:0:0:
110,126,168030,2,0,P|137:94|177:81,1,85,2|8,0:0|0:1,0:0:0:0:
257,201,168373,2,0,P|215:193|184:165,1,85,2|8,0:0|0:0,0:0:0:0:
254,24,168716,2,0,L|262:115,1,85,2|8,0:0|0:1,0:0:0:0:
341,256,169059,2,0,L|348:171,1,85,8|8,0:1|0:0,0:0:0:0:
361,84,169402,1,2,0:0:0:0:
504,162,169573,6,0,P|468:140|426:143,2,85,10|2|8,0:1|0:0|0:0,0:0:0:0:
423,235,170088,1,2,0:0:0:0:
463,309,170259,1,8,0:1:0:0:
409,370,170430,1,10,0:1:0:0:
423,235,170602,2,0,L|363:240,3,42.5,0|0|0|0,1:0|1:0|1:0|1:0,0:0:0:0:
376,242,170945,5,10,0:0:0:0:
400,126,171116,1,10,0:0:0:0:
400,126,171459,1,14,0:1:0:0:
400,126,171802,1,2,1:0:0:0:
366,114,171888,1,0,1:0:0:0:
333,108,171973,1,0,1:0:0:0:
299,114,172059,1,0,1:0:0:0:
270,130,172145,1,2,1:0:0:0:
244,152,172230,1,0,1:0:0:0:
225,177,172316,6,0,P|217:210|219:244,1,68,14|0,0:1|0:0,0:0:0:0:
267,375,172659,2,0,P|275:342|272:307,1,68,8|2,0:0|0:0,0:0:0:0:
214,247,173002,1,8,0:1:0:0:
150,299,173173,1,10,0:1:0:0:
70,220,173345,2,0,P|102:211|135:217,1,68,8|2,0:0|0:0,0:0:0:0:
272,60,173688,6,0,P|259:125|205:164,1,136,10|8,3:1|0:0,0:0:0:0:
132,119,174202,1,2,0:0:0:0:
12,211,174373,2,0,P|74:189|135:216,1,136,8|8,0:1|0:0,0:0:0:0:
184,292,174888,1,2,0:0:0:0:
349,216,175059,2,0,P|268:199|303:274,1,204,10|2,0:1|0:0,0:0:0:0:
401,149,175745,2,0,P|313:102|219:135,1,204,10|2,0:1|0:0,0:0:0:0:
53,198,176430,6,0,P|127:186|192:235,1,136,10|12,0:1|0:0,0:0:0:0:
355,349,177116,2,0,L|360:248,2,102,14|14|14,0:0|0:0|0:0,0:0:0:0:
191,107,177802,6,0,P|256:117|290:173,1,136,14|8,0:1|0:0,0:0:0:0:
239,285,178316,2,0,L|319:263,1,68,2|8,0:0|0:1,0:1:0:0:
451,217,178659,2,0,L|374:205,1,68,10|8,0:1|0:0,0:1:0:0:
190,177,179002,1,2,0:0:0:0:
286,118,179173,6,0,P|281:185|293:252,1,136,10|8,0:1|0:0,0:0:0:0:
241,367,179688,2,0,L|321:345,1,68,2|8,0:0|0:1,0:1:0:0:
453,299,180031,2,0,L|376:287,1,68,10|8,0:1|0:0,0:1:0:0:
294,253,180374,1,2,0:0:0:0:
341,121,180545,5,2,1:0:0:0:
286,245,180716,1,2,1:0:0:0:
333,113,180888,1,2,1:0:0:0:
278,237,181059,1,2,1:0:0:0:
325,105,181230,1,2,1:0:0:0:
270,229,181402,1,2,1:0:0:0:
477,202,181573,1,2,1:0:0:0:
450,182,181659,1,0,1:0:0:0:
418,173,181745,1,0,1:0:0:0:
386,179,181830,1,0,1:0:0:0:
358,196,181916,5,2,1:0:0:0:
290,334,182088,1,0,1:0:0:0:
350,188,182259,1,0,1:0:0:0:
282,326,182430,1,0,1:0:0:0:
110,148,182602,1,2,1:0:0:0:
137,128,182688,1,0,1:0:0:0:
169,119,182774,1,0,1:0:0:0:
201,125,182859,1,0,1:0:0:0:
229,142,182945,6,0,L|233:188,1,46.7500014266968,2|0,1:0|1:0,0:0:0:0:
274,318,183116,2,0,L|279:271,1,46.7500014266968,2|0,1:0|1:0,0:0:0:0:
342,180,183288,5,2,0:0:0:0:
342,180,184316,1,2,0:0:0:0:
386,324,186030,1,2,0:0:0:0:
409,243,187059,1,2,0:0:0:0:
288,360,188773,1,2,0:0:0:0:
265,279,189802,1,2,0:0:0:0:
334,144,191516,1,2,0:0:0:0:
357,63,192545,1,2,0:0:0:0:
255,192,194259,6,0,L|340:184,1,76.4999976654053,14|0,0:1|0:0,0:0:0:0:
468,265,194602,2,0,L|383:257,1,76.4999976654053,8|2,0:1|0:0,0:0:0:0:
380,115,194945,2,0,P|406:141|414:178,1,76.4999976654053,8|2,0:1|0:0,0:0:0:0:
294,247,195288,2,0,P|303:210|331:185,1,76.4999976654053,10|0,0:1|0:0,0:0:0:0:
311,329,195630,2,0,B|277:340|232:333|251:301|191:293|166:314,1,152.999995330811,8|10,0:1|0:1,0:0:0:0:
9,302,196316,2,0,P|66:270|56:345,1,152.999995330811,10|10,0:1|0:1,0:0:0:0:
28,189,197002,6,0,P|65:187|100:203,1,76.4999976654053,10|0,0:1|0:0,0:0:0:0:
212,297,197345,2,0,P|174:298|139:282,1,76.4999976654053,8|2,0:1|0:0,0:0:0:0:
177,136,197688,2,0,L|183:215,1,76.4999976654053,8|2,0:1|0:0,0:0:0:0:
154,53,198030,2,0,P|191:51|226:67,1,76.4999976654053,10|0,0:1|0:0,0:0:0:0:
293,172,198373,2,0,P|298:102|395:93,1,152.999995330811,8|10,0:1|0:1,0:0:0:0:
437,198,199059,2,0,B|425:164|432:119|464:138|472:78|451:53,1,152.999995330811,10|10,0:1|0:1,0:0:0:0:
378,255,199745,6,0,P|406:279|443:283,1,76.4999976654053,10|0,0:1|0:0,0:0:0:0:
319,186,200088,2,0,P|290:210|253:214,1,76.4999976654053,8|2,0:1|0:0,0:0:0:0:
412,91,200430,2,0,L|404:178,1,76.4999976654053,8|2,0:1|0:0,0:0:0:0:
251,52,200773,2,0,L|258:139,1,76.4999976654053,10|0,0:1|0:0,0:0:0:0:
348,40,201116,2,0,P|376:15|413:11,1,76.4999976654053,8|0,0:1|0:0,0:0:0:0:
319,186,201459,2,0,P|290:210|253:214,1,76.4999976654053,10|0,0:1|0:0,0:0:0:0:
109,158,201802,2,0,L|196:165,1,76.4999976654053,10|0,0:1|0:0,0:0:0:0:
76,240,202145,2,0,L|-11:247,1,76.4999976654053,10|0,0:1|0:0,0:0:0:0:
151,292,202488,6,0,P|164:256|162:218,1,76.4999976654053,10|0,0:1|0:0,0:0:0:0:
110,147,202830,2,0,P|96:111|98:73,1,76.4999976654053,8|10,0:1|0:1,0:0:0:0:
267,138,203173,2,0,P|231:125|195:136,1,76.4999976654053,0|0,0:0|0:0,0:0:0:0:
347,192,203516,2,0,L|353:116,1,76.4999976654053,10|0,0:1|0:0,0:0:0:0:
308,264,203859,2,0,P|343:276|379:265,1,76.4999976654053,8|0,0:1|0:0,0:0:0:0:
503,202,204202,2,0,P|467:189|431:200,1,76.4999976654053,8|0,0:1|0:0,0:0:0:0:
470,367,204545,2,0,L|462:281,2,85,10|8|0,0:1|0:1|0:0,0:0:0:0:
248,293,206602,5,2,0:0:0:0:
256,285,206716,2,0,P|280:285|307:291,1,42.5000016212464,2|2,0:0|0:0,0:0:0:0:
438,252,206945,1,2,0:0:0:0:
428,246,207059,2,0,P|404:252|380:264,1,42.5000016212464,2|2,0:0|0:0,0:0:0:0:
238,164,207288,1,2,0:0:0:0:
249,160,207402,2,0,P|269:172|290:190,1,42.5000016212464,2|2,0:0|0:0,0:0:0:0:
425,49,207630,1,2,0:0:0:0:
413,47,207744,2,0,P|396:63|381:87,1,42.5000016212464,2|2,0:0|0:0,0:0:0:0:
363,181,207973,5,10,0:0:0:0:
161,108,208145,1,10,0:0:0:0:
161,108,209345,5,10,0:0:0:0:
363,181,209517,1,10,0:0:0:0:
363,181,210716,5,10,0:0:0:0:
161,108,210888,1,10,0:0:0:0:
61,201,211402,6,0,P|50:149|69:94,2,95.6250036478044,8|4|8,0:3|0:3|0:3,0:0:0:0:
169,276,212088,5,8,1:1:0:0:
187,271,212173,1,0,1:0:0:0:
205,269,212259,1,0,1:0:0:0:
223,269,212345,1,0,1:0:0:0:
241,272,212430,1,8,1:0:0:0:
259,276,212516,1,0,1:0:0:0:
275,282,212602,2,0,P|298:288|321:283,1,46.7500014266968,2|0,1:2|1:2,0:0:0:0:
453,225,212773,1,2,1:2:0:0:
468,207,212859,1,0,1:2:0:0:
478,182,212945,2,0,L|483:118,1,46.7500014266968,2|0,1:2|1:2,0:0:0:0:
412,302,213116,1,2,1:0:0:0:
412,302,213202,1,0,1:0:0:0:
412,302,213288,2,0,L|417:365,1,46.7500014266968,0|0,1:0|1:0,0:0:0:0:
335,173,213459,5,14,0:1:0:0:
260,221,213631,1,8,0:0:0:0:
265,113,213802,5,10,0:1:0:0:
260,221,213973,1,8,0:0:0:0:
181,153,214145,5,10,0:1:0:0:
260,221,214316,1,8,0:0:0:0:
153,262,214488,5,10,0:1:0:0:
260,221,214659,1,8,0:0:0:0:
329,365,214830,5,14,0:1:0:0:
362,280,215002,1,8,0:0:0:0:
434,357,215173,5,10,0:1:0:0:
362,280,215345,1,8,0:0:0:0:
463,256,215516,5,10,0:1:0:0:
362,280,215688,1,8,0:0:0:0:
264,142,215859,1,2,1:0:0:0:
236,128,215945,1,0,1:0:0:0:
207,126,216030,1,0,1:0:0:0:
181,135,216116,1,0,1:0:0:0:
164,147,216202,5,10,2:1:0:0:
113,225,216373,1,8,0:0:0:0:
212,229,216545,5,10,2:1:0:0:
113,225,216716,1,8,0:0:0:0:
162,320,216888,5,2,1:0:0:0:
188,339,216973,1,0,1:0:0:0:
220,345,217059,1,0,1:0:0:0:
253,337,217145,1,0,1:0:0:0:
278,318,217230,1,2,1:0:0:0:
295,291,217316,1,0,1:0:0:0:
312,264,217402,2,0,P|330:247|353:238,1,46.7500014266968,0|0,1:0|1:0,0:0:0:0:
413,318,217573,5,10,0:2:0:0:
212,229,217745,1,10,0:2:0:0:
256,192,218945,6,0,L|425:177,1,170,14|8,0:1|0:0,0:0:0:0:
425,177,219973,1,2,0:0:0:0:
411,256,220145,1,8,0:0:0:0:
397,101,220316,2,0,L|345:105,1,42.5,10|8,0:1|0:0,0:0:0:0:
354,104,220830,1,8,0:1:0:0:
272,155,221002,2,0,P|265:113|271:75,2,63.75,8|2|8,0:0|0:0|0:0,0:0:0:0:
330,253,221688,5,10,0:1:0:0:
367,336,221859,2,0,P|324:331|283:340,1,85,8|8,0:0|0:1,0:0:0:0:
199,361,222373,2,0,L|194:305,1,42.5,10|8,0:0|0:1,0:0:0:0:
125,225,222716,2,0,L|120:280,1,42.5,10|8,0:0|0:1,0:0:0:0:
188,166,223059,6,0,L|184:123,1,42.5,10|8,0:1|0:3,0:0:0:0:
258,75,223402,1,8,0:3:0:0:
258,75,223488,1,8,0:3:0:0:
258,75,223573,1,8,0:3:0:0:
314,142,223745,2,0,P|350:154|386:140,1,63.7500024318696,10|8,0:0|0:0,0:0:0:0:
455,107,224002,1,8,0:0:0:0:
455,107,224088,2,0,L|459:159,1,31.8750012159348,8|8,0:3|0:3,0:0:0:0:
480,222,224259,2,0,L|476:274,1,31.8750012159348,4|4,0:3|0:3,0:0:0:0:
383,297,224430,6,0,P|347:279|307:284,1,80.7499978437424,14|0,0:1|0:0,0:0:0:0:
169,333,224773,2,0,P|204:350|244:345,1,80.7499978437424,8|0,0:1|0:0,0:0:0:0:
235,177,225116,2,0,L|228:256,1,80.7499978437424,10|0,0:1|0:0,0:0:0:0:
285,114,225459,2,0,P|249:96|209:101,1,80.7499978437424,8|0,0:0|0:0,0:0:0:0:
186,235,225802,2,0,P|219:212|234:176,1,80.7499978437424,10|0,0:1|0:0,0:0:0:0:
72,156,226145,2,0,L|155:163,1,80.7499978437424,8|0,0:0|0:0,0:0:0:0:
289,93,226488,2,0,L|205:100,1,80.7499978437424,8|0,0:1|0:0,0:0:0:0:
330,181,226830,1,10,0:0:0:0:
385,105,227002,1,2,0:0:0:0:
215,19,227173,6,0,L|207:106,1,80.7499978437424,14|8,0:1|0:0,0:0:0:0:
202,215,227516,1,8,0:3:0:0:
288,61,227688,1,8,0:0:0:0:
129,145,227859,1,8,0:0:0:0:
260,216,228030,1,8,0:3:0:0:
260,216,228116,1,8,0:3:0:0:
260,216,228202,1,8,0:0:0:0:
42,146,228373,1,8,0:1:0:0:
53,107,228458,1,0,0:0:0:0:
80,78,228544,5,10,1:0:0:0:
117,64,228630,1,0,1:0:0:0:
157,68,228715,1,0,1:0:0:0:
191,90,228801,1,0,1:0:0:0:
209,117,228888,1,8,1:0:0:0:
224,135,228973,1,0,1:0:0:0:
245,145,229059,1,0,1:0:0:0:
269,147,229145,1,0,1:0:0:0:
301,131,229230,5,10,1:0:0:0:
332,113,229316,1,0,1:0:0:0:
368,110,229402,1,0,1:0:0:0:
403,119,229488,1,0,1:0:0:0:
434,137,229573,1,8,1:0:0:0:
452,168,229659,1,0,1:0:0:0:
465,202,229745,1,0,1:0:0:0:
468,237,229830,1,0,1:0:0:0:
449,280,229916,6,0,P|364:243|274:262,1,187.000005706787,14|8,0:1|0:0,0:0:0:0:
225,335,230430,1,2,0:0:0:0:
100,269,230602,2,0,P|143:253|189:259,1,93.5000028533936,8|8,0:1|0:1,0:0:0:0:
20,342,230945,2,0,L|11:242,1,93.5000028533936,8|0,0:0|0:0,0:0:0:0:
0,91,231288,6,0,B|45:73|94:89|80:118|142:128|177:97,1,187.000005706787,10|8,0:1|0:0,0:0:0:0:
241,38,231802,1,2,0:0:0:0:
89,180,231973,2,0,P|143:186|193:167,1,93.5000028533936,10|8,0:1|0:1,0:0:0:0:
210,163,232230,2,0,L|219:266,1,93.5000028533936,2|0,0:0|0:0,0:0:0:0:
236,273,232488,1,8,0:1:0:0:
403,189,232659,6,0,P|360:111|271:117,1,187.000005706787,10|8,0:1|0:0,0:0:0:0:
321,183,233173,1,2,0:0:0:0:
355,77,233345,1,8,0:1:0:0:
407,193,233516,1,8,0:1:0:0:
410,17,233688,2,0,P|367:-1|321:3,1,93.5000028533936,8|2,0:0|0:0,0:0:0:0:
146,180,234030,6,0,B|191:162|240:178|226:207|288:217|323:186,1,187.000005706787,10|8,0:1|0:0,0:0:0:0:
376,116,234545,1,2,0:0:0:0:
406,203,234716,1,10,0:1:0:0:
274,118,234887,1,8,0:1:0:0:
437,47,235059,2,0,P|463:85|464:132,1,93.5000028533936,8|0,0:0|0:0,0:0:0:0:
244,189,235402,6,0,P|287:111|376:116,1,187.000005706787,14|10,0:1|0:0,0:0:0:0:
407,200,235916,1,2,0:0:0:0:
443,60,236088,1,8,0:1:0:0:
407,216,236259,1,2,0:0:0:0:
355,13,236430,2,0,L|363:112,1,93.5000028533936,10|0,0:0|0:0,0:0:0:0:
441,292,236773,6,0,B|396:310|347:294|361:265|299:255|264:286,1,187.000005706787,8|10,0:1|0:0,0:0:0:0:
199,348,237288,1,2,0:0:0:0:
166,224,237460,1,8,0:1:0:0:
310,349,237631,1,2,0:0:0:0:
265,202,237803,1,10,0:0:0:0:
196,358,237974,1,0,0:0:0:0:
141,164,238146,5,8,0:1:0:0:
140,164,238488,2,0,P|168:126|211:110,1,93.5000028533936,10|0,0:0|0:0,0:0:0:0:
305,239,238830,2,0,P|259:233|223:204,1,93.5000028533936,10|0,0:1|0:0,2:0:0:0:
307,96,239173,2,0,L|301:159,3,46.7500014266968,0|0|0|0,1:0|1:0|1:0|1:0,0:0:0:0:
311,92,239516,5,10,0:1:0:0:
356,287,239688,1,10,0:1:0:0:
356,287,240030,2,0,P|320:257|274:254,1,93.5000028533936,14|0,2:1|0:0,0:0:0:0:
279,372,240373,1,8,0:0:0:0:
283,376,240459,1,0,0:0:0:0:
287,380,240545,2,0,L|291:328,3,46.7500014266968,2|0|0|0,1:2|1:0|1:0|1:0,0:0:0:0:
356,287,240888,5,14,0:1:0:0:
433,313,241059,1,0,0:0:0:0:
283,257,241231,5,12,0:0:0:0:
360,283,241402,1,2,0:0:0:0:
210,227,241574,5,8,0:2:0:0:
287,253,241745,1,8,0:1:0:0:
141,193,241916,5,10,0:0:0:0:
210,227,242088,1,8,0:1:0:0:
152,107,242259,5,14,0:2:0:0:
79,137,242431,1,0,0:1:0:0:
229,81,242602,5,8,0:0:0:0:
156,111,242774,1,10,0:1:0:0:
306,55,242945,5,10,0:2:0:0:
233,85,243116,1,8,0:1:0:0:
383,29,243288,5,8,0:0:0:0:
310,59,243459,1,10,0:1:0:0:
439,167,243630,5,14,0:1:0:0:
351,155,243802,1,0,0:0:0:0:
339,243,243973,5,8,0:0:0:0:
427,255,244145,1,2,0:0:0:0:
439,167,244316,5,10,0:2:0:0:
339,243,244488,1,8,0:1:0:0:
351,155,244659,5,10,0:2:0:0:
427,255,244830,1,8,0:1:0:0:
217,149,245002,5,14,0:2:0:0:
195,231,245173,1,8,0:1:0:0:
329,73,245345,5,12,0:0:0:0:
351,155,245516,1,8,0:1:0:0:
187,21,245688,5,14,2:2:0:0:
141,102,245859,1,8,0:1:0:0:
18,54,246030,5,0,1:0:0:0:
93,180,246202,1,0,1:0:0:0:
93,180,246288,1,0,1:0:0:0:
93,180,246373,6,0,P|94:228|75:274,1,85,14|0,0:1|0:0,0:0:0:0:
14,384,246716,2,0,P|3:336|10:288,1,85,8|2,0:0|0:0,0:0:0:0:
185,341,247059,2,0,L|101:349,1,85,8|0,0:1|0:0,0:0:0:0:
228,262,247402,2,0,L|311:270,1,85,8|0,0:0|0:0,0:0:0:0:
224,180,247745,2,0,P|182:185|153:215,1,85,10|0,0:1|0:0,0:0:0:0:
320,354,248088,2,0,P|361:348|390:318,1,85,8|2,0:0|0:0,0:0:0:0:
416,151,248430,2,0,P|400:189|412:229,1,85,8|0,0:1|0:1,0:0:0:0:
502,115,248773,1,10,0:0:0:0:
426,65,248945,1,2,0:0:0:0:
269,108,249116,6,0,P|315:113|360:99,1,85,10|0,0:1|0:0,0:0:0:0:
234,30,249459,2,0,P|191:17|142:21,1,85,10|2,0:0|0:0,0:0:0:0:
344,187,249802,2,0,L|352:95,1,85,8|2,0:1|0:0,0:0:0:0:
181,105,250145,2,0,L|189:196,1,85,8|2,0:0|0:0,0:0:0:0:
57,96,250488,5,14,0:1:0:0:
259,55,250659,1,8,0:0:0:0:
114,194,250830,1,10,0:1:0:0:
140,5,251002,1,8,0:0:0:0:
254,175,251173,1,2,1:0:0:0:
268,194,251259,1,0,1:0:0:0:
274,221,251345,1,0,1:0:0:0:
265,251,251430,1,0,1:0:0:0:
244,282,251516,1,2,1:0:0:0:
241,320,251602,1,0,1:0:0:0:
263,351,251688,1,0,1:0:0:0:
318,370,251773,1,0,1:0:0:0:
362,356,251859,6,0,P|400:305|413:243,1,127.5,14|0,0:0|0:0,0:0:0:0:
407,222,252202,1,8,0:1:0:0:
302,181,252373,2,0,P|264:130|251:68,1,127.5,14|0,0:0|0:0,0:0:0:0:
260,48,252716,1,8,0:1:0:0:
440,37,252888,1,14,0:2:0:0:
440,37,253402,1,8,0:1:0:0:
421,153,253573,2,0,P|380:164|342:147,1,85,14|0,0:0|0:0,0:0:0:0:
272,76,253916,2,0,P|231:64|193:81,1,85,10|0,0:0|0:0,0:0:0:0:
245,258,254259,2,0,L|253:170,1,85,10|0,0:0|0:0,0:0:0:0:
49,107,254602,6,0,P|114:133|150:191,1,127.5,14|0,0:0|0:0,0:0:0:0:
138,199,254945,1,8,0:1:0:0:
275,215,255116,2,0,P|210:241|174:299,1,127.5,14|0,0:0|0:0,0:0:0:0:
186,307,255459,1,8,0:1:0:0:
235,55,255630,1,14,0:0:0:0:
235,55,256144,1,8,0:1:0:0:
286,139,256316,2,0,L|276:242,1,85,12|0,0:0|0:0,0:0:0:0:
213,281,256659,2,0,L|222:384,1,85,12|8,0:0|0:1,0:0:0:0:
190,197,257002,1,0,1:0:0:0:
311,305,257173,1,0,1:0:0:0:
315,309,257259,1,0,1:0:0:0:
319,313,257344,6,0,L|332:173,1,127.5,14|0,0:0|0:0,0:0:0:0:
334,163,257687,1,8,0:1:0:0:
452,238,257859,2,0,L|440:103,1,127.5,14|0,0:0|0:0,0:0:0:0:
438,88,258202,1,8,0:1:0:0:
313,37,258373,1,14,0:0:0:0:
313,37,258888,1,8,0:1:0:0:
213,105,259059,2,0,P|199:144|208:185,1,85,14|0,0:1|0:0,0:0:0:0:
250,265,259402,2,0,P|263:304|254:345,1,85,10|0,0:0|0:0,0:0:0:0:
300,189,259745,2,0,L|347:193,3,42.5,0|0|0|0,1:0|1:0|1:0|1:0,0:0:0:0:
346,196,260088,6,0,L|357:323,1,127.5,14|8,0:1|0:0,0:0:0:0:
361,343,260430,1,10,2:2:0:0:
228,126,260602,2,0,L|216:253,1,127.5,14|8,0:1|0:0,0:0:0:0:
214,277,260944,1,10,2:2:0:0:
345,57,261116,1,14,0:1:0:0:
345,57,262830,5,2,0:0:0:0:
370,150,263173,1,2,0:0:0:0:
345,57,263345,1,2,0:0:0:0:
295,190,263688,1,2,0:0:0:0:
345,57,263859,1,2,0:0:0:0:
418,85,264545,1,2,0:0:0:0:
345,57,264888,1,2,0:0:0:0:
367,239,265230,1,2,0:0:0:0:
284,100,265573,5,2,0:0:0:0:
187,59,265916,1,2,0:0:0:0:
284,100,266088,1,2,0:0:0:0:
131,159,266430,1,2,0:0:0:0:
284,100,266602,1,2,0:0:0:0:
256,290,268312,5,2,0:0:0:0:
301,212,268664,1,2,0:0:0:0:
256,290,268841,1,2,0:0:0:0:
207,176,269194,1,2,0:0:0:0:
256,290,269370,1,2,0:0:0:0:
182,269,270102,1,2,0:0:0:0:
256,290,270477,1,2,0:0:0:0:
272,134,270852,1,2,0:0:0:0:
392,192,271273,5,2,0:0:0:0:
316,244,271692,1,2,0:0:0:0:
392,192,271902,1,2,0:0:0:0:
284,149,272366,1,2,0:0:0:0:
392,192,272606,1,2,0:0:0:0:
392,192,275726,6,0,L|389:215,2,21.25,2|2|2,0:0|0:0|0:0,0:0:0:0:
