osu file format v14

[General]
AudioFilename: audio.mp3
AudioLeadIn: 0
PreviewTime: 205765
Countdown: 0
SampleSet: Soft
StackLeniency: 0.7
Mode: 0
LetterboxInBreaks: 0
WidescreenStoryboard: 1

[Editor]
Bookmarks: 7712,16084,27247,38410,46782,52363,63526,74689,83061,88642,94224,105387,119340,130503,141666,152829,163991,174456,175154,186317,197480,205852,207247,208642,219805,230968,242131,242567,242654,250329
DistanceSpacing: 1
BeatDivisor: 4
GridSize: 32
TimelineZoom: 1.8

[Metadata]
Title:Image Liner
TitleUnicode:Image Liner
Artist:FROZEN QUALIA
ArtistUnicode:FROZEN QUALIA
Creator:Hishiro Chizuru
Version:Kowari's Expert
Source:
Tags:yumeno yuki 夢乃ゆき japanese pop lasse amb1d3x Kowari AIR sasasasasasami Saronk
BeatmapID:2325834
BeatmapSetID:1104749

[Difficulty]
HPDrainRate:6
CircleSize:4
OverallDifficulty:8
ApproachRate:9
SliderMultiplier:1.72
SliderTickRate:1

[Events]
//Background and Video events
0,0,"v2.jpg",0,0
//Break Periods
2,186517,196880
2,205877,206647
//Storyboard Layer 0 (Background)
//Storyboard Layer 1 (Fail)
//Storyboard Layer 2 (Pass)
//Storyboard Layer 3 (Foreground)
//Storyboard Layer 4 (Overlay)
//Storyboard Sound Samples

[TimingPoints]
736,348.837209302326,4,2,34,36,1,0
736,-133.333333333333,4,2,34,36,0,0
2131,-133.333333333333,4,2,34,38,0,0
3002,-133.333333333333,4,2,34,36,0,0
3526,-133.333333333333,4,2,34,40,0,0
3874,-133.333333333333,4,2,34,36,0,0
4224,-133.333333333333,4,2,34,32,0,0
4572,-133.333333333333,4,2,34,28,0,0
4921,-133.333333333333,4,2,34,36,0,0
5619,-133.333333333333,4,2,34,32,0,0
6317,-133.333333333333,4,2,99,44,0,0
7015,-95.2380952380951,4,2,34,40,0,0
7363,-80,4,2,34,44,0,0
7712,-100,4,2,34,65,0,0
8323,-100,4,2,34,36,0,0
8410,-100,4,2,34,65,0,0
13467,-100,4,2,34,36,0,0
13642,-100,4,2,34,65,0,0
16084,-133.333333333333,4,2,34,50,0,0
16259,-133.333333333333,4,2,34,36,0,0
16433,-133.333333333333,4,2,34,46,0,0
17654,-133.333333333333,4,2,34,36,0,0
17829,-133.333333333333,4,2,34,46,0,0
20444,-133.333333333333,4,2,34,36,0,0
20618,-133.333333333333,4,2,34,46,0,0
22014,-133.333333333333,4,2,34,36,0,0
22189,-133.333333333333,4,2,34,46,0,0
22537,-133.333333333333,4,2,34,36,0,0
22712,-133.333333333333,4,2,34,46,0,0
24456,-133.333333333333,4,2,34,48,0,0
25503,-133.333333333333,4,2,34,36,0,0
25677,-133.333333333333,4,2,34,48,0,0
25852,-133.333333333333,4,2,99,52,0,0
25939,-133.333333333333,4,2,34,20,0,0
26898,-133.333333333333,4,2,34,56,0,0
27247,-111.111111111111,4,2,34,60,0,0
32044,-111.111111111111,4,2,34,36,0,0
32131,-111.111111111111,4,2,34,60,0,0
36840,-111.111111111111,4,2,34,36,0,0
37015,-111.111111111111,4,2,34,60,0,0
38061,-111.111111111111,4,2,34,58,0,0
38410,-111.111111111111,4,2,34,64,0,0
38933,-111.111111111111,4,2,34,68,0,0
39631,-111.111111111111,4,2,34,62,0,0
41201,-111.111111111111,4,2,34,64,0,0
41724,-111.111111111111,4,2,34,68,0,0
42422,-111.111111111111,4,2,34,62,0,0
43991,-111.111111111111,4,2,34,64,0,0
44515,-111.111111111111,4,2,34,68,0,0
45212,-111.111111111111,4,2,34,62,0,0
46782,-111.111111111111,4,2,34,66,0,0
48177,-111.111111111111,4,2,34,68,0,0
49573,-111.111111111111,4,2,34,70,0,0
50619,-83.3333333333333,4,2,34,72,0,0
50706,-83.3333333333333,4,2,34,36,0,0
50794,-83.3333333333333,4,2,34,72,0,0
52015,-83.3333333333333,4,2,34,54,0,0
52102,-83.3333333333333,4,2,34,56,0,0
52189,-83.3333333333333,4,2,34,58,0,0
52276,-83.3333333333333,4,2,34,60,0,0
52363,-90.9090909090909,4,2,34,75,0,1
55415,-90.9090909090909,4,2,34,40,0,1
55503,-90.9090909090909,4,2,34,75,0,1
57596,-90.9090909090909,4,2,34,70,0,1
57945,-90.9090909090909,4,2,34,75,0,1
63483,-90.9090909090909,4,2,34,75,0,0
63526,-90.9090909090909,4,2,34,75,0,1
66578,-90.9090909090909,4,2,34,40,0,1
66666,-90.9090909090909,4,2,34,75,0,1
68759,-90.9090909090909,4,2,34,70,0,1
69108,-90.9090909090909,4,2,34,75,0,1
71898,-90.9090909090909,4,2,34,78,0,1
72159,-90.9090909090909,4,2,34,75,0,1
72247,-90.9090909090909,4,2,34,78,0,1
74689,-100,4,2,34,68,0,0
83061,-120.481927710843,4,2,34,60,0,0
83410,-120.481927710843,4,2,34,68,0,0
84456,-120.481927710843,4,2,34,60,0,0
84805,-120.481927710843,4,2,34,68,0,0
85852,-120.481927710843,4,2,34,60,0,0
86374,-120.481927710843,4,2,34,68,0,0
87247,-120.481927710843,4,2,34,60,0,0
87596,-120.481927710843,4,2,34,68,0,0
88642,-120.481927710843,4,2,34,64,0,0
90038,-120.481927710843,4,2,34,66,0,0
91433,-120.481927710843,4,2,34,68,0,0
92829,-120.481927710843,4,2,34,64,0,0
93526,-120.481927710843,4,2,34,67,0,0
93701,-120.481927710843,4,2,34,54,0,0
93788,-120.481927710843,4,2,34,67,0,0
93962,-120.481927710843,4,2,34,54,0,0
94049,-120.481927710843,4,2,34,67,0,0
94224,-111.111111111111,4,2,34,62,0,0
94558,-111.111111111111,4,2,34,68,0,0
94747,-111.111111111111,4,2,34,62,0,0
94907,-111.111111111111,4,2,34,68,0,0
95096,-111.111111111111,4,2,34,62,0,0
102508,-111.111111111111,4,2,34,68,0,0
102596,-111.111111111111,4,2,34,62,0,0
104863,-83.3333333333333,4,2,34,62,0,0
105387,-111.111111111111,4,2,34,64,0,0
105910,-111.111111111111,4,2,34,68,0,0
106608,-111.111111111111,4,2,34,62,0,0
107916,-111.111111111111,4,2,34,68,0,0
108003,-111.111111111111,4,2,34,62,0,0
108090,-111.111111111111,4,2,34,68,0,0
108177,-111.111111111111,4,2,34,64,0,0
108701,-111.111111111111,4,2,34,68,0,0
109398,-111.111111111111,4,2,34,62,0,0
110968,-111.111111111111,4,2,34,64,0,0
111491,-111.111111111111,4,2,34,68,0,0
112189,-111.111111111111,4,2,34,62,0,0
113584,-111.111111111111,4,2,34,68,0,0
113759,-166.666666666666,4,2,34,48,0,0
115852,-166.666666666666,4,2,34,56,0,0
116549,-166.666666666666,4,2,34,60,0,0
116898,-166.666666666666,4,2,34,62,0,0
117247,-166.666666666666,4,2,34,64,0,0
117596,-166.666666666666,4,2,34,66,0,0
117770,-166.666666666666,4,2,34,68,0,0
119340,-90.9090909090909,4,2,34,75,0,1
122392,-90.9090909090909,4,2,34,40,0,1
122480,-90.9090909090909,4,2,34,75,0,1
124573,-90.9090909090909,4,2,34,70,0,1
124922,-90.9090909090909,4,2,34,75,0,1
130459,-133.333333333333,4,2,34,75,0,0
130503,-90.9090909090909,4,2,34,75,0,1
133555,-90.9090909090909,4,2,34,40,0,1
133642,-90.9090909090909,4,2,34,75,0,1
135736,-90.9090909090909,4,2,34,70,0,1
136084,-90.9090909090909,4,2,34,75,0,1
138831,-133.333333333333,4,2,34,75,0,0
138875,-90.9090909090909,4,2,34,78,0,1
140794,-90.9090909090909,4,2,34,76,0,1
141230,-90.9090909090909,4,2,34,75,0,1
141491,-90.9090909090909,4,2,34,72,0,1
141666,-133.333333333333,4,2,34,55,0,0
142015,-133.333333333333,4,2,34,55,0,0
152829,-133.333333333333,4,2,34,56,0,0
159282,-133.333333333333,4,2,34,55,0,0
159456,-133.333333333333,4,2,34,56,0,0
160677,-133.333333333333,4,2,34,55,0,0
160852,-133.333333333333,4,2,34,56,0,0
163991,-133.333333333333,4,2,34,57,0,0
174456,-133.333333333333,4,2,34,58,0,0
174804,-133.333333333333,4,2,34,60,0,0
175154,-100,4,3,34,62,0,0
177945,-100,4,3,34,63,0,0
180735,-100,4,3,34,64,0,0
183526,-100,4,3,34,65,0,0
184922,-100,4,3,34,66,0,0
185619,-100,4,3,34,67,0,0
185968,-100,4,3,34,68,0,0
186317,-100,4,2,99,40,0,0
197480,-125,4,2,34,56,0,0
200444,-125,4,2,34,55,0,0
200618,-125,4,2,34,56,0,0
203061,-125,4,2,34,58,0,0
207247,-125,4,2,34,20,0,0
207305,-125,4,2,34,21,0,0
207363,-125,4,2,34,22,0,0
207421,-125,4,2,34,23,0,0
207479,-125,4,2,34,24,0,0
207537,-125,4,2,34,25,0,0
207595,-125,4,2,34,26,0,0
207653,-125,4,2,34,27,0,0
207712,-125,4,2,34,28,0,0
207770,-125,4,2,34,29,0,0
207828,-125,4,2,34,30,0,0
207886,-125,4,2,34,31,0,0
207944,-125,4,2,34,32,0,0
208002,-125,4,2,34,34,0,0
208060,-125,4,2,34,36,0,0
208119,-125,4,2,34,38,0,0
208177,-125,4,2,34,40,0,0
208235,-125,4,2,34,42,0,0
208293,-125,4,2,34,44,0,0
208351,-125,4,2,34,46,0,0
208409,-125,4,2,34,48,0,0
208467,-125,4,2,34,50,0,0
208526,-125,4,2,34,52,0,0
208584,-125,4,2,34,54,0,0
208642,-133.333333333333,4,2,34,62,0,1
208730,-133.333333333333,4,2,34,20,0,1
209863,-133.333333333333,4,2,34,50,0,0
210038,-133.333333333333,4,2,34,64,0,1
210125,-133.333333333333,4,2,34,20,0,1
211259,-133.333333333333,4,2,34,52,0,0
211433,-133.333333333333,4,2,34,66,0,0
211782,-133.333333333333,4,2,34,68,0,0
212131,-133.333333333333,4,2,34,70,0,0
212480,-133.333333333333,4,2,34,72,0,0
214224,-200,4,2,34,52,0,0
214573,-66.6666666666667,4,2,34,72,0,1
214922,-66.6666666666667,4,2,34,66,0,1
215270,-66.6666666666667,4,2,34,68,0,1
215619,-90.9090909090909,4,2,34,70,0,1
217015,-90.9090909090909,4,2,34,72,0,1
217363,-90.9090909090909,4,2,34,68,0,1
217538,-90.9090909090909,4,2,34,70,0,1
218236,-90.9090909090909,4,2,34,74,0,1
219108,-90.9090909090909,4,2,34,72,0,1
219456,-76.9230769230769,4,2,34,74,0,1
219762,-133.333333333333,4,2,34,72,0,0
219805,-90.9090909090909,4,2,34,76,0,1
222857,-90.9090909090909,4,2,34,40,0,1
222945,-90.9090909090909,4,2,34,76,0,1
228177,-90.9090909090909,4,2,34,78,0,1
228351,-90.9090909090909,4,2,34,76,0,1
228526,-90.9090909090909,4,2,34,78,0,1
230968,-100,4,2,34,70,0,0

[Colours]
Combo1 : 250,180,240
Combo2 : 120,200,230
Combo3 : 255,230,130
Combo4 : 160,230,150

[HitObjects]
386,330,736,6,0,P|421:345|458:364,2,64.5000024604798
301,322,1259,2,0,P|377:289|377:225,1,129.00000492096,2|0,0:0|0:0,0:0:0:0:
4,305,1956,5,0,0:0:0:0:
47,227,2131,2,0,P|53:193|63:150,2,64.5000024604798
34,83,2654,2,0,P|71:141|143:130,1,129.00000492096,2|0,0:0|0:0,0:0:0:0:
468,87,3352,5,0,0:0:0:0:
366,2,3526,2,0,P|383:95|392:150,1,129.00000492096,2|2,0:0|0:0,0:0:0:0:
228,278,4224,2,0,P|273:226|345:247,1,129.00000492096,2|2,0:0|0:0,0:0:0:0:
498,384,4921,6,0,P|446:373|420:368,1,64.5000024604798,2|0,0:0|0:0,0:0:0:0:
327,311,5270,2,0,P|379:300|405:295,1,64.5000024604798
487,200,5619,2,0,P|474:251|468:277,1,64.5000024604798,2|0,0:0|0:0,0:0:0:0:
389,103,5968,2,0,P|402:154|408:180,1,64.5000024604798
433,27,6317,5,4,0:0:0:0:
44,20,7015,5,2,0:0:0:0:
62,29,7131,2,0,P|75:61|68:106,1,60.1999981628419,2|2,0:0|0:0,0:0:0:0:
159,132,7363,5,2,0:0:0:0:
152,155,7480,2,0,P|128:182|83:194,1,71.6666666666667,2|2,0:0|0:0,0:0:0:0:
0,283,7712,6,0,P|86:285|116:382,1,172,14|8,0:1|0:0,0:0:0:0:
262,229,8236,1,2,0:0:0:0:
262,229,8323,1,0,0:0:0:0:
262,229,8410,2,0,P|221:236|158:251,1,86,8|8,0:1|0:1,0:0:0:0:
325,348,8759,1,8,0:0:0:0:
401,198,8933,1,0,0:0:0:0:
249,59,9108,6,0,P|264:110|278:158,1,86,10|8,0:1|0:1,0:0:0:0:
369,0,9456,1,8,0:0:0:0:
480,113,9631,2,0,P|424:103|377:99,1,86,2|10,0:0|0:1,0:0:0:0:
245,253,9980,1,8,0:1:0:0:
401,198,10154,1,8,0:0:0:0:
195,111,10329,1,0,0:0:0:0:
360,297,10503,6,0,P|396:247|515:265,1,172,10|8,0:1|0:0,0:0:0:0:
256,362,11026,2,0,P|189:350|161:337,1,86,2|8,0:0|0:1,0:0:0:0:
75,204,11375,1,10,0:1:0:0:
249,156,11549,1,10,0:0:0:0:
249,156,11636,1,2,0:0:0:0:
249,156,11724,2,0,P|237:183|220:209,1,43,2|2,0:0|0:0,0:0:0:0:
138,65,11898,6,0,P|248:51|317:43,1,172,10|8,0:1|0:0,0:0:0:0:
387,224,12422,1,10,0:1:0:0:
1,3,12770,1,10,0:1:0:0:
387,224,13293,6,0,P|313:209|269:202,1,86,14|0,0:1|0:0,0:0:0:0:
470,151,13642,1,8,0:0:0:0:
340,336,13817,2,0,P|472:305|525:297,1,172,14|10,0:1|0:1,0:0:0:0:
308,128,14340,1,8,0:0:0:0:
223,306,14515,6,0,P|140:310|113:219,1,172,14|8,0:1|0:1,0:0:0:0:
193,108,15038,1,14,0:0:0:0:
193,108,15125,1,2,0:0:0:0:
193,108,15212,2,0,L|202:161,1,43,2|2,0:0|0:0,0:0:0:0:
218,227,15387,5,10,0:1:0:0:
98,43,15648,1,10,0:1:0:0:
308,87,15910,1,10,0:1:0:0:
118,179,16084,5,14,0:1:0:0:
118,179,16259,2,0,P|77:167|39:158,1,64.5000024604798
153,291,16608,2,0,P|176:242|256:238,2,129.00000492096,2|2|0,0:0|0:0|0:0,0:0:0:0:
223,358,17480,6,0,P|280:345|304:341,1,64.5000024604798,2|0,0:0|0:0,0:0:0:0:
365,294,17829,2,0,P|396:302|428:309,1,64.5000024604798
502,243,18177,2,0,P|484:164|472:108,1,129.00000492096,2|0,0:0|0:0,0:0:0:0:
344,0,18875,6,0,P|355:55|236:89,1,193.50000738144,2|0,0:0|0:0,0:0:0:0:
182,31,19573,2,0,P|118:40|56:59,1,129.00000492096,2|0,0:0|0:0,0:0:0:0:
178,188,20270,6,0,P|221:201|250:214,2,64.5000024604798,2|0|0,0:0|0:0|0:0,0:0:0:0:
102,239,20794,2,0,P|114:291|119:318,1,64.5000024604798,2|0,0:0|0:0,0:0:0:0:
172,369,21142,1,2,0:0:0:0:
261,363,21317,1,0,0:0:0:0:
306,285,21491,1,0,0:0:0:0:
266,173,21666,6,0,P|304:132|376:156,1,129.00000492096,2|0,0:0|0:0,0:0:0:0:
463,115,22189,2,0,P|449:176|437:252,1,129.00000492096
449,330,22712,2,0,P|491:323|525:317,1,64.5000024604798
349,369,23061,6,0,P|277:356|211:336,1,129.00000492096,2|0,0:0|0:0,0:0:0:0:
338,255,23584,1,2,0:0:0:0:
240,204,23759,2,0,P|255:254|258:276,1,64.5000024604798
127,358,24108,2,0,P|133:326|143:295,1,64.5000024604798,2|0,0:0|0:0,0:0:0:0:
163,159,24456,6,0,P|115:121|45:162,1,129.00000492096,2|0,0:0|0:0,0:0:0:0:
240,204,24980,2,0,P|282:194|312:185,1,64.5000024604798,2|0,0:0|0:0,0:0:0:0:
360,96,25329,1,2,0:0:0:0:
243,47,25503,2,0,P|258:89|274:116,1,64.5000024604798,0|2,0:0|0:0,0:0:0:0:
384,185,25852,6,0,B|478:191|528:146|533:56|494:8|429:-18|358:29|370:101|426:99,1,387.000014762879,4|8,0:0|0:0,0:0:0:0:
3,28,27247,5,14,0:1:0:0:
3,28,27422,2,0,P|49:40|90:49,1,77.3999976379395,2|8,0:0|0:0,0:0:0:0:
253,105,27770,2,0,P|215:113|177:123,1,77.3999976379395,2|8,0:0|0:1,0:0:0:0:
76,227,28119,1,10,0:1:0:0:
211,286,28294,2,0,P|218:243|228:200,1,77.3999976379395,8|0,0:0|0:0,0:0:0:0:
155,374,28642,6,0,P|209:327|295:351,1,154.799995275879,10|8,0:1|0:0,0:0:0:0:
420,222,29166,1,0,0:0:0:0:
386,367,29340,2,0,P|369:318|361:278,1,77.3999976379395,10|8,0:1|0:1,0:0:0:0:
512,202,29689,2,0,P|502:239|489:275,1,77.3999976379395,10|0,0:0|0:0,0:0:0:0:
341,139,30038,6,0,P|397:120|496:96,1,154.799995275879,10|8,0:1|0:0,0:0:0:0:
278,209,30561,2,0,P|223:199|195:187,1,77.3999976379395,2|8,0:0|0:1,0:0:0:0:
130,41,30910,1,10,0:1:0:0:
255,113,31084,1,8,0:0:0:0:
105,160,31259,1,0,0:0:0:0:
232,20,31433,6,0,P|306:27|339:109,1,154.799995275879,10|8,0:1|0:0,0:0:0:0:
501,27,31956,1,2,0:0:0:0:
501,27,32044,1,2,0:0:0:0:
501,27,32131,2,0,P|434:42|411:50,1,77.3999976379395,10|8,0:1|0:1,0:0:0:0:
324,178,32480,2,0,P|361:188|399:195,1,77.3999976379395,10|0,0:0|0:0,0:0:0:0:
509,142,32829,6,0,P|496:215|487:306,1,154.799995275879,10|8,0:1|0:0,0:0:0:0:
324,215,33352,2,0,P|375:201|403:194,1,77.3999976379395,2|8,0:0|0:1,0:0:0:0:
301,331,33701,1,8,0:1:0:0:
206,226,33875,2,0,P|212:177|219:143,1,77.3999976379395,10|0,0:0|0:0,0:0:0:0:
122,82,34224,6,0,P|53:91|61:183,1,154.799995275879,10|8,0:1|0:0,0:0:0:0:
144,293,34747,1,2,0:0:0:0:
0,261,34922,2,0,P|41:250|90:243,1,77.3999976379395,8|8,0:1|0:1,0:0:0:0:
179,380,35270,2,0,P|140:373|103:363,1,77.3999976379395,10|0,0:0|0:0,0:0:0:0:
249,215,35619,6,0,P|264:278|281:381,2,154.799995275879,10|8|8,0:1|0:0|0:1,0:0:0:0:
389,344,36491,1,8,0:1:0:0:
441,218,36666,2,0,P|386:236|356:250,1,77.3999976379395,8|0,0:0|0:0,0:0:0:0:
229,94,37015,6,0,P|282:78|343:155,1,154.799995275879,10|8,0:1|0:0,0:0:0:0:
281,212,37538,1,8,0:0:0:0:
281,212,37625,1,8,0:0:0:0:
281,212,37712,1,10,0:0:0:0:
254,298,37887,1,8,0:3:0:0:
315,368,38061,1,6,0:3:0:0:
404,354,38236,1,10,0:3:0:0:
512,280,38410,6,0,P|402:258|347:247,1,154.799995275879,14|8,0:1|0:1,0:0:0:0:
244,313,38933,1,10,0:0:0:0:
422,23,39282,1,10,0:0:0:0:
52,45,39631,6,0,P|94:120|177:99,1,154.799995275879,14|8,0:1|0:1,0:0:0:0:
261,9,40154,2,0,P|207:19|174:26,1,77.3999976379395,10|8,0:0|0:1,0:0:0:0:
309,156,40503,2,0,P|324:105|336:73,1,77.3999976379395,10|8,0:0|0:1,0:0:0:0:
218,226,40852,2,0,P|230:262|241:299,1,77.3999976379395,10|0,0:0|0:0,0:0:0:0:
25,335,41201,6,0,P|36:282|135:285,1,154.799995275879,14|8,0:1|0:1,0:0:0:0:
203,382,41724,1,10,0:0:0:0:
57,22,42073,1,10,0:0:0:0:
489,120,42422,6,0,P|400:130|320:143,1,154.799995275879,14|8,0:1|0:1,0:0:0:0:
355,348,42945,2,0,P|366:303|381:258,1,77.3999976379395,10|8,0:0|0:1,0:0:0:0:
236,179,43294,2,0,P|247:216|258:257,1,77.3999976379395,10|8,0:0|0:1,0:0:0:0:
285,64,43642,1,10,0:0:0:0:
140,243,43817,5,8,0:0:0:0:
140,243,43904,1,8,0:0:0:0:
140,243,43991,2,0,P|56:239|35:158,1,154.799995275879,14|8,0:1|0:1,0:0:0:0:
130,75,44515,1,10,0:0:0:0:
450,383,44863,1,10,0:0:0:0:
404,1,45212,6,0,P|385:78|366:170,1,154.799995275879,14|8,0:1|0:1,0:0:0:0:
204,7,45736,2,0,P|259:22|294:42,1,77.3999976379395,10|8,0:0|0:1,0:0:0:0:
158,157,46084,2,0,P|122:172|84:181,1,77.3999976379395,10|8,0:0|0:1,0:0:0:0:
0,65,46433,1,14,0:0:0:0:
425,282,46782,5,6,3:1:0:0:
282,315,46956,1,0,3:0:0:0:
371,200,47131,1,2,3:0:0:0:
345,384,47305,1,0,3:0:0:0:
205,244,47480,5,2,3:0:0:0:
403,287,47654,1,0,3:0:0:0:
216,372,47829,1,2,3:0:0:0:
352,210,48003,1,0,3:0:0:0:
128,199,48177,5,2,3:0:0:0:
285,323,48352,1,0,3:0:0:0:
387,130,48526,1,2,3:0:0:0:
227,241,48701,1,0,3:0:0:0:
106,51,48875,5,2,3:0:0:0:
281,163,49049,1,0,3:0:0:0:
81,254,49224,1,2,3:0:0:0:
225,35,49398,1,0,3:0:0:0:
398,255,49573,5,10,3:1:0:0:
433,239,49660,1,0,3:0:0:0:
457,209,49747,1,0,3:0:0:0:
466,172,49834,1,0,3:0:0:0:
457,135,49921,1,8,3:1:0:0:
433,105,50009,1,0,3:0:0:0:
398,89,50096,1,0,3:0:0:0:
359,91,50183,1,0,3:0:0:0:
326,109,50270,1,8,3:1:0:0:
297,135,50358,1,0,3:0:0:0:
261,149,50445,1,0,3:0:0:0:
223,139,50532,1,0,3:0:0:0:
195,112,50619,6,0,L|214:53,1,51.599998425293,10|0,3:1|0:0,0:0:0:0:
270,233,50794,1,10,3:2:0:0:
96,376,52015,6,0,L|119:313,1,51.599998425293,2|2,0:0|0:0,0:0:0:0:
165,184,52189,2,0,L|181:238,1,51.599998425293,2|2,0:0|0:0,0:0:0:0:
230,333,52363,6,0,P|309:333|351:235,1,189.200005773926,14|8,0:1|0:0,0:0:0:0:
504,374,52887,2,0,P|435:356|395:348,1,94.600002886963,2|8,0:0|0:1,0:0:0:0:
512,243,53236,1,10,0:1:0:0:
391,107,53410,2,0,P|411:167|421:205,1,94.600002886963,8|2,0:0|0:0,0:0:0:0:
259,109,53759,5,10,0:1:0:0:
424,7,53933,1,8,0:1:0:0:
334,192,54108,1,10,0:0:0:0:
164,45,54282,2,0,P|113:30|65:20,1,94.600002886963,2|8,0:1|0:1,0:0:0:0:
222,196,54631,1,10,0:1:0:0:
222,196,54718,1,8,0:1:0:0:
222,196,54805,2,0,P|244:140|263:99,1,94.600002886963,8|0,0:0|0:0,0:0:0:0:
88,202,55154,6,0,P|118:282|66:324,1,141.900004330444,10|0,0:1|0:0,0:0:0:0:
88,340,55503,2,0,P|29:328|-5:308,1,94.600002886963,10|0,0:0|0:0,0:0:0:0:
250,275,55852,1,10,0:1:0:0:
88,202,56026,1,8,0:1:0:0:
260,382,56201,2,0,P|332:356|363:349,1,94.600002886963,10|0,0:0|0:0,0:0:0:0:
503,226,56549,5,10,0:1:0:0:
440,377,56724,1,10,0:1:0:0:
314,168,56898,1,10,0:0:0:0:
357,359,57073,5,2,0:0:0:0:
357,359,57160,1,2,0:0:0:0:
357,359,57247,1,8,0:1:0:0:
452,103,57422,1,8,0:1:0:0:
217,56,57596,2,0,P|187:116|180:154,1,94.600002886963,10|2,0:0|0:0,0:0:0:0:
420,212,57945,6,0,P|384:159|310:171,1,141.900004330444,14|0,0:1|0:0,0:0:0:0:
290,163,58294,2,0,P|307:232|314:278,1,94.600002886963,10|0,0:0|0:0,0:0:0:0:
52,309,58642,1,10,0:1:0:0:
188,185,58817,1,8,0:1:0:0:
283,359,58991,2,0,P|212:338|174:330,1,94.600002886963,10|0,0:0|0:0,0:0:0:0:
16,183,59340,5,10,0:1:0:0:
117,381,59515,1,8,0:1:0:0:
188,185,59689,2,0,P|204:109|210:77,1,94.600002886963,8|0,0:0|0:0,0:0:0:0:
68,276,60038,5,10,0:1:0:0:
296,201,60212,1,8,0:1:0:0:
296,201,60299,1,2,0:0:0:0:
296,201,60387,1,10,0:0:0:0:
126,52,60561,1,2,0:0:0:0:
231,304,60736,6,0,P|297:240|391:264,1,189.200005773926,14|8,0:1|0:0,0:0:0:0:
509,114,61259,2,0,P|494:184|486:233,1,94.600002886963,0|8,0:0|0:1,0:0:0:0:
279,77,61608,1,10,0:1:0:0:
446,1,61782,1,10,0:0:0:0:
296,201,61956,6,0,B|237:176|182:159|182:159|147:174|118:205,1,189.200005773926,14|8,0:1|0:1,0:0:0:0:
217,368,62480,2,0,P|211:317|201:266,1,94.600002886963,8|8,0:0|0:1,0:0:0:0:
34,105,62829,5,10,0:0:0:0:
115,294,63003,1,10,0:1:0:0:
184,50,63177,1,10,0:0:0:0:
295,295,63352,5,10,0:0:0:0:
295,295,63439,1,10,0:0:0:0:
295,295,63526,2,0,P|365:276|501:248,1,189.200005773926,14|8,0:1|0:0,0:0:0:0:
362,89,64049,2,0,P|345:148|337:185,1,94.600002886963,2|8,0:0|0:1,0:0:0:0:
470,29,64398,1,10,0:1:0:0:
232,122,64573,2,0,P|218:49|209:12,1,94.600002886963,8|2,0:0|0:0,0:0:0:0:
147,212,64922,5,10,0:1:0:0:
361,86,65096,1,10,0:1:0:0:
293,295,65270,1,10,0:0:0:0:
83,304,65445,2,0,P|29:285|-13:259,1,94.600002886963,2|8,0:0|0:1,0:0:0:0:
225,156,65794,1,10,0:1:0:0:
61,78,65968,2,0,P|73:137|87:187,1,94.600002886963,8|2,0:0|0:0,0:0:0:0:
279,20,66317,6,0,P|198:18|179:76,1,141.900004330444,10|0,0:1|0:0,0:0:0:0:
165,84,66666,2,0,P|206:102|277:111,1,94.600002886963,10|0,0:0|0:0,0:0:0:0:
511,86,67015,1,10,0:1:0:0:
363,11,67189,1,8,0:1:0:0:
377,210,67363,2,0,P|396:153|414:114,1,94.600002886963,10|0,0:0|0:0,0:0:0:0:
242,192,67712,5,10,0:1:0:0:
353,384,67887,1,8,0:1:0:0:
511,276,68061,2,0,P|445:289|404:304,1,94.600002886963,8|0,0:0|0:0,0:0:0:0:
149,259,68410,5,10,0:1:0:0:
360,152,68584,1,8,0:1:0:0:
281,335,68759,1,10,0:0:0:0:
159,115,68933,1,2,0:0:0:0:
0,257,69108,6,0,P|14:345|102:361,1,189.200005773926,14|8,0:1|0:0,0:0:0:0:
233,229,69631,2,0,P|156:245|125:254,1,94.600002886963,2|0,0:0|0:0,0:0:0:0:
22,121,69980,1,8,0:1:0:0:
190,27,70154,2,0,P|168:83|157:123,1,94.600002886963,10|0,0:0|0:0,0:0:0:0:
413,194,70503,5,10,0:1:0:0:
276,94,70677,1,8,0:1:0:0:
349,291,70852,1,8,0:0:0:0:
488,95,71026,1,2,0:0:0:0:
488,95,71113,1,2,0:0:0:0:
488,95,71200,2,0,P|425:107|386:118,1,94.600002886963,8|8,0:1|0:1,0:0:0:0:
97,6,71549,2,0,P|142:17|189:26,1,94.600002886963,10|0,0:0|0:0,0:0:0:0:
257,202,71898,6,0,P|213:267|153:247,1,141.900004330444,14|0,0:1|0:0,0:0:0:0:
141,253,72247,2,0,P|151:187|161:144,1,94.600002886963,8|8,0:0|0:1,0:0:0:0:
379,21,72596,2,0,P|388:67|394:114,1,94.600002886963,8|8,0:0|0:1,0:0:0:0:
152,67,72945,1,8,0:0:0:0:
287,7,73119,1,8,0:1:0:0:
247,196,73294,5,10,0:0:0:0:
37,153,73468,1,8,0:1:0:0:
246,92,73642,1,8,0:0:0:0:
139,270,73817,1,8,0:1:0:0:
66,26,73991,1,10,0:0:0:0:
259,222,74166,1,0,3:0:0:0:
304,232,74253,1,0,3:0:0:0:
349,220,74340,1,0,3:0:0:0:
384,188,74427,1,0,3:0:0:0:
399,144,74514,1,0,3:0:0:0:
392,97,74602,1,0,3:0:0:0:
367,63,74689,6,0,P|382:107|503:104,1,172,14|8,0:1|0:0,0:0:0:0:
345,309,75212,1,2,0:0:0:0:
512,266,75387,2,0,P|441:250|413:246,1,86,8|8,0:1|0:1,0:0:0:0:
187,384,75736,2,0,P|229:376|271:365,1,86,8|0,0:0|0:0,0:0:0:0:
70,279,76084,6,0,P|52:343|41:374,1,86,10|8,0:1|0:1,0:0:0:0:
9,154,76433,1,8,0:0:0:0:
205,292,76608,2,0,P|186:228|178:182,1,86,2|10,0:0|0:1,0:0:0:0:
265,57,76956,1,8,0:1:0:0:
93,183,77131,1,8,0:0:0:0:
288,226,77305,1,0,0:0:0:0:
136,28,77480,6,0,P|77:18|19:111,1,172,10|8,0:1|0:0,0:0:0:0:
254,86,78003,2,0,P|268:31|271:-5,1,86,2|8,0:0|0:1,0:0:0:0:
120,159,78352,1,10,0:1:0:0:
287,237,78526,1,10,0:0:0:0:
287,237,78613,1,2,0:0:0:0:
287,237,78701,2,0,P|317:230|339:222,1,43,2|2,0:0|0:0,0:0:0:0:
463,107,78875,6,0,P|440:185|419:284,1,172,10|8,0:1|0:0,0:0:0:0:
483,384,79398,1,10,0:1:0:0:
320,6,79747,1,10,0:1:0:0:
66,305,80270,6,0,P|123:322|159:332,1,86,14|0,0:1|0:0,0:0:0:0:
12,143,80619,1,8,0:0:0:0:
254,161,80794,2,0,P|204:233|117:203,1,172,14|10,0:1|0:1,0:0:0:0:
262,19,81317,1,8,0:0:0:0:
31,55,81491,6,0,B|72:22|133:43|133:43|148:93|203:104,1,172,14|8,0:1|0:1,0:0:0:0:
343,170,82015,1,14,0:0:0:0:
343,170,82102,1,2,0:0:0:0:
343,170,82189,2,0,L|357:115,1,43,2|2,0:0|0:0,0:0:0:0:
373,33,82363,5,10,0:1:0:0:
234,196,82625,1,10,0:1:0:0:
468,273,82887,1,10,0:1:0:0:
337,384,83061,5,14,0:1:0:0:
349,245,83236,2,0,P|371:316|376:340,1,71.3800010347138,10|0,0:1|0:0,0:0:0:0:
256,369,83584,2,0,P|184:346|104:332,1,142.760002069428
50,256,84108,2,0,B|6:267|-31:288,1,71.3800010347138
154,237,84456,5,10,0:1:0:0:
191,114,84631,2,0,P|178:64|165:42,1,71.3800010347138,10|0,0:1|0:0,0:0:0:0:
149,43,85154,2,0,P|199:89|284:71,1,142.760002069428
398,17,85677,5,2,0:0:0:0:
398,17,85765,1,2,0:0:0:0:
398,17,85852,1,10,0:1:0:0:
366,145,86026,2,0,P|353:213|341:300,1,142.760002069428,10|0,0:1|0:0,0:0:0:0:
419,350,86549,2,0,P|466:337|500:331,1,71.3800010347138
279,381,86898,2,0,P|244:373|209:363,1,71.3800010347138
73,382,87247,5,10,0:1:0:0:
118,235,87422,2,0,P|128:272|134:310,1,71.3800010347138,10|0,0:1|0:0,0:0:0:0:
68,153,87770,2,0,P|108:203|181:173,1,142.760002069428
218,88,88294,2,0,P|159:95|137:103,1,71.3800010347138
294,191,88642,5,10,0:0:0:0:
337,41,88817,1,10,0:0:0:0:
348,266,90038,5,10,0:0:0:0:
245,96,90212,1,10,0:0:0:0:
307,351,91433,5,10,0:0:0:0:
405,156,91608,1,10,0:0:0:0:
245,96,92829,5,14,0:1:0:0:
348,266,93090,1,10,0:1:0:0:
337,41,93352,1,10,0:1:0:0:
294,191,93526,5,10,0:0:0:0:
405,156,93701,1,8,0:1:0:0:
405,156,93788,1,10,0:0:0:0:
307,351,93962,1,8,0:1:0:0:
307,351,94049,1,10,0:0:0:0:
192,186,94224,5,14,0:1:0:0:
192,186,94398,2,0,P|146:172|111:165,1,77.3999976379395,2|0,0:0|0:0,0:0:0:0:
0,308,94747,2,0,P|34:299|75:285,1,77.3999976379395,2|0,0:0|0:0,0:0:0:0:
15,128,95096,1,10,0:1:0:0:
15,128,95270,2,0,P|25:180|31:220,1,77.3999976379395,8|0,0:0|0:0,0:0:0:0:
153,55,95619,6,0,P|91:67|40:-15,1,154.799995275879,10|8,0:1|0:0,0:0:0:0:
251,31,96142,1,0,0:0:0:0:
251,31,96317,2,0,P|265:83|270:131,1,77.3999976379395,10|8,0:1|0:1,0:0:0:0:
146,226,96666,2,0,P|152:187|163:150,1,77.3999976379395,10|0,0:0|0:0,0:0:0:0:
354,340,97015,6,0,P|278:355|203:375,1,154.799995275879,10|10,0:1|0:0,0:0:0:0:
251,194,97538,2,0,P|265:238|274:278,1,77.3999976379395,0|10,0:0|0:1,0:0:0:0:
373,98,97887,1,8,0:1:0:0:
444,217,98061,2,0,P|380:205|347:200,1,77.3999976379395,8|0,0:0|0:0,0:0:0:0:
278,84,98410,6,0,P|219:74|148:144,2,154.799995275879,10|10|10,0:1|0:0|0:1,0:0:0:0:
367,203,99282,1,8,0:1:0:0:
393,43,99456,2,0,P|367:100|357:133,1,77.3999976379395,10|0,0:0|0:0,0:0:0:0:
455,246,99805,6,0,P|422:228|337:301,1,154.799995275879,10|8,0:1|0:0,0:0:0:0:
270,384,100329,1,2,0:0:0:0:
155,232,100503,1,10,0:1:0:0:
337,287,100677,1,8,0:1:0:0:
145,344,100852,2,0,P|98:328|61:317,1,77.3999976379395,10|0,0:0|0:0,0:0:0:0:
243,148,101201,6,0,P|246:241|252:320,1,154.799995275879,10|8,0:1|0:0,0:0:0:0:
127,94,101724,1,2,0:0:0:0:
70,232,101898,2,0,P|130:221|174:210,1,77.3999976379395,8|8,0:1|0:1,0:0:0:0:
334,90,102247,2,0,P|289:74|232:141,1,116.099996456909,10|0,0:0|0:0,0:0:0:0:
243,148,102596,6,0,P|332:172|413:198,1,154.799995275879,10|8,0:1|0:0,0:0:0:0:
504,52,103119,1,0,0:0:0:0:
334,90,103294,1,10,0:1:0:0:
504,197,103468,1,8,0:1:0:0:
409,15,103642,1,12,0:0:0:0:
301,228,103817,5,8,0:0:0:0:
301,228,103904,1,8,0:0:0:0:
301,228,103991,1,10,0:1:0:0:
468,78,104166,1,8,0:0:0:0:
258,25,104340,1,8,0:0:0:0:
258,25,104427,1,8,0:0:0:0:
427,184,104602,1,8,0:0:0:0:
427,184,104689,1,10,0:1:0:0:
198,288,104863,6,0,L|208:338,1,51.599998425293,8|8,0:3|0:3,0:0:0:0:
261,202,105038,2,0,L|311:212,1,51.599998425293,4|4,0:3|0:3,0:0:0:0:
163,144,105212,2,0,L|112:154,1,51.599998425293,4|4,0:3|0:3,0:0:0:0:
30,80,105387,6,0,P|68:24|156:41,1,154.799995275879,14|8,0:1|0:1,0:0:0:0:
36,198,105910,1,10,0:0:0:0:
420,34,106259,1,10,0:0:0:0:
256,373,106608,6,0,P|241:272|227:198,1,154.799995275879,14|8,0:1|0:1,0:0:0:0:
430,289,107131,2,0,P|381:307|337:317,1,77.3999976379395,10|8,0:0|0:1,0:0:0:0:
440,144,107480,2,0,P|507:168|530:179,1,77.3999976379395,10|8,0:0|0:1,0:0:0:0:
270,222,107829,1,10,0:0:0:0:
231,220,107916,1,2,0:0:0:0:
199,200,108003,1,2,0:0:0:0:
182,166,108090,1,2,0:0:0:0:
184,128,108177,6,0,P|318:111|368:106,1,154.799995275879,14|8,0:1|0:1,0:0:0:0:
183,9,108701,1,10,0:0:0:0:
31,381,109049,1,10,0:0:0:0:
309,276,109398,6,0,P|273:223|171:250,1,154.799995275879,14|8,0:1|0:1,0:0:0:0:
19,149,109922,2,0,P|28:205|33:246,1,77.3999976379395,10|8,0:0|0:1,0:0:0:0:
109,46,110270,2,0,P|59:32|31:21,1,77.3999976379395,10|8,0:0|0:1,0:0:0:0:
129,155,110619,1,10,0:0:0:0:
257,22,110794,5,8,0:0:0:0:
257,22,110881,1,8,0:0:0:0:
257,22,110968,2,0,P|267:116|279:186,1,154.799995275879,14|8,0:1|0:1,0:0:0:0:
385,36,111491,1,10,0:0:0:0:
14,162,111840,1,10,0:0:0:0:
366,341,112189,6,0,P|440:346|473:262,1,154.799995275879,14|8,0:1|0:1,0:0:0:0:
267,295,112712,2,0,P|248:343|242:376,1,77.3999976379395,10|8,0:0|0:1,0:0:0:0:
398,197,113061,2,0,P|392:142|383:107,1,77.3999976379395,10|10,0:0|0:1,0:0:0:0:
186,155,113410,2,0,P|235:173|267:182,1,77.3999976379395,14|0,0:0|0:0,0:0:0:0:
168,26,113759,6,0,B|109:27|102:79|102:79|47:51|-17:83|-12:164|-12:164|72:140|112:176|154:251|94:359|-18:323|-30:280|15:212|31:230,1,619.199981103516,14|2,0:1|0:0,0:0:0:0:
336,363,116549,5,10,0:0:0:0:
189,178,116724,1,8,0:0:0:0:
380,273,116898,1,10,0:0:0:0:
470,75,117073,1,8,0:0:0:0:
291,226,117247,1,10,0:0:0:0:
188,27,117422,1,8,0:0:0:0:
371,149,117596,5,10,0:0:0:0:
199,321,117770,1,14,0:1:0:0:
492,42,119340,6,0,P|457:206|447:257,1,189.200005773926,14|8,0:1|0:0,0:0:0:0:
293,53,119863,2,0,P|377:80|405:90,1,94.600002886963,2|8,0:0|0:1,0:0:0:0:
161,112,120212,1,10,0:1:0:0:
298,256,120387,2,0,P|290:197|287:151,1,94.600002886963,8|2,0:0|0:0,0:0:0:0:
205,373,120736,5,10,0:1:0:0:
402,246,120910,1,8,0:1:0:0:
162,194,121084,1,10,0:0:0:0:
372,368,121259,2,0,P|441:356|471:345,1,94.600002886963,2|8,0:1|0:1,0:0:0:0:
304,190,121608,2,0,P|286:260|275:299,1,94.600002886963,10|8,0:1|0:0,0:0:0:0:
419,127,121956,1,0,0:0:0:0:
162,194,122131,6,0,P|105:178|115:70,1,141.900004330444,10|0,0:1|0:0,0:0:0:0:
78,84,122480,2,0,P|135:70|183:65,1,94.600002886963,10|0,0:0|0:0,0:0:0:0:
406,83,122829,1,10,0:1:0:0:
251,2,123003,1,8,0:1:0:0:
277,203,123177,2,0,P|298:135|312:99,1,94.600002886963,10|0,0:0|0:0,0:0:0:0:
167,269,123526,5,10,0:1:0:0:
399,204,123701,1,10,0:1:0:0:
201,68,123875,1,10,0:0:0:0:
316,292,124049,5,2,0:0:0:0:
316,292,124137,1,0,0:0:0:0:
316,292,124224,1,0,0:0:0:0:
96,147,124398,1,8,0:1:0:0:
350,56,124573,2,0,P|419:41|455:39,1,94.600002886963,10|2,0:0|0:0,0:0:0:0:
224,194,124922,6,0,P|183:135|88:165,1,141.900004330444,14|0,0:1|0:0,0:0:0:0:
96,147,125270,2,0,P|85:87|75:46,1,94.600002886963,10|0,0:0|0:0,0:0:0:0:
8,244,125619,1,10,0:1:0:0:
206,116,125794,1,8,0:1:0:0:
219,317,125968,2,0,P|172:308|128:292,1,94.600002886963,10|0,0:0|0:0,0:0:0:0:
443,166,126317,5,10,0:1:0:0:
240,210,126491,1,8,0:1:0:0:
343,383,126666,2,0,P|362:318|368:281,1,94.600002886963,8|0,0:0|0:0,0:0:0:0:
289,96,127015,5,10,0:1:0:0:
502,240,127189,1,8,0:1:0:0:
502,240,127276,1,2,0:0:0:0:
502,240,127363,1,10,0:0:0:0:
270,303,127538,1,2,0:0:0:0:
384,33,127712,6,0,P|398:95|421:240,1,189.200005773926,14|8,0:1|0:0,0:0:0:0:
208,149,128236,2,0,P|271:128|305:122,1,94.600002886963,0|8,0:0|0:1,0:0:0:0:
221,294,128584,1,10,0:1:0:0:
74,171,128759,1,10,0:0:0:0:
307,244,128933,6,0,P|317:323|231:383,1,189.200005773926,14|8,0:1|0:1,0:0:0:0:
51,268,129456,2,0,P|67:326|76:359,1,94.600002886963,8|8,0:0|0:1,0:0:0:0:
195,96,129805,1,10,0:0:0:0:
9,175,129980,1,10,0:1:0:0:
237,282,130154,1,10,0:0:0:0:
117,65,130329,5,10,0:0:0:0:
117,65,130416,1,10,0:0:0:0:
117,65,130503,2,0,P|118:132|237:167,1,189.200005773926,14|8,0:1|0:0,0:0:0:0:
326,46,131026,2,0,P|272:52|234:67,1,94.600002886963,2|8,0:0|0:1,0:0:0:0:
456,154,131375,1,10,0:1:0:0:
326,241,131549,2,0,P|338:178|351:140,1,94.600002886963,8|2,0:0|0:0,0:0:0:0:
416,355,131898,5,10,0:1:0:0:
220,259,132073,1,10,0:1:0:0:
443,177,132247,1,10,0:0:0:0:
241,366,132422,2,0,P|161:352|133:341,1,94.600002886963,2|8,0:0|0:1,0:0:0:0:
255,167,132770,1,10,0:1:0:0:
255,167,132857,1,2,0:0:0:0:
255,167,132945,2,0,P|300:153|347:148,1,94.600002886963,8|2,0:0|0:0,0:0:0:0:
124,217,133294,6,0,P|97:130|70:65,1,141.900004330444,10|0,0:1|0:0,0:0:0:0:
64,75,133642,2,0,P|27:116|14:164,1,94.600002886963,10|0,0:0|0:0,0:0:0:0:
272,71,133991,1,10,0:1:0:0:
135,3,134166,1,8,0:1:0:0:
254,204,134340,2,0,P|333:184|357:174,1,94.600002886963,10|0,0:0|0:0,0:0:0:0:
459,0,134689,5,10,0:1:0:0:
272,71,134863,1,8,0:1:0:0:
475,200,135038,2,0,P|448:133|433:102,1,94.600002886963,8|0,0:0|0:0,0:0:0:0:
327,317,135387,1,10,0:1:0:0:
507,356,135561,1,8,0:1:0:0:
254,204,135736,1,10,0:0:0:0:
438,112,135910,1,2,0:0:0:0:
219,294,136084,6,0,P|167:242|195:125,1,189.200005773926,14|8,0:1|0:0,0:0:0:0:
115,377,136608,1,2,0:0:0:0:
3,248,136782,2,0,P|64:266|101:275,1,94.600002886963,0|8,0:0|0:1,0:0:0:0:
275,110,137131,2,0,P|229:121|183:135,1,94.600002886963,10|0,0:0|0:0,0:0:0:0:
2,0,137480,5,10,0:1:0:0:
212,35,137654,1,8,0:1:0:0:
64,178,137829,1,8,0:0:0:0:
95,2,138003,1,2,0:0:0:0:
95,2,138090,1,2,0:0:0:0:
95,2,138177,2,0,P|107:59|116:109,1,94.600002886963,8|8,0:1|0:1,0:0:0:0:
198,283,138526,2,0,P|223:225|305:217,1,141.900004330444,10|0,0:0|0:0,0:0:0:0:
308,231,138875,6,0,P|349:250|404:255,1,94.600002886963,14|0,0:1|0:0,0:0:0:0:
483,58,139224,2,0,P|436:62|393:82,1,94.600002886963,8|8,0:0|0:1,0:0:0:0:
512,261,139573,2,0,P|489:199|477:161,1,94.600002886963,8|8,0:0|0:1,0:0:0:0:
338,359,139922,1,8,0:0:0:0:
480,379,140096,1,8,0:1:0:0:
364,175,140270,5,10,0:0:0:0:
206,335,140445,1,8,0:1:0:0:
415,283,140619,1,8,0:0:0:0:
234,122,140794,1,8,0:0:0:0:
311,357,140968,5,10,0:1:0:0:
396,65,141230,1,10,0:3:0:0:
119,210,141491,1,6,0:3:0:0:
283,235,141666,5,14,0:1:0:0:
25,16,142014,2,0,P|33:60|40:96,1,64.5000024604798
15,170,142363,2,0,P|40:129|124:119,1,129.00000492096,10|0,0:0|0:0,0:0:0:0:
171,196,142887,1,8,0:0:0:0:
171,196,143061,2,0,P|159:245|153:274,1,64.5000024604798,0|8,0:0|0:0,0:0:0:0:
266,301,143410,2,0,P|258:269|251:238,1,64.5000024604798,0|8,0:0|0:1,0:0:0:0:
315,157,143759,2,0,P|415:183|457:192,1,129.00000492096,10|0,0:0|0:0,0:0:0:0:
251,8,144456,5,10,0:1:0:0:
411,351,144805,2,0,P|427:314|436:289,1,64.5000024604798
425,200,145154,2,0,P|458:260|521:258,1,129.00000492096,10|0,0:0|0:0,0:0:0:0:
445,107,145677,2,0,P|380:118|356:124,1,64.5000024604798,8|0,0:0|0:0,0:0:0:0:
324,44,146026,2,0,P|259:33|235:27,1,64.5000024604798,8|0,0:0|0:0,0:0:0:0:
196,106,146375,1,8,0:1:0:0:
196,106,146549,2,0,P|218:192|230:257,1,129.00000492096,10|0,0:0|0:0,0:0:0:0:
14,369,147247,5,10,0:1:0:0:
323,176,147596,2,0,P|276:166|242:160,1,64.5000024604798
191,74,147945,2,0,P|255:81|291:12,1,129.00000492096,10|0,0:0|0:0,0:0:0:0:
106,33,148468,1,8,0:0:0:0:
106,33,148642,2,0,P|114:93|117:122,1,64.5000024604798,2|8,0:0|0:0,0:0:0:0:
58,178,148991,2,0,P|50:238|47:267,1,64.5000024604798,2|8,0:1|0:1,0:0:0:0:
118,318,149340,2,0,P|226:298|266:293,1,129.00000492096,10|0,0:0|0:0,0:0:0:0:
500,376,150038,6,0,P|450:364|453:275,1,129.00000492096,10|0,0:1|0:0,0:0:0:0:
351,147,150561,1,2,0:0:0:0:
351,147,150736,2,0,P|379:199|342:259,1,129.00000492096,8|2,0:0|0:0,0:0:0:0:
261,296,151259,1,8,0:0:0:0:
194,221,151433,2,0,P|238:211|269:207,1,64.5000024604798,2|8,0:0|0:0,0:0:0:0:
351,147,151782,2,0,P|319:141|287:134,1,64.5000024604798,2|8,0:0|0:1,0:0:0:0:
429,74,152131,2,0,P|445:151|462:207,1,129.00000492096,10|0,0:0|0:0,0:0:0:0:
17,65,152829,5,14,0:1:0:0:
156,217,153177,1,0,0:0:0:0:
156,217,153352,1,0,0:0:0:0:
84,271,153526,2,0,P|37:263|9:187,1,129.00000492096,10|0,0:0|0:0,0:0:0:0:
168,312,154049,1,8,0:0:0:0:
168,312,154224,2,0,P|179:344|186:379,1,64.5000024604798,2|8,0:0|0:0,0:0:0:0:
281,258,154573,2,0,P|270:288|263:319,1,64.5000024604798,2|8,0:0|0:1,0:0:0:0:
165,106,154922,2,0,P|183:157|204:235,1,129.00000492096,10|0,0:0|0:0,0:0:0:0:
512,0,155619,5,10,0:1:0:0:
396,294,155968,1,0,0:0:0:0:
396,294,156142,1,0,0:0:0:0:
364,202,156317,2,0,P|422:164|483:180,1,129.00000492096,10|0,0:0|0:0,0:0:0:0:
290,268,156840,1,8,0:0:0:0:
290,268,157015,2,0,P|271:203|252:120,1,129.00000492096,2|2,0:0|0:0,0:0:0:0:
330,27,157538,1,8,0:1:0:0:
405,136,157712,2,0,P|359:119|335:112,2,64.5000024604798,10|0|2,0:0|0:0|0:0,0:0:0:0:
2,0,158410,5,10,0:1:0:0:
171,199,158759,1,0,0:0:0:0:
171,199,158933,1,0,0:0:0:0:
109,128,159108,2,0,P|60:141|30:145,1,64.5000024604798,10|0,0:0|0:0,0:0:0:0:
187,60,159456,2,0,P|218:66|249:75,1,64.5000024604798,0|8,0:0|0:0,0:0:0:0:
280,207,159805,6,0,P|254:271|234:340,1,129.00000492096,2|2,0:0|0:0,0:0:0:0:
326,384,160329,1,8,0:1:0:0:
397,290,160503,2,0,P|359:295|327:302,1,64.5000024604798,10|0,0:0|0:0,0:0:0:0:
485,349,160852,1,0,0:0:0:0:
445,7,161201,6,0,P|406:20|415:109,1,129.00000492096,10|0,0:1|0:0,0:0:0:0:
350,198,161724,1,2,0:0:0:0:
350,198,161898,2,0,P|440:181|487:176,1,129.00000492096,8|2,0:0|0:0,0:0:0:0:
467,329,162422,1,8,0:0:0:0:
467,329,162596,2,0,P|450:291|438:268,1,64.5000024604798,2|8,0:0|0:0,0:0:0:0:
324,376,162945,2,0,P|338:347|351:317,1,64.5000024604798,2|8,0:0|0:1,0:0:0:0:
276,236,163294,2,0,P|233:224|181:295,1,129.00000492096,10|0,0:0|0:0,0:0:0:0:
231,0,163991,6,0,P|247:75|260:136,1,129.00000492096,14|0,0:1|0:0,0:0:0:0:
71,231,164689,2,0,P|85:188|171:183,1,129.00000492096,8|2,0:0|0:0,0:0:0:0:
210,259,165212,2,0,P|202:306|196:331,1,64.5000024604798,8|0,0:0|0:0,0:0:0:0:
313,383,165561,2,0,P|306:351|301:319,1,64.5000024604798,8|0,0:0|0:0,0:0:0:0:
353,234,165910,1,8,0:1:0:0:
353,234,166084,2,0,P|440:252|491:261,1,129.00000492096,10|0,0:0|0:0,0:0:0:0:
255,116,166782,6,0,P|252:62|317:17,1,129.00000492096,10|0,0:1|0:0,0:0:0:0:
205,248,167480,2,0,P|116:258|68:274,1,129.00000492096,10|0,0:0|0:0,0:0:0:0:
4,169,168003,2,0,P|49:179|82:187,1,64.5000024604798,8|0,0:0|0:0,0:0:0:0:
151,83,168352,2,0,P|106:93|73:101,1,64.5000024604798,8|0,0:0|0:0,0:0:0:0:
231,158,168701,1,8,0:1:0:0:
231,158,168875,2,0,P|277:114|345:125,1,129.00000492096,10|0,0:0|0:0,0:0:0:0:
496,358,169573,6,0,P|411:341|357:333,1,129.00000492096,10|0,0:1|0:0,0:0:0:0:
94,358,170270,2,0,P|150:353|183:270,1,129.00000492096,8|2,0:0|0:0,0:0:0:0:
118,236,170794,2,0,P|74:248|43:255,1,64.5000024604798,8|0,0:0|0:0,0:0:0:0:
179,173,171142,2,0,P|210:180|241:189,1,64.5000024604798,8|0,0:0|0:0,0:0:0:0:
310,249,171491,1,8,0:1:0:0:
310,249,171666,2,0,P|327:171|336:117,1,129.00000492096,10|0,0:0|0:0,0:0:0:0:
82,17,172363,6,0,P|74:53|149:109,1,129.00000492096,10|0,0:1|0:0,0:0:0:0:
384,15,173061,2,0,P|319:14|286:81,1,129.00000492096,10|0,0:0|0:0,0:0:0:0:
336,125,173584,2,0,P|398:116|419:113,1,64.5000024604798,8|0,0:0|0:0,0:0:0:0:
473,211,173933,2,0,P|411:202|390:199,1,64.5000024604798,8|0,0:0|0:0,0:0:0:0:
347,295,174282,1,8,0:1:0:0:
263,203,174456,1,2,1:0:0:0:
231,185,174543,1,0,1:0:0:0:
195,181,174630,1,0,1:0:0:0:
160,191,174717,1,0,1:0:0:0:
132,214,174804,1,2,1:0:0:0:
114,245,174892,1,0,1:0:0:0:
110,281,174979,1,0,1:0:0:0:
119,316,175066,1,0,1:0:0:0:
141,344,175154,6,0,P|186:299|264:310,1,129,14|0,0:2|0:0,0:0:0:0:
258,317,175503,2,0,P|301:328|348:334,1,86,8|8,0:2|0:1,0:0:0:0:
432,197,175852,1,10,0:2:0:0:
484,350,176026,1,8,0:1:0:0:
318,238,176201,1,8,0:2:0:0:
512,149,176375,1,8,0:1:0:0:
512,149,176462,1,0,0:2:0:0:
512,149,176549,6,0,P|431:132|415:89,1,129,10|0,0:2|0:2,0:0:0:0:
404,75,176898,2,0,P|352:82|317:108,1,86,8|8,0:2|0:1,0:0:0:0:
245,215,177247,1,10,0:2:0:0:
152,67,177422,1,8,0:1:0:0:
347,194,177596,1,8,0:2:0:0:
169,310,177770,1,8,0:1:0:0:
169,310,177858,1,0,0:2:0:0:
169,310,177945,6,0,P|73:282|31:274,1,129,14|0,0:2|0:2,0:0:0:0:
26,268,178294,2,0,P|74:241|108:232,1,86,8|8,0:2|0:1,0:0:0:0:
0,62,178642,1,10,0:2:0:0:
186,150,178817,1,8,0:1:0:0:
38,160,178991,1,8,0:2:0:0:
189,25,179166,1,8,0:1:0:0:
189,25,179253,1,0,0:2:0:0:
189,25,179340,6,0,P|236:58|200:143,1,129,10|0,0:2|0:2,0:0:0:0:
211,150,179689,2,0,P|231:202|252:234,1,86,8|8,0:2|0:1,0:0:0:0:
472,249,180038,1,10,0:2:0:0:
253,360,180212,1,8,0:1:0:0:
366,135,180387,1,8,0:2:0:0:
377,382,180561,1,8,0:1:0:0:
377,382,180648,1,0,0:2:0:0:
377,382,180735,6,0,P|344:342|263:346,1,129,14|0,0:2|0:2,0:0:0:0:
253,360,181084,2,0,P|203:379|151:364,1,86,8|8,0:2|0:1,0:0:0:0:
49,252,181433,1,10,0:2:0:0:
198,286,181608,1,8,0:1:0:0:
0,155,181782,1,8,0:2:0:0:
208,93,181956,1,8,0:1:0:0:
208,93,182044,1,0,0:2:0:0:
208,93,182131,6,0,P|191:147|181:186,1,86,10|8,0:2|0:1,0:0:0:0:
142,0,182480,1,8,0:2:0:0:
318,130,182654,1,8,0:1:0:0:
88,191,182829,1,10,0:2:0:0:
250,0,183003,1,8,0:1:0:0:
353,237,183177,1,8,0:2:0:0:
506,78,183352,1,8,0:1:0:0:
506,78,183439,1,0,0:2:0:0:
506,78,183526,6,0,P|441:84|406:30,1,129,14|0,0:2|0:2,0:0:0:0:
397,22,183875,2,0,P|342:34|294:61,1,86,8|8,0:2|0:1,0:0:0:0:
192,182,184224,1,10,0:2:0:0:
361,217,184398,1,8,0:1:0:0:
227,63,184573,1,8,0:2:0:0:
271,293,184747,1,8,0:1:0:0:
440,124,184922,5,14,0:2:0:0:
181,195,185096,1,8,0:1:0:0:
423,357,185270,1,14,0:2:0:0:
423,357,185619,5,10,0:2:0:0:
356,116,185794,1,10,0:2:0:0:
293,383,185968,1,10,0:2:0:0:
245,95,186142,1,10,0:2:0:0:
178,266,186317,5,6,0:2:0:0:
10,377,197480,6,0,P|40:328|134:347,1,137.6,14|8,0:1|2:1,0:0:0:0:
198,375,198003,2,0,P|235:364|286:355,1,68.8,2|8,0:0|0:1,0:0:0:0:
372,287,198352,2,0,P|338:279|305:269,1,68.8,2|8,0:0|0:1,0:0:0:0:
455,384,198701,1,2,0:0:0:0:
504,255,198875,6,0,P|483:175|472:105,1,137.6,10|10,0:1|0:1,0:0:0:0:
390,42,199398,2,0,P|435:22|460:12,1,68.8,2|8,0:0|0:1,0:0:0:0:
371,139,199747,1,2,0:0:0:0:
371,139,199922,2,0,P|318:123|291:117,1,68.8,10|0,0:1|0:0,0:0:0:0:
193,70,200270,6,0,P|209:20|218:-1,2,68.8,10|0|8,0:1|0:0|0:1,0:0:0:0:
118,134,200794,1,2,0:0:0:0:
183,216,200968,2,0,P|239:200|262:197,1,68.8,8|0,0:1|0:0,0:0:0:0:
117,276,201317,2,0,P|83:269|50:258,1,68.8,10|0,0:1|0:0,0:0:0:0:
0,131,201666,6,0,P|41:112|98:184,1,137.6,10|8,0:1|0:1,0:0:0:0:
195,128,202189,1,2,0:0:0:0:
156,6,202363,2,0,P|141:47|131:79,1,68.8,10|0,0:1|0:0,0:0:0:0:
286,142,202712,2,0,P|275:109|263:77,1,68.8,10|0,0:1|0:0,0:0:0:0:
371,9,203061,6,0,P|442:22|452:87,1,137.6,10|8,0:1|0:1,0:0:0:0:
401,161,203584,2,0,P|392:202|389:242,1,68.8,2|8,0:0|0:1,0:0:0:0:
512,294,203933,2,0,P|508:259|500:226,1,68.8,2|8,0:0|0:1,0:0:0:0:
434,383,204282,1,2,0:0:0:0:
329,308,204456,6,0,P|271:293|172:280,1,137.6,10|10,0:1|0:1,0:0:0:0:
59,377,204980,2,0,P|107:360|139:351,1,68.8,2|8,0:0|0:1,0:0:0:0:
88,197,205329,1,2,0:0:0:0:
88,197,205503,2,0,P|101:242|111:279,1,68.8,10|0,0:1|0:0,0:0:0:0:
308,17,207247,6,0,L|274:10,23,22.9333333333333
335,26,208642,6,0,B|331:96|372:135|372:135|436:84|483:140|483:140|476:197|421:201|421:201|453:248|426:318,1,451.500017223359,14|2,0:1|0:0,0:0:0:0:
358,368,210038,6,0,B|329:334|334:298|334:298|288:371|189:373|90:274|204:131|317:185|259:271,1,451.500017223359,14|2,0:1|0:0,0:0:0:0:
43,215,211433,5,2,3:2:0:0:
114,376,211608,1,0,3:2:0:0:
147,163,211782,1,2,3:2:0:0:
226,374,211956,1,0,3:2:0:0:
271,107,212131,5,2,3:2:0:0:
369,376,212305,1,0,3:2:0:0:
419,115,212480,1,2,3:2:0:0:
479,303,212654,1,0,3:2:0:0:
23,117,214224,6,0,P|58:114|94:105,1,64.5
136,6,214573,6,0,B|106:111|106:111|136:159|196:128,1,193.50000738144,14|0,0:2|0:0,0:0:0:0:
278,148,214922,2,0,P|274:115|266:84,1,64.5000024604798,0|0,3:0|3:0,0:0:0:0:
377,2,215096,2,0,P|369:33|365:65,1,64.5000024604798,0|0,3:0|3:0,0:0:0:0:
451,189,215270,1,0,3:0:0:0:
464,218,215357,1,0,3:0:0:0:
464,250,215444,1,0,3:0:0:0:
449,278,215531,1,0,3:0:0:0:
424,298,215619,6,0,B|384:246|318:249|318:249|291:286|251:289,1,189.200005773926,14|8,0:1|0:0,0:0:0:0:
54,203,216142,1,8,0:0:0:0:
54,203,216230,1,8,0:0:0:0:
54,203,216317,1,10,0:1:0:0:
251,172,216491,1,10,0:1:0:0:
136,366,216666,1,14,0:0:0:0:
134,100,216840,5,8,0:0:0:0:
134,100,216927,1,8,0:0:0:0:
134,100,217015,2,0,P|165:234|181:298,1,189.200005773926,14|12,0:1|0:0,0:0:0:0:
307,125,217538,1,8,0:0:0:0:
307,125,217625,1,8,0:0:0:0:
307,125,217712,2,0,L|246:147,1,47.3000014434815,8|8,0:3|0:3,0:0:0:0:
382,282,217887,2,0,L|370:236,1,47.3000014434815,4|4,0:3|0:3,0:0:0:0:
438,94,218061,2,0,L|431:140,1,47.3000014434815,4|4,0:3|0:3,0:0:0:0:
328,27,218236,6,0,B|389:50|434:61|434:61|473:48|502:7,1,189.200005773926,14|8,0:1|0:1,0:0:0:0:
307,125,218759,1,10,0:0:0:0:
507,222,218933,1,8,0:1:0:0:
362,312,219108,1,2,3:0:0:0:
340,270,219195,1,0,3:0:0:0:
301,244,219282,1,2,3:0:0:0:
254,241,219369,1,0,3:0:0:0:
211,261,219456,2,0,L|225:336,1,55.8999974411012,2|0,3:0|3:0,0:0:0:0:
73,383,219631,2,0,L|82:327,1,55.8999974411012,2|0,3:0|3:0,0:0:0:0:
140,126,219805,6,0,P|83:101|15:213,1,189.200005773926,14|8,0:1|0:0,0:0:0:0:
220,173,220329,2,0,P|230:119|235:75,1,94.600002886963,2|8,0:0|0:1,0:0:0:0:
108,250,220677,1,10,0:1:0:0:
325,140,220852,2,0,P|339:219|347:251,1,94.600002886963,8|2,0:0|0:0,0:0:0:0:
430,29,221201,5,10,0:1:0:0:
219,170,221375,1,10,0:1:0:0:
466,209,221549,1,10,0:0:0:0:
318,27,221724,2,0,P|259:48|216:61,1,94.600002886963,2|8,0:0|0:1,0:0:0:0:
9,0,222073,1,10,0:1:0:0:
9,0,222160,1,2,0:0:0:0:
9,0,222247,2,0,P|73:21|109:40,1,94.600002886963,8|2,0:0|0:0,0:0:0:0:
176,220,222596,6,0,P|154:287|73:289,1,141.900004330444,10|0,0:1|0:0,0:0:0:0:
59,287,222945,2,0,P|76:223|95:172,1,94.600002886963,10|0,0:0|0:0,0:0:0:0:
289,137,223294,1,10,0:1:0:0:
117,67,223468,1,8,0:1:0:0:
258,260,223642,2,0,P|325:247|364:241,1,94.600002886963,10|0,0:0|0:0,0:0:0:0:
475,195,223991,5,10,0:1:0:0:
359,363,224166,1,8,0:1:0:0:
287,165,224340,2,0,P|267:92|250:45,1,94.600002886963,8|0,0:0|0:0,0:0:0:0:
512,83,224689,1,10,0:1:0:0:
329,1,224863,1,8,0:1:0:0:
421,221,225038,2,0,P|481:205|523:196,1,94.600002886963,10|2,0:0|0:0,0:0:0:0:
353,359,225387,6,0,P|270:354|226:255,1,189.200005773926,14|8,0:1|0:0,0:0:0:0:
138,384,225910,1,2,0:0:0:0:
26,270,226084,2,0,P|104:289|142:300,1,94.600002886963,0|8,0:0|0:1,0:0:0:0:
261,141,226433,2,0,P|183:160|145:171,1,94.600002886963,10|0,0:0|0:0,0:0:0:0:
427,231,226782,5,10,0:1:0:0:
311,29,226956,1,8,0:1:0:0:
285,273,227131,1,8,0:0:0:0:
421,81,227305,1,2,0:0:0:0:
421,81,227392,1,2,0:0:0:0:
421,81,227480,2,0,P|491:103|529:113,1,94.600002886963,8|8,0:1|0:1,0:0:0:0:
233,11,227829,2,0,P|165:5|123:98,1,141.900004330444,10|0,0:0|0:0,0:0:0:0:
109,75,228177,6,0,P|132:131|146:177,1,94.600002886963,14|0,0:1|0:0,0:0:0:0:
10,315,228526,2,0,P|24:270|43:226,1,94.600002886963,8|8,0:0|0:1,0:0:0:0:
230,349,228875,2,0,P|156:327|119:320,1,94.600002886963,8|8,0:0|0:1,0:0:0:0:
336,183,229224,1,8,0:0:0:0:
201,230,229398,1,8,0:1:0:0:
458,261,229573,5,10,0:0:0:0:
254,105,229747,1,8,0:1:0:0:
326,336,229922,1,8,0:0:0:0:
503,162,230096,2,0,L|439:147,1,47.3000014434815,0|0,3:0|3:0,0:0:0:0:
312,34,230270,5,0,3:0:0:0:
268,16,230357,1,0,3:0:0:0:
222,23,230444,1,0,3:0:0:0:
185,52,230531,1,0,3:0:0:0:
168,95,230618,1,0,3:0:0:0:
175,141,230706,1,0,3:0:0:0:
204,178,230793,1,0,3:0:0:0:
225,220,230881,1,0,3:0:0:0:
207,263,230968,6,0,P|110:277|74:210,1,172,14|8,0:1|0:0,0:0:0:0:
306,184,231491,1,2,0:0:0:0:
306,184,231579,1,2,0:0:0:0:
306,184,231666,2,0,P|323:237|327:276,1,86,8|8,0:1|0:1,0:0:0:0:
179,368,232015,2,0,P|185:325|199:285,1,86,8|0,0:0|0:0,0:0:0:0:
375,371,232363,6,0,P|290:353|260:350,1,86,10|8,0:1|0:1,0:0:0:0:
505,301,232712,1,8,0:0:0:0:
391,163,232887,2,0,P|402:225|409:260,1,86,2|10,0:0|0:1,0:0:0:0:
447,48,233236,1,8,0:1:0:0:
283,171,233410,1,8,0:0:0:0:
495,191,233584,1,0,0:0:0:0:
319,56,233759,6,0,P|266:41|175:118,1,172,10|8,0:1|0:0,0:0:0:0:
14,3,234282,2,0,P|68:14|112:23,1,86,2|8,0:0|0:1,0:0:0:0:
216,205,234631,1,10,0:1:0:0:
28,148,234805,1,10,0:0:0:0:
28,148,234892,1,2,0:0:0:0:
28,148,234980,2,0,L|90:133,1,43,2|2,0:0|0:0,0:0:0:0:
206,102,235154,5,10,0:1:0:0:
36,283,235329,1,8,0:1:0:0:
236,353,235503,1,10,0:0:0:0:
140,187,235677,2,0,P|148:249|157:292,1,86,10|8,0:1|0:1,0:0:0:0:
341,184,236026,1,10,0:1:0:0:
236,353,236201,1,8,0:0:0:0:
206,102,236375,1,2,0:0:0:0:
352,296,236549,6,0,P|433:289|463:190,1,172,14|8,0:1|0:0,0:0:0:0:
361,98,237073,1,2,0:0:0:0:
361,98,237160,1,2,0:0:0:0:
361,98,237247,2,0,P|372:167|384:199,1,86,8|8,0:1|0:1,0:0:0:0:
457,34,237596,1,8,0:0:0:0:
274,5,237770,1,0,0:0:0:0:
209,188,237945,6,0,P|273:167|301:162,1,86,10|8,0:1|0:1,0:0:0:0:
59,125,238294,1,8,0:0:0:0:
178,13,238468,2,0,P|160:76|156:108,1,86,2|10,0:0|0:1,0:0:0:0:
235,300,238817,1,8,0:1:0:0:
86,245,238991,1,8,0:0:0:0:
291,163,239166,1,0,0:0:0:0:
105,329,239340,6,0,P|38:322|4:220,1,172,10|8,0:1|0:0,0:0:0:0:
206,267,239863,2,0,P|219:324|220:367,1,86,2|8,0:0|0:1,0:0:0:0:
88,217,240212,1,10,0:1:0:0:
227,140,240387,1,10,0:0:0:0:
252,173,240474,1,0,0:0:0:0:
291,191,240561,1,2,0:1:0:0:
333,190,240648,1,0,0:0:0:0:
371,169,240736,6,0,P|354:94|350:59,1,86,10|0,0:0|0:0,0:0:0:0:
502,219,241084,2,0,P|494:261|483:302,1,86,10|8,0:0|0:1,0:0:0:0:
282,371,241433,1,10,0:0:0:0:
401,256,241608,1,8,0:1:0:0:
214,176,241782,1,8,0:0:0:0:
172,183,241869,1,8,0:0:0:0:
140,211,241956,1,8,0:0:0:0:
130,252,242043,1,8,0:0:0:0:
143,293,242131,6,0,P|148:244|27:214,1,172,14|8,0:1|0:0,0:0:0:0:
231,90,242654,1,2,0:0:0:0:
106,23,242829,2,0,P|121:78|139:118,1,86,8|8,0:1|0:1,0:0:0:0:
315,171,243177,2,0,P|330:131|341:89,1,86,8|0,0:0|0:0,0:0:0:0:
275,264,243526,6,0,P|328:285|370:298,1,86,10|8,0:1|0:1,0:0:0:0:
170,183,243875,1,8,0:0:0:0:
236,370,244049,2,0,P|165:381|124:388,1,86,2|10,0:0|0:1,0:0:0:0:
19,223,244398,1,8,0:1:0:0:
177,285,244573,1,8,0:0:0:0:
62,336,244747,1,0,0:0:0:0:
93,125,244922,6,0,P|104:181|113:229,1,86,10|0,0:1|0:0,0:0:0:0:
219,16,245270,1,8,0:0:0:0:
308,159,245445,2,0,P|266:177|187:88,1,172,2|10,0:0|0:1,0:0:0:0:
390,67,245968,1,10,0:0:0:0:
390,67,246055,1,2,0:0:0:0:
390,67,246142,2,0,P|398:98|402:124,1,43,2|2,0:0|0:0,0:0:0:0:
468,207,246317,6,0,P|480:98|491:17,1,172,10|8,0:1|0:0,0:0:0:0:
300,11,246840,5,10,0:1:0:0:
404,363,247189,1,10,0:1:0:0:
62,235,247712,6,0,P|117:214|152:207,1,86,14|0,0:1|0:0,0:0:0:0:
24,111,248061,1,8,0:0:0:0:
245,241,248235,2,0,P|184:216|209:101,1,172,14|10,0:1|0:1,0:0:0:0:
343,205,248759,1,8,0:0:0:0:
157,322,248933,6,0,B|249:272|249:272|294:283|303:334,1,172,14|8,0:1|0:1,0:0:0:0:
433,164,249456,1,14,0:0:0:0:
433,164,249544,1,2,0:0:0:0:
433,164,249631,2,0,L|420:214,1,43,2|2,0:0|0:0,0:0:0:0:
407,324,249805,5,10,0:1:0:0:
327,117,250067,1,10,0:1:0:0:
512,228,250329,1,10,0:1:0:0:
