osu file format v14

[General]
AudioFilename: audio.mp3
AudioLeadIn: 0
PreviewTime: 205765
Countdown: 0
SampleSet: Soft
StackLeniency: 0.7
Mode: 0
LetterboxInBreaks: 0
WidescreenStoryboard: 1

[Editor]
DistanceSpacing: 0.4
BeatDivisor: 4
GridSize: 8
TimelineZoom: 2.5

[Metadata]
Title:Image Liner
TitleUnicode:Image Liner
Artist:FROZEN QUALIA
ArtistUnicode:FROZEN QUALIA
Creator:Hishiro Chizuru
Version:Hard
Source:
Tags:yumeno yuki 夢乃ゆき japanese pop lasse amb1d3x Kowari AIR sasasasasasami Saronk
BeatmapID:2309862
BeatmapSetID:1104749

[Difficulty]
HPDrainRate:5
CircleSize:3.8
OverallDifficulty:7
ApproachRate:8
SliderMultiplier:1.4
SliderTickRate:1

[Events]
//Background and Video events
0,0,"v2.jpg",0,0
//Break Periods
2,186342,196730
//Storyboard Layer 0 (Background)
//Storyboard Layer 1 (Fail)
//Storyboard Layer 2 (Pass)
//Storyboard Layer 3 (Foreground)
//Storyboard Layer 4 (Overlay)
//Storyboard Sound Samples

[TimingPoints]
736,348.837209302326,4,2,34,36,1,0
736,-133.333333333333,4,2,34,36,0,0
2131,-133.333333333333,4,2,34,38,0,0
3526,-133.333333333333,4,2,34,40,0,0
3875,-133.333333333333,4,2,34,36,0,0
4224,-133.333333333333,4,2,34,32,0,0
4573,-133.333333333333,4,2,34,28,0,0
4922,-133.333333333333,4,2,34,36,0,0
5619,-133.333333333333,4,2,34,32,0,0
6317,-133.333333333333,4,2,99,44,0,0
6361,-133.333333333333,4,2,99,5,0,0
7015,-133.333333333333,4,2,34,40,0,0
7363,-133.333333333333,4,2,34,44,0,0
7712,-83.3333333333333,4,2,34,65,0,0
12509,-83.3333333333333,4,2,34,5,0,0
12596,-83.3333333333333,4,2,34,65,0,0
12858,-83.3333333333333,4,2,34,5,0,0
12945,-83.3333333333333,4,2,34,65,0,0
15430,-83.3333333333333,4,2,34,5,0,0
15648,-83.3333333333333,4,2,34,65,0,0
15692,-83.3333333333333,4,2,34,5,0,0
15910,-83.3333333333333,4,2,34,65,0,0
16084,-166.666666666667,4,2,34,50,0,0
16433,-166.666666666667,4,2,34,46,0,0
24456,-166.666666666667,4,2,34,48,0,0
25852,-166.666666666667,4,2,99,52,0,0
25939,-166.666666666667,4,2,34,20,0,0
26898,-166.666666666667,4,2,34,56,0,0
26920,-166.666666666667,4,2,34,5,0,0
27247,-111.111111111111,4,2,34,60,0,0
38061,-111.111111111111,4,2,34,58,0,0
38410,-100,4,2,34,64,0,0
38933,-100,4,2,34,68,0,0
39631,-100,4,2,34,62,0,0
41201,-100,4,2,34,64,0,0
41724,-100,4,2,34,68,0,0
41767,-100,4,2,34,5,0,0
42073,-100,4,2,34,68,0,0
42116,-100,4,2,34,5,0,0
42422,-100,4,2,34,62,0,0
43991,-100,4,2,34,64,0,0
44515,-100,4,2,34,68,0,0
44558,-100,4,2,34,5,0,0
44863,-100,4,2,34,68,0,0
44907,-100,4,2,34,5,0,0
45212,-100,4,2,34,62,0,0
46782,-100,4,2,34,66,0,0
48177,-100,4,2,34,68,0,0
49573,-100,4,2,34,70,0,0
50619,-100,4,2,34,72,0,0
50794,-200,4,2,34,72,0,0
51055,-200,4,2,34,30,0,0
51201,-200,4,2,34,5,0,0
51317,-200,4,2,34,30,0,0
51404,-200,4,2,34,5,0,0
51491,-200,4,2,34,30,0,0
51579,-200,4,2,34,5,0,0
51666,-200,4,2,34,30,0,0
51753,-200,4,2,34,5,0,0
51840,-200,4,2,34,30,0,0
51927,-200,4,2,34,5,0,0
52015,-133.333333333333,4,2,34,54,0,0
52102,-133.333333333333,4,2,34,56,0,0
52189,-133.333333333333,4,2,34,58,0,0
52276,-133.333333333333,4,2,34,60,0,0
52363,-83.3333333333333,4,2,34,75,0,0
55416,-83.3333333333333,4,2,34,40,0,0
55503,-83.3333333333333,4,2,34,75,0,0
57596,-83.3333333333333,4,2,34,70,0,0
57945,-83.3333333333333,4,2,34,75,0,0
66579,-83.3333333333333,4,2,34,40,0,0
66666,-83.3333333333333,4,2,34,75,0,0
68759,-83.3333333333333,4,2,34,70,0,0
69108,-83.3333333333333,4,2,34,75,0,0
71898,-83.3333333333333,4,2,34,78,0,0
74689,-100,4,2,34,68,0,0
79137,-100,4,2,34,5,0,0
79224,-100,4,2,34,68,0,0
79442,-100,4,2,34,5,0,0
79747,-100,4,2,34,68,0,0
79791,-100,4,2,34,5,0,0
80270,-100,4,2,34,68,0,0
83061,-125,4,2,34,60,0,0
83148,-125,4,2,34,5,0,0
83236,-125,4,2,34,60,0,0
83323,-125,4,2,34,5,0,0
83410,-125,4,2,34,60,0,0
84544,-125,4,2,34,5,0,0
84631,-125,4,2,34,60,0,0
84718,-125,4,2,34,5,0,0
85852,-125,4,2,34,60,0,0
85939,-125,4,2,34,5,0,0
86026,-125,4,2,34,60,0,0
86113,-125,4,2,34,5,0,0
86201,-125,4,2,34,60,0,0
87334,-125,4,2,34,5,0,0
87422,-125,4,2,34,60,0,0
87509,-125,4,2,34,5,0,0
87596,-125,4,2,34,60,0,0
88642,-125,4,2,34,64,0,0
88730,-125,4,2,34,5,0,0
88817,-250,4,2,34,64,0,0
89166,-500,4,2,34,5,0,0
90038,-125,4,2,34,66,0,0
90125,-125,4,2,34,5,0,0
90212,-250,4,2,34,66,0,0
90561,-500,4,2,34,5,0,0
91433,-125,4,2,34,68,0,0
91520,-125,4,2,34,5,0,0
91608,-250,4,2,34,68,0,0
91956,-500,4,2,34,5,0,0
92829,-100,4,2,34,64,0,0
93003,-100,4,2,34,20,0,0
93090,-125,4,2,34,64,0,0
93265,-125,4,2,34,20,0,0
93352,-166.666666666667,4,2,34,64,0,0
93439,-166.666666666667,4,2,34,20,0,0
93526,-100,4,2,34,67,0,0
93701,-100,4,2,34,54,0,0
93788,-100,4,2,34,67,0,0
93962,-100,4,2,34,54,0,0
94049,-100,4,2,34,67,0,0
94137,-100,4,2,34,20,0,0
94224,-125,4,2,34,62,0,0
97276,-125,4,2,34,40,0,0
97363,-125,4,2,34,62,0,0
98672,-125,4,2,34,40,0,0
98759,-125,4,2,34,62,0,0
100067,-125,4,2,34,5,0,0
100154,-125,4,2,34,62,0,0
101462,-125,4,2,34,5,0,0
101549,-125,4,2,34,62,0,0
105387,-100,4,2,34,64,0,0
105910,-100,4,2,34,68,0,0
105954,-100,4,2,34,5,0,0
106259,-100,4,2,34,68,0,0
106302,-100,4,2,34,5,0,0
106608,-100,4,2,34,62,0,0
108177,-100,4,2,34,64,0,0
108701,-100,4,2,34,68,0,0
108744,-100,4,2,34,5,0,0
109049,-100,4,2,34,68,0,0
109093,-100,4,2,34,5,0,0
109398,-100,4,2,34,62,0,0
110968,-100,4,2,34,64,0,0
111491,-100,4,2,34,68,0,0
111535,-100,4,2,34,5,0,0
111840,-100,4,2,34,68,0,0
111884,-100,4,2,34,5,0,0
112189,-100,4,2,34,62,0,0
113672,-100,4,2,34,5,0,0
113759,-133.333333333333,4,2,34,48,0,0
114108,-133.333333333333,4,2,34,46,0,0
114456,-133.333333333333,4,2,34,50,0,0
114805,-133.333333333333,4,2,34,48,0,0
115154,-133.333333333333,4,2,34,52,0,0
115503,-133.333333333333,4,2,34,50,0,0
115852,-400,4,2,34,56,0,0
116201,-400,4,2,34,5,0,0
116549,-100,4,2,34,60,0,0
116898,-100,4,2,34,62,0,0
117247,-100,4,2,34,64,0,0
117596,-100,4,2,34,66,0,0
117770,-166.666666666667,4,2,34,68,0,0
118294,-166.666666666667,4,2,34,5,0,0
118555,-166.666666666667,4,2,34,30,0,0
118642,-166.666666666667,4,2,34,5,0,0
118730,-166.666666666667,4,2,34,30,0,0
118817,-166.666666666667,4,2,34,34,0,0
118991,-166.666666666667,4,2,34,54,0,0
119079,-166.666666666667,4,2,34,56,0,0
119166,-83.3333333333333,4,2,34,58,0,0
119253,-83.3333333333333,4,2,34,60,0,0
119340,-83.3333333333333,4,2,34,75,0,0
122392,-83.3333333333333,4,2,34,40,0,0
122480,-83.3333333333333,4,2,34,75,0,0
124573,-83.3333333333333,4,2,34,70,0,0
124922,-83.3333333333333,4,2,34,75,0,0
133555,-83.3333333333333,4,2,34,40,0,0
133642,-83.3333333333333,4,2,34,75,0,0
135736,-83.3333333333333,4,2,34,70,0,0
136084,-83.3333333333333,4,2,34,75,0,0
138875,-83.3333333333333,4,2,34,78,0,0
140794,-83.3333333333333,4,2,34,76,0,0
141230,-83.3333333333333,4,2,34,75,0,0
141491,-83.3333333333333,4,2,34,72,0,0
141666,-133.333333333333,4,2,34,55,0,0
152829,-133.333333333333,4,2,34,56,0,0
162858,-133.333333333333,4,2,34,5,0,0
162945,-133.333333333333,4,2,34,56,0,0
163206,-133.333333333333,4,2,34,5,0,0
163294,-133.333333333333,4,2,34,56,0,0
163555,-133.333333333333,4,2,34,5,0,0
163642,-133.333333333333,4,2,34,56,0,0
163904,-133.333333333333,4,2,34,5,0,0
163991,-166.666666666667,4,2,34,57,0,0
174456,-100,4,2,34,58,0,0
174805,-100,4,2,34,60,0,0
175154,-100,4,3,99,62,0,1
175241,-100,4,3,34,62,0,1
177945,-100,4,3,99,63,0,1
178032,-100,4,3,34,63,0,1
180736,-100,4,3,99,64,0,1
180823,-100,4,3,34,64,0,1
183526,-100,4,3,99,65,0,1
183613,-100,4,3,34,65,0,1
184922,-100,4,3,99,66,0,1
185009,-100,4,3,34,66,0,1
185619,-100,4,3,34,67,0,1
185794,-133.333333333333,4,3,34,67,0,1
185964,-100,4,3,34,67,0,1
185968,-100,4,3,34,68,0,1
186142,-80,4,3,34,68,0,1
186317,-80,4,2,99,40,0,0
187538,-80,4,2,34,40,0,0
187712,-80,4,2,99,40,0,0
193119,-80,4,2,34,40,0,0
193294,-80,4,2,99,40,0,0
197480,-125,4,2,34,56,0,0
203061,-125,4,2,34,58,0,0
207247,-125,4,2,34,20,0,0
207305,-125,4,2,34,21,0,0
207363,-125,4,2,34,22,0,0
207422,-125,4,2,34,23,0,0
207480,-125,4,2,34,24,0,0
207538,-125,4,2,34,25,0,0
207596,-125,4,2,34,26,0,0
207654,-125,4,2,34,27,0,0
207712,-125,4,2,34,28,0,0
207770,-125,4,2,34,29,0,0
207829,-125,4,2,34,30,0,0
207887,-125,4,2,34,31,0,0
207945,-125,4,2,34,32,0,0
208003,-125,4,2,34,34,0,0
208061,-125,4,2,34,36,0,0
208119,-125,4,2,34,38,0,0
208177,-125,4,2,34,40,0,0
208236,-125,4,2,34,42,0,0
208294,-125,4,2,34,44,0,0
208352,-125,4,2,34,46,0,0
208410,-125,4,2,34,48,0,0
208468,-125,4,2,34,50,0,0
208526,-125,4,2,34,52,0,0
208584,-125,4,2,34,54,0,0
208642,-125,4,2,34,62,0,0
208730,-125,4,2,34,20,0,0
209863,-125,4,2,34,50,0,0
210038,-142.857142857143,4,2,34,64,0,0
210125,-142.857142857143,4,2,34,20,0,0
211259,-142.857142857143,4,2,34,52,0,0
211433,-142.857142857143,4,2,34,66,0,0
211782,-142.857142857143,4,2,34,68,0,0
212131,-142.857142857143,4,2,34,70,0,0
212480,-142.857142857143,4,2,34,72,0,0
212829,-142.857142857143,4,2,34,64,0,0
214573,-66.6666666666667,4,2,34,72,0,0
214747,-66.6666666666667,4,2,34,62,0,0
214922,-66.6666666666667,4,2,34,66,0,0
215270,-100,4,2,34,68,0,0
215619,-83.3333333333333,4,2,34,70,0,0
217015,-83.3333333333333,4,2,34,72,0,0
217363,-83.3333333333333,4,2,34,68,0,0
217538,-83.3333333333333,4,2,34,70,0,0
218236,-83.3333333333333,4,2,34,74,0,0
219108,-83.3333333333333,4,2,34,72,0,0
219456,-83.3333333333333,4,2,34,74,0,0
219762,-83.3333333333333,4,2,34,72,0,0
219805,-83.3333333333333,4,2,34,76,0,0
222858,-83.3333333333333,4,2,34,40,0,0
222945,-83.3333333333333,4,2,34,76,0,0
228177,-100,4,2,34,78,0,0
228439,-100,4,2,34,5,0,0
228526,-100,4,2,34,78,0,0
230968,-100,4,2,34,70,0,0
240736,-66.6666666666667,4,2,34,70,0,0
240997,-66.6666666666667,4,2,34,36,0,0
241084,-66.6666666666667,4,2,34,70,0,0
241782,-100,4,2,34,70,0,0
246579,-100,4,2,34,5,0,0
246666,-100,4,2,34,70,0,0
246884,-100,4,2,34,5,0,0
247189,-100,4,2,34,70,0,0
247233,-100,4,2,34,5,0,0
247712,-100,4,2,34,70,0,0
249849,-100,4,2,34,5,0,0
250067,-100,4,2,34,70,0,0
250111,-100,4,2,34,5,0,0
250329,-100,4,2,34,70,0,0

[Colours]
Combo1 : 255,128,255
Combo2 : 135,218,245
Combo3 : 255,98,176
Combo4 : 176,176,255

[HitObjects]
58,77,736,6,0,L|52:140,2,52.5000020027161,2|0|0,0:0|0:0|0:0,0:0:0:0:
132,25,1259,1,2,0:0:0:0:
254,213,2131,6,0,L|259:276,2,52.5000020027161,2|0|0,0:0|0:0|0:0,0:0:0:0:
180,161,2654,1,2,0:0:0:0:
512,164,3526,5,2,0:0:0:0:
497,0,3875,1,2,0:0:0:0:
334,14,4224,1,2,0:0:0:0:
349,179,4573,1,2,0:0:0:0:
179,308,4922,6,0,P|167:287|139:260,3,52.5000020027161,2|0|2|0,0:0|0:0|0:0|0:0,0:0:0:0:
15,293,5619,2,0,P|39:293|76:282,3,52.5000020027161,2|0|2|0,0:0|0:0|0:0|0:0,0:0:0:0:
87,202,6317,2,0,L|89:178,1,13.125000500679,4|0,0:0|0:0,0:0:0:0:
137,45,7015,5,2,0:0:0:0:
137,45,7131,2,0,L|192:40,1,35.0000013351441,2|2,0:0|0:0,0:0:0:0:
238,82,7363,1,2,0:0:0:0:
238,82,7479,2,0,L|293:86,1,35.0000013351441,2|2,0:0|0:0,0:0:0:0:
346,56,7712,6,0,P|328:94|322:135,1,83.9999974365235,14|2,0:1|0:0,0:0:0:0:
268,204,8061,2,0,P|292:237|325:264,1,83.9999974365235,10|2,0:0|0:0,0:0:0:0:
422,252,8410,1,8,0:1:0:0:
369,188,8584,1,8,0:1:0:0:
341,264,8759,1,8,0:0:0:0:
161,368,9108,6,0,L|151:256,1,83.9999974365235,10|10,0:1|0:1,0:0:0:0:
75,241,9456,2,0,L|84:129,1,83.9999974365235,10|2,0:0|0:0,0:0:0:0:
39,78,9805,1,10,0:1:0:0:
119,72,9980,1,8,0:1:0:0:
199,65,10154,1,8,0:0:0:0:
398,19,10503,6,0,P|358:31|326:58,1,83.9999974365235,10|2,0:1|0:0,0:0:0:0:
344,172,10852,1,10,0:0:0:0:
344,172,11026,1,2,0:0:0:0:
264,138,11201,2,0,L|168:146,1,83.9999974365235,8|10,0:1|0:1,0:0:0:0:
169,161,11462,1,2,0:0:0:0:
160,174,11549,2,0,L|155:229,3,41.9999987182618,10|2|2|0,0:0|0:0|0:0|0:0,0:0:0:0:
106,285,11898,6,0,P|173:255|260:298,1,167.999994873047,10|8,0:1|0:0,0:0:0:0:
325,384,12422,2,0,L|327:353,1,20.9999993591309,10|0,0:1|0:0,0:0:0:0:
249,246,12770,2,0,L|250:266,1,20.9999993591309,10|0,0:1|0:0,0:0:0:0:
494,267,13294,6,0,P|465:236|425:224,1,83.9999974365235,14|0,0:1|0:0,0:0:0:0:
425,224,13642,1,10,0:0:0:0:
364,314,13817,2,0,P|312:251|336:174,1,167.999994873047,14|10,0:1|0:1,0:0:0:0:
336,174,14340,1,8,0:0:0:0:
438,105,14515,6,0,L|262:89,1,167.999994873047,14|8,0:1|0:1,0:0:0:0:
202,155,15038,1,14,0:0:0:0:
165,166,15154,1,2,0:0:0:0:
132,153,15270,1,2,0:0:0:0:
107,124,15387,6,0,P|91:123|61:132,1,41.9999987182618,10|0,0:1|0:0,0:0:0:0:
0,206,15648,2,0,P|22:206|48:217,1,41.9999987182618,10|0,0:1|0:0,0:0:0:0:
110,297,15910,1,10,0:1:0:0:
186,257,16084,5,14,0:1:0:0:
186,257,16259,2,0,P|261:229|271:232,1,83.9999974365235,2|2,0:0|0:0,0:0:0:0:
357,356,16956,2,0,P|362:314|344:277,1,83.9999974365235,2|0,0:0|0:0,0:0:0:0:
257,322,17480,1,2,0:0:0:0:
461,76,18177,6,0,B|442:110|442:110|388:124,1,83.9999974365235,2|2,0:0|0:0,0:0:0:0:
284,100,18875,2,0,P|305:126|304:181,1,83.9999974365235,2|0,0:0|0:0,0:0:0:0:
140,162,19573,2,0,L|235:153,1,83.9999974365235,2|2,0:0|0:0,0:0:0:0:
81,44,20270,6,0,P|49:70|45:111,1,83.9999974365235,2|0,0:0|0:0,0:0:0:0:
4,190,20794,1,2,0:0:0:0:
81,304,21142,6,0,P|118:287|159:293,1,83.9999974365235,2|0,0:0|0:0,0:0:0:0:
239,357,21666,2,0,L|247:261,1,83.9999974365235,2|0,0:0|0:0,0:0:0:0:
460,218,22363,2,0,P|433:225|404:222,1,41.9999987182618,2|0,0:0|0:0,0:0:0:0:
347,171,22712,2,0,P|320:164|291:166,1,41.9999987182618,2|0,0:0|0:0,0:0:0:0:
250,235,23061,6,0,P|197:217|176:184,1,83.9999974365235,2|0,0:0|0:0,0:0:0:0:
82,172,23584,2,0,P|92:226|74:261,1,83.9999974365235,2|0,0:0|0:0,0:0:0:0:
135,316,24108,1,2,0:0:0:0:
73,162,24456,6,0,P|107:138|148:129,1,83.9999974365235,2|2,0:0|0:0,0:0:0:0:
200,59,24980,2,0,P|237:76|266:107,1,83.9999974365235,2|2,0:0|0:0,0:0:0:0:
260,308,25852,6,0,P|223:280|237:382,1,251.999992309571,4|8,0:0|0:0,0:0:0:0:
469,175,27247,5,14,0:1:0:0:
469,175,27422,2,0,P|439:158|389:160,1,62.9999980773926,2|8,0:0|0:0,0:0:0:0:
355,215,27770,2,0,P|325:232|275:230,1,62.9999980773926,2|8,0:0|0:1,0:0:0:0:
236,165,28119,2,0,L|164:158,1,62.9999980773926,10|8,0:1|0:0,0:0:0:0:
173,159,28468,1,0,0:0:0:0:
110,247,28642,6,0,P|70:199|73:138,1,125.999996154785,10|8,0:1|0:0,0:0:0:0:
72,138,29166,1,0,0:0:0:0:
106,47,29340,2,0,L|187:54,1,62.9999980773926,10|8,0:1|0:1,0:0:0:0:
221,122,29689,2,0,L|302:114,1,62.9999980773926,10|0,0:0|0:0,0:0:0:0:
418,55,30038,6,0,P|369:92|367:153,1,125.999996154785,10|8,0:1|0:0,0:0:0:0:
445,233,30561,2,0,L|452:145,1,62.9999980773926,2|8,0:0|0:1,0:0:0:0:
368,295,30910,2,0,L|361:207,1,62.9999980773926,10|8,0:1|0:0,0:0:0:0:
363,232,31259,1,0,0:0:0:0:
286,162,31433,6,0,P|224:154|168:182,1,125.999996154785,10|8,0:1|0:0,0:0:0:0:
139,354,32131,1,10,0:1:0:0:
77,279,32305,1,8,0:1:0:0:
43,370,32480,1,10,0:0:0:0:
164,196,32829,6,0,P|152:135|105:94,1,125.999996154785,10|8,0:1|0:0,0:0:0:0:
105,94,33352,1,2,0:0:0:0:
40,13,33526,2,0,L|119:6,1,62.9999980773926,8|8,0:1|0:1,0:0:0:0:
179,46,33875,2,0,L|258:52,1,62.9999980773926,10|0,0:0|0:0,0:0:0:0:
366,36,34224,6,0,P|319:75|321:136,1,125.999996154785,10|8,0:1|0:0,0:0:0:0:
394,205,34747,2,0,P|399:235|392:266,1,62.9999980773926,2|8,0:0|0:1,0:0:0:0:
392,266,35096,1,8,0:1:0:0:
325,345,35270,2,0,L|245:338,1,62.9999980773926,10|0,0:0|0:0,0:0:0:0:
156,370,35619,6,0,P|183:292|160:229,1,125.999996154785,10|8,0:1|0:0,0:0:0:0:
49,115,36317,2,0,L|43:177,2,62.9999980773926,8|8|8,0:1|0:1|0:0,0:0:0:0:
227,9,37015,6,0,P|289:7|342:38,1,125.999996154785,10|8,0:1|0:0,0:0:0:0:
414,107,37538,2,0,L|417:71,2,31.4999990386963,8|8|10,0:0|0:0|0:0,0:0:0:0:
356,172,37887,1,8,0:3:0:0:
416,260,38061,5,6,0:3:0:0:
381,282,38177,1,2,0:0:0:0:
333,277,38294,1,2,0:0:0:0:
300,244,38410,6,0,P|256:233|169:281,1,140,14|8,0:1|0:1,0:0:0:0:
91,357,38933,2,0,L|88:326,1,17.5,10|0,0:0|0:0,0:0:0:0:
42,194,39282,2,0,L|39:223,1,17.5,10|0,0:0|0:0,0:0:0:0:
116,69,39631,6,0,P|161:56|255:107,1,140,14|8,0:1|0:1,0:0:0:0:
319,166,40154,2,0,L|325:94,1,70,10|8,0:0|0:1,0:0:0:0:
415,145,40503,2,0,L|421:214,1,70,10|8,0:0|0:1,0:0:0:0:
324,275,40852,1,10,0:0:0:0:
110,371,41201,6,0,P|171:343|180:276,1,140,14|10,0:1|0:1,0:0:0:0:
107,195,41724,2,0,L|104:218,1,17.5,10|0,0:0|0:0,0:0:0:0:
171,84,42073,2,0,L|169:66,1,17.5,10|0,0:0|0:0,0:0:0:0:
357,180,42422,6,0,P|421:197|472:152,1,140,14|8,0:1|0:1,0:0:0:0:
406,33,42945,2,0,L|399:104,1,70,10|8,0:0|0:1,0:0:0:0:
347,187,43294,2,0,L|353:256,1,70,10|8,0:0|0:1,0:0:0:0:
429,316,43642,1,10,0:0:0:0:
318,374,43817,1,8,0:0:0:0:
318,374,43904,1,8,0:0:0:0:
318,374,43991,6,0,P|279:315|198:305,1,140,14|10,0:1|0:1,0:0:0:0:
131,351,44515,2,0,L|128:327,1,17.5,10|0,0:0|0:0,0:0:0:0:
5,274,44863,2,0,L|3:291,1,17.5,10|0,0:0|0:0,0:0:0:0:
85,112,45212,6,0,P|136:140|233:114,1,140,14|8,0:1|0:1,0:0:0:0:
300,56,45736,2,0,L|306:135,1,70,10|8,0:0|0:1,0:0:0:0:
393,176,46084,2,0,L|399:106,1,70,10|8,0:0|0:1,0:0:0:0:
314,237,46433,2,0,L|316:268,4,23.3333333333333,14|0|0|2|0,0:0|0:0|0:0|0:0|0:0,0:0:0:0:
268,332,46782,5,6,3:1:0:0:
217,327,46956,1,0,3:0:0:0:
167,323,47131,1,2,3:0:0:0:
116,318,47305,1,0,3:0:0:0:
65,237,47480,6,0,L|144:230,1,70,2|0,3:0|3:0,0:0:0:0:
220,222,47829,2,0,L|299:215,1,70,2|0,3:0|3:0,0:0:0:0:
369,143,48177,5,2,3:0:0:0:
376,59,48352,1,0,3:0:0:0:
292,52,48526,1,2,3:0:0:0:
286,135,48701,1,0,3:0:0:0:
206,84,48875,6,0,L|199:12,1,70,2|0,3:0|3:0,0:0:0:0:
106,27,49224,2,0,L|112:96,1,70,2|0,3:0|3:0,0:0:0:0:
23,72,49573,6,0,L|19:111,3,35,10|0|0|0,3:1|3:0|3:0|3:0,0:0:0:0:
45,151,49922,2,0,L|48:190,3,35,8|0|0|0,3:1|3:0|3:0|3:0,0:0:0:0:
21,230,50270,2,0,L|17:269,3,35,8|0|0|0,3:1|3:0|3:0|3:0,0:0:0:0:
41,310,50619,1,10,3:1:0:0:
127,290,50794,6,0,P|179:267|162:365,1,210,10|0,3:2|0:0,0:0:0:0:
111,247,52015,6,0,L|113:215,3,26.2500010013581,2|2|2|2,0:0|0:0|0:0|0:0,0:0:0:0:
97,178,52363,6,0,P|140:147|204:144,1,83.9999974365235,14|0,0:1|0:0,0:0:0:0:
247,199,52712,1,10,0:0:0:0:
247,199,52887,2,0,L|342:190,1,83.9999974365235,0|10,0:0|0:1,0:0:0:0:
389,116,53236,2,0,L|294:107,1,83.9999974365235,10|8,0:1|0:0,0:0:0:0:
305,108,53584,1,0,0:0:0:0:
298,19,53759,5,10,0:1:0:0:
258,22,53933,1,10,0:1:0:0:
218,25,54108,1,10,0:0:0:0:
139,67,54282,2,0,L|35:57,1,83.9999974365235,2|8,0:1|0:1,0:0:0:0:
0,150,54631,2,0,L|103:140,1,83.9999974365235,10|8,0:1|0:0,0:0:0:0:
83,142,54980,1,0,0:0:0:0:
171,203,55154,6,0,P|183:244|166:295,1,83.9999974365235,10|0,0:1|0:0,0:0:0:0:
165,384,55503,2,0,P|204:371|233:341,1,83.9999974365235,10|0,0:0|0:0,0:0:0:0:
309,261,55852,2,0,L|317:356,1,83.9999974365235,10|8,0:1|0:1,0:0:0:0:
406,384,56201,2,0,L|413:300,1,83.9999974365235,10|0,0:0|0:0,0:0:0:0:
338,184,56549,5,10,0:1:0:0:
371,187,56724,1,10,0:1:0:0:
408,192,56898,1,10,0:0:0:0:
487,127,57073,2,0,P|460:95|420:84,1,83.9999974365235,2|8,0:0|0:1,0:0:0:0:
361,18,57422,2,0,P|334:49|294:60,1,83.9999974365235,10|10,0:1|0:0,0:0:0:0:
218,107,57770,1,2,0:0:0:0:
218,107,57858,1,2,0:0:0:0:
218,107,57945,6,0,P|185:82|145:73,1,83.9999974365235,14|0,0:1|0:0,0:0:0:0:
153,242,58294,2,0,P|158:200|145:161,1,83.9999974365235,10|0,0:0|0:0,0:0:0:0:
0,238,58642,2,0,P|33:213|73:204,1,83.9999974365235,10|8,0:1|0:1,0:0:0:0:
57,376,58991,2,0,P|51:334|64:295,1,83.9999974365235,10|0,0:0|0:0,0:0:0:0:
162,345,59340,6,0,P|242:347|285:280,1,167.999994873047,10|8,0:1|0:0,0:0:0:0:
487,180,60038,1,10,0:1:0:0:
495,87,60212,1,10,0:1:0:0:
402,79,60387,1,10,0:0:0:0:
394,171,60561,1,2,0:0:0:0:
311,243,60736,6,0,P|305:185|201:134,2,167.999994873047,14|8|8,0:1|0:0|0:1,0:0:0:0:
311,243,61608,1,10,0:1:0:0:
208,270,61782,1,10,0:0:0:0:
217,131,61956,6,0,P|258:82|370:98,1,167.999994873047,14|8,0:1|0:1,0:0:0:0:
440,160,62480,2,0,L|448:64,1,83.9999974365235,8|8,0:0|0:1,0:0:0:0:
347,173,62829,1,10,0:0:0:0:
349,204,63003,1,10,0:1:0:0:
352,236,63177,1,10,0:0:0:0:
418,304,63352,1,10,0:0:0:0:
418,304,63439,1,10,0:0:0:0:
417,304,63526,6,0,P|394:338|345:359,1,83.9999974365235,14|0,0:1|0:0,0:0:0:0:
283,303,63875,1,10,0:0:0:0:
283,303,64049,2,0,L|186:312,1,83.9999974365235,2|8,0:0|0:1,0:0:0:0:
138,372,64398,2,0,L|41:363,1,83.9999974365235,10|8,0:1|0:0,0:0:0:0:
14,286,64747,1,2,0:0:0:0:
14,286,64834,1,2,0:0:0:0:
14,286,64922,6,0,P|35:249|36:208,1,83.9999974365235,10|10,0:1|0:1,0:0:0:0:
0,120,65270,1,10,0:0:0:0:
0,120,65445,2,0,L|87:127,1,83.9999974365235,0|8,0:0|0:1,0:0:0:0:
151,196,65794,2,0,L|238:188,1,83.9999974365235,10|8,0:1|0:0,0:0:0:0:
234,188,66142,1,2,0:0:0:0:
334,114,66317,6,0,P|318:152|323:194,1,83.9999974365235,10|0,0:1|0:0,0:0:0:0:
293,277,66666,2,0,P|317:309|356:326,1,83.9999974365235,10|0,0:0|0:0,0:0:0:0:
411,213,67015,2,0,P|371:199|329:199,1,83.9999974365235,10|8,0:1|0:1,0:0:0:0:
281,278,67363,2,0,P|241:291|199:291,1,83.9999974365235,10|2,0:0|0:0,0:0:0:0:
118,229,67712,6,0,P|106:308|31:334,2,167.999994873047,10|8|10,0:1|0:0|0:1,0:0:0:0:
118,229,68584,1,8,0:1:0:0:
67,152,68759,2,0,L|154:144,1,83.9999974365235,10|2,0:0|0:0,0:0:0:0:
243,29,69108,6,0,P|315:13|411:69,1,167.999994873047,14|8,0:1|0:0,0:0:0:0:
473,135,69631,2,0,L|480:47,2,83.9999974365235,2|0|8,0:0|0:0|0:1,0:0:0:0:
401,197,70154,2,0,L|408:284,1,83.9999974365235,10|0,0:0|0:0,0:0:0:0:
449,384,70503,6,0,P|410:366|369:367,1,83.9999974365235,10|8,0:1|0:1,0:0:0:0:
369,367,70852,1,8,0:0:0:0:
313,302,71026,2,0,P|283:330|242:335,1,83.9999974365235,2|8,0:0|0:1,0:0:0:0:
241,334,71375,1,8,0:1:0:0:
158,274,71549,2,0,L|150:361,1,83.9999974365235,10|0,0:0|0:0,0:0:0:0:
78,304,71898,6,0,P|105:272|145:265,1,83.9999974365235,14|0,0:1|0:0,0:0:0:0:
195,192,72247,2,0,P|235:199|262:231,1,83.9999974365235,8|8,0:0|0:1,0:0:0:0:
357,326,72596,2,0,P|343:286|357:248,1,83.9999974365235,8|8,0:0|0:1,0:0:0:0:
318,168,72945,2,0,P|345:136|385:129,1,83.9999974365235,8|8,0:0|0:1,0:0:0:0:
458,53,73294,6,0,L|346:43,1,83.9999974365235,10|8,0:0|0:1,0:0:0:0:
298,6,73642,2,0,L|186:15,1,83.9999974365235,8|8,0:0|0:1,0:0:0:0:
214,13,73991,1,10,0:0:0:0:
158,90,74166,1,0,3:0:0:0:
158,90,74253,1,0,3:0:0:0:
158,90,74340,2,0,L|110:85,3,41.9999987182618,0|0|0|0,3:0|3:0|3:0|3:0,0:0:0:0:
67,100,74689,6,0,P|54:132|53:167,1,70,14|2,0:1|0:0,0:0:0:0:
7,237,75038,2,0,P|29:263|58:282,1,70,8|2,0:0|0:0,0:0:0:0:
191,330,75387,1,8,0:1:0:0:
140,268,75561,1,8,0:1:0:0:
112,343,75736,1,8,0:0:0:0:
427,311,76084,6,0,P|423:276|404:247,1,70,10|10,0:1|0:1,0:0:0:0:
411,161,76433,2,0,P|379:146|344:148,1,70,8|2,0:0|0:0,0:0:0:0:
217,208,76782,1,10,0:1:0:0:
268,146,76956,1,8,0:1:0:0:
296,221,77131,1,8,0:0:0:0:
139,38,77480,6,0,P|121:68|113:102,1,70,10|2,0:1|0:0,0:0:0:0:
169,158,77829,2,0,P|194:182|212:213,1,70,8|2,0:0|0:0,0:0:0:0:
57,244,78177,2,0,P|65:210|82:179,1,70,8|10,0:1|0:1,0:0:0:0:
143,278,78526,2,0,L|138:325,3,35,10|2|2|2,0:0|0:0|0:0|0:0,0:0:0:0:
179,344,78875,6,0,P|240:318|318:350,1,140,10|8,0:1|0:0,0:0:0:0:
412,282,79398,2,0,L|413:309,1,17.5,10|0,0:1|0:0,0:0:0:0:
310,206,79747,2,0,L|309:223,1,17.5,10|0,0:1|0:0,0:0:0:0:
501,36,80270,6,0,P|473:57|440:67,1,70,14|0,0:1|0:0,0:0:0:0:
440,67,80619,1,8,0:0:0:0:
354,0,80794,2,0,P|305:18|343:101,1,140,14|10,0:1|0:1,0:0:0:0:
316,92,81317,1,8,0:0:0:0:
260,0,81491,6,0,P|213:-1|123:74,1,140,14|8,0:1|0:1,0:0:0:0:
65,127,82015,1,14,0:0:0:0:
88,167,82131,1,2,0:0:0:0:
84,212,82247,1,2,0:0:0:0:
52,257,82363,6,0,L|54:274,1,17.5,10|0,0:1|0:0,0:0:0:0:
161,360,82625,2,0,L|163:342,1,17.5,10|0,0:1|0:0,0:0:0:0:
248,244,82887,1,10,0:1:0:0:
310,315,83061,6,0,L|357:319,1,28,14|0,0:1|0:0,0:0:0:0:
357,302,83236,2,0,L|309:306,1,28,10|0,0:1|0:0,0:0:0:0:
177,173,84456,6,0,L|129:177,1,28,10|0,0:1|0:0,0:0:0:0:
130,160,84631,2,0,L|177:164,1,28,10|0,0:1|0:0,0:0:0:0:
498,372,85852,6,0,L|493:324,1,28,10|0,0:1|0:0,0:0:0:0:
511,325,86027,2,0,L|506:372,1,28,10|0,0:1|0:0,0:0:0:0:
14,372,87247,6,0,L|18:324,1,28,10|0,0:1|0:0,0:0:0:0:
1,325,87422,2,0,L|5:372,1,28,10|0,0:1|0:0,0:0:0:0:
495,53,88642,6,0,L|455:49,1,28,10|0,0:0|0:0,0:0:0:0:
384,38,88817,2,0,L|322:31,1,56,10|0,0:0|0:0,0:0:0:0:
42,171,90038,6,0,L|81:167,1,28,10|0,0:0|0:0,0:0:0:0:
151,158,90213,2,0,L|219:153,1,56,10|0,0:0|0:0,0:0:0:0:
339,379,91433,6,0,L|342:339,1,28,10|0,0:0|0:0,0:0:0:0:
351,270,91608,2,0,L|358:203,1,56,10|0,0:0|0:0,0:0:0:0:
139,55,92829,6,0,P|154:83|133:128,1,70,14|0,0:1|0:0,0:0:0:0:
49,42,93090,2,0,P|70:32|107:34,1,56,10|0,0:1|0:0,0:0:0:0:
27,85,93352,1,10,0:1:0:0:
69,155,93526,6,0,P|71:192|60:229,1,70,10|8,0:0|0:1,0:0:0:0:
34,292,93788,2,0,B|20:282|11:257|11:257|25:265|45:260,1,70,10|8,0:0|0:1,0:0:0:0:
118,273,94049,1,10,0:0:0:0:
235,214,94224,5,14,0:1:0:0:
235,214,94398,2,0,P|262:219|290:218,1,56,0|8,0:0|0:0,0:0:0:0:
350,149,94747,2,0,P|377:148|404:157,1,56,2|8,0:0|0:1,0:0:0:0:
496,227,95096,2,0,P|468:226|441:235,1,56,10|8,0:1|0:0,0:0:0:0:
441,235,95445,1,0,0:0:0:0:
411,339,95619,6,0,P|371:306|313:307,1,112,10|8,0:1|0:0,0:0:0:0:
313,306,96142,1,0,0:0:0:0:
242,370,96317,2,0,L|170:363,1,56,10|8,0:1|0:1,0:0:0:0:
140,294,96666,2,0,L|68:300,1,56,10|0,0:0|0:0,0:0:0:0:
3,360,97015,6,0,P|39:308|23:253,1,112,10|10,0:1|0:0,0:0:0:0:
80,184,97538,2,0,L|135:179,1,56,0|10,0:0|0:1,0:0:0:0:
193,120,97887,2,0,L|248:124,1,56,10|8,0:1|0:0,0:0:0:0:
248,124,98236,1,0,0:0:0:0:
349,75,98410,6,0,P|332:127|349:180,1,112,10|10,0:1|0:0,0:0:0:0:
512,320,99108,1,10,0:1:0:0:
456,253,99282,1,8,0:1:0:0:
426,335,99456,1,10,0:0:0:0:
258,384,99805,6,0,B|278:349|278:349|264:278,1,112,10|8,0:1|0:0,0:0:0:0:
188,211,100329,2,0,L|180:275,1,56,2|10,0:0|0:1,0:0:0:0:
181,266,100677,1,8,0:1:0:0:
97,338,100852,2,0,L|90:282,1,56,10|0,0:0|0:0,0:0:0:0:
17,171,101201,6,0,P|67:189|111:158,1,112,10|8,0:1|0:0,0:0:0:0:
191,88,101724,2,0,L|263:84,1,56,2|8,0:0|0:1,0:0:0:0:
246,84,102073,1,8,0:1:0:0:
307,174,102247,2,0,L|235:170,1,56,10|0,0:0|0:0,0:0:0:0:
388,97,102596,6,0,P|431:130|443:183,2,112,10|8|10,0:1|0:0|0:1,0:0:0:0:
388,97,103468,1,8,0:1:0:0:
305,30,103642,1,12,0:0:0:0:
239,85,103817,1,8,0:0:0:0:
239,85,103904,1,8,0:0:0:0:
238,85,103991,6,0,P|217:102|190:104,1,56,10|8,0:1|0:0,0:0:0:0:
114,49,104340,1,8,0:0:0:0:
93,63,104427,2,0,L|86:125,1,56,8|8,0:0|0:0,0:0:0:0:
63,141,104689,1,10,0:1:0:0:
116,210,104863,2,0,L|143:208,2,28,8|8|4,0:3|0:3|0:3,0:0:0:0:
57,309,105212,1,4,0:3:0:0:
57,309,105299,1,4,0:3:0:0:
57,309,105387,6,0,P|117:296|193:347,1,140,14|8,0:1|0:1,0:0:0:0:
294,310,105910,2,0,L|291:333,1,17.5,10|0,0:0|0:0,0:0:0:0:
389,225,106259,2,0,L|391:248,1,17.5,10|0,0:0|0:0,0:0:0:0:
512,106,106608,6,0,B|474:126|474:126|378:106,1,140,14|8,0:1|0:1,0:0:0:0:
278,76,107131,2,0,L|284:155,1,70,10|8,0:0|0:1,0:0:0:0:
178,182,107480,2,0,L|184:112,1,70,10|8,0:0|0:1,0:0:0:0:
62,78,107829,2,0,P|84:104|90:138,1,70,10|0,0:0|0:0,0:0:0:0:
0,275,108177,6,0,P|56:236|124:245,1,140,14|8,0:1|0:1,0:0:0:0:
219,337,108701,2,0,L|221:305,1,17.5,10|0,0:0|0:0,0:0:0:0:
327,259,109049,2,0,L|328:276,1,17.5,10|0,0:0|0:0,0:0:0:0:
512,384,109398,6,0,P|485:320|507:255,1,140,14|8,0:1|0:1,0:0:0:0:
448,186,109922,2,0,L|360:178,1,70,10|8,0:0|0:1,0:0:0:0:
283,108,110270,2,0,L|370:100,1,70,10|8,0:0|0:1,0:0:0:0:
445,71,110619,1,10,0:0:0:0:
371,9,110794,1,8,0:0:0:0:
371,9,110881,1,8,0:0:0:0:
371,9,110968,6,0,B|320:0|320:0|229:29,1,140,14|8,0:1|0:1,0:0:0:0:
150,90,111491,2,0,L|152:66,1,17.5,10|0,0:0|0:0,0:0:0:0:
41,17,111840,2,0,L|42:34,1,17.5,10|0,0:0|0:0,0:0:0:0:
5,192,112189,6,0,P|36:178|132:223,1,140,14|8,0:1|0:1,0:0:0:0:
187,303,112712,2,0,P|192:269|214:241,1,70,10|8,0:0|0:1,0:0:0:0:
210,154,113061,2,0,P|242:141|277:146,1,70,10|10,0:0|0:1,0:0:0:0:
126,109,113410,1,14,0:0:0:0:
352,212,113759,6,0,P|377:216|403:213,3,52.5000020027161,14|0|0|0,0:1|0:0|0:0|0:0,0:0:0:0:
256,220,114456,2,0,P|265:244|280:265,3,52.5000020027161,2|0|0|0,0:0|0:0|0:0|0:0,0:0:0:0:
212,128,115154,2,0,P|195:148|185:172,3,52.5000020027161,2|0|0|0,0:0|0:0|0:0|0:0,0:0:0:0:
208,45,115852,2,0,P|234:43|260:48,1,52.5,2|0,0:0|0:0,0:0:0:0:
339,102,116549,5,10,0:0:0:0:
346,18,116724,1,8,0:0:0:0:
430,26,116898,1,10,0:0:0:0:
423,110,117073,1,8,0:0:0:0:
328,100,117247,5,10,0:0:0:0:
371,177,117422,1,8,0:0:0:0:
329,256,117596,1,10,0:0:0:0:
407,341,117770,6,0,B|383:339|383:339|362:349|362:349|332:335|332:335|299:348|299:348|269:335|269:335|243:342|243:342|225:337|225:337|208:340|208:340|193:337|193:337|182:337|182:337|173:336|173:336|157:336,1,251.999992309571,14|0,0:1|0:0,0:0:0:0:
96,311,118991,6,0,L|94:333,3,20.9999993591309,2|2|2|0,0:0|0:0|0:0|0:0,0:0:0:0:
64,276,119340,2,0,P|44:224|61:182,1,83.9999974365235,14|0,0:1|0:0,0:0:0:0:
119,127,119689,1,10,0:0:0:0:
119,127,119863,2,0,L|214:118,1,83.9999974365235,2|8,0:0|0:1,0:0:0:0:
248,195,120212,2,0,L|343:203,1,83.9999974365235,10|8,0:1|0:0,0:0:0:0:
331,202,120561,1,0,0:0:0:0:
421,237,120736,5,10,0:1:0:0:
418,205,120910,1,10,0:1:0:0:
415,173,121084,1,10,0:0:0:0:
430,85,121259,2,0,P|390:99|349:96,1,83.9999974365235,2|8,0:1|0:1,0:0:0:0:
278,29,121608,2,0,P|238:14|197:17,1,83.9999974365235,10|8,0:1|0:0,0:0:0:0:
197,17,121956,1,2,0:0:0:0:
105,61,122131,6,0,L|96:156,1,83.9999974365235,10|0,0:1|0:0,0:0:0:0:
201,196,122480,2,0,L|193:112,1,83.9999974365235,10|0,0:0|0:0,0:0:0:0:
121,249,122829,2,0,P|145:282|184:297,1,83.9999974365235,10|8,0:1|0:1,0:0:0:0:
298,344,123177,2,0,P|256:348|224:374,1,83.9999974365235,10|0,0:0|0:0,0:0:0:0:
305,250,123526,5,10,0:1:0:0:
338,252,123701,1,10,0:1:0:0:
368,254,123875,1,10,0:0:0:0:
443,310,124049,2,0,P|442:268|458:229,1,83.9999974365235,2|8,0:0|0:1,0:0:0:0:
512,144,124398,2,0,L|424:136,1,83.9999974365235,8|10,0:1|0:0,0:0:0:0:
358,80,124747,1,2,0:0:0:0:
358,80,124834,1,2,0:0:0:0:
358,79,124922,6,0,P|324:105|284:115,1,83.9999974365235,14|0,0:1|0:0,0:0:0:0:
240,186,125270,2,0,P|201:169|172:140,1,83.9999974365235,10|0,0:0|0:0,0:0:0:0:
97,58,125619,2,0,L|89:145,1,83.9999974365235,10|8,0:1|0:1,0:0:0:0:
27,209,125968,2,0,L|34:296,1,83.9999974365235,10|0,0:0|0:0,0:0:0:0:
123,384,126317,6,0,P|184:331|262:353,1,167.999994873047,10|8,0:1|0:0,0:0:0:0:
443,323,127015,1,10,0:1:0:0:
450,235,127189,1,10,0:1:0:0:
362,227,127363,1,10,0:0:0:0:
355,315,127538,1,2,0:0:0:0:
259,368,127712,6,0,L|244:200,2,167.999994873047,14|8|8,0:1|0:0|0:1,0:0:0:0:
259,368,128584,1,10,0:1:0:0:
181,318,128759,1,10,0:0:0:0:
250,210,128933,6,0,P|326:208|357:123,1,167.999994873047,14|8,0:1|0:1,0:0:0:0:
182,98,129456,2,0,P|164:134|175:174,1,83.9999974365235,8|8,0:0|0:1,0:0:0:0:
331,56,129805,1,10,0:0:0:0:
295,52,129980,1,10,0:1:0:0:
260,49,130154,1,10,0:0:0:0:
182,98,130329,1,10,0:0:0:0:
182,98,130416,1,10,0:0:0:0:
182,98,130503,6,0,P|136:119|80:123,1,83.9999974365235,14|0,0:1|0:0,0:0:0:0:
23,229,130852,1,8,0:0:0:0:
23,229,131026,2,0,P|60:211|102:212,1,83.9999974365235,2|8,0:0|0:1,0:0:0:0:
188,301,131375,2,0,P|211:266|213:225,1,83.9999974365235,10|8,0:1|0:0,0:0:0:0:
213,225,131724,1,0,0:0:0:0:
286,338,131898,6,0,P|325:349|367:345,1,83.9999974365235,10|10,0:1|0:1,0:0:0:0:
458,268,132247,1,10,0:0:0:0:
458,268,132422,2,0,L|465:351,1,83.9999974365235,2|8,0:0|0:1,0:0:0:0:
355,249,132770,2,0,L|362:165,1,83.9999974365235,10|8,0:1|0:0,0:0:0:0:
362,165,133119,1,0,0:0:0:0:
410,74,133294,6,0,P|369:84|328:77,1,83.9999974365235,10|0,0:1|0:0,0:0:0:0:
258,15,133642,2,0,P|217:4|176:11,1,83.9999974365235,10|0,0:0|0:0,0:0:0:0:
61,89,133991,2,0,L|68:176,1,83.9999974365235,10|8,0:1|0:1,0:0:0:0:
135,317,134340,2,0,L|142:233,1,83.9999974365235,10|2,0:0|0:0,0:0:0:0:
181,140,134689,5,10,0:1:0:0:
253,227,134863,1,8,0:1:0:0:
292,121,135038,1,8,0:0:0:0:
453,297,135387,5,10,0:1:0:0:
381,210,135561,1,8,0:1:0:0:
342,316,135736,1,10,0:0:0:0:
512,79,136084,6,0,P|445:124|370:92,1,167.999994873047,14|8,0:1|0:0,0:0:0:0:
370,92,136608,1,2,0:0:0:0:
299,10,136782,2,0,L|203:18,1,83.9999974365235,0|8,0:0|0:1,0:0:0:0:
156,103,137131,2,0,L|251:111,1,83.9999974365235,10|0,0:0|0:0,0:0:0:0:
93,30,137480,6,0,P|65:61|57:102,1,83.9999974365235,10|8,0:1|0:1,0:0:0:0:
109,183,137829,1,8,0:0:0:0:
109,183,138003,2,0,L|101:270,1,83.9999974365235,0|8,0:0|0:1,0:0:0:0:
101,266,138352,1,8,0:1:0:0:
65,364,138526,2,0,P|104:349|145:354,1,83.9999974365235,10|0,0:0|0:0,0:0:0:0:
252,281,138875,6,0,P|276:319|401:323,1,167.999994873047,14|8,0:1|0:0,0:0:0:0:
389,331,139398,1,8,0:1:0:0:
470,243,139573,2,0,L|477:330,1,83.9999974365235,8|8,0:0|0:1,0:0:0:0:
364,177,139922,2,0,L|356:264,1,83.9999974365235,8|8,0:0|0:1,0:0:0:0:
277,111,140270,6,0,P|240:131|198:132,1,83.9999974365235,10|8,0:0|0:1,0:0:0:0:
110,77,140619,2,0,L|100:180,1,83.9999974365235,8|8,0:0|0:0,0:0:0:0:
90,172,140881,1,8,0:0:0:0:
82,179,140968,1,10,0:1:0:0:
128,313,141230,1,10,0:3:0:0:
272,282,141491,1,0,0:0:0:0:
315,353,141666,5,14,0:1:0:0:
406,283,142015,5,0,0:0:0:0:
408,306,142189,1,2,0:0:0:0:
410,330,142363,1,10,0:0:0:0:
495,245,142712,5,0,0:0:0:0:
497,221,142886,1,10,0:0:0:0:
499,198,143060,1,2,0:0:0:0:
431,116,143410,5,2,0:0:0:0:
405,121,143584,1,10,0:1:0:0:
383,148,143759,2,0,L|379:203,2,52.5000020027161,8|2|2,0:0|0:0|0:0,0:0:0:0:
284,17,144456,5,10,0:1:0:0:
214,111,144805,1,0,0:0:0:0:
238,109,144979,1,2,0:0:0:0:
261,107,145153,1,10,0:0:0:0:
143,39,145503,5,0,0:0:0:0:
119,37,145677,1,10,0:0:0:0:
96,35,145851,1,2,0:0:0:0:
49,123,146201,5,2,0:0:0:0:
47,146,146375,1,10,0:1:0:0:
26,176,146549,2,0,L|30:231,2,52.5000020027161,10|2|2,0:0|0:0|0:0,0:0:0:0:
0,384,147247,5,10,0:1:0:0:
169,343,147596,1,0,0:0:0:0:
141,268,147770,1,2,0:0:0:0:
90,329,147945,1,10,0:0:0:0:
307,281,148294,5,2,0:0:0:0:
266,212,148468,1,10,0:0:0:0:
226,280,148643,1,2,0:0:0:0:
402,368,148991,5,2,0:1:0:0:
406,350,149166,1,10,0:1:0:0:
459,290,149340,1,10,0:0:0:0:
431,215,149514,1,2,0:0:0:0:
380,276,149689,1,2,0:0:0:0:
512,85,150038,6,0,P|473:119|421:124,1,105.000004005432,10|0,0:1|0:0,0:0:0:0:
364,54,150561,2,0,P|320:37|254:55,1,105.000004005432,2|0,0:0|0:0,0:0:0:0:
264,48,151084,1,0,0:0:0:0:
60,7,151433,5,2,0:0:0:0:
15,117,151782,1,2,0:0:0:0:
68,24,152131,1,10,0:0:0:0:
96,175,152480,1,2,0:0:0:0:
12,361,152829,5,14,0:1:0:0:
95,287,153177,1,0,0:0:0:0:
119,289,153351,1,0,0:0:0:0:
142,291,153525,1,10,0:0:0:0:
241,362,153875,5,0,0:0:0:0:
265,360,154049,1,8,0:0:0:0:
288,358,154223,1,2,0:0:0:0:
379,295,154573,5,2,0:0:0:0:
403,297,154747,1,8,0:1:0:0:
441,317,154922,2,0,L|436:261,2,52.5000020027161,10|2|2,0:0|0:0|0:0,0:0:0:0:
512,141,155619,5,10,0:1:0:0:
436,74,155968,1,0,0:0:0:0:
412,76,156142,1,0,0:0:0:0:
389,78,156316,1,10,0:0:0:0:
284,151,156666,5,0,0:0:0:0:
308,153,156840,1,8,0:0:0:0:
331,155,157014,1,2,0:0:0:0:
228,92,157363,5,2,0:0:0:0:
204,94,157537,1,8,0:1:0:0:
166,114,157712,2,0,L|170:58,2,52.5000020027161,10|2|2,0:0|0:0|0:0,0:0:0:0:
15,6,158410,5,10,0:1:0:0:
54,197,158759,1,2,0:0:0:0:
82,122,158933,1,2,0:0:0:0:
133,183,159108,1,10,0:0:0:0:
240,273,159456,5,2,0:0:0:0:
212,198,159630,1,10,0:0:0:0:
161,259,159805,1,2,0:0:0:0:
349,289,160154,5,2,0:0:0:0:
345,271,160329,1,8,0:1:0:0:
292,211,160503,1,10,0:0:0:0:
320,136,160677,1,2,0:0:0:0:
371,197,160852,1,2,0:0:0:0:
473,370,161201,6,0,B|453:335|453:335|470:257,1,105.000004005432,10|2,0:1|0:0,0:0:0:0:
466,271,161724,1,2,0:0:0:0:
402,20,162247,5,0,0:0:0:0:
459,120,162596,2,0,P|410:101|359:111,1,105.000004005432,2|2,0:0|0:0,0:0:0:0:
291,55,163294,2,0,P|242:73|191:63,1,105.000004005432,10|2,0:0|0:0,0:0:0:0:
28,107,163991,6,0,B|133:81|124:256|230:233,1,251.999992309571,14|2,0:1|0:0,0:0:0:0:
293,176,165212,2,0,B|276:140|285:80|319:42|387:18|387:18|373:81|396:124|405:105|420:158|389:194,1,377.999988464356,8|10,0:0|0:1,0:0:0:0:
74,216,167480,6,0,P|137:209|160:216,1,83.9999974365235,10|0,0:0|0:0,0:0:0:0:
155,214,168003,1,8,0:0:0:0:
305,258,168352,2,0,P|368:265|391:258,1,83.9999974365235,8|8,0:0|0:1,0:0:0:0:
386,260,168875,1,10,0:0:0:0:
205,337,169573,6,0,B|135:278|155:183|155:183|86:201|5:173|-13:101|51:17|149:49|143:142|143:142|194:102|231:115|251:141|264:174|236:200,1,671.999979492188,10|10,0:1|0:1,0:0:0:0:
457,15,173061,6,0,L|449:100,1,83.9999974365235,10|0,0:0|0:0,0:0:0:0:
449,99,173584,1,8,0:0:0:0:
407,233,173933,2,0,L|414:318,1,83.9999974365235,8|8,0:0|0:1,0:0:0:0:
346,364,174456,5,2,1:0:0:0:
321,364,174543,1,0,1:0:0:0:
304,359,174630,1,0,1:0:0:0:
290,347,174718,1,0,1:0:0:0:
257,315,174806,2,0,L|222:317,3,35,2|0|0|0,1:0|1:0|1:0|1:0,0:0:0:0:
184,345,175154,6,0,L|136:343,3,35,14|0|0|0,0:2|0:0|0:0|0:0,0:0:0:0:
107,358,175503,2,0,P|64:348|32:314,1,70,8|8,0:2|0:1,0:0:0:0:
72,239,175852,2,0,L|120:236,3,35,10|0|8|0,0:2|0:2|0:1|0:2,0:0:0:0:
145,219,176201,2,0,P|161:188|163:153,1,70,8|8,0:2|0:1,0:0:0:0:
127,63,176549,6,0,P|143:58|161:56,3,35,10|0|8|0,0:2|0:2|0:1|0:2,0:0:0:0:
207,86,176898,2,0,P|241:91|275:83,1,70,8|8,0:2|0:1,0:0:0:0:
354,19,177247,2,0,P|371:15|389:13,3,35,10|0|8|0,0:2|0:2|0:1|0:2,0:0:0:0:
427,40,177596,2,0,L|432:135,1,70,8|8,0:2|0:1,0:0:0:0:
460,145,177858,1,0,0:2:0:0:
460,145,177945,6,0,L|456:181,3,35,14|0|0|0,0:2|0:2|0:1|0:2,0:0:0:0:
479,224,178294,2,0,P|442:234|396:262,1,70,8|8,0:2|0:1,0:0:0:0:
302,300,178642,1,10,0:2:0:0:
292,289,178730,1,0,0:2:0:0:
289,275,178817,1,8,0:1:0:0:
291,261,178904,1,0,0:2:0:0:
301,228,178991,2,0,P|270:211|236:208,1,70,8|8,0:2|0:1,0:0:0:0:
168,287,179340,6,0,P|149:274|137:252,3,35,10|0|8|0,0:2|0:2|0:1|0:2,0:0:0:0:
99,249,179689,2,0,P|107:196|91:157,1,70,8|8,0:2|0:1,0:0:0:0:
33,97,180038,2,0,L|80:101,3,35,10|0|8|0,0:2|0:2|0:1|0:2,0:0:0:0:
105,78,180387,2,0,P|140:52|191:52,1,70,8|8,0:2|0:1,0:0:0:0:
208,65,180648,1,0,0:2:0:0:
208,65,180736,6,0,P|218:85|220:107,3,35,14|0|0|0,0:2|0:2|0:1|0:2,0:0:0:0:
254,132,181084,2,0,B|277:145|277:145|319:134,1,70,8|8,0:2|0:1,0:0:0:0:
413,98,181433,1,10,0:2:0:0:
413,111,181520,1,0,0:2:0:0:
412,125,181608,1,8,0:1:0:0:
412,138,181695,1,0,0:2:0:0:
430,177,181782,2,0,P|449:212|446:253,1,70,8|8,0:2|0:1,0:0:0:0:
388,326,182131,6,0,L|348:329,3,35,10|0|8|0,0:2|0:2|0:1|0:2,0:0:0:0:
319,366,182480,2,0,P|284:372|252:359,1,70,8|8,0:2|0:1,0:0:0:0:
173,298,182829,2,0,L|169:263,3,35,10|0|8|0,0:2|0:2|0:1|0:2,0:0:0:0:
198,225,183177,2,0,P|207:191|198:157,1,70,8|8,0:2|0:1,0:0:0:0:
163,124,183439,1,0,0:2:0:0:
163,124,183526,6,0,L|165:89,3,35,14|0|0|0,0:2|0:2|0:2|0:2,0:0:0:0:
185,47,183875,2,0,P|212:25|246:18,1,70,8|8,0:2|0:1,0:0:0:0:
333,65,184224,2,0,L|329:104,3,35,10|0|8|0,0:2|0:2|0:1|0:2,0:0:0:0:
356,138,184573,2,0,L|362:217,1,70,8|8,0:2|0:1,0:0:0:0:
293,285,184922,5,14,0:2:0:0:
269,287,185009,1,0,0:2:0:0:
245,289,185096,1,8,0:1:0:0:
177,346,185270,1,14,0:2:0:0:
153,344,185357,1,0,0:2:0:0:
129,342,185445,1,8,0:1:0:0:
50,297,185619,5,10,0:2:0:0:
91,229,185794,1,10,0:2:0:0:
44,168,185968,1,10,0:2:0:0:
92,99,186142,1,10,0:2:0:0:
470,294,197480,6,0,B|410:278|349:302,1,112,14|10,0:1|2:1,0:0:0:0:
280,350,198003,2,0,L|274:294,1,56,2|8,0:0|0:1,0:0:0:0:
199,273,198352,2,0,L|191:201,1,56,2|8,0:0|0:1,0:0:0:0:
245,151,198701,5,2,0:0:0:0:
245,151,198875,2,0,P|273:162|318:153,1,56,10|2,0:1|0:0,0:0:0:0:
362,102,199224,1,10,0:1:0:0:
362,102,199398,2,0,P|390:90|435:99,1,56,2|8,0:0|0:1,0:0:0:0:
483,148,199747,1,2,0:0:0:0:
483,148,199922,2,0,L|477:211,1,56,10|0,0:1|0:0,0:0:0:0:
413,281,200270,6,0,P|352:266|324:207,1,112,10|8,0:1|0:1,0:0:0:0:
326,227,200794,1,2,0:0:0:0:
340,132,200968,2,0,P|305:135|276:156,1,56,8|0,0:1|0:0,0:0:0:0:
233,217,201317,2,0,P|198:214|169:193,1,56,10|0,0:1|0:0,0:0:0:0:
91,123,201666,6,0,L|208:107,1,112,10|8,0:1|0:1,0:0:0:0:
265,42,202189,1,2,0:0:0:0:
265,42,202363,2,0,P|250:19|227:3,1,56,10|0,0:1|0:0,0:0:0:0:
336,90,202712,2,0,P|348:64|351:37,1,56,10|0,0:1|0:0,0:0:0:0:
429,102,203061,6,0,P|416:155|437:206,1,112,10|10,0:1|0:1,0:0:0:0:
490,285,203584,2,0,P|456:298|421:299,1,56,2|8,0:0|0:1,0:0:0:0:
387,368,203933,2,0,P|353:355|318:354,1,56,2|8,0:0|0:1,0:0:0:0:
249,384,204282,5,2,0:0:0:0:
249,384,204456,2,0,P|246:349|232:314,1,56,10|2,0:1|0:0,0:0:0:0:
141,329,204805,1,10,0:1:0:0:
141,329,204980,2,0,P|144:294|157:259,1,56,2|8,0:0|0:1,0:0:0:0:
236,208,205329,1,2,0:0:0:0:
236,208,205503,1,10,0:1:0:0:
160,63,207247,6,0,L|156:89,23,18.6666666666667,0|0|0|0|0|0|0|0|0|0|0|0|0|0|0|0|0|0|0|0|0|0|0|0,0:0|0:0|0:0|0:0|0:0|0:0|0:0|0:0|0:0|0:0|0:0|0:0|0:0|0:0|0:0|0:0|0:0|0:0|0:0|0:0|0:0|0:0|0:0|0:0,0:0:0:0:
131,99,208642,6,0,B|113:50|41:42|8:104|34:152|72:163|72:163|122:176|136:246|77:284|28:264|14:226,1,392,14|2,0:1|0:0,0:0:0:0:
204,187,210038,2,0,B|219:143|283:137|313:192|290:235|256:244|256:244|211:256|199:319|251:353|296:335|308:301,1,342.999989532471,14|2,0:1|0:0,0:0:0:0:
389,209,211433,5,2,3:2:0:0:
397,290,211608,1,0,3:2:0:0:
477,282,211782,1,0,3:2:0:0:
470,202,211956,1,2,3:2:0:0:
371,201,212131,5,2,3:2:0:0:
380,298,212306,1,0,3:2:0:0:
494,286,212480,1,0,3:2:0:0:
486,194,212654,1,2,3:2:0:0:
74,4,214573,6,0,B|70:42|26:70|26:70|15:102|73:152,1,157.500006008148,14|0,0:2|0:0,0:0:0:0:
72,143,214922,1,0,3:0:0:0:
81,161,215009,1,0,3:0:0:0:
83,181,215096,1,0,3:0:0:0:
77,201,215183,1,0,3:0:0:0:
65,218,215270,2,0,L|70:273,3,35,0|0|0|0,3:0|3:0|3:0|3:0,0:0:0:0:
50,290,215619,6,0,P|129:269|205:321,1,167.999994873047,14|8,0:1|0:0,0:0:0:0:
278,384,216142,1,8,0:0:0:0:
278,384,216230,1,8,0:0:0:0:
278,384,216317,2,0,L|286:288,1,83.9999974365235,10|10,0:1|0:1,0:0:0:0:
345,218,216666,1,14,0:0:0:0:
293,159,216840,1,8,0:0:0:0:
293,159,216927,1,8,0:0:0:0:
292,158,217015,6,0,P|211:140|135:173,1,167.999994873047,14|12,0:1|0:0,0:0:0:0:
54,227,217538,1,8,0:0:0:0:
54,227,217625,1,8,0:0:0:0:
54,227,217712,2,0,L|49:179,5,41.9999987182618,8|0|4|4|4|4,0:3|0:0|0:3|0:3|0:3|0:3,0:0:0:0:
22,147,218236,6,0,P|95:76|169:76,1,167.999994873047,14|8,0:1|0:1,0:0:0:0:
247,148,218759,1,10,0:0:0:0:
247,148,218933,1,8,0:1:0:0:
339,123,219108,2,0,L|386:127,3,41.9999987182618,2|0|2|0,3:0|3:0|3:0|3:0,0:0:0:0:
413,164,219456,2,0,L|460:159,3,41.9999987182618,2|0|0|0,3:0|0:0|0:0|3:0,0:0:0:0:
486,186,219805,6,0,P|486:257|468:295,1,83.9999974365235,14|0,0:1|0:0,0:0:0:0:
403,332,220154,1,8,0:0:0:0:
403,332,220329,2,0,L|307:323,1,83.9999974365235,0|8,0:0|0:1,0:0:0:0:
235,248,220677,2,0,L|330:239,1,83.9999974365235,10|8,0:1|0:0,0:0:0:0:
318,240,221026,1,2,0:0:0:0:
203,161,221201,5,10,0:1:0:0:
171,158,221375,1,10,0:1:0:0:
139,155,221549,1,10,0:0:0:0:
83,219,221724,2,0,L|-4:226,1,83.9999974365235,0|8,0:0|0:1,0:0:0:0:
11,71,222073,2,0,L|98:78,1,83.9999974365235,10|8,0:1|0:0,0:0:0:0:
94,77,222422,1,0,0:0:0:0:
204,45,222596,6,0,P|181:79|181:120,1,83.9999974365235,10|0,0:1|0:0,0:0:0:0:
277,150,222945,2,0,P|299:115|299:74,1,83.9999974365235,10|0,0:0|0:0,0:0:0:0:
175,129,223294,2,0,L|182:216,1,83.9999974365235,10|8,0:1|0:1,0:0:0:0:
275,242,223642,2,0,L|282:158,1,83.9999974365235,10|2,0:0|0:0,0:0:0:0:
403,107,223991,6,0,B|380:149|380:149|394:276,2,167.999994873047,10|8|10,0:1|0:0|0:1,0:0:0:0:
403,107,224863,1,8,0:1:0:0:
472,4,225038,2,0,P|437:26|397:19,1,83.9999974365235,10|2,0:0|0:0,0:0:0:0:
213,78,225387,6,0,P|290:75|305:0,1,167.999994873047,14|8,0:1|0:0,0:0:0:0:
199,67,225910,2,0,P|158:74|125:99,1,83.9999974365235,0|0,0:0|0:0,0:0:0:0:
47,177,226259,1,8,0:1:0:0:
47,177,226433,2,0,P|88:183|121:208,1,83.9999974365235,10|0,0:0|0:0,0:0:0:0:
162,315,226782,5,10,0:1:0:0:
127,220,226956,1,8,0:1:0:0:
62,297,227131,1,8,0:0:0:0:
326,240,227480,5,8,0:1:0:0:
275,152,227654,1,8,0:1:0:0:
224,239,227829,1,10,0:0:0:0:
454,360,228177,6,0,B|438:322|438:322|454:224,1,140,14|8,0:1|0:0,0:0:0:0:
454,224,228701,1,8,0:1:0:0:
410,152,228875,1,8,0:0:0:0:
410,152,229049,1,8,0:1:0:0:
427,56,229224,2,0,P|393:65|358:68,1,70,8|8,0:0|0:1,0:0:0:0:
263,22,229573,6,0,P|276:77|228:148,1,140,10|8,0:0|0:0,0:0:0:0:
160,65,230096,1,0,3:0:0:0:
160,65,230183,1,0,3:0:0:0:
160,65,230270,2,0,L|112:60,3,35,0|0|0|0,3:0|3:0|3:0|3:0,0:0:0:0:
88,26,230619,2,0,L|53:29,3,35,0|0|0|0,3:0|3:0|3:0|3:0,0:0:0:0:
12,20,230968,6,0,B|3:40|3:40|7:99,1,70,14|0,0:1|0:0,0:0:0:0:
59,156,231317,2,0,P|64:190|60:225,1,70,8|0,0:0|0:0,0:0:0:0:
22,340,231666,1,8,0:1:0:0:
98,301,231840,1,8,0:1:0:0:
164,358,232015,1,8,0:0:0:0:
334,311,232363,6,0,P|314:282|310:247,1,70,10|10,0:1|0:1,0:0:0:0:
261,179,232712,2,0,P|276:147|304:127,1,70,8|2,0:0|0:0,0:0:0:0:
459,199,233061,1,10,0:1:0:0:
426,110,233236,1,8,0:1:0:0:
365,182,233410,1,8,0:0:0:0:
239,14,233759,6,0,P|207:27|182:52,1,70,10|2,0:1|0:0,0:0:0:0:
113,106,234108,2,0,P|79:97|52:77,1,70,8|2,0:0|0:0,0:0:0:0:
198,135,234456,2,0,P|208:169|204:204,1,70,8|10,0:1|0:1,0:0:0:0:
137,258,234805,2,0,L|133:297,3,35,10|2|2|2,0:0|0:0|0:0|0:0,0:0:0:0:
168,333,235154,6,0,P|222:321|292:363,1,140,10|10,0:1|0:0,0:0:0:0:
354,291,235677,2,0,L|423:296,1,70,10|8,0:1|0:1,0:0:0:0:
423,296,236026,1,10,0:1:0:0:
512,214,236201,2,0,L|440:220,1,70,8|2,0:0|0:0,0:0:0:0:
347,166,236549,6,0,P|331:197|303:217,1,70,14|2,0:1|0:0,0:0:0:0:
269,295,236898,2,0,P|234:297|202:283,1,70,8|2,0:0|0:0,0:0:0:0:
187,113,237247,1,8,0:1:0:0:
126,186,237422,1,8,0:1:0:0:
219,203,237596,1,8,0:0:0:0:
40,43,237945,6,0,P|68:62|102:67,1,70,10|10,0:1|0:1,0:0:0:0:
181,24,238294,2,0,P|209:4|243:0,1,70,8|2,0:0|0:0,0:0:0:0:
325,66,238642,1,10,0:1:0:0:
401,27,238816,1,8,0:1:0:0:
467,84,238991,1,8,0:0:0:0:
424,330,239340,6,0,P|392:317|367:292,1,70,10|2,0:1|0:0,0:0:0:0:
236,267,239689,2,0,P|264:246|298:238,1,70,8|2,0:0|0:0,0:0:0:0:
389,141,240037,2,0,P|392:175|383:209,1,70,8|10,0:1|0:1,0:0:0:0:
298,237,240387,1,10,0:0:0:0:
298,237,240561,1,2,0:1:0:0:
255,139,240736,6,0,L|135:149,1,105.000004005432,10|0,0:0|0:0,0:0:0:0:
317,57,241084,2,0,L|197:46,1,105.000004005432,10|0,0:0|0:0,0:0:0:0:
355,217,241433,2,0,L|235:227,1,105.000004005432,10|0,0:0|0:0,0:0:0:0:
388,133,241782,2,0,L|427:136,3,35,8|8|8|8,0:0|0:0|0:0|0:0,0:0:0:0:
459,170,242131,6,0,P|475:227|463:267,1,70,14|0,0:1|0:0,0:0:0:0:
417,312,242480,2,0,P|401:369|413:409,1,70,8|2,0:0|0:0,0:0:0:0:
316,309,242829,1,8,0:1:0:0:
240,270,243003,1,8,0:1:0:0:
174,327,243178,1,8,0:0:0:0:
33,230,243526,6,0,L|39:150,1,70,10|10,0:1|0:1,0:0:0:0:
121,94,243875,2,0,L|127:163,1,70,8|2,0:0|0:0,0:0:0:0:
223,190,244224,1,10,0:1:0:0:
289,133,244399,1,8,0:1:0:0:
365,172,244573,1,8,0:0:0:0:
461,12,244922,6,0,P|432:40|426:71,1,70,10|2,0:1|0:0,0:0:0:0:
476,138,245270,2,0,L|469:209,1,70,8|2,0:0|0:0,0:0:0:0:
405,274,245619,2,0,L|411:345,1,70,8|10,0:1|0:1,0:0:0:0:
321,384,245968,2,0,L|324:344,3,35,10|2|2|2,0:0|0:0|0:0|0:0,0:0:0:0:
298,313,246317,6,0,P|229:299|161:311,1,140,10|8,0:1|0:0,0:0:0:0:
86,361,246840,2,0,L|84:343,1,17.5,10|0,0:1|0:0,0:0:0:0:
33,220,247189,2,0,L|34:202,1,17.5,10|0,0:1|0:0,0:0:0:0:
53,24,247712,6,0,P|85:9|120:10,1,70,14|0,0:1|0:0,0:0:0:0:
120,10,248061,1,8,0:0:0:0:
166,119,248236,2,0,P|242:96|202:56,1,140,14|10,0:1|0:1,0:0:0:0:
228,67,248759,1,8,0:0:0:0:
321,126,248933,6,0,B|332:167|332:167|317:263,1,140,14|8,0:1|0:1,0:0:0:0:
252,341,249456,1,14,0:0:0:0:
210,351,249573,1,2,0:0:0:0:
173,335,249689,1,2,0:0:0:0:
148,300,249805,6,0,L|116:302,1,17.5,10|0,0:1|0:0,0:0:0:0:
13,209,250067,2,0,L|44:211,1,17.5,10|0,0:1|0:0,0:0:0:0:
132,114,250329,1,10,0:1:0:0:
