osu file format v14

[General]
AudioFilename: audio.mp3
AudioLeadIn: 0
PreviewTime: 205765
Countdown: 0
SampleSet: Soft
StackLeniency: 0.7
Mode: 0
LetterboxInBreaks: 0
WidescreenStoryboard: 1

[Editor]
Bookmarks: 7712,16084
DistanceSpacing: 0.8
BeatDivisor: 4
GridSize: 8
TimelineZoom: 2.5

[Metadata]
Title:Image Liner
TitleUnicode:Image Liner
Artist:FROZEN QUALIA
ArtistUnicode:FROZEN QUALIA
Creator:Hishiro Chizuru
Version:Blossom
Source:
Tags:yumeno yuki 夢乃ゆき japanese pop lasse amb1d3x Kowari AIR sasasasasasami Saronk
BeatmapID:2332153
BeatmapSetID:1104749

[Difficulty]
HPDrainRate:6
CircleSize:3.8
OverallDifficulty:8
ApproachRate:9
SliderMultiplier:1.6
SliderTickRate:1

[Events]
//Background and Video events
0,0,"v2.jpg",0,0
//Break Periods
2,186429,196880
//Storyboard Layer 0 (Background)
//Storyboard Layer 1 (Fail)
//Storyboard Layer 2 (Pass)
//Storyboard Layer 3 (Foreground)
//Storyboard Layer 4 (Overlay)
//Storyboard Sound Samples

[TimingPoints]
736,348.837209302326,4,2,34,36,1,0
736,-133.333333333333,4,2,34,36,0,0
2131,-133.333333333333,4,2,34,38,0,0
3526,-133.333333333333,4,2,34,40,0,0
3875,-133.333333333333,4,2,34,36,0,0
4224,-133.333333333333,4,2,34,32,0,0
4573,-133.333333333333,4,2,34,28,0,0
4922,-133.333333333333,4,2,34,36,0,0
5619,-133.333333333333,4,2,34,32,0,0
6317,-133.333333333333,4,2,99,44,0,0
6361,-133.333333333333,4,2,99,5,0,0
7015,-133.333333333333,4,2,34,40,0,0
7363,-133.333333333333,4,2,34,44,0,0
7712,-83.3333333333333,4,2,34,65,0,0
12509,-83.3333333333333,4,2,34,5,0,0
12596,-83.3333333333333,4,2,34,65,0,0
12858,-83.3333333333333,4,2,34,5,0,0
12945,-83.3333333333333,4,2,34,65,0,0
15474,-83.3333333333333,4,2,34,5,0,0
15648,-83.3333333333333,4,2,34,65,0,0
15736,-83.3333333333333,4,2,34,5,0,0
15910,-83.3333333333333,4,2,34,65,0,0
16084,-166.666666666667,4,2,34,50,0,0
16433,-166.666666666667,4,2,34,46,0,0
24456,-166.666666666667,4,2,34,48,0,0
25852,-166.666666666667,4,2,99,52,0,0
25939,-166.666666666667,4,2,34,20,0,0
26898,-166.666666666667,4,2,34,56,0,0
26920,-166.666666666667,4,2,34,5,0,0
27247,-133.333333333333,4,2,34,60,0,0
37015,-133.333333333333,4,2,34,60,0,0
38061,-133.333333333333,4,2,34,58,0,0
38410,-117.647058823529,4,2,34,64,0,0
38933,-117.647058823529,4,2,34,68,0,0
39631,-117.647058823529,4,2,34,62,0,0
41201,-117.647058823529,4,2,34,64,0,0
41724,-117.647058823529,4,2,34,68,0,0
42422,-117.647058823529,4,2,34,62,0,0
43991,-117.647058823529,4,2,34,64,0,0
44515,-117.647058823529,4,2,34,68,0,0
45212,-117.647058823529,4,2,34,62,0,0
46782,-117.647058823529,4,2,34,66,0,0
48177,-117.647058823529,4,2,34,68,0,0
49573,-117.647058823529,4,2,34,70,0,0
50619,-117.647058823529,4,2,34,72,0,0
50794,-200,4,2,34,72,0,0
51055,-117.647058823529,4,2,34,30,0,0
51201,-117.647058823529,4,2,34,5,0,0
51317,-117.647058823529,4,2,34,30,0,0
51404,-117.647058823529,4,2,34,5,0,0
51491,-117.647058823529,4,2,34,30,0,0
51579,-117.647058823529,4,2,34,5,0,0
51666,-117.647058823529,4,2,34,5,0,0
51753,-117.647058823529,4,2,34,5,0,0
51840,-117.647058823529,4,2,34,30,0,0
51927,-117.647058823529,4,2,34,5,0,0
52015,-117.647058823529,4,2,34,54,0,0
52102,-117.647058823529,4,2,34,56,0,0
52189,-117.647058823529,4,2,34,58,0,0
52276,-117.647058823529,4,2,34,60,0,0
52363,-83.3333333333333,4,2,34,75,0,0
55416,-83.3333333333333,4,2,34,40,0,0
55503,-83.3333333333333,4,2,34,75,0,0
57596,-83.3333333333333,4,2,34,70,0,0
57945,-83.3333333333333,4,2,34,75,0,0
66579,-83.3333333333333,4,2,34,40,0,0
66666,-83.3333333333333,4,2,34,75,0,0
68759,-83.3333333333333,4,2,34,70,0,0
69108,-83.3333333333333,4,2,34,75,0,0
71898,-83.3333333333333,4,2,34,78,0,0
74689,-100,4,2,34,68,0,0
79137,-100,4,2,34,5,0,0
79224,-100,4,2,34,68,0,0
83061,-125,4,2,34,60,0,0
83148,-125,4,2,34,5,0,0
83236,-125,4,2,34,60,0,0
83323,-125,4,2,34,5,0,0
83410,-125,4,2,34,60,0,0
84544,-125,4,2,34,5,0,0
84631,-125,4,2,34,60,0,0
84718,-125,4,2,34,5,0,0
85852,-125,4,2,34,60,0,0
85939,-125,4,2,34,5,0,0
86026,-125,4,2,34,60,0,0
86113,-125,4,2,34,5,0,0
86201,-125,4,2,34,60,0,0
87334,-125,4,2,34,5,0,0
87422,-125,4,2,34,60,0,0
87509,-125,4,2,34,5,0,0
87596,-125,4,2,34,60,0,0
88642,-125,4,2,34,64,0,0
88730,-125,4,2,34,5,0,0
88817,-500,4,2,34,64,0,0
89166,-500,4,2,34,5,0,0
90038,-125,4,2,34,66,0,0
90125,-125,4,2,34,5,0,0
90212,-500,4,2,34,66,0,0
90561,-500,4,2,34,5,0,0
91433,-125,4,2,34,68,0,0
91520,-125,4,2,34,5,0,0
91608,-500,4,2,34,68,0,0
91956,-500,4,2,34,5,0,0
92829,-100,4,2,34,64,0,0
93003,-100,4,2,34,20,0,0
93090,-125,4,2,34,64,0,0
93265,-125,4,2,34,20,0,0
93352,-166.666666666667,4,2,34,64,0,0
93439,-166.666666666667,4,2,34,20,0,0
93526,-166.666666666667,4,2,34,67,0,0
93701,-166.666666666667,4,2,34,54,0,0
93788,-166.666666666667,4,2,34,67,0,0
93962,-166.666666666667,4,2,34,54,0,0
94049,-166.666666666667,4,2,34,67,0,0
94137,-166.666666666667,4,2,34,20,0,0
94224,-125,4,2,34,62,0,0
97276,-125,4,2,34,40,0,0
97363,-125,4,2,34,62,0,0
98672,-125,4,2,34,40,0,0
98759,-125,4,2,34,62,0,0
100067,-125,4,2,34,5,0,0
100154,-125,4,2,34,62,0,0
101462,-125,4,2,34,5,0,0
101549,-125,4,2,34,62,0,0
105387,-100,4,2,34,64,0,0
105910,-100,4,2,34,68,0,0
106608,-100,4,2,34,62,0,0
108177,-100,4,2,34,64,0,0
108701,-100,4,2,34,68,0,0
109398,-100,4,2,34,62,0,0
110968,-100,4,2,34,64,0,0
111491,-100,4,2,34,68,0,0
112189,-100,4,2,34,62,0,0
113672,-100,4,2,34,5,0,0
113759,-133.333333333333,4,2,34,48,0,0
114108,-133.333333333333,4,2,34,46,0,0
114456,-133.333333333333,4,2,34,50,0,0
114805,-133.333333333333,4,2,34,48,0,0
115154,-133.333333333333,4,2,34,52,0,0
115503,-133.333333333333,4,2,34,50,0,0
115852,-133.333333333333,4,2,34,56,0,0
116201,-133.333333333333,4,2,34,5,0,0
116549,-200,4,2,34,60,0,0
116898,-200,4,2,34,62,0,0
117247,-200,4,2,34,64,0,0
117596,-200,4,2,34,66,0,0
117770,-200,4,2,34,68,0,0
118294,-133.333333333333,4,2,34,5,0,0
118468,-133.333333333333,4,2,34,5,0,0
118555,-133.333333333333,4,2,34,30,0,0
118642,-133.333333333333,4,2,34,5,0,0
118730,-263.157894736842,4,2,34,30,0,0
118817,-263.157894736842,4,2,34,34,0,0
118991,-263.157894736842,4,2,34,54,0,0
119079,-263.157894736842,4,2,34,56,0,0
119166,-83.3333333333333,4,2,34,58,0,0
119253,-83.3333333333333,4,2,34,60,0,0
119340,-83.3333333333333,4,2,34,75,0,0
122392,-83.3333333333333,4,2,34,40,0,0
122480,-83.3333333333333,4,2,34,75,0,0
124573,-83.3333333333333,4,2,34,70,0,0
124922,-83.3333333333333,4,2,34,75,0,0
133555,-83.3333333333333,4,2,34,40,0,0
133642,-83.3333333333333,4,2,34,75,0,0
135736,-83.3333333333333,4,2,34,70,0,0
136084,-83.3333333333333,4,2,34,75,0,0
138875,-83.3333333333333,4,2,34,78,0,0
140794,-83.3333333333333,4,2,34,76,0,0
141230,-83.3333333333333,4,2,34,75,0,0
141491,-83.3333333333333,4,2,34,72,0,0
141666,-133.333333333333,4,2,34,55,0,0
152829,-133.333333333333,4,2,34,56,0,0
162858,-133.333333333333,4,2,34,5,0,0
162945,-133.333333333333,4,2,34,56,0,0
163206,-133.333333333333,4,2,34,5,0,0
163294,-133.333333333333,4,2,34,56,0,0
163555,-133.333333333333,4,2,34,5,0,0
163642,-133.333333333333,4,2,34,56,0,0
163904,-133.333333333333,4,2,34,5,0,0
163991,-166.666666666667,4,2,34,57,0,0
174456,-100,4,2,34,58,0,0
174805,-100,4,2,34,60,0,0
175154,-200,4,3,99,62,0,0
175241,-200,4,3,34,62,0,0
177945,-200,4,3,99,63,0,0
178032,-200,4,3,34,63,0,0
180736,-200,4,3,99,64,0,0
180823,-200,4,3,34,64,0,0
183526,-200,4,3,99,65,0,0
183613,-200,4,3,34,65,0,0
184922,-200,4,3,99,66,0,0
185009,-200,4,3,34,66,0,0
185619,-200,4,3,34,67,0,0
185794,-133.333333333333,4,3,34,67,0,0
185964,-100,4,3,34,67,0,0
185968,-100,4,3,34,68,0,0
186142,-80,4,3,34,68,0,0
186317,-80,4,2,99,40,0,0
187538,-80,4,2,34,40,0,0
187712,-80,4,2,99,40,0,0
193119,-80,4,2,34,40,0,0
193294,-80,4,2,99,40,0,0
197480,-125,4,2,34,56,0,0
203061,-125,4,2,34,58,0,0
207247,-125,4,2,34,20,0,0
207305,-125,4,2,34,21,0,0
207363,-125,4,2,34,22,0,0
207422,-125,4,2,34,23,0,0
207480,-125,4,2,34,24,0,0
207538,-125,4,2,34,25,0,0
207596,-125,4,2,34,26,0,0
207654,-125,4,2,34,27,0,0
207712,-125,4,2,34,28,0,0
207770,-125,4,2,34,29,0,0
207829,-125,4,2,34,30,0,0
207887,-125,4,2,34,31,0,0
207945,-125,4,2,34,32,0,0
208003,-125,4,2,34,34,0,0
208061,-125,4,2,34,36,0,0
208119,-125,4,2,34,38,0,0
208177,-125,4,2,34,40,0,0
208236,-125,4,2,34,42,0,0
208294,-125,4,2,34,44,0,0
208352,-125,4,2,34,46,0,0
208410,-125,4,2,34,48,0,0
208468,-125,4,2,34,50,0,0
208526,-125,4,2,34,52,0,0
208584,-125,4,2,34,54,0,0
208642,-125,4,2,34,62,0,0
208730,-125,4,2,34,20,0,0
209863,-125,4,2,34,50,0,0
210038,-125,4,2,34,64,0,0
210125,-125,4,2,34,20,0,0
211259,-125,4,2,34,52,0,0
211433,-125,4,2,34,66,0,0
211782,-125,4,2,34,68,0,0
212131,-125,4,2,34,70,0,0
212480,-125,4,2,34,72,0,0
212829,-125,4,2,34,64,0,0
214573,-33.3333333333333,4,2,34,72,0,1
214747,-33.3333333333333,4,2,34,62,0,1
214922,-33.3333333333333,4,2,34,66,0,0
215270,-33.3333333333333,4,2,34,68,0,0
215619,-71.4285714285714,4,2,34,70,0,1
215968,-71.4285714285714,4,2,34,70,0,0
217015,-71.4285714285714,4,2,34,72,0,0
217363,-71.4285714285714,4,2,34,68,0,0
217538,-71.4285714285714,4,2,34,70,0,0
218236,-71.4285714285714,4,2,34,74,0,0
219108,-71.4285714285714,4,2,34,72,0,0
219456,-71.4285714285714,4,2,34,74,0,0
219762,-71.4285714285714,4,2,34,72,0,0
219805,-71.4285714285714,4,2,34,76,0,0
222858,-71.4285714285714,4,2,34,40,0,0
222945,-71.4285714285714,4,2,34,76,0,0
228177,-100,4,2,34,78,0,0
228439,-100,4,2,34,5,0,0
228526,-100,4,2,34,78,0,0
230968,-100,4,2,34,70,0,0
240736,-66.6666666666667,4,2,34,70,0,0
240997,-66.6666666666667,4,2,34,36,0,0
241084,-66.6666666666667,4,2,34,70,0,0
241782,-100,4,2,34,70,0,0
246579,-100,4,2,34,5,0,0
246666,-100,4,2,34,70,0,0
249892,-100,4,2,34,5,0,0
250067,-100,4,2,34,70,0,0
250154,-100,4,2,34,5,0,0
250329,-100,4,2,34,70,0,0

[Colours]
Combo1 : 255,128,255
Combo2 : 135,218,245
Combo3 : 255,98,176
Combo4 : 176,176,255

[HitObjects]
125,214,736,5,2,0:0:0:0:
55,155,910,1,0,0:0:0:0:
113,86,1084,1,0,0:0:0:0:
183,144,1259,1,2,0:0:0:0:
440,303,2131,5,2,0:0:0:0:
498,232,2305,1,0,0:0:0:0:
429,174,2480,1,0,0:0:0:0:
370,244,2654,1,2,0:0:0:0:
127,300,3526,5,2,0:0:0:0:
151,42,3875,1,2,0:0:0:0:
403,65,4224,1,2,0:0:0:0:
383,321,4573,1,2,0:0:0:0:
193,244,4922,5,2,0:0:0:0:
205,115,5096,1,0,0:0:0:0:
332,126,5270,1,2,0:0:0:0:
322,255,5445,1,0,0:0:0:0:
224,218,5619,5,2,0:0:0:0:
230,153,5794,1,0,0:0:0:0:
294,159,5968,1,2,0:0:0:0:
289,223,6142,1,0,0:0:0:0:
258,192,6317,6,0,L|261:169,1,15.0000005722046,4|0,0:0|0:0,0:0:0:0:
55,24,7015,5,2,0:0:0:0:
66,45,7131,2,0,P|57:69|53:89,1,40.000001525879,2|2,0:0|0:0,0:0:0:0:
156,97,7363,1,2,0:0:0:0:
143,120,7480,2,0,P|151:142|156:164,1,40.000001525879,2|2,0:0|0:0,0:0:0:0:
69,332,7712,5,14,0:1:0:0:
77,231,7887,1,2,0:0:0:0:
178,240,8061,1,10,0:0:0:0:
169,340,8236,1,2,0:0:0:0:
365,281,8410,5,8,0:1:0:0:
266,293,8584,1,8,0:1:0:0:
325,376,8759,2,0,L|443:365,1,95.9999970703126,8|0,0:0|0:0,0:0:0:0:
508,210,9108,5,10,0:1:0:0:
420,202,9282,1,10,0:1:0:0:
245,186,9456,1,10,0:0:0:0:
332,194,9631,1,2,0:0:0:0:
228,26,9805,5,10,0:1:0:0:
146,73,9980,1,8,0:1:0:0:
62,13,10154,2,0,L|52:116,1,95.9999970703126,8|0,0:0|0:0,0:0:0:0:
139,263,10503,5,10,0:1:0:0:
240,255,10677,1,2,0:0:0:0:
231,154,10852,1,10,0:0:0:0:
131,163,11026,1,2,0:0:0:0:
91,376,11201,6,0,L|194:385,1,95.9999970703126,8|10,0:1|0:1,0:0:0:0:
257,327,11462,1,2,0:0:0:0:
257,327,11549,2,0,L|312:322,1,47.9999985351563,10|2,0:0|0:0,0:0:0:0:
388,354,11724,5,2,0:0:0:0:
394,364,11782,1,2,0:0:0:0:
401,374,11840,1,2,0:0:0:0:
408,384,11898,6,0,L|429:229,1,143.999995605469,10|0,0:1|0:0,0:0:0:0:
408,222,12247,1,8,0:0:0:0:
502,163,12422,2,0,L|511:234,1,47.9999985351563,10|0,0:1|0:0,0:0:0:0:
349,108,12770,2,0,L|339:179,1,47.9999985351563,10|0,0:1|0:0,0:0:0:0:
94,100,13294,5,14,0:1:0:0:
102,194,13468,1,0,0:0:0:0:
85,5,13642,1,10,0:0:0:0:
110,289,13817,1,14,0:1:0:0:
477,313,14166,5,10,0:1:0:0:
476,193,14340,1,8,0:0:0:0:
373,253,14515,2,0,P|323:269|203:210,1,191.999994140625,14|8,0:1|0:1,0:0:0:0:
261,19,15038,5,14,0:0:0:0:
306,25,15154,1,2,0:0:0:0:
338,57,15270,1,2,0:0:0:0:
304,130,15387,6,0,L|308:177,1,47.9999985351563,10|0,0:1|0:0,0:0:0:0:
383,298,15648,2,0,L|387:250,1,47.9999985351563,10|0,0:1|0:0,0:0:0:0:
304,130,15910,1,10,0:1:0:0:
186,211,16084,5,14,0:1:0:0:
186,211,16259,2,0,P|162:210|140:204,1,47.9999985351563,2|0,0:0|0:0,0:0:0:0:
21,80,16608,2,0,P|56:111|74:160,1,95.9999970703126,2|2,0:0|0:0,0:0:0:0:
140,204,17131,2,0,P|179:212|203:208,1,47.9999985351563,0|0,0:0|0:0,0:0:0:0:
24,321,17480,6,0,P|33:274|66:234,1,95.9999970703126,2|0,0:0|0:0,0:0:0:0:
62,236,18003,1,0,0:0:0:0:
157,314,18177,2,0,L|204:310,1,47.9999985351563,2|0,0:0|0:0,0:0:0:0:
267,260,18526,2,0,L|314:264,1,47.9999985351563,2|0,0:0|0:0,0:0:0:0:
413,332,18875,6,0,P|396:273|447:200,1,143.999995605469,2|0,0:0|0:0,0:0:0:0:
405,125,19573,2,0,L|358:129,1,47.9999985351563,2|0,0:0|0:0,0:0:0:0:
295,179,19922,2,0,L|248:175,1,47.9999985351563,2|0,0:0|0:0,0:0:0:0:
151,62,20270,6,0,P|170:105|149:169,1,95.9999970703126,2|0,0:0|0:0,0:0:0:0:
94,208,20794,2,0,P|75:251|96:315,1,95.9999970703126,2|2,0:0|0:0,0:0:0:0:
83,297,21317,1,0,0:0:0:0:
172,265,21491,1,0,0:0:0:0:
268,339,21666,6,0,P|285:316|285:283,2,47.9999985351563,2|0|0,0:0|0:0|0:0,0:0:0:0:
253,224,22189,1,0,0:0:0:0:
324,182,22363,2,0,L|379:186,1,47.9999985351563,2|0,0:0|0:0,0:0:0:0:
459,112,22712,2,0,L|403:116,1,47.9999985351563,2|0,0:0|0:0,0:0:0:0:
333,38,23061,5,2,0:0:0:0:
301,35,23236,1,0,0:0:0:0:
269,32,23410,1,0,0:0:0:0:
216,130,23584,1,2,0:0:0:0:
248,127,23759,1,0,0:0:0:0:
280,124,23933,1,0,0:0:0:0:
344,68,24108,1,2,0:0:0:0:
376,71,24282,1,0,0:0:0:0:
372,145,24456,6,0,L|376:97,1,47.9999985351563,2|0,0:0|0:0,0:0:0:0:
289,201,24805,1,2,0:0:0:0:
289,201,24980,2,0,L|284:153,1,47.9999985351563,2|0,0:0|0:0,0:0:0:0:
372,243,25329,2,0,L|366:302,2,47.9999985351563,2|0|2,0:0|0:0|0:0,0:0:0:0:
156,241,25852,6,0,P|178:195|202:297,1,263.99999194336,4|0,0:0|0:0,0:0:0:0:
205,301,26898,2,0,L|197:302,1,5.99999981689454,8|0,0:0|0:0,0:0:0:0:
8,54,27247,5,14,0:1:0:0:
8,54,27422,2,0,P|48:41|80:52,1,60.0000022888184,2|8,0:0|0:0,0:0:0:0:
127,103,27770,1,2,0:0:0:0:
253,26,27945,1,8,0:1:0:0:
259,105,28119,1,10,0:1:0:0:
266,185,28294,2,0,L|272:264,1,60.0000022888184,8|0,0:0|0:0,0:0:0:0:
428,47,28642,6,0,L|415:190,1,120.000004577637,10|8,0:1|0:0,0:0:0:0:
417,166,29166,1,0,0:0:0:0:
280,275,29340,1,10,0:1:0:0:
326,187,29515,1,8,0:1:0:0:
378,270,29689,2,0,L|371:350,1,60.0000022888184,10|0,0:0|0:0,0:0:0:0:
189,312,30038,6,0,P|144:323|73:297,1,120.000004577637,10|8,0:1|0:0,0:0:0:0:
244,244,30561,1,2,0:0:0:0:
189,312,30736,1,8,0:1:0:0:
81,194,30910,1,10,0:1:0:0:
236,159,31084,2,0,L|315:165,1,60.0000022888184,8|0,0:0|0:0,0:0:0:0:
191,37,31433,6,0,P|167:90|112:109,1,120.000004577637,10|8,0:1|0:0,0:0:0:0:
112,109,31956,1,0,0:0:0:0:
271,0,32131,1,10,0:1:0:0:
366,8,32305,1,8,0:1:0:0:
462,16,32480,2,0,L|467:79,1,60.0000022888184,10|0,0:0|0:0,0:0:0:0:
512,203,32829,6,0,L|501:322,1,120.000004577637,10|8,0:1|0:0,0:0:0:0:
501,322,33352,1,2,0:0:0:0:
283,384,33526,1,8,0:1:0:0:
283,291,33701,1,8,0:1:0:0:
363,337,33875,2,0,L|434:330,1,60.0000022888184,10|0,0:0|0:0,0:0:0:0:
316,205,34224,6,0,P|257:199|204:225,1,120.000004577637,10|8,0:1|0:0,0:0:0:0:
204,225,34747,1,2,0:0:0:0:
118,358,34922,1,8,0:1:0:0:
126,262,35096,1,8,0:1:0:0:
134,174,35270,2,0,L|127:94,1,60.0000022888184,10|0,0:0|0:0,0:0:0:0:
11,0,35619,6,0,P|71:32|144:11,1,120.000004577637,10|8,0:1|0:0,0:0:0:0:
120,25,36142,1,0,0:0:0:0:
211,118,36317,1,8,0:1:0:0:
306,111,36491,1,8,0:1:0:0:
402,104,36666,2,0,L|407:40,1,60.0000022888184,8|0,0:0|0:0,0:0:0:0:
502,190,37015,6,0,L|513:317,1,120.000004577637,10|8,0:1|0:0,0:0:0:0:
411,369,37538,1,8,0:0:0:0:
411,369,37625,1,8,0:0:0:0:
411,369,37712,1,10,0:0:0:0:
352,263,37887,1,8,0:3:0:0:
258,323,38061,5,6,0:3:0:0:
211,324,38177,1,2,0:0:0:0:
173,296,38294,1,2,0:0:0:0:
119,230,38410,6,0,P|52:231|-4:267,1,136.000002593994,14|8,0:1|0:1,0:0:0:0:
114,369,38933,5,10,0:0:0:0:
197,9,39282,1,10,0:0:0:0:
466,258,39631,6,0,L|330:269,1,136.000002593994,14|8,0:1|0:1,0:0:0:0:
258,161,40154,2,0,L|263:228,1,68.0000012969971,10|8,0:0|0:1,0:0:0:0:
137,282,40503,2,0,L|204:276,1,68.0000012969971,10|8,0:0|0:1,0:0:0:0:
276,384,40852,2,0,L|270:316,1,68.0000012969971,10|0,0:0|0:0,0:0:0:0:
252,93,41201,6,0,L|263:228,1,136.000002593994,14|10,0:1|0:1,0:0:0:0:
66,356,41724,5,10,0:0:0:0:
198,11,42073,1,10,0:0:0:0:
430,295,42422,6,0,L|286:282,1,136.000002593994,14|8,0:1|0:1,0:0:0:0:
106,242,42945,1,10,0:0:0:0:
95,126,43119,1,8,0:1:0:0:
211,116,43294,1,10,0:0:0:0:
221,231,43468,1,8,0:1:0:0:
330,101,43642,1,10,0:0:0:0:
386,177,43817,1,8,0:0:0:0:
386,177,43904,1,8,0:0:0:0:
386,177,43991,6,0,L|374:41,1,136.000002593994,14|10,0:1|0:1,0:0:0:0:
504,194,44515,5,10,0:0:0:0:
187,384,44863,1,10,0:0:0:0:
180,17,45212,6,0,L|167:160,1,136.000002593994,14|8,0:1|0:1,0:0:0:0:
9,220,45736,1,10,0:0:0:0:
0,133,45910,1,8,0:1:0:0:
87,125,46084,1,10,0:0:0:0:
94,211,46259,1,8,0:1:0:0:
106,299,46433,2,0,L|145:302,5,22.666667098999,14|0|0|2|0|0,0:0|0:0|0:0|0:0|0:0|0:0,0:0:0:0:
176,274,46782,5,6,3:1:0:0:
184,369,46956,1,0,3:0:0:0:
279,361,47131,1,2,3:0:0:0:
270,266,47305,1,0,3:0:0:0:
453,218,47480,5,2,3:0:0:0:
445,313,47654,1,0,3:0:0:0:
350,305,47829,1,2,3:0:0:0:
359,210,48003,1,0,3:0:0:0:
202,309,48177,5,2,3:0:0:0:
183,235,48351,1,0,3:0:0:0:
147,89,48527,1,2,3:0:0:0:
165,162,48701,1,0,3:0:0:0:
309,309,48875,5,2,3:0:0:0:
328,235,49049,1,0,3:0:0:0:
365,89,49225,1,2,3:0:0:0:
347,162,49399,1,0,3:0:0:0:
241,260,49573,5,10,3:1:0:0:
218,275,49660,1,0,3:0:0:0:
195,277,49747,1,0,3:0:0:0:
170,268,49834,1,0,3:0:0:0:
149,252,49921,1,8,3:1:0:0:
133,230,50009,1,0,3:0:0:0:
122,206,50096,1,0,3:0:0:0:
118,178,50183,1,0,3:0:0:0:
128,152,50270,1,8,3:1:0:0:
119,122,50357,1,0,3:0:0:0:
93,107,50444,1,0,3:0:0:0:
64,115,50531,1,0,3:0:0:0:
47,141,50618,1,10,3:1:0:0:
53,170,50706,1,0,3:0:0:0:
78,187,50794,6,0,P|104:193|127:64,1,200,10|2,3:2|0:0,0:0:0:0:
387,340,52015,5,2,0:0:0:0:
409,357,52102,1,2,0:0:0:0:
429,368,52189,5,2,0:0:0:0:
433,355,52247,1,2,0:0:0:0:
437,345,52305,1,2,0:0:0:0:
441,332,52363,6,0,L|431:234,1,95.9999970703126,14|0,0:1|0:0,0:0:0:0:
275,138,52712,1,10,0:0:0:0:
321,232,52887,1,0,0:0:0:0:
380,145,53061,1,10,0:1:0:0:
380,145,53236,1,10,0:1:0:0:
184,23,53410,2,0,L|175:118,1,95.9999970703126,8|0,0:0|0:0,0:0:0:0:
141,304,53759,5,10,0:1:0:0:
132,208,53933,1,10,0:1:0:0:
228,199,54108,1,10,0:0:0:0:
236,295,54282,1,2,0:1:0:0:
440,246,54456,5,8,0:1:0:0:
374,341,54631,1,10,0:1:0:0:
325,236,54805,2,0,L|334:132,1,95.9999970703126,8|0,0:0|0:0,0:0:0:0:
130,32,55154,6,0,P|91:60|72:103,1,95.9999970703126,10|0,0:1|0:0,0:0:0:0:
201,205,55503,2,0,P|195:157|167:119,1,95.9999970703126,10|0,0:0|0:0,0:0:0:0:
10,177,55852,1,10,0:1:0:0:
106,194,56026,1,8,0:1:0:0:
167,119,56201,2,0,L|270:109,1,95.9999970703126,10|0,0:0|0:0,0:0:0:0:
439,334,56549,5,10,0:1:0:0:
449,228,56724,1,10,0:1:0:0:
344,219,56898,1,10,0:0:0:0:
334,324,57073,2,0,L|238:332,1,95.9999970703126,2|8,0:0|0:1,0:0:0:0:
157,282,57422,1,10,0:1:0:0:
50,364,57596,1,10,0:0:0:0:
46,332,57684,1,2,0:0:0:0:
77,329,57770,1,2,0:0:0:0:
81,361,57858,1,2,0:0:0:0:
65,347,57945,5,14,0:1:0:0:
157,282,58119,1,0,0:0:0:0:
92,190,58294,1,10,0:0:0:0:
0,255,58468,1,0,0:0:0:0:
51,70,58642,5,10,0:1:0:0:
199,182,58817,1,8,0:1:0:0:
222,0,58991,2,0,L|118:9,1,95.9999970703126,10|0,0:0|0:0,0:0:0:0:
207,187,59340,5,10,0:1:0:0:
286,180,59515,1,8,0:1:0:0:
366,173,59689,2,0,B|437:166|437:166|395:146,1,95.9999970703126,8|0,0:0|0:0,0:0:0:0:
57,27,60038,1,10,0:1:0:0:
45,166,60212,1,10,0:1:0:0:
184,178,60387,1,10,0:0:0:0:
196,40,60561,1,2,0:0:0:0:
304,271,60736,6,0,P|362:282|412:172,1,191.999994140625,14|8,0:1|0:0,0:0:0:0:
415,179,61259,1,0,0:0:0:0:
324,367,61433,1,8,0:1:0:0:
117,126,61608,5,10,0:1:0:0:
43,299,61783,1,10,0:0:0:0:
229,276,61956,2,0,L|420:292,1,191.999994140625,14|8,0:1|0:1,0:0:0:0:
509,176,62480,1,8,0:0:0:0:
318,192,62654,1,8,0:1:0:0:
94,109,62829,5,10,0:0:0:0:
81,253,63003,1,10,0:1:0:0:
226,266,63177,1,10,0:0:0:0:
237,121,63352,1,10,0:0:0:0:
237,121,63439,1,10,0:0:0:0:
237,121,63526,6,0,P|282:98|334:90,1,95.9999970703126,14|0,0:1|0:0,0:0:0:0:
424,287,63875,1,10,0:0:0:0:
330,241,64050,1,2,0:0:0:0:
417,182,64224,1,8,0:1:0:0:
417,182,64398,1,10,0:1:0:0:
332,355,64573,2,0,L|228:365,1,95.9999970703126,8|2,0:0|0:0,0:0:0:0:
42,291,64922,5,10,0:1:0:0:
88,197,65096,1,10,0:1:0:0:
147,284,65270,2,0,L|137:388,1,95.9999970703126,10|0,0:0|0:0,0:0:0:0:
282,189,65619,1,8,0:1:0:0:
291,299,65794,1,10,0:1:0:0:
401,289,65968,1,8,0:0:0:0:
391,179,66142,1,2,0:0:0:0:
282,310,66317,6,0,P|204:302|163:191,1,191.999994140625,10|10,0:1|0:0,0:0:0:0:
159,208,66840,1,0,0:0:0:0:
372,73,67015,5,10,0:1:0:0:
384,207,67189,1,8,0:1:0:0:
250,219,67363,1,10,0:0:0:0:
239,85,67538,1,2,0:0:0:0:
239,85,67625,1,2,0:0:0:0:
239,85,67712,5,10,0:1:0:0:
146,110,67887,1,8,0:1:0:0:
55,141,68061,2,0,L|45:252,1,95.9999970703126,8|0,0:0|0:0,0:0:0:0:
160,380,68410,1,10,0:1:0:0:
253,355,68585,1,8,0:1:0:0:
435,293,68759,1,10,0:0:0:0:
344,324,68933,1,2,0:0:0:0:
344,324,69020,1,2,0:0:0:0:
344,324,69108,6,0,L|360:132,1,191.999994140625,14|8,0:1|0:0,0:0:0:0:
360,132,69631,1,2,0:0:0:0:
156,61,69805,1,0,0:0:0:0:
236,156,69980,1,8,0:1:0:0:
278,39,70154,2,0,L|389:29,1,95.9999970703126,10|0,0:0|0:0,0:0:0:0:
281,272,70503,6,0,L|170:262,2,95.9999970703126,10|8|8,0:1|0:1|0:0,0:0:0:0:
128,165,71026,1,2,0:0:0:0:
128,165,71201,2,0,L|33:173,1,95.9999970703126,8|8,0:1|0:1,0:0:0:0:
287,280,71549,2,0,L|383:271,1,95.9999970703126,10|0,0:0|0:0,0:0:0:0:
495,51,71898,6,0,P|423:26|339:131,1,191.999994140625,14|8,0:1|0:0,0:0:0:0:
390,279,72422,1,8,0:1:0:0:
482,181,72596,2,0,B|450:172|450:172|352:192,1,95.9999970703126,8|8,0:0|0:1,0:0:0:0:
220,238,72945,2,0,B|252:247|252:247|350:227,1,95.9999970703126,8|8,0:0|0:1,0:0:0:0:
113,52,73294,1,10,0:0:0:0:
104,148,73468,1,8,0:1:0:0:
200,157,73642,1,8,0:0:0:0:
208,61,73817,1,8,0:1:0:0:
91,158,73991,5,10,0:0:0:0:
215,56,74166,1,0,3:0:0:0:
261,51,74253,1,0,3:0:0:0:
303,73,74340,1,0,3:0:0:0:
325,115,74427,1,0,3:0:0:0:
318,162,74515,2,0,L|306:211,1,47.9999985351563,0|0,3:0|3:0,0:0:0:0:
150,303,74689,5,14,0:1:0:0:
81,180,74863,1,2,0:0:0:0:
283,272,75038,2,0,L|292:177,1,80,8|2,0:0|0:0,0:0:0:0:
256,24,75387,1,8,0:1:0:0:
168,47,75562,1,8,0:1:0:0:
82,76,75736,2,0,L|72:180,1,80,8|0,0:0|0:0,0:0:0:0:
202,368,76084,5,10,0:1:0:0:
283,340,76259,1,10,0:1:0:0:
375,354,76433,2,0,P|402:324|418:288,1,80,8|2,0:0|0:0,0:0:0:0:
319,29,76782,1,10,0:1:0:0:
217,83,76957,1,8,0:1:0:0:
313,143,77131,2,0,L|405:134,1,80,8|0,0:0|0:0,0:0:0:0:
497,295,77480,5,10,0:1:0:0:
417,287,77654,1,2,0:0:0:0:
264,350,77829,2,0,L|375:340,1,80,8|2,0:0|0:0,0:0:0:0:
260,231,78177,1,8,0:1:0:0:
164,239,78352,1,10,0:1:0:0:
58,256,78526,1,10,0:0:0:0:
54,224,78614,1,2,0:0:0:0:
85,221,78701,1,2,0:0:0:0:
89,253,78788,1,2,0:0:0:0:
73,239,78875,6,0,L|84:104,1,120,10|0,0:1|0:0,0:0:0:0:
100,107,79224,1,8,0:0:0:0:
341,55,79398,1,10,0:1:0:0:
358,51,79747,5,10,0:1:0:0:
53,11,80270,6,0,L|45:93,1,80,14|0,0:1|0:0,0:0:0:0:
83,164,80619,1,8,0:0:0:0:
268,138,80794,2,0,P|228:90|136:85,1,160,14|10,0:1|0:1,0:0:0:0:
154,232,81317,1,8,0:0:0:0:
362,104,81491,6,0,L|377:279,1,160,14|8,0:1|0:1,0:0:0:0:
337,382,82015,1,14,0:0:0:0:
306,349,82131,1,2,0:0:0:0:
257,350,82247,1,2,0:0:0:0:
184,384,82363,6,0,L|120:378,1,40,10|0,0:1|0:0,0:0:0:0:
27,320,82625,2,0,L|90:314,1,40,10|0,0:1|0:0,0:0:0:0:
184,384,82887,1,10,0:1:0:0:
342,242,83061,6,0,L|346:289,1,32,14|0,0:1|0:0,0:0:0:0:
327,227,83236,2,0,L|331:274,1,32,10|0,0:1|0:0,0:0:0:0:
148,132,84456,6,0,L|143:179,1,32,10|0,0:1|0:0,0:0:0:0:
163,117,84631,2,0,L|158:164,1,32,10|0,0:1|0:0,0:0:0:0:
431,66,85852,6,0,L|383:61,1,32,10|0,0:1|0:0,0:0:0:0:
446,81,86027,2,0,L|398:76,1,32,10|0,0:1|0:0,0:0:0:0:
70,204,87247,6,0,L|117:199,1,32,10|0,0:1|0:0,0:0:0:0:
55,219,87422,2,0,L|102:214,1,32,10|0,0:1|0:0,0:0:0:0:
304,16,88642,6,0,L|299:63,1,32,10|0,0:0|0:0,0:0:0:0:
274,332,88817,2,0,L|272:364,1,32,10|0,0:0|0:0,0:0:0:0:
31,241,90038,6,0,L|92:235,1,32,10|0,0:0|0:0,0:0:0:0:
438,203,90213,2,0,L|470:200,1,32,10|0,0:0|0:0,0:0:0:0:
173,0,91433,6,0,L|176:35,1,32,10|0,0:0|0:0,0:0:0:0:
209,352,91608,2,0,L|212:389,1,32,10|0,0:0|0:0,0:0:0:0:
458,101,92829,6,0,L|370:93,1,80,14|0,0:1|0:0,0:0:0:0:
468,188,93090,6,0,L|380:180,1,64,10|0,0:1|0:0,0:0:0:0:
476,265,93352,6,0,L|435:261,1,23.9999992675781,10|0,0:1|0:0,0:0:0:0:
493,339,93526,5,10,0:0:0:0:
288,320,93701,5,8,0:1:0:0:
294,346,93788,1,10,0:0:0:0:
195,240,93962,1,8,0:1:0:0:
189,266,94049,1,10,0:0:0:0:
81,358,94224,6,0,L|73:270,1,64,14|0,0:1|0:0,0:0:0:0:
27,215,94573,1,8,0:0:0:0:
27,215,94747,1,2,0:0:0:0:
134,115,94922,1,8,0:1:0:0:
207,211,95096,1,10,0:1:0:0:
254,98,95270,2,0,P|279:80|310:72,1,64,8|0,0:0|0:0,0:0:0:0:
456,175,95619,6,0,L|328:163,1,128,10|8,0:1|0:0,0:0:0:0:
328,163,96142,1,0,0:0:0:0:
280,307,96317,1,10,0:1:0:0:
207,211,96491,1,8,0:1:0:0:
159,323,96666,2,0,P|133:341|102:349,1,64,10|0,0:0|0:0,0:0:0:0:
213,204,97015,6,0,L|348:215,1,128,10|10,0:1|0:0,0:0:0:0:
340,215,97538,1,0,0:0:0:0:
423,346,97712,1,10,0:1:0:0:
429,266,97887,1,10,0:1:0:0:
436,186,98061,2,0,L|429:114,1,64,8|0,0:0|0:0,0:0:0:0:
336,7,98410,6,0,P|294:65|227:42,1,128,10|10,0:1|0:0,0:0:0:0:
244,58,98933,1,0,0:0:0:0:
136,1,99107,1,10,0:1:0:0:
130,81,99282,1,8,0:1:0:0:
123,161,99456,2,0,L|129:232,1,64,10|0,0:0|0:0,0:0:0:0:
103,350,99805,6,0,P|146:331|193:333,1,96,10|0,0:1|0:0,0:0:0:0:
220,359,100154,2,0,L|299:352,1,64,8|2,0:0|0:0,0:0:0:0:
418,281,100503,1,10,0:1:0:0:
338,274,100677,1,8,0:1:0:0:
258,267,100852,1,10,0:0:0:0:
428,5,101201,6,0,P|476:29|466:85,1,96,10|0,0:1|0:0,0:0:0:0:
455,94,101549,2,0,L|448:173,1,64,8|2,0:0|0:0,0:0:0:0:
306,42,101898,1,8,0:1:0:0:
313,122,102073,1,8,0:1:0:0:
320,202,102247,1,10,0:0:0:0:
90,312,102596,6,0,L|101:184,1,128,10|8,0:1|0:0,0:0:0:0:
101,184,103119,1,0,0:0:0:0:
268,145,103294,1,10,0:1:0:0:
209,86,103468,1,8,0:1:0:0:
187,166,103642,1,12,0:0:0:0:
79,51,103817,5,8,0:0:0:0:
79,51,103904,1,8,0:0:0:0:
79,51,103991,1,10,0:1:0:0:
33,124,104166,1,8,0:0:0:0:
100,200,104340,1,8,0:0:0:0:
101,184,104427,1,8,0:0:0:0:
186,150,104602,1,8,0:0:0:0:
187,166,104689,1,10,0:1:0:0:
244,267,104863,5,8,0:3:0:0:
267,264,104951,1,8,0:3:0:0:
291,262,105038,1,4,0:3:0:0:
415,213,105212,1,4,0:3:0:0:
391,211,105299,1,4,0:3:0:0:
367,207,105387,6,0,P|346:133|388:68,1,160,14|8,0:1|0:1,0:0:0:0:
184,22,105910,5,10,0:0:0:0:
136,381,106259,1,10,0:0:0:0:
160,201,106608,6,0,P|206:172|326:216,1,160,14|8,0:1|0:1,0:0:0:0:
401,317,107131,1,10,0:0:0:0:
410,217,107305,1,8,0:1:0:0:
302,308,107480,1,10,0:0:0:0:
311,208,107654,1,8,0:1:0:0:
413,332,107829,2,0,L|500:324,1,80,10|0,0:0|0:0,0:0:0:0:
442,89,108177,6,0,P|365:71|291:100,1,160,14|8,0:1|0:1,0:0:0:0:
204,382,108701,5,10,0:0:0:0:
156,23,109050,1,10,0:0:0:0:
180,203,109398,6,0,L|347:217,1,160,14|8,0:1|0:1,0:0:0:0:
475,282,109922,1,10,0:0:0:0:
394,289,110097,1,8,0:1:0:0:
231,302,110271,1,10,0:0:0:0:
312,295,110445,1,8,0:1:0:0:
165,249,110619,1,10,0:0:0:0:
106,355,110794,1,8,0:0:0:0:
106,355,110881,1,8,0:0:0:0:
106,355,110968,6,0,P|50:294|60:212,1,160,14|8,0:1|0:1,0:0:0:0:
163,35,111491,5,10,0:0:0:0:
0,384,111840,1,10,0:0:0:0:
383,351,112189,6,0,L|396:191,1,160,14|8,0:1|0:1,0:0:0:0:
396,191,112712,1,10,0:0:0:0:
312,257,112887,1,8,0:1:0:0:
383,351,113061,1,10,0:0:0:0:
472,270,113236,1,10,0:1:0:0:
364,375,113410,2,0,P|312:380|263:350,1,80,14|0,0:0|0:0,0:0:0:0:
213,308,113759,5,14,0:1:0:0:
194,301,113933,1,0,0:0:0:0:
174,300,114108,1,0,0:0:0:0:
154,305,114282,1,0,0:0:0:0:
43,246,114456,5,2,0:0:0:0:
62,253,114630,1,0,0:0:0:0:
82,254,114805,1,0,0:0:0:0:
102,249,114979,1,0,0:0:0:0:
231,189,115154,5,2,0:0:0:0:
212,196,115328,1,0,0:0:0:0:
192,197,115503,1,0,0:0:0:0:
172,192,115677,1,0,0:0:0:0:
104,113,115852,6,0,P|44:156|39:83,1,180.000006866455,2|0,0:0|0:0,0:0:0:0:
252,31,116549,5,10,0:0:0:0:
353,39,116724,1,8,0:0:0:0:
344,140,116898,1,10,0:0:0:0:
242,132,117073,1,8,0:0:0:0:
36,188,117247,5,10,0:0:0:0:
26,315,117422,1,8,0:0:0:0:
153,327,117596,1,10,0:0:0:0:
163,200,117770,2,0,P|226:185|320:273,1,200,14|0,0:1|0:0,0:0:0:0:
466,85,118991,5,2,0:0:0:0:
444,68,119078,1,2,0:0:0:0:
424,57,119165,5,2,0:0:0:0:
420,70,119223,1,2,0:0:0:0:
416,80,119281,1,2,0:0:0:0:
412,93,119340,6,0,L|423:203,1,95.9999970703126,14|0,0:1|0:0,0:0:0:0:
334,348,119689,1,10,0:0:0:0:
334,237,119863,1,2,0:0:0:0:
429,292,120038,1,8,0:1:0:0:
429,292,120212,1,10,0:1:0:0:
330,220,120387,2,0,L|210:230,1,95.9999970703126,8|0,0:0|0:0,0:0:0:0:
21,120,120736,5,10,0:1:0:0:
107,16,120910,1,10,0:1:0:0:
153,142,121084,2,0,L|143:245,1,95.9999970703126,10|2,0:0|0:1,0:0:0:0:
338,341,121433,1,8,0:1:0:0:
251,238,121608,1,10,0:1:0:0:
205,364,121782,1,8,0:0:0:0:
205,364,121956,1,2,0:0:0:0:
352,220,122131,6,0,P|431:202|471:217,1,95.9999970703126,10|0,0:1|0:0,0:0:0:0:
202,143,122480,2,0,P|123:125|83:140,1,95.9999970703126,10|0,0:0|0:0,0:0:0:0:
331,21,122829,1,10,0:1:0:0:
415,0,123003,1,8,0:1:0:0:
476,57,123177,2,0,P|479:103|454:144,1,95.9999970703126,10|0,0:0|0:0,0:0:0:0:
218,245,123526,5,10,0:1:0:0:
313,130,123701,1,10,0:1:0:0:
364,269,123875,1,10,0:0:0:0:
364,269,124049,1,2,0:0:0:0:
234,135,124224,1,8,0:1:0:0:
183,315,124398,1,8,0:1:0:0:
65,169,124573,1,10,0:0:0:0:
103,164,124660,1,2,0:0:0:0:
109,201,124747,1,2,0:0:0:0:
71,207,124834,1,2,0:0:0:0:
83,186,124922,5,14,0:1:0:0:
231,250,125096,1,0,0:0:0:0:
320,67,125270,1,10,0:0:0:0:
189,4,125444,1,0,0:0:0:0:
313,240,125619,5,10,0:1:0:0:
498,223,125794,1,8,0:1:0:0:
489,132,125968,1,10,0:0:0:0:
306,148,126142,1,0,0:0:0:0:
228,384,126317,5,10,0:1:0:0:
228,254,126491,1,8,0:1:0:0:
340,319,126666,2,0,L|443:309,1,95.9999970703126,8|0,0:0|0:0,0:0:0:0:
135,117,127015,5,10,0:1:0:0:
124,237,127189,1,10,0:1:0:0:
244,248,127363,1,10,0:0:0:0:
254,128,127538,1,2,0:0:0:0:
444,15,127712,6,0,P|449:73|332:56,1,191.999994140625,14|8,0:1|0:0,0:0:0:0:
341,82,128236,1,0,0:0:0:0:
122,205,128410,1,8,0:1:0:0:
106,40,128584,1,10,0:1:0:0:
235,29,128759,1,10,0:0:0:0:
251,193,128933,6,0,L|234:384,1,191.999994140625,14|8,0:1|0:1,0:0:0:0:
351,295,129456,1,8,0:0:0:0:
251,193,129631,1,8,0:1:0:0:
37,293,129805,1,10,0:0:0:0:
22,132,129980,1,10,0:1:0:0:
146,121,130154,1,10,0:0:0:0:
161,282,130329,1,10,0:0:0:0:
161,282,130416,1,10,0:0:0:0:
161,282,130503,6,0,L|272:291,1,95.9999970703126,14|0,0:1|0:0,0:0:0:0:
358,244,130852,1,8,0:0:0:0:
395,341,131026,1,2,0:0:0:0:
501,184,131201,1,8,0:1:0:0:
413,171,131375,1,10,0:1:0:0:
326,163,131549,2,0,L|230:171,1,95.9999970703126,8|0,0:0|0:0,0:0:0:0:
52,242,131898,5,10,0:1:0:0:
126,153,132073,1,10,0:1:0:0:
165,262,132247,1,10,0:0:0:0:
165,262,132422,1,2,0:0:0:0:
47,122,132596,1,8,0:1:0:0:
155,71,132770,1,10,0:1:0:0:
242,155,132945,2,0,L|361:144,1,95.9999970703126,8|0,0:0|0:0,0:0:0:0:
512,224,133294,6,0,P|470:200|423:195,1,95.9999970703126,10|0,0:1|0:0,0:0:0:0:
369,348,133642,2,0,P|410:323|438:285,1,95.9999970703126,10|0,0:0|0:0,0:0:0:0:
332,157,133991,1,10,0:1:0:0:
234,167,134166,1,8,0:1:0:0:
38,187,134340,1,10,0:0:0:0:
136,177,134515,1,2,0:0:0:0:
136,177,134602,1,2,0:0:0:0:
136,177,134689,5,10,0:1:0:0:
10,285,134863,1,8,0:1:0:0:
167,341,135038,2,0,L|278:331,1,95.9999970703126,8|0,0:0|0:0,0:0:0:0:
491,217,135387,1,10,0:1:0:0:
504,370,135561,1,8,0:1:0:0:
351,384,135736,1,10,0:0:0:0:
337,230,135910,1,2,0:0:0:0:
337,230,135997,1,2,0:0:0:0:
337,230,136084,6,0,L|346:126,1,95.9999970703126,14|0,0:1|0:0,0:0:0:0:
427,60,136433,2,0,L|435:155,1,95.9999970703126,8|2,0:0|0:0,0:0:0:0:
281,52,136782,1,0,0:0:0:0:
193,59,136956,1,8,0:1:0:0:
105,67,137131,2,0,L|96:162,1,95.9999970703126,10|0,0:0|0:0,0:0:0:0:
284,253,137480,5,10,0:1:0:0:
200,153,137654,1,8,0:1:0:0:
156,275,137829,2,0,L|165:378,1,95.9999970703126,8|0,0:0|0:0,0:0:0:0:
284,165,138177,1,8,0:1:0:0:
375,125,138352,1,8,0:1:0:0:
455,190,138526,2,0,P|469:235|458:281,1,95.9999970703126,10|0,0:0|0:0,0:0:0:0:
290,66,138875,6,0,L|194:74,1,95.9999970703126,14|0,0:1|0:0,0:0:0:0:
65,245,139224,1,8,0:0:0:0:
80,62,139398,1,8,0:1:0:0:
231,167,139573,1,8,0:0:0:0:
186,71,139747,5,8,0:1:0:0:
170,254,139922,1,8,0:0:0:0:
21,148,140096,1,8,0:1:0:0:
280,83,140270,5,10,0:0:0:0:
296,266,140445,1,8,0:1:0:0:
479,250,140619,1,8,0:0:0:0:
463,67,140794,1,8,0:0:0:0:
463,67,140881,1,8,0:0:0:0:
463,67,140968,2,0,P|418:119|414:212,1,143.999995605469,10|10,0:1|0:3,0:0:0:0:
401,344,141317,5,2,0:0:0:0:
354,324,141433,1,2,0:0:0:0:
302,335,141549,1,2,0:0:0:0:
236,382,141666,6,0,P|185:371|142:320,1,120.000004577637,14|0,0:1|0:0,0:0:0:0:
142,321,142189,1,2,0:0:0:0:
167,159,142363,2,0,P|143:224|81:243,1,120.000004577637,10|0,0:0|0:0,0:0:0:0:
8,180,142887,2,0,L|3:239,2,60.0000022888184,10|2|8,0:0|0:0|0:0,0:0:0:0:
85,119,143410,1,2,0:0:0:0:
85,119,143584,1,10,0:1:0:0:
49,23,143759,2,0,P|88:32|127:20,2,60.0000022888184,8|2|2,0:0|0:0|0:0,0:0:0:0:
421,0,144456,6,0,L|432:135,1,120.000004577637,10|0,0:1|0:0,0:0:0:0:
431,119,144980,1,2,0:0:0:0:
493,209,145154,2,0,P|433:205|382:235,1,120.000004577637,10|0,0:0|0:0,0:0:0:0:
310,297,145677,2,0,L|303:225,2,60.0000022888184,10|2|8,0:0|0:0|0:0,0:0:0:0:
252,363,146201,1,2,0:0:0:0:
252,363,146375,1,10,0:1:0:0:
178,311,146549,2,0,L|118:316,2,60.0000022888184,10|2|2,0:0|0:0|0:0,0:0:0:0:
7,123,147247,6,0,P|47:147|123:112,1,120.000004577637,10|0,0:1|0:0,0:0:0:0:
113,125,147770,1,2,0:0:0:0:
182,13,147945,1,10,0:0:0:0:
182,13,148294,1,2,0:0:0:0:
210,108,148468,1,10,0:0:0:0:
284,44,148642,2,0,P|313:38|343:41,1,60.0000022888184,2|8,0:0|0:0,0:0:0:0:
419,99,148991,1,2,0:1:0:0:
419,99,149166,1,10,0:1:0:0:
339,181,149340,2,0,L|332:109,2,60.0000022888184,10|2|2,0:0|0:0|0:0,0:0:0:0:
472,378,150038,6,0,P|432:334|374:333,1,120.000004577637,10|0,0:1|0:0,0:0:0:0:
374,333,150561,1,2,0:0:0:0:
286,384,150736,2,0,L|274:256,1,120.000004577637,8|0,0:0|0:0,0:0:0:0:
203,223,151259,1,8,0:0:0:0:
139,333,151433,1,2,0:0:0:0:
139,333,151608,2,0,L|67:326,2,60.0000022888184,8|2|8,0:0|0:0|0:1,0:0:0:0:
8,252,152131,2,0,L|79:245,1,60.0000022888184,10|0,0:0|0:0,0:0:0:0:
116,180,152480,1,2,0:0:0:0:
499,378,152829,5,14,0:1:0:0:
360,272,153177,5,0,0:0:0:0:
415,205,153352,1,0,0:0:0:0:
445,286,153526,1,10,0:0:0:0:
325,189,153875,5,0,0:0:0:0:
270,122,154050,1,8,0:0:0:0:
240,203,154224,1,2,0:0:0:0:
484,61,154573,5,2,0:0:0:0:
402,53,154747,1,8,0:1:0:0:
242,39,154922,1,10,0:0:0:0:
322,46,155096,1,2,0:0:0:0:
484,61,155270,1,2,0:0:0:0:
26,9,155619,5,10,0:1:0:0:
107,151,155968,5,0,0:0:0:0:
114,71,156143,1,0,0:0:0:0:
100,231,156317,1,10,0:0:0:0:
236,245,156666,5,0,0:0:0:0:
229,325,156841,1,8,0:0:0:0:
243,165,157015,1,2,0:0:0:0:
471,175,157363,5,2,0:0:0:0:
464,268,157538,1,8,0:1:0:0:
323,215,157712,1,10,0:0:0:0:
383,143,157887,1,2,0:0:0:0:
375,293,158061,1,2,0:0:0:0:
12,364,158410,5,10,0:1:0:0:
199,289,158759,5,2,0:0:0:0:
119,282,158934,1,2,0:0:0:0:
279,296,159108,1,10,0:0:0:0:
412,212,159456,5,2,0:0:0:0:
357,145,159631,1,10,0:0:0:0:
327,226,159805,1,2,0:0:0:0:
490,81,160154,5,2,0:0:0:0:
408,73,160328,1,8,0:1:0:0:
248,59,160503,1,10,0:0:0:0:
328,66,160677,1,2,0:0:0:0:
213,135,160852,1,2,0:0:0:0:
489,367,161201,5,10,0:1:0:0:
421,265,161549,5,2,0:0:0:0:
367,375,161724,1,2,0:0:0:0:
489,367,162247,5,0,0:0:0:0:
412,253,162596,6,0,P|370:235|326:240,1,90.0000034332277,2|0,0:0|0:0,0:0:0:0:
299,280,162945,2,0,P|255:288|211:277,1,90.0000034332277,2|0,0:0|0:0,0:0:0:0:
184,255,163294,2,0,L|174:358,1,90.0000034332277,10|0,0:0|0:0,0:0:0:0:
133,367,163642,2,0,L|123:263,1,90.0000034332277,2|0,0:0|0:0,0:0:0:0:
47,186,163991,6,0,B|152:160|143:335|249:312,1,240.000009155274,14|0,0:1|0:0,0:0:0:0:
320,374,165038,1,2,0:0:0:0:
320,374,165212,38,0,B|345:337|323:300|323:300|337:291|337:291|321:256|351:215|351:215|407:152|354:70|354:70|343:122|292:152,1,431.999986816407,8|10,0:0|0:1,0:0:0:0:
42,150,167480,6,0,P|86:138|123:166,1,95.9999970703126,10|0,0:0|0:0,0:0:0:0:
42,150,168003,1,8,0:0:0:0:
236,41,168352,6,0,P|174:76|171:113,1,95.9999970703126,8|8,0:0|0:1,0:0:0:0:
236,41,168875,1,10,0:0:0:0:
307,337,169573,6,0,B|377:278|357:183|357:183|426:201|507:173|525:101|461:17|363:49|369:142|369:142|318:102|281:115|261:141|248:174|276:200,1,671.999979492188,10|0,0:1|0:0,0:0:0:0:
226,13,172363,6,0,P|156:73|68:47,1,191.999994140625,10|10,0:1|0:0,0:0:0:0:
68,47,173584,6,0,L|63:113,1,47.9999985351563,8|0,0:0|0:0,0:0:0:0:
119,165,173933,1,8,0:0:0:0:
119,165,174282,1,8,0:1:0:0:
135,6,174456,6,0,L|182:2,3,40,2|0|0|0,1:0|1:0|1:0|1:0,0:0:0:0:
279,67,174805,2,0,L|231:62,3,40,2|0|0|0,1:0|1:0|1:0|1:0,0:0:0:0:
311,149,175154,5,14,0:2:0:0:
319,162,175241,1,0,0:0:0:0:
325,178,175328,1,0,0:0:0:0:
329,193,175415,1,0,0:0:0:0:
330,210,175502,1,8,0:2:0:0:
327,227,175590,1,0,0:0:0:0:
321,243,175677,1,8,0:1:0:0:
313,257,175764,1,0,0:0:0:0:
279,260,175852,5,10,0:2:0:0:
271,273,175939,1,0,0:2:0:0:
264,289,176026,1,8,0:1:0:0:
261,305,176113,1,0,0:2:0:0:
260,322,176200,1,8,0:2:0:0:
262,338,176288,1,0,0:2:0:0:
268,354,176375,1,8,0:1:0:0:
276,368,176462,1,0,0:2:0:0:
303,351,176549,5,10,0:2:0:0:
286,342,176636,1,0,0:2:0:0:
269,336,176723,1,8,0:1:0:0:
251,334,176810,1,0,0:2:0:0:
233,337,176897,1,8,0:2:0:0:
216,343,176985,1,0,0:2:0:0:
200,353,177072,1,8,0:1:0:0:
187,365,177159,1,0,0:2:0:0:
164,368,177247,5,10,0:2:0:0:
152,353,177334,1,0,0:2:0:0:
139,341,177421,1,8,0:1:0:0:
123,333,177508,1,0,0:2:0:0:
106,328,177595,1,8,0:2:0:0:
87,326,177683,1,0,0:2:0:0:
69,328,177770,2,0,L|43:338,1,20,8|0,0:1|0:2,0:0:0:0:
82,239,177945,5,14,0:2:0:0:
96,232,178032,1,0,0:2:0:0:
107,221,178119,1,0,0:1:0:0:
115,207,178206,1,0,0:2:0:0:
117,192,178293,1,8,0:2:0:0:
114,176,178381,1,0,0:2:0:0:
105,163,178468,1,8,0:1:0:0:
93,153,178555,1,0,0:2:0:0:
88,132,178642,5,10,0:2:0:0:
73,132,178729,1,0,0:2:0:0:
58,137,178817,1,8,0:1:0:0:
45,147,178904,1,0,0:2:0:0:
37,161,178991,1,8,0:2:0:0:
34,176,179078,1,0,0:2:0:0:
36,192,179165,1,8,0:1:0:0:
43,206,179253,1,0,0:2:0:0:
62,223,179340,5,10,0:2:0:0:
82,212,179427,1,0,0:2:0:0:
103,205,179514,1,8,0:1:0:0:
124,203,179601,1,0,0:2:0:0:
146,206,179688,1,8,0:2:0:0:
167,213,179776,1,0,0:2:0:0:
186,225,179863,1,8,0:1:0:0:
201,240,179950,1,0,0:2:0:0:
216,277,180038,5,10,0:2:0:0:
238,270,180125,1,0,0:2:0:0:
257,255,180212,1,8,0:1:0:0:
273,237,180299,1,0,0:2:0:0:
288,218,180386,1,8,0:2:0:0:
306,202,180474,1,0,0:2:0:0:
328,192,180561,2,0,L|359:193,1,20,8|0,0:1|0:2,0:0:0:0:
510,255,180736,5,14,0:2:0:0:
490,258,180823,1,0,0:2:0:0:
470,254,180910,1,0,0:1:0:0:
454,243,180997,1,0,0:2:0:0:
442,227,181084,1,8,0:2:0:0:
437,208,181172,1,0,0:2:0:0:
439,188,181259,1,8,0:1:0:0:
448,171,181346,1,0,0:2:0:0:
472,153,181433,5,10,0:2:0:0:
469,129,181520,1,0,0:2:0:0:
461,106,181607,1,8,0:1:0:0:
446,86,181694,1,0,0:2:0:0:
428,71,181781,1,8,0:2:0:0:
407,61,181869,1,0,0:2:0:0:
383,58,181956,1,8,0:1:0:0:
359,60,182043,1,0,0:2:0:0:
331,42,182131,5,10,0:2:0:0:
311,58,182218,1,0,0:2:0:0:
288,70,182305,1,8,0:1:0:0:
263,77,182392,1,0,0:2:0:0:
237,77,182479,1,8,0:2:0:0:
213,70,182567,1,0,0:2:0:0:
189,57,182654,1,8,0:1:0:0:
171,39,182741,1,0,0:2:0:0:
155,9,182829,5,10,0:2:0:0:
137,16,182916,1,0,0:2:0:0:
120,26,183003,1,8,0:1:0:0:
104,40,183090,1,0,0:2:0:0:
92,54,183177,1,8,0:2:0:0:
81,72,183265,1,0,0:2:0:0:
75,91,183352,2,0,L|65:121,1,20,8|0,0:1|0:2,0:0:0:0:
99,265,183526,5,14,0:2:0:0:
118,264,183613,1,0,0:2:0:0:
136,255,183700,1,0,0:2:0:0:
150,241,183787,1,0,0:2:0:0:
158,223,183874,1,8,0:2:0:0:
157,203,183962,1,0,0:2:0:0:
150,184,184049,1,8,0:1:0:0:
136,170,184136,1,0,0:2:0:0:
108,184,184223,5,10,0:2:0:0:
88,183,184310,1,0,0:2:0:0:
70,190,184398,1,8,0:1:0:0:
55,204,184485,1,0,0:2:0:0:
46,222,184572,1,8,0:2:0:0:
45,241,184659,1,0,0:2:0:0:
51,260,184747,2,0,L|64:280,1,20,8|0,0:1|0:2,0:0:0:0:
258,375,184922,5,14,0:2:0:0:
241,351,185009,1,0,0:2:0:0:
233,327,185096,1,8,0:1:0:0:
233,301,185183,1,0,0:0:0:0:
238,281,185270,1,14,0:2:0:0:
255,257,185357,1,0,0:2:0:0:
263,233,185444,1,8,0:1:0:0:
263,207,185531,1,0,0:0:0:0:
254,187,185619,6,0,L|222:184,1,20,10|0,0:2|0:2,0:0:0:0:
129,136,185794,2,0,L|160:133,1,30.0000011444092,10|0,0:2|0:2,0:0:0:0:
298,73,185968,2,0,L|258:69,1,40,10|0,0:2|0:2,0:0:0:0:
75,22,186142,2,0,L|132:17,1,50,10|0,0:2|0:2,0:0:0:0:
88,101,197480,6,0,L|167:94,1,64,14|0,0:1|0:0,0:0:0:0:
315,127,197829,1,10,2:1:0:0:
233,134,198003,2,0,L|226:205,1,64,2|8,0:0|0:1,0:0:0:0:
309,275,198352,2,0,L|303:211,1,64,2|8,0:0|0:1,0:0:0:0:
303,211,198701,1,2,0:0:0:0:
374,46,198875,5,10,0:1:0:0:
453,53,199049,1,2,0:0:0:0:
446,133,199224,1,10,0:1:0:0:
367,126,199398,2,0,L|295:132,1,64,2|8,0:0|0:1,0:0:0:0:
239,205,199747,2,0,L|310:211,2,64,2|10|0,0:0|0:1|0:0,0:0:0:0:
127,87,200270,6,0,P|155:72|186:69,3,64,10|0|8|2,0:1|0:0|0:1|0:0,0:0:0:0:
244,16,200968,2,0,P|270:32|288:59,3,64,8|0|10|0,0:1|0:0|0:1|0:0,0:0:0:0:
357,98,201666,2,0,P|355:129|341:158,3,64,10|0|8|2,0:1|0:0|0:1|0:0,0:0:0:0:
350,233,202363,2,0,P|321:247|290:250,3,64,10|0|10|0,0:1|0:0|0:1|0:0,0:0:0:0:
186,69,203061,6,0,L|179:148,1,64,10|0,0:1|0:0,0:0:0:0:
180,132,203410,1,10,0:1:0:0:
107,208,203584,2,0,L|101:144,1,64,2|8,0:0|0:1,0:0:0:0:
183,283,203933,2,0,L|188:219,1,64,2|8,0:0|0:1,0:0:0:0:
188,219,204282,1,2,0:0:0:0:
284,306,204456,5,10,0:1:0:0:
277,226,204631,1,2,0:0:0:0:
356,219,204805,1,10,0:1:0:0:
363,299,204980,2,0,L|434:305,1,64,2|8,0:0|0:1,0:0:0:0:
484,183,205329,1,2,0:0:0:0:
484,183,205503,5,10,0:1:0:0:
186,334,207247,6,0,L|217:332,23,21.3333333333333
243,304,208642,6,0,B|268:342|335:368|394:355|457:300|457:300|386:277|356:228|380:230|335:185|279:194,1,448,14|2,0:1|0:0,0:0:0:0:
204,209,210038,6,0,B|224:167|213:96|173:52|93:24|93:24|109:98|82:148|71:126|54:188|90:231,1,448,14|2,0:1|0:0,0:0:0:0:
190,343,211433,5,2,3:2:0:0:
72,354,211608,1,0,3:2:0:0:
61,236,211782,1,2,3:2:0:0:
179,226,211956,1,0,3:2:0:0:
362,282,212131,5,2,3:2:0:0:
499,294,212306,1,0,3:2:0:0:
512,157,212480,1,2,3:2:0:0:
374,145,212654,1,0,3:2:0:0:
281,58,214573,6,0,B|366:51|432:150|406:236|357:252|296:252|265:166|343:139,1,360.000013732911,14|0,0:2|0:0,0:0:0:0:
399,81,214922,5,0,3:0:0:0:
422,85,215009,1,0,3:0:0:0:
446,89,215096,1,0,3:0:0:0:
470,93,215183,1,0,3:0:0:0:
512,63,215270,5,0,3:0:0:0:
474,66,215357,1,0,3:0:0:0:
436,74,215444,1,0,3:0:0:0:
399,81,215531,1,0,3:0:0:0:
362,88,215619,6,0,L|251:67,1,111.999996582031,14|0,0:1|0:0,0:0:0:0:
180,126,215968,1,8,0:0:0:0:
90,43,216142,1,8,0:0:0:0:
121,40,216230,1,8,0:0:0:0:
153,37,216317,1,10,0:1:0:0:
271,162,216491,1,10,0:1:0:0:
103,201,216666,1,14,0:0:0:0:
221,327,216840,1,8,0:0:0:0:
224,295,216927,1,8,0:0:0:0:
227,263,217015,6,0,P|279:246|333:259,1,111.999996582031,14|0,0:1|0:0,0:0:0:0:
424,384,217363,1,12,0:0:0:0:
473,237,217538,1,8,0:0:0:0:
470,268,217626,1,8,0:0:0:0:
467,300,217713,1,8,0:3:0:0:
312,227,217887,1,4,0:3:0:0:
306,179,217975,1,4,0:3:0:0:
351,175,218062,1,4,0:3:0:0:
357,222,218149,1,4,0:3:0:0:
333,200,218236,6,0,P|326:92|403:16,1,223.999993164063,14|8,0:1|0:1,0:0:0:0:
488,150,218759,1,10,0:0:0:0:
488,150,218933,1,8,0:1:0:0:
382,332,219108,5,2,3:0:0:0:
341,360,219195,1,0,3:0:0:0:
294,364,219282,1,2,3:0:0:0:
246,354,219369,1,0,3:0:0:0:
275,328,219456,5,2,3:0:0:0:
296,321,219545,1,0,0:0:0:0:
321,326,219632,1,2,3:0:0:0:
340,339,219719,1,0,3:0:0:0:
367,360,219805,6,0,P|371:296|343:258,1,111.999996582031,14|0,0:1|0:0,0:0:0:0:
210,151,220154,2,0,L|201:263,1,111.999996582031,8|0,0:0|0:0,0:0:0:0:
315,84,220503,1,8,0:1:0:0:
216,15,220677,1,10,0:1:0:0:
99,81,220852,5,8,0:0:0:0:
156,212,221026,1,2,0:0:0:0:
154,188,221113,1,2,0:0:0:0:
152,164,221201,5,10,0:1:0:0:
41,261,221375,1,10,0:1:0:0:
166,341,221549,2,0,P|234:296|241:227,1,111.999996582031,10|0,0:0|0:0,0:0:0:0:
329,54,221898,1,8,0:1:0:0:
336,141,222073,1,10,0:1:0:0:
344,229,222247,2,0,L|332:356,1,111.999996582031,8|0,0:0|0:0,0:0:0:0:
0,182,222596,6,0,P|52:150|105:163,1,111.999996582031,10|0,0:1|0:0,0:0:0:0:
264,270,222945,2,0,P|210:278|165:248,1,111.999996582031,10|0,0:0|0:0,0:0:0:0:
416,94,223294,1,10,0:1:0:0:
426,199,223468,1,8,0:1:0:0:
320,209,223642,1,10,0:0:0:0:
311,103,223817,1,2,0:0:0:0:
311,103,223904,1,2,0:0:0:0:
311,103,223991,5,10,0:1:0:0:
214,158,224166,1,8,0:1:0:0:
116,111,224340,2,0,L|125:0,1,111.999996582031,8|0,0:0|0:0,0:0:0:0:
14,239,224689,1,10,0:1:0:0:
119,209,224863,1,8,0:1:0:0:
155,303,225038,1,10,0:0:0:0:
241,255,225212,1,2,0:0:0:0:
241,255,225299,1,2,0:0:0:0:
241,254,225387,6,0,P|294:240|348:253,1,111.999996582031,14|0,0:1|0:0,0:0:0:0:
490,131,225736,2,0,P|441:158|413:205,1,111.999996582031,8|0,0:0|0:0,0:0:0:0:
306,125,226084,1,0,0:0:0:0:
425,292,226259,1,8,0:1:0:0:
293,138,226433,2,0,L|181:147,1,111.999996582031,10|0,0:0|0:0,0:0:0:0:
1,216,226782,5,10,0:1:0:0:
95,102,226956,1,8,0:1:0:0:
145,241,227131,2,0,L|257:250,1,111.999996582031,8|0,0:0|0:0,0:0:0:0:
512,343,227480,1,8,0:1:0:0:
418,229,227654,1,8,0:1:0:0:
368,368,227829,2,0,L|256:377,1,111.999996582031,10|0,0:0|0:0,0:0:0:0:
15,244,228177,6,0,P|55:176|111:185,1,120,14|0,0:1|0:0,0:0:0:0:
110,191,228526,5,8,0:0:0:0:
94,363,228701,1,8,0:1:0:0:
317,384,228875,1,8,0:0:0:0:
332,213,229049,1,8,0:1:0:0:
161,55,229224,5,8,0:0:0:0:
252,305,229399,1,8,0:1:0:0:
422,100,229573,6,0,P|377:83|341:83,1,80,10|8,0:0|0:1,0:0:0:0:
242,208,229922,1,8,0:0:0:0:
363,166,230096,2,0,L|299:160,1,40,0|0,3:0|0:0,3:0:0:0:
236,73,230270,5,0,3:0:0:0:
207,78,230357,1,0,3:0:0:0:
177,83,230444,1,0,3:0:0:0:
147,88,230531,1,0,3:0:0:0:
94,50,230619,5,0,3:0:0:0:
142,54,230705,1,0,3:0:0:0:
189,64,230794,1,0,3:0:0:0:
236,73,230881,1,0,3:0:0:0:
283,82,230968,6,0,L|292:185,1,80,14|0,0:1|0:0,0:0:0:0:
197,238,231317,2,0,L|203:158,1,80,8|0,0:0|0:0,0:0:0:0:
291,295,231666,1,8,0:1:0:0:
382,244,231840,1,8,0:1:0:0:
471,364,232015,2,0,L|359:354,1,80,8|0,0:0|0:0,0:0:0:0:
204,233,232363,5,10,0:1:0:0:
122,298,232538,1,10,0:1:0:0:
106,194,232712,2,0,L|115:82,1,80,8|2,0:0|0:0,0:0:0:0:
43,43,233061,1,10,0:1:0:0:
120,109,233236,1,8,0:1:0:0:
212,53,233410,2,0,P|247:36|287:42,1,80,8|0,0:0|0:0,0:0:0:0:
478,83,233759,5,10,0:1:0:0:
396,18,233934,1,2,0:0:0:0:
380,122,234108,2,0,L|389:233,1,80,8|2,0:0|0:0,0:0:0:0:
295,338,234456,1,8,0:1:0:0:
427,270,234631,1,10,0:1:0:0:
250,216,234805,1,10,0:0:0:0:
226,218,234892,1,2,0:0:0:0:
202,220,234980,1,2,0:0:0:0:
178,222,235067,1,2,0:0:0:0:
145,225,235154,5,10,0:1:0:0:
62,132,235329,1,8,0:1:0:0:
141,60,235503,2,0,L|220:66,1,80,10|10,0:0|0:1,0:0:0:0:
53,140,235852,1,8,0:1:0:0:
38,240,236026,1,10,0:1:0:0:
150,309,236201,1,8,0:0:0:0:
134,209,236375,1,2,0:0:0:0:
41,365,236549,5,14,0:1:0:0:
140,306,236724,1,2,0:0:0:0:
227,373,236898,2,0,L|314:365,1,80,8|2,0:0|0:0,0:0:0:0:
494,310,237247,1,8,0:1:0:0:
451,196,237422,1,8,0:1:0:0:
373,288,237596,2,0,L|278:279,1,80,8|0,0:0|0:0,0:0:0:0:
232,72,237945,5,10,0:1:0:0:
150,79,238119,1,10,0:1:0:0:
69,86,238294,2,0,L|62:165,1,80,8|2,0:0|0:0,0:0:0:0:
270,240,238642,1,10,0:1:0:0:
200,157,238817,1,8,0:1:0:0:
163,258,238991,2,0,P|162:305|173:340,1,80,8|0,0:0|0:0,0:0:0:0:
430,358,239340,5,10,0:1:0:0:
437,276,239514,1,2,0:0:0:0:
444,195,239689,2,0,L|364:188,1,80,8|2,0:0|0:0,0:0:0:0:
240,102,240038,1,8,0:1:0:0:
248,206,240212,1,10,0:1:0:0:
352,196,240387,1,10,0:0:0:0:
343,93,240561,1,2,0:1:0:0:
116,175,240736,6,0,B|79:211|116:254|116:254|170:245|166:193,1,180.000006866455,10|0,0:0|0:0,0:0:0:0:
156,63,241084,2,0,B|142:13|86:23|86:23|67:74|114:97,1,180.000006866455,10|0,0:0|0:0,0:0:0:0:
238,148,241433,2,0,B|287:161|306:108|306:108|271:65|228:94,1,180.000006866455,10|0,0:0|0:0,0:0:0:0:
212,323,241782,5,8,0:0:0:0:
218,285,241869,1,8,0:0:0:0:
209,248,241956,1,8,0:0:0:0:
193,217,242043,1,8,0:0:0:0:
166,192,242131,6,0,L|69:200,1,80,14|0,0:1|0:0,0:0:0:0:
54,348,242480,2,0,L|147:356,1,80,8|2,0:0|0:0,0:0:0:0:
218,285,242829,1,8,0:1:0:0:
301,327,243003,1,8,0:1:0:0:
386,288,243177,2,0,L|392:204,1,80,8|0,0:0|0:0,0:0:0:0:
217,111,243526,5,10,0:1:0:0:
297,208,243701,1,10,0:1:0:0:
340,89,243875,2,0,P|312:38|257:19,1,80,8|2,0:0|0:0,0:0:0:0:
53,159,244224,1,10,0:1:0:0:
111,82,244398,1,8,0:1:0:0:
209,118,244573,2,0,L|200:209,1,80,8|0,0:0|0:0,0:0:0:0:
31,341,244922,5,10,0:1:0:0:
108,281,245096,1,2,0:0:0:0:
183,343,245270,2,0,P|221:350|260:339,1,80,8|2,0:0|0:0,0:0:0:0:
408,230,245619,1,8,0:1:0:0:
369,338,245794,1,10,0:1:0:0:
287,239,245968,1,10,0:0:0:0:
291,209,246055,1,2,0:0:0:0:
294,179,246142,1,2,0:0:0:0:
298,149,246230,1,2,0:0:0:0:
304,119,246317,6,0,P|239:97|171:108,1,120,10|0,0:1|0:0,0:0:0:0:
163,125,246666,1,8,0:0:0:0:
100,333,246840,1,10,0:1:0:0:
90,358,247189,5,10,0:1:0:0:
416,126,247712,6,0,P|377:131|343:111,1,80,14|0,0:1|0:0,0:0:0:0:
293,35,248061,1,8,0:0:0:0:
111,116,248236,2,0,P|183:148|254:118,1,160,14|10,0:1|0:1,0:0:0:0:
254,118,248759,1,8,0:0:0:0:
291,321,248933,6,0,P|270:265|320:178,1,160,14|8,0:1|0:1,0:0:0:0:
452,353,249456,5,14,0:0:0:0:
411,372,249573,1,2,0:0:0:0:
365,368,249689,1,2,0:0:0:0:
293,315,249805,6,0,L|246:320,1,40,10|0,0:1|0:0,0:0:0:0:
127,242,250067,2,0,L|175:247,1,40,10|0,0:1|0:0,0:0:0:0:
293,315,250329,1,10,0:1:0:0:
