osu file format v14

[General]
AudioFilename: audio.mp3
AudioLeadIn: 0
PreviewTime: 205765
Countdown: 0
SampleSet: Soft
StackLeniency: 0.7
Mode: 0
LetterboxInBreaks: 0
WidescreenStoryboard: 1

[Editor]
DistanceSpacing: 0.8
BeatDivisor: 8
GridSize: 32
TimelineZoom: 2.899999

[Metadata]
Title:Image Liner
TitleUnicode:Image Liner
Artist:FROZEN QUALIA
ArtistUnicode:FROZEN QUALIA
Creator:Hishiro Chizuru
Version:AIR's Insane
Source:
Tags:yumeno yuki 夢乃ゆき japanese pop lasse amb1d3x Kowari AIR sasasasasasami Saronk
BeatmapID:2309324
BeatmapSetID:1104749

[Difficulty]
HPDrainRate:5
CircleSize:4.5
OverallDifficulty:8
ApproachRate:9
SliderMultiplier:1.8
SliderTickRate:1

[Events]
//Background and Video events
0,0,"v2.jpg",0,0
//Break Periods
2,74889,78275
//Storyboard Layer 0 (Background)
//Storyboard Layer 1 (Fail)
//Storyboard Layer 2 (Pass)
//Storyboard Layer 3 (Foreground)
//Storyboard Layer 4 (Overlay)
//Storyboard Sound Samples

[TimingPoints]
736,348.837209302326,4,2,34,36,1,0
736,-133.333333333333,4,2,34,36,0,0
2131,-133.333333333333,4,2,34,38,0,0
3526,-133.333333333333,4,2,34,40,0,0
3788,-133.333333333333,4,2,34,5,0,0
3875,-133.333333333333,4,2,34,36,0,0
4137,-133.333333333333,4,2,34,5,0,0
4224,-133.333333333333,4,2,34,32,0,0
4486,-133.333333333333,4,2,34,5,0,0
4573,-133.333333333333,4,2,34,28,0,0
4834,-133.333333333333,4,2,34,8,0,0
4922,-133.333333333333,4,2,34,36,0,0
5619,-133.333333333333,4,2,34,32,0,0
6317,-133.333333333333,4,2,99,44,0,0
7015,-133.333333333333,4,2,34,40,0,0
7363,-133.333333333333,4,2,34,44,0,0
7712,-100,4,2,34,65,0,0
12160,-100,4,2,34,5,0,0
12247,-100,4,2,34,65,0,0
15430,-100,4,2,34,5,0,0
15648,-100,4,2,34,65,0,0
15692,-100,4,2,34,5,0,0
15910,-100,4,2,34,65,0,0
15954,-100,4,2,34,5,0,0
16084,-200,4,2,34,50,0,0
16433,-200,4,2,34,46,0,0
24456,-166.666666666667,4,2,34,48,0,0
25852,-200,4,2,99,52,0,0
25939,-200,4,2,34,20,0,0
26898,-200,4,2,34,56,0,0
27247,-111.111111111111,4,2,34,60,0,0
33090,-111.111111111111,4,2,34,5,0,0
33177,-111.111111111111,4,2,34,60,0,0
36666,-142.857142857143,4,2,34,60,0,0
36927,-142.857142857143,4,2,34,20,0,0
37015,-100,4,2,34,60,0,0
37276,-100,4,2,34,5,0,0
37363,-111.111111111111,4,2,34,60,0,0
37407,-111.111111111111,4,2,34,5,0,0
37538,-111.111111111111,4,2,34,60,0,0
38061,-111.111111111111,4,2,34,58,0,0
38410,-133.333333333333,4,2,34,64,0,0
38933,-133.333333333333,4,2,34,68,0,0
38977,-133.333333333333,4,2,34,5,0,0
39282,-133.333333333333,4,2,34,68,0,0
39326,-133.333333333333,4,2,34,5,0,0
39631,-111.111111111111,4,2,34,62,0,0
41201,-133.333333333333,4,2,34,64,0,0
41724,-133.333333333333,4,2,34,68,0,0
41767,-133.333333333333,4,2,34,5,0,0
42073,-133.333333333333,4,2,34,68,0,0
42116,-133.333333333333,4,2,34,5,0,0
42422,-111.111111111111,4,2,34,62,0,0
43991,-133.333333333333,4,2,34,64,0,0
44515,-133.333333333333,4,2,34,68,0,0
44558,-133.333333333333,4,2,34,5,0,0
44863,-133.333333333333,4,2,34,68,0,0
44907,-133.333333333333,4,2,34,5,0,0
45212,-111.111111111111,4,2,34,62,0,0
46782,-100,4,2,34,66,0,0
48177,-100,4,2,34,68,0,0
49573,-100,4,2,34,70,0,0
50619,-100,4,2,34,72,0,0
52015,-100,4,2,34,54,0,0
52102,-100,4,2,34,56,0,0
52189,-100,4,2,34,58,0,0
52276,-100,4,2,34,60,0,0
52363,-83.3333333333333,4,2,34,75,0,1
55416,-83.3333333333333,4,2,34,40,0,1
55503,-83.3333333333333,4,2,34,75,0,1
57596,-83.3333333333333,4,2,34,70,0,1
57945,-76.9230769230769,4,2,34,75,0,1
60736,-71.4285714285714,4,2,34,75,0,1
60997,-71.4285714285714,4,2,34,5,0,1
61084,-71.4285714285714,4,2,34,75,0,1
61608,-76.9230769230769,4,2,34,75,0,1
63483,-133.333333333333,4,2,34,75,0,0
63526,-83.3333333333333,4,2,34,75,0,1
66579,-83.3333333333333,4,2,34,40,0,1
66666,-83.3333333333333,4,2,34,75,0,1
68759,-83.3333333333333,4,2,34,70,0,1
69108,-83.3333333333333,4,2,34,75,0,1
71855,-133.333333333333,4,2,34,75,0,0
71898,-76.9230769230769,4,2,34,78,0,1
74689,-100,4,2,34,68,0,0
81055,-100,4,2,34,5,0,0
81142,-100,4,2,34,68,0,0
82407,-100,4,2,34,5,0,0
82625,-100,4,2,34,68,0,0
82669,-100,4,2,34,5,0,0
82887,-100,4,2,34,68,0,0
82930,-100,4,2,34,5,0,0
83061,-125,4,2,34,60,0,0
85416,-125,4,2,34,5,0,0
85503,-125,4,2,34,60,0,0
85590,-125,4,2,34,5,0,0
85677,-125,4,2,34,60,0,0
85765,-125,4,2,34,5,0,0
85852,-125,4,2,34,60,0,0
88642,-125,4,2,34,64,0,0
90038,-125,4,2,34,66,0,0
91433,-125,4,2,34,68,0,0
92829,-76.9230769230769,4,2,34,64,0,0
93003,-76.9230769230769,4,2,34,20,0,0
93090,-76.9230769230769,4,2,34,64,0,0
93265,-76.9230769230769,4,2,34,20,0,0
93352,-76.9230769230769,4,2,34,64,0,0
93439,-76.9230769230769,4,2,34,20,0,0
93526,-66.6666666666667,4,2,34,67,0,0
93701,-66.6666666666667,4,2,34,54,0,0
93788,-66.6666666666667,4,2,34,67,0,0
93962,-66.6666666666667,4,2,34,54,0,0
94049,-66.6666666666667,4,2,34,67,0,0
94137,-66.6666666666667,4,2,34,20,0,0
94224,-100,4,2,34,62,0,0
97276,-100,4,2,34,40,0,0
97363,-100,4,2,34,62,0,0
98672,-100,4,2,34,40,0,0
98759,-100,4,2,34,62,0,0
105387,-133.333333333333,4,2,34,64,0,0
105910,-133.333333333333,4,2,34,68,0,0
105954,-133.333333333333,4,2,34,5,0,0
106259,-133.333333333333,4,2,34,68,0,0
106302,-133.333333333333,4,2,34,5,0,0
106608,-111.111111111111,4,2,34,62,0,0
108177,-133.333333333333,4,2,34,64,0,0
108701,-133.333333333333,4,2,34,68,0,0
108744,-133.333333333333,4,2,34,5,0,0
109049,-133.333333333333,4,2,34,68,0,0
109093,-133.333333333333,4,2,34,5,0,0
109398,-111.111111111111,4,2,34,62,0,0
110968,-133.333333333333,4,2,34,64,0,0
111491,-133.333333333333,4,2,34,68,0,0
111535,-133.333333333333,4,2,34,5,0,0
111840,-133.333333333333,4,2,34,68,0,0
111884,-133.333333333333,4,2,34,5,0,0
112189,-111.111111111111,4,2,34,62,0,0
113672,-111.111111111111,4,2,34,5,0,0
113759,-200,4,2,34,48,0,0
114108,-200,4,2,34,46,0,0
114456,-166.666666666667,4,2,34,50,0,0
114805,-166.666666666667,4,2,34,48,0,0
115154,-142.857142857143,4,2,34,52,0,0
115503,-142.857142857143,4,2,34,50,0,0
115852,-125,4,2,34,56,0,0
116201,-125,4,2,34,52,0,0
116549,-111.111111111111,4,2,34,60,0,0
116898,-111.111111111111,4,2,34,62,0,0
117247,-111.111111111111,4,2,34,64,0,0
117596,-111.111111111111,4,2,34,66,0,0
117770,-200,4,2,34,68,0,0
117858,-200,4,2,34,10,0,0
118817,-200,4,2,34,34,0,0
118991,-200,4,2,34,54,0,0
119079,-200,4,2,34,56,0,0
119166,-200,4,2,34,58,0,0
119253,-200,4,2,34,60,0,0
119340,-83.3333333333333,4,2,34,75,0,1
122392,-83.3333333333333,4,2,34,40,0,1
122480,-83.3333333333333,4,2,34,75,0,1
124573,-83.3333333333333,4,2,34,70,0,1
124922,-76.9230769230769,4,2,34,75,0,1
125183,-76.9230769230769,4,2,34,5,0,1
125270,-76.9230769230769,4,2,34,75,0,1
127712,-71.4285714285714,4,2,34,75,0,1
127974,-71.4285714285714,4,2,34,5,0,1
128061,-71.4285714285714,4,2,34,75,0,1
128933,-76.9230769230769,4,2,34,75,0,1
130459,-133.333333333333,4,2,34,75,0,0
130503,-83.3333333333333,4,2,34,75,0,1
133555,-83.3333333333333,4,2,34,40,0,1
133642,-83.3333333333333,4,2,34,75,0,1
135736,-83.3333333333333,4,2,34,70,0,1
136084,-83.3333333333333,4,2,34,75,0,1
138831,-133.333333333333,4,2,34,75,0,0
138875,-76.9230769230769,4,2,34,78,0,1
140794,-76.9230769230769,4,2,34,76,0,1
141055,-76.9230769230769,4,2,34,5,0,1
141230,-76.9230769230769,4,2,34,75,0,1
141317,-76.9230769230769,4,2,34,5,0,1
141491,-76.9230769230769,4,2,34,72,0,1
141579,-76.9230769230769,4,2,34,5,0,1
141666,-133.333333333333,4,2,34,55,0,0
142363,-100,4,2,34,55,0,0
142887,-133.333333333333,4,2,34,55,0,0
143759,-200,4,2,34,55,0,0
144456,-133.333333333333,4,2,34,55,0,0
145154,-100,4,2,34,55,0,0
145677,-133.333333333333,4,2,34,55,0,0
146549,-200,4,2,34,55,0,0
147247,-133.333333333333,4,2,34,55,0,0
147945,-100,4,2,34,55,0,0
148468,-133.333333333333,4,2,34,55,0,0
149340,-200,4,2,34,55,0,0
150038,-133.333333333333,4,2,34,55,0,0
150561,-100,4,2,34,55,0,0
151084,-133.333333333333,4,2,34,55,0,0
152131,-200,4,2,34,55,0,0
152829,-133.333333333333,4,2,34,56,0,0
153526,-100,4,2,34,56,0,0
154224,-133.333333333333,4,2,34,56,0,0
154922,-200,4,2,34,56,0,0
155619,-133.333333333333,4,2,34,56,0,0
156317,-100,4,2,34,56,0,0
157015,-133.333333333333,4,2,34,56,0,0
157712,-200,4,2,34,56,0,0
158410,-133.333333333333,4,2,34,56,0,0
159108,-100,4,2,34,56,0,0
159805,-133.333333333333,4,2,34,56,0,0
160503,-200,4,2,34,56,0,0
161201,-133.333333333333,4,2,34,56,0,0
161724,-100,4,2,34,56,0,0
162247,-133.333333333333,4,2,34,56,0,0
163294,-200,4,2,34,56,0,0
163991,-133.333333333333,4,2,34,57,0,0
166084,-200,4,2,34,57,0,0
166782,-133.333333333333,4,2,34,57,0,0
167480,-100,4,2,34,57,0,0
168003,-133.333333333333,4,2,34,57,0,0
168875,-200,4,2,34,57,0,0
169573,-133.333333333333,4,2,34,57,0,0
171666,-200,4,2,34,57,0,0
172363,-133.333333333333,4,2,34,57,0,0
173061,-100,4,2,34,57,0,0
173584,-133.333333333333,4,2,34,57,0,0
174456,-111.111111111111,4,2,34,58,0,0
174805,-100,4,2,34,60,0,0
175154,-100,4,3,34,62,0,1
177945,-100,4,3,34,63,0,1
180736,-100,4,3,34,64,0,1
183526,-100,4,3,34,65,0,1
184922,-83.3333333333333,4,3,34,66,0,1
185619,-83.3333333333333,4,3,34,67,0,1
185968,-83.3333333333333,4,3,34,68,0,1
186317,-142.857142857143,4,2,99,40,0,0
186491,-142.857142857143,4,2,34,40,0,0
187538,-142.857142857143,4,2,34,40,0,0
187712,-142.857142857143,4,2,34,40,0,0
189108,-200,4,2,34,40,0,0
191898,-142.857142857143,4,2,99,40,0,0
192073,-142.857142857143,4,2,34,40,0,0
193119,-142.857142857143,4,2,34,40,0,0
193294,-142.857142857143,4,2,99,40,0,0
193468,-142.857142857143,4,2,34,40,0,0
197480,-125,4,2,34,56,0,0
203061,-125,4,2,34,58,0,0
207247,-125,4,2,34,20,0,0
207305,-125,4,2,34,21,0,0
207363,-125,4,2,34,22,0,0
207422,-125,4,2,34,23,0,0
207480,-125,4,2,34,24,0,0
207538,-125,4,2,34,25,0,0
207596,-125,4,2,34,26,0,0
207654,-125,4,2,34,27,0,0
207712,-125,4,2,34,28,0,0
207770,-125,4,2,34,29,0,0
207829,-125,4,2,34,30,0,0
207887,-125,4,2,34,31,0,0
207945,-125,4,2,34,32,0,0
208003,-125,4,2,34,34,0,0
208061,-125,4,2,34,36,0,0
208119,-125,4,2,34,38,0,0
208177,-125,4,2,34,40,0,0
208236,-125,4,2,34,42,0,0
208294,-125,4,2,34,44,0,0
208352,-125,4,2,34,46,0,0
208410,-125,4,2,34,48,0,0
208468,-125,4,2,34,50,0,0
208526,-125,4,2,34,52,0,0
208584,-125,4,2,34,54,0,0
208642,-133.333333333333,4,2,34,62,0,1
208730,-133.333333333333,4,2,34,20,0,1
209166,-133.333333333333,4,2,34,50,0,1
209863,-133.333333333333,4,2,34,50,0,0
210038,-133.333333333333,4,2,34,64,0,1
210125,-133.333333333333,4,2,34,20,0,1
210561,-133.333333333333,4,2,34,50,0,1
211259,-133.333333333333,4,2,34,52,0,0
211433,-133.333333333333,4,2,34,66,0,0
211782,-133.333333333333,4,2,34,68,0,0
212131,-133.333333333333,4,2,34,70,0,0
212480,-133.333333333333,4,2,34,72,0,0
212829,-133.333333333333,4,2,34,64,0,0
214049,-153.846153846153,4,2,34,64,0,0
214486,-153.846153846153,4,2,34,5,0,0
214573,-76.9230769230769,4,2,34,72,0,1
214747,-76.9230769230769,4,2,34,62,0,1
214922,-76.9230769230769,4,2,34,66,0,1
215270,-76.9230769230769,4,2,34,68,0,1
215619,-76.9230769230769,4,2,34,70,0,1
217015,-76.9230769230769,4,2,34,72,0,1
217363,-76.9230769230769,4,2,34,68,0,1
217538,-76.9230769230769,4,2,34,70,0,1
218236,-76.9230769230769,4,2,34,74,0,1
218323,-76.9230769230769,4,2,34,5,0,1
218584,-76.9230769230769,4,2,34,74,0,1
219108,-90.9090909090909,4,2,34,72,0,1
219456,-83.3333333333333,4,2,34,74,0,1
219762,-133.333333333333,4,2,34,72,0,0
219805,-76.9230769230769,4,2,34,76,0,1
222858,-76.9230769230769,4,2,34,40,0,1
222945,-76.9230769230769,4,2,34,76,0,1
228177,-71.4285714285714,4,2,34,78,0,1
230968,-90.9090909090909,4,2,34,70,0,0
240997,-90.9090909090909,4,2,34,36,0,0
241084,-90.9090909090909,4,2,34,70,0,0
242131,-90.9090909090909,4,2,34,70,0,0
249805,-90.9090909090909,4,2,34,70,0,0
249849,-90.9090909090909,4,2,34,5,0,0
250067,-90.9090909090909,4,2,34,70,0,0
250111,-90.9090909090909,4,2,34,5,0,0
250329,-90.9090909090909,4,2,34,70,0,0
250372,-90.9090909090909,4,2,34,5,0,0

[Colours]
Combo1 : 250,180,240
Combo2 : 120,200,230
Combo3 : 255,230,130
Combo4 : 160,230,150

[HitObjects]
447,193,736,6,0,L|428:269,1,67.5000025749208,0|0,0:0|0:0,0:0:0:0:
447,193,1084,1,0,0:0:0:0:
426,255,1259,2,0,L|474:111,1,135.000005149842,2|0,0:0|0:0,0:0:0:0:
38,214,1956,1,0,0:0:0:0:
104,180,2131,6,0,P|119:201|104:250,1,67.5000025749208,0|0,0:0|0:0,0:0:0:0:
104,180,2480,1,0,0:0:0:0:
109,236,2654,2,0,P|109:187|35:139,1,135.000005149842,2|0,0:0|0:0,0:0:0:0:
346,56,3352,1,0,0:0:0:0:
251,93,3526,6,0,P|220:77|150:99,1,101.250003862381,2|0,0:0|0:0,0:0:0:0:
150,99,3875,6,0,P|196:97|241:42,1,101.250003862381,2|0,0:0|0:0,0:0:0:0:
241,42,4224,6,0,P|206:93|221:142,1,101.250003862381,2|0,0:0|0:0,0:0:0:0:
221,142,4573,6,0,B|220:183|220:183|226:175|226:175|226:253,1,101.250003862381,2|0,0:0|0:0,0:0:0:0:
227,250,4922,6,0,P|258:267|276:319,1,67.5000025749208,2|0,0:0|0:0,0:0:0:0:
168,312,5270,2,0,P|135:322|99:299,1,67.5000025749208,0|0,0:0|0:0,0:0:0:0:
315,202,5619,2,0,P|355:212|351:183,1,67.5000025749208,2|0,0:0|0:0,0:0:0:0:
359,21,5968,2,0,B|324:21|324:21|340:52,1,67.5000025749208,0|0,0:0|0:0,0:0:0:0:
455,28,6317,1,4,0:0:0:0:
455,28,7015,6,0,P|448:61|471:85,2,45.0000017166138,2|2|2,0:0|0:0|0:0,0:0:0:0:
353,153,7363,2,0,P|365:173|343:215,2,45.0000017166138,2|2|2,0:0|0:0|0:0,0:0:0:0:
255,77,7712,6,0,B|211:84|211:84|221:74|221:74|88:95,1,180,14|8,0:1|0:0,0:0:0:0:
0,31,8236,1,2,0:0:0:0:
0,31,8323,1,2,0:0:0:0:
0,31,8410,1,10,0:1:0:0:
96,199,8584,1,8,0:1:0:0:
101,92,8759,2,0,B|122:60|122:60|56:50,1,90,8|0,0:0|0:0,0:0:0:0:
96,199,9108,5,10,0:1:0:0:
282,192,9282,2,0,L|383:185,1,90,8|8,0:1|0:0,0:0:0:0:
206,208,9631,1,2,0:0:0:0:
206,208,9718,1,2,0:0:0:0:
206,208,9805,1,10,0:1:0:0:
443,264,9980,1,8,0:1:0:0:
371,185,10154,2,0,B|354:201|354:201|361:294,1,90,8|0,0:0|0:0,0:0:0:0:
443,264,10503,5,10,0:1:0:0:
432,112,10677,2,0,B|449:96|449:96|443:29,1,90,0|8,0:0|0:0,0:0:0:0:
506,147,11026,1,2,0:0:0:0:
506,147,11113,1,2,0:0:0:0:
506,147,11201,1,10,0:1:0:0:
491,328,11375,1,10,0:1:0:0:
403,340,11549,2,0,B|355:338|355:338|397:318,1,90,10|2,0:0|0:0,0:0:0:0:
269,364,11898,6,0,B|226:363|226:363|235:358|235:358|126:356,1,135,10|0,0:1|0:0,0:0:0:0:
125,357,12247,1,8,0:0:0:0:
403,340,12422,1,10,0:1:0:0:
11,364,12770,1,10,0:1:0:0:
144,103,13294,5,14,0:1:0:0:
35,43,13468,2,0,B|64:29|64:29|-7:26,1,90,0|8,0:0|0:0,0:0:0:0:
144,103,13817,2,0,B|248:159|201:33|335:109,1,180,14|10,0:1|0:1,0:0:0:0:
492,94,14340,1,8,0:0:0:0:
309,96,14515,6,0,B|200:159|247:33|143:89,1,180,14|8,0:1|0:1,0:0:0:0:
255,229,15038,1,14,0:0:0:0:
339,194,15212,1,2,0:0:0:0:
339,194,15299,1,2,0:0:0:0:
339,194,15387,6,0,L|370:191,1,22.5,10|0,0:1|0:0,0:0:0:0:
170,240,15648,2,0,L|139:237,1,22.5,10|0,0:1|0:0,0:0:0:0:
292,354,15910,2,0,L|323:351,1,22.5,10|0,0:1|0:0,0:0:0:0:
234,304,16084,5,14,0:1:0:0:
255,229,16259,2,0,P|236:187|254:140,1,90,0|2,0:0|0:0,0:0:0:0:
447,143,16956,2,0,P|441:115|448:48,1,90,2|0,0:0|0:0,0:0:0:0:
509,11,17480,1,2,0:0:0:0:
21,313,18177,2,0,B|54:316|54:316|46:375,1,90,2|0,0:0|0:0,0:0:0:0:
305,336,18875,6,0,B|273:327|273:327|269:320|269:320|204:304,1,90,2|0,0:0|0:0,0:0:0:0:
432,288,19573,2,0,B|401:281|401:281|406:275|406:275|348:261,1,90,2|0,0:0|0:0,0:0:0:0:
13,76,20270,2,0,B|38:56|38:56|7:4,1,90,2|0,0:0|0:0,0:0:0:0:
123,42,20794,1,2,0:0:0:0:
427,30,21142,2,0,B|426:63|426:63|432:60|432:60|431:121,1,90,2|0,0:0|0:0,0:0:0:0:
321,113,21666,6,0,P|321:91|306:119,1,90,2|0,0:0|0:0,0:0:0:0:
239,172,22363,2,0,L|190:171,1,45,2|0,0:0|0:0,0:0:0:0:
120,205,22712,2,0,L|71:204,1,45,0|0,0:0|0:0,0:0:0:0:
182,270,23061,2,0,B|201:290|201:290|200:364,1,90,2|0,0:0|0:0,0:0:0:0:
275,290,23584,1,2,0:0:0:0:
345,319,23759,2,0,P|366:332|371:312,1,45,0|0,0:0|0:0,0:0:0:0:
446,273,24108,2,0,L|446:323,1,45,2|0,0:0|0:0,0:0:0:0:
492,206,24456,6,0,P|501:176|479:207,1,107.999996704102,2|0,0:0|0:0,0:0:0:0:
392,177,24980,2,0,B|360:177|360:177|364:171|364:171|280:172,1,107.999996704102,2|2,0:0|0:0,0:0:0:0:
148,155,25677,1,2,0:0:0:0:
79,129,25852,6,0,B|32:38|32:38|137:27|137:27|118:100,1,270,4|8,0:0|0:0,0:0:0:0:
107,304,27247,5,14,0:1:0:0:
148,155,27422,2,0,L|177:242,1,80.9999975280763,2|8,0:0|0:0,0:0:0:0:
107,304,27770,2,0,L|47:245,1,80.9999975280763,2|8,0:0|0:1,0:0:0:0:
278,177,28119,2,0,L|260:276,1,80.9999975280763,10|8,0:1|0:0,0:0:0:0:
376,365,28468,1,0,0:0:0:0:
465,301,28642,2,0,B|493:293|493:293|431:271,1,80.9999975280763,10|0,0:1|0:0,0:0:0:0:
498,194,28991,1,8,0:0:0:0:
374,222,29166,1,2,0:0:0:0:
374,222,29253,1,2,0:0:0:0:
374,222,29340,1,10,0:1:0:0:
376,365,29515,1,8,0:1:0:0:
465,301,29689,2,0,L|478:207,1,80.9999975280763,10|0,0:0|0:0,0:0:0:0:
439,44,30038,6,0,B|390:49|390:49|477:18,1,121.499996292114,10|0,0:1|0:0,0:0:0:0:
505,45,30387,1,8,0:0:0:0:
330,98,30561,2,0,P|282:81|251:90,1,80.9999975280763,2|8,0:0|0:1,0:0:0:0:
400,137,30910,2,0,P|424:136|397:127,1,80.9999975280763,10|8,0:1|0:0,0:0:0:0:
189,167,31259,1,0,0:0:0:0:
254,6,31433,1,10,0:1:0:0:
302,375,31782,5,8,0:0:0:0:
229,322,31956,1,2,0:0:0:0:
229,322,32044,1,2,0:0:0:0:
229,322,32131,1,10,0:1:0:0:
365,331,32305,1,8,0:1:0:0:
169,374,32480,2,0,L|81:354,1,80.9999975280763,10|0,0:0|0:0,0:0:0:0:
9,205,32829,6,0,B|71:200|71:200|35:258,1,121.499996292114,10|0,0:1|0:0,0:0:0:0:
8,273,33177,1,8,0:0:0:0:
53,113,33352,2,0,L|166:92,1,80.9999975280763,2|8,0:0|0:1,0:0:0:0:
199,148,33701,1,8,0:1:0:0:
53,113,33875,2,0,B|36:80|36:80|82:81,1,80.9999975280763,10|0,0:0|0:0,0:0:0:0:
199,148,34224,6,0,P|223:108|193:-3,1,161.999995056153,10|8,0:1|0:0,0:0:0:0:
359,68,34747,1,2,0:0:0:0:
497,8,34922,1,8,0:1:0:0:
425,30,35096,1,10,0:1:0:0:
425,30,35183,1,2,0:0:0:0:
425,30,35270,1,10,0:0:0:0:
472,91,35445,1,0,0:0:0:0:
388,210,35619,6,0,L|386:298,1,80.9999975280763,10|0,0:1|0:0,0:0:0:0:
488,323,35968,2,0,L|511:225,1,80.9999975280763,8|0,0:0|0:0,0:0:0:0:
277,269,36317,2,0,L|303:362,1,80.9999975280763,8|8,0:1|0:1,0:0:0:0:
386,290,36666,6,0,B|425:263|425:263|380:248,1,94.499997116089,8|0,0:0|0:0,0:0:0:0:
352,211,37015,6,0,B|302:193|302:193|311:193|311:193|212:159,1,135,10|0,0:1|0:0,0:0:0:0:
204,154,37363,6,0,L|168:155,1,20.2499993820191,8|0,0:0|0:0,0:0:0:0:
338,105,37538,1,8,0:0:0:0:
370,102,37625,1,8,0:0:0:0:
402,100,37712,1,10,0:0:0:0:
145,78,37887,1,8,0:3:0:0:
360,31,38061,1,6,0:3:0:0:
303,243,38236,1,10,0:3:0:0:
381,199,38410,6,0,B|447:197|447:197|440:278,1,135.000005149842,14|8,0:1|0:1,0:0:0:0:
384,340,38933,2,0,L|412:347,1,16.8750006437302,10|0,0:0|0:0,0:0:0:0:
384,44,39282,2,0,L|412:37,1,16.8750006437302,10|0,0:0|0:0,0:0:0:0:
130,212,39631,2,0,B|51:192|51:192|143:173,1,161.999995056153,14|8,0:1|0:1,0:0:0:0:
191,276,40154,1,10,0:0:0:0:
128,321,40329,1,8,0:1:0:0:
207,196,40503,1,10,0:0:0:0:
128,63,40677,1,8,0:1:0:0:
128,63,40765,1,8,0:1:0:0:
128,63,40852,1,10,0:0:0:0:
191,108,41026,1,0,0:0:0:0:
311,81,41201,6,0,P|330:54|295:79,1,135.000005149842,14|8,0:1|0:1,0:0:0:0:
217,21,41724,2,0,L|195:19,1,16.8750006437302,10|0,0:0|0:0,0:0:0:0:
217,363,42073,2,0,L|195:365,1,16.8750006437302,10|0,0:0|0:0,0:0:0:0:
506,195,42422,2,0,B|465:188|465:188|472:178|472:178|346:157,1,161.999995056153,14|8,0:1|0:1,0:0:0:0:
468,99,42945,1,10,0:0:0:0:
379,77,43119,1,8,0:1:0:0:
422,240,43294,1,10,0:0:0:0:
357,370,43468,1,8,0:1:0:0:
451,343,43642,1,10,0:0:0:0:
422,240,43817,1,8,0:0:0:0:
422,240,43904,1,8,0:0:0:0:
422,240,43991,6,0,P|446:242|415:233,1,135.000005149842,14|8,0:1|0:1,0:0:0:0:
333,274,44515,2,0,L|312:276,1,16.8750006437302,10|0,0:0|0:0,0:0:0:0:
23,369,44863,2,0,L|41:372,1,16.8750006437302,10|0,0:0|0:0,0:0:0:0:
91,56,45212,2,0,B|113:76|113:76|107:89|107:89|117:98|117:98|114:207,1,161.999995056153,14|8,0:1|0:1,0:0:0:0:
38,172,45736,1,10,0:0:0:0:
208,133,45910,1,8,0:1:0:0:
296,173,46084,1,10,0:0:0:0:
212,220,46259,1,10,0:1:0:0:
212,220,46346,1,2,0:0:0:0:
212,220,46433,1,14,0:0:0:0:
418,151,46608,1,2,0:0:0:0:
371,277,46782,6,0,L|384:371,1,90,6|0,3:1|3:0,0:0:0:0:
432,231,47131,2,0,B|480:250|480:250|455:214,1,90,2|0,3:0|3:0,0:0:0:0:
341,87,47480,1,2,3:0:0:0:
484,59,47654,1,0,3:0:0:0:
267,43,47829,2,0,B|227:27|227:27|274:13,1,90,2|0,3:0|3:0,0:0:0:0:
159,79,48177,2,0,L|59:80,1,90,2|0,3:0|3:0,0:0:0:0:
286,195,48526,2,0,L|186:196,1,90,2|0,3:0|3:0,0:0:0:0:
420,303,48875,2,0,L|320:304,1,90,2|0,3:0|3:0,0:0:0:0:
503,255,49224,1,2,3:0:0:0:
241,331,49398,1,0,3:0:0:0:
152,304,49573,6,0,P|134:309|164:332,3,45,10|0|0|0,3:1|3:0|3:0|3:0,0:0:0:0:
65,364,49922,2,0,L|15:358,1,45,8|0,3:1|3:0,0:0:0:0:
46,286,50096,2,0,L|-4:280,1,45,0|0,3:0|3:0,0:0:0:0:
119,213,50270,2,0,L|169:207,1,45,8|0,3:1|3:0,0:0:0:0:
216,131,50445,2,0,L|266:125,1,45,0|0,3:0|3:0,0:0:0:0:
347,62,50619,2,0,B|358:36|358:36|335:47,1,45,10|0,3:1|0:0,0:0:0:0:
454,31,50794,2,0,B|460:52|460:52|457:64|457:64|461:76|461:76|458:88|458:88|462:100|462:100|459:113|459:113|463:126|463:126|460:142|460:142|463:156|463:156|463:222,1,180,10|0,3:2|0:0,0:0:0:0:
211,314,52015,5,2,0:0:0:0:
190,269,52102,1,2,0:0:0:0:
221,235,52189,1,2,0:0:0:0:
266,248,52276,1,2,0:0:0:0:
274,282,52363,6,0,P|257:332|257:386,1,107.999996704102,14|0,0:1|0:0,0:0:0:0:
112,249,52712,1,8,0:0:0:0:
233,156,52887,2,0,P|253:112|234:46,1,107.999996704102,2|8,0:0|0:1,0:0:0:0:
312,177,53236,2,0,P|340:157|354:78,1,107.999996704102,10|8,0:1|0:0,0:0:0:0:
367,238,53584,1,2,0:0:0:0:
367,238,53672,1,2,0:0:0:0:
367,238,53759,5,10,0:1:0:0:
176,105,53933,1,8,0:1:0:0:
431,66,54108,1,10,0:0:0:0:
317,293,54282,2,0,P|340:321|361:392,1,107.999996704102,2|8,0:1|0:1,0:0:0:0:
128,208,54631,2,0,P|85:210|3:179,1,107.999996704102,10|8,0:1|0:0,0:0:0:0:
299,125,54980,1,2,0:0:0:0:
299,125,55067,1,2,0:0:0:0:
299,125,55154,6,0,P|334:69|449:39,1,161.999995056153,10|0,0:1|0:0,0:0:0:0:
421,62,55503,2,0,P|352:61|314:11,1,107.999996704102,10|0,0:0|0:0,0:0:0:0:
361,185,55852,2,0,P|332:207|247:196,1,107.999996704102,10|8,0:1|0:1,0:0:0:0:
451,278,56201,2,0,P|430:321|373:356,1,107.999996704102,10|2,0:0|0:0,0:0:0:0:
345,332,56462,1,2,0:0:0:0:
357,329,56549,5,10,0:1:0:0:
492,372,56724,1,10,0:1:0:0:
272,313,56898,1,10,0:0:0:0:
431,180,57073,2,0,B|482:158|482:158|421:147,1,107.999996704102,2|0,0:0|0:0,0:0:0:0:
259,27,57422,2,0,B|214:36|214:36|221:28|221:28|126:48,1,107.999996704102,8|10,0:1|0:0,0:0:0:0:
72,57,57770,1,2,0:0:0:0:
72,57,57858,1,2,0:0:0:0:
72,57,57945,6,0,B|36:32|36:32|94:31|94:31|78:139,1,175.499991966248,14|0,0:1|0:0,0:0:0:0:
61,150,58294,2,0,P|34:206|63:265,1,116.999994644165,10|0,0:0|0:0,0:0:0:0:
216,258,58642,2,0,B|227:227|227:227|148:227|148:227|155:250,1,116.999994644165,10|8,0:1|0:1,0:0:0:0:
315,318,58991,1,10,0:0:0:0:
314,193,59166,1,2,0:0:0:0:
314,193,59253,1,2,0:0:0:0:
314,193,59340,5,10,0:1:0:0:
423,255,59515,1,8,0:1:0:0:
330,296,59689,1,8,0:0:0:0:
325,208,59863,1,0,0:0:0:0:
443,256,60038,1,10,0:1:0:0:
279,367,60212,1,8,0:1:0:0:
264,155,60387,1,10,0:0:0:0:
361,258,60561,1,2,0:0:0:0:
361,258,60648,1,0,0:0:0:0:
361,258,60736,6,0,P|390:232|347:258,1,188.999994232178,14|0,0:1|0:0,0:0:0:0:
352,225,61084,2,0,B|406:224|406:224|404:218|404:218|493:218,1,125.999996154785,8|0,0:0|0:0,0:0:0:0:
248,87,61433,1,8,0:1:0:0:
324,51,61608,1,10,0:1:0:0:
89,52,61782,1,10,0:0:0:0:
169,170,61956,1,14,0:1:0:0:
169,170,62305,5,8,0:1:0:0:
324,51,62480,1,8,0:0:0:0:
81,185,62654,1,8,0:1:0:0:
259,342,62829,1,10,0:0:0:0:
340,307,63003,1,10,0:1:0:0:
274,261,63177,1,10,0:0:0:0:
109,312,63352,1,10,0:0:0:0:
109,312,63439,1,10,0:0:0:0:
109,312,63526,6,0,P|55:328|16:283,1,107.999996704102,14|0,0:1|0:0,0:0:0:0:
10,130,63875,1,8,0:0:0:0:
191,129,64049,2,0,P|228:148|256:86,1,107.999996704102,2|8,0:0|0:1,0:0:0:0:
182,108,64398,2,0,P|177:79|248:70,1,107.999996704102,10|8,0:1|0:0,0:0:0:0:
378,130,64747,1,2,0:0:0:0:
378,130,64834,1,2,0:0:0:0:
378,130,64922,5,10,0:1:0:0:
483,96,65096,1,10,0:1:0:0:
334,43,65270,1,10,0:0:0:0:
375,215,65445,2,0,P|343:222|336:306,1,107.999996704102,2|8,0:0|0:1,0:0:0:0:
487,216,65794,2,0,B|526:203|526:203|457:197,1,107.999996704102,10|8,0:1|0:0,0:0:0:0:
253,318,66142,1,2,0:0:0:0:
253,318,66230,1,2,0:0:0:0:
253,318,66317,6,0,B|189:300|189:300|296:292,1,161.999995056153,10|0,0:1|0:0,0:0:0:0:
322,287,66666,2,0,B|364:276|364:276|325:359,1,107.999996704102,10|0,0:0|0:0,0:0:0:0:
398,178,67015,2,0,B|436:153|436:153|426:243,1,107.999996704102,10|8,0:1|0:1,0:0:0:0:
448,52,67363,2,0,B|478:19|478:19|481:95,1,107.999996704102,10|2,0:0|0:0,0:0:0:0:
480,82,67625,1,2,0:0:0:0:
480,82,67712,5,10,0:1:0:0:
248,40,67887,1,8,0:1:0:0:
330,17,68061,1,8,0:0:0:0:
309,93,68236,1,0,0:0:0:0:
93,22,68410,1,10,0:1:0:0:
248,40,68584,1,8,0:1:0:0:
309,93,68759,2,0,B|273:110|273:110|255:212,1,107.999996704102,10|2,0:0|0:0,0:0:0:0:
280,218,69020,1,2,0:0:0:0:
281,231,69108,6,0,B|271:272|271:272|256:266|256:266|164:278|164:278|225:338,1,215.999993408203,14|8,0:1|0:0,0:0:0:0:
375,303,69631,2,0,B|431:293|431:293|380:269,1,107.999996704102,2|0,0:0|0:0,0:0:0:0:
154,202,69980,1,8,0:1:0:0:
57,219,70154,1,10,0:0:0:0:
90,135,70329,1,2,0:0:0:0:
90,135,70416,1,2,0:0:0:0:
90,135,70503,6,0,B|106:80|106:80|41:81,1,107.999996704102,10|8,0:1|0:1,0:0:0:0:
306,71,70852,1,8,0:0:0:0:
197,35,71026,2,0,B|181:90|181:90|246:89,1,107.999996704102,2|8,0:0|0:1,0:0:0:0:
115,0,71375,1,8,0:1:0:0:
306,71,71549,2,0,B|360:70|360:70|381:39|381:39|481:38,1,161.999995056153,10|0,0:0|0:0,0:0:0:0:
495,57,71898,6,0,P|498:66|503:37,1,116.999994644165,14|0,0:1|0:0,0:0:0:0:
271,181,72247,2,0,P|254:187|266:119,1,116.999994644165,8|8,0:0|0:1,0:0:0:0:
479,251,72596,2,0,P|517:278|518:221,1,116.999994644165,8|8,0:0|0:1,0:0:0:0:
240,313,72945,1,8,0:0:0:0:
369,242,73119,1,8,0:1:0:0:
369,242,73206,1,8,0:1:0:0:
369,242,73294,5,10,0:0:0:0:
120,244,73468,1,8,0:1:0:0:
240,313,73642,2,0,B|287:318|287:318|280:392,1,116.999994644165,8|8,0:0|0:1,0:0:0:0:
120,244,73991,1,10,0:0:0:0:
288,151,74166,1,0,3:0:0:0:
319,106,74253,1,0,3:0:0:0:
309,52,74340,1,0,3:0:0:0:
259,32,74427,1,0,3:0:0:0:
226,67,74515,2,0,B|210:86|210:86|252:75,1,58.4999973220826,0|0,3:0|3:0,0:0:0:0:
408,35,74689,1,14,0:1:0:0:
146,183,78875,6,0,L|119:288,1,90,10|0,0:1|0:0,0:0:0:0:
146,183,79224,1,8,0:0:0:0:
2,156,79398,1,10,0:1:0:0:
512,240,79747,1,10,0:1:0:0:
437,84,80270,6,0,B|391:68|391:68|488:52|488:52|455:85,1,180,14|8,0:1|0:0,0:0:0:0:
318,119,80794,2,0,B|270:115|270:115|274:108|274:108|182:102,1,135,14|0,0:1|0:0,0:0:0:0:
182,102,81142,2,0,B|141:78|141:78|187:73,1,90,10|8,0:1|0:0,0:0:0:0:
356,189,81491,2,0,B|380:209|380:209|380:223|380:223|390:226|390:226|399:379,1,180,14|8,0:1|0:1,0:0:0:0:
486,378,82015,1,14,0:0:0:0:
508,294,82189,1,2,0:0:0:0:
508,294,82276,1,2,0:0:0:0:
508,294,82363,6,0,L|482:299,1,22.5,10|0,0:1|0:0,0:0:0:0:
264,251,82625,2,0,L|238:256,1,22.5,10|0,0:1|0:0,0:0:0:0:
427,59,82887,2,0,L|401:64,1,22.5,10|0,0:1|0:0,0:0:0:0:
411,142,83061,5,14,0:1:0:0:
493,110,83236,2,0,B|506:111|506:111|505:169,1,72,10|0,0:1|0:0,0:0:0:0:
337,96,83584,2,0,B|324:95|324:95|325:37,1,72,2|0,0:0|0:0,0:0:0:0:
234,104,83933,2,0,B|247:105|247:105|246:163,1,72,2|0,0:0|0:0,0:0:0:0:
158,73,84282,1,2,0:0:0:0:
84,94,84456,6,0,B|48:89|48:89|84:81,1,72,10|10,0:1|0:1,0:0:0:0:
158,73,84805,1,2,0:0:0:0:
16,175,84980,1,0,0:0:0:0:
163,263,85154,1,2,0:0:0:0:
118,191,85329,2,0,P|105:199|101:182,1,36,2|0,0:0|0:0,0:0:0:0:
202,188,85503,2,0,L|244:188,1,36,2|0,0:0|0:0,0:0:0:0:
163,263,85677,2,0,L|156:311,1,36,2|0,0:0|0:0,0:0:0:0:
64,351,85852,6,0,P|40:310|62:266,1,72,10|10,0:1|0:1,0:0:0:0:
157,298,86201,2,0,P|156:249|189:230,1,72,2|0,0:0|0:0,0:0:0:0:
253,333,86549,2,0,P|277:311|324:325,1,72,2|0,0:0|0:0,0:0:0:0:
170,235,86898,2,0,P|186:263|175:303,1,72,2|2,0:0|0:0,0:0:0:0:
177,300,87160,1,2,0:0:0:0:
177,300,87247,5,10,0:1:0:0:
112,178,87422,1,10,0:1:0:0:
281,176,87596,1,2,0:0:0:0:
225,229,87770,1,0,0:0:0:0:
403,227,87945,1,2,0:0:0:0:
325,69,88119,1,0,0:0:0:0:
281,176,88294,2,0,B|249:156|249:156|284:139,1,72,2|0,0:0|0:0,0:0:0:0:
325,69,88642,5,10,0:0:0:0:
39,43,88817,1,10,0:0:0:0:
455,368,89340,2,0,P|476:354|441:365,1,144,2|0,0:0|0:0,0:0:0:0:
181,341,90038,5,10,0:0:0:0:
439,363,90212,1,10,0:0:0:0:
39,216,90561,2,0,B|31:238|31:238|-8:169|-8:169|47:169,1,144,2|0,0:0|0:0,0:0:0:0:
110,168,91084,1,2,0:0:0:0:
135,367,91433,5,10,0:0:0:0:
99,69,91608,1,10,0:0:0:0:
110,168,91782,1,2,0:0:0:0:
173,114,91956,2,0,B|236:113|236:113|225:108|225:108|311:107,1,144,2|0,0:0|0:0,0:0:0:0:
501,21,92654,1,2,0:0:0:0:
418,258,92829,6,0,P|452:275|499:219,1,116.999994644165,14|0,0:1|0:0,0:0:0:0:
457,149,93090,2,0,P|407:150|403:225,1,116.999994644165,10|0,0:1|0:0,0:0:0:0:
499,225,93352,2,0,P|510:195|496:174,1,58.4999973220826,10|0,0:1|0:0,0:0:0:0:
392,161,93526,6,0,P|378:199|436:271,1,135.000005149842,10|8,0:0|0:1,0:0:0:0:
511,186,93788,2,0,P|484:147|395:155,1,135.000005149842,10|8,0:0|0:1,0:0:0:0:
439,273,94049,2,0,P|482:263|501:225,1,67.5000025749208,10|0,0:0|0:1,0:0:0:0:
345,320,94224,5,14,0:1:0:0:
274,267,94398,2,0,B|234:261|234:261|286:242,1,90,2|8,0:0|0:0,0:0:0:0:
148,195,94747,2,0,L|41:183,1,90,2|8,0:0|0:1,0:0:0:0:
206,111,95096,2,0,B|234:95|234:95|153:86,1,90,10|8,0:1|0:0,0:0:0:0:
323,55,95445,1,0,0:0:0:0:
159,80,95619,6,0,L|256:90,1,90,10|0,0:1|0:0,0:0:0:0:
436,42,95968,2,0,P|447:33|429:42,1,90,8|0,0:0|0:0,0:0:0:0:
323,55,96317,1,10,0:1:0:0:
486,137,96491,1,8,0:1:0:0:
486,137,96579,1,8,0:1:0:0:
486,137,96666,1,10,0:0:0:0:
439,267,96840,1,0,0:0:0:0:
327,223,97015,6,0,B|308:196|308:196|429:187,1,135,10|0,0:1|0:0,0:0:0:0:
433,186,97363,1,10,0:0:0:0:
357,296,97538,2,0,L|342:385,1,90,0|10,0:0|0:1,0:0:0:0:
198,329,97887,2,0,L|243:248,1,90,8|8,0:1|0:0,0:0:0:0:
88,301,98236,1,0,0:0:0:0:
150,188,98410,6,0,P|85:197|1:149,1,135,10|0,0:1|0:0,0:0:0:0:
13,150,98759,2,0,P|64:176|76:239,1,90,10|0,0:0|0:0,0:0:0:0:
9,275,99108,1,10,0:1:0:0:
228,159,99282,1,8,0:1:0:0:
9,43,99456,1,10,0:0:0:0:
46,113,99631,1,2,0:0:0:0:
46,113,99718,1,2,0:0:0:0:
46,113,99805,6,0,B|91:110|91:110|83:58|83:58|180:52,1,180,10|8,0:1|0:0,0:0:0:0:
340,92,100329,2,0,P|349:109|342:84,1,90,2|10,0:0|0:1,0:0:0:0:
268,54,100677,1,8,0:1:0:0:
471,36,100852,2,0,L|450:138,1,90,10|0,0:0|0:0,0:0:0:0:
471,348,101201,6,0,L|450:246,1,90,10|0,0:1|0:0,0:0:0:0:
277,161,101549,1,8,0:0:0:0:
357,252,101724,1,2,0:0:0:0:
357,252,101811,1,2,0:0:0:0:
357,252,101898,1,8,0:1:0:0:
423,193,102073,1,8,0:1:0:0:
277,161,102247,2,0,B|279:129|279:129|353:131,1,90,10|0,0:0|0:0,0:0:0:0:
196,193,102596,6,0,B|161:184|161:184|214:181|214:181|205:303,1,180,10|8,0:1|0:0,0:0:0:0:
93,325,103119,1,0,0:0:0:0:
0,111,103294,1,10,0:1:0:0:
220,114,103468,1,8,0:1:0:0:
196,193,103642,1,12,0:0:0:0:
143,136,103817,1,8,0:0:0:0:
143,136,103904,1,8,0:0:0:0:
143,136,103991,5,10,0:1:0:0:
390,114,104166,1,8,0:0:0:0:
279,324,104340,2,0,L|257:373,1,45,8|8,0:0|0:0,0:0:0:0:
355,296,104515,2,0,L|401:295,1,45,0|8,0:0|0:0,0:0:0:0:
285,243,104689,1,10,0:1:0:0:
491,333,104863,1,8,0:3:0:0:
491,333,104951,1,8,0:3:0:0:
491,333,105038,2,0,P|501:308|476:286,1,45,4|4,0:3|0:3,0:0:0:0:
486,217,105212,2,0,P|496:192|471:170,1,45,4|4,0:3|0:3,0:0:0:0:
486,95,105387,6,0,B|446:96|446:96|451:85|451:85|348:87,1,135.000005149842,14|8,0:1|0:1,0:0:0:0:
382,74,105910,2,0,L|413:71,1,16.8750006437302,10|0,0:0|0:0,0:0:0:0:
188,303,106259,2,0,L|157:306,1,16.8750006437302,10|0,0:0|0:0,0:0:0:0:
59,31,106608,2,0,B|67:13|67:13|13:19|13:19|24:113,1,161.999995056153,14|8,0:1|0:1,0:0:0:0:
132,143,107131,2,0,B|153:132|153:132|163:66,1,80.9999975280763,10|8,0:0|0:1,0:0:0:0:
86,226,107480,2,0,B|65:237|65:237|55:303,1,80.9999975280763,10|10,0:0|0:1,0:0:0:0:
56,293,107741,1,2,0:0:0:0:
56,293,107829,1,10,0:0:0:0:
0,186,108003,1,2,0:0:0:0:
207,204,108177,6,0,B|211:261|211:261|219:252|219:252|226:337,1,135.000005149842,14|8,0:1|0:1,0:0:0:0:
148,348,108701,2,0,L|143:379,1,16.8750006437302,10|0,0:0|0:0,0:0:0:0:
364,36,109049,2,0,L|369:5,1,16.8750006437302,10|0,0:0|0:0,0:0:0:0:
512,369,109398,2,0,B|434:342|434:342|523:313,1,161.999995056153,14|8,0:1|0:1,0:0:0:0:
307,231,109922,1,10,0:0:0:0:
441,250,110096,1,8,0:1:0:0:
234,282,110270,1,10,0:0:0:0:
295,80,110445,1,8,0:1:0:0:
500,47,110619,1,10,0:0:0:0:
396,164,110794,1,8,0:0:0:0:
396,164,110881,1,8,0:0:0:0:
396,164,110968,6,0,P|414:131|386:32,1,135.000005149842,14|8,0:1|0:1,0:0:0:0:
500,47,111491,2,0,L|500:70,1,16.8750006437302,10|0,0:0|0:0,0:0:0:0:
12,47,111840,2,0,L|12:70,1,16.8750006437302,10|0,0:0|0:0,0:0:0:0:
269,127,112189,2,0,B|269:165|269:165|247:166|247:166|249:273,1,161.999995056153,14|8,0:1|0:1,0:0:0:0:
341,336,112712,1,10,0:0:0:0:
422,272,112887,1,8,0:1:0:0:
334,248,113061,1,10,0:0:0:0:
171,336,113236,1,10,0:1:0:0:
171,336,113323,1,10,0:1:0:0:
171,336,113410,1,14,0:0:0:0:
90,272,113584,1,0,0:0:0:0:
178,248,113759,6,0,P|195:232|182:205,3,45,14|0|0|0,0:1|0:0|0:0|0:0,0:0:0:0:
119,147,114456,2,0,L|55:142,1,53.9999983520508,2|0,0:0|0:0,0:0:0:0:
59,45,114805,2,0,L|-5:40,1,53.9999983520508,0|0,0:0|0:0,0:0:0:0:
200,55,115154,2,0,P|170:33|184:11,3,62.9999980773926,2|0|0|0,0:0|0:0|0:0|0:0,0:0:0:0:
327,6,115852,2,0,L|316:109,1,72,2|0,0:0|0:0,0:0:0:0:
447,67,116201,2,0,L|436:170,1,72,0|0,0:0|0:0,0:0:0:0:
509,32,116549,5,10,0:0:0:0:
352,192,116724,1,8,0:0:0:0:
509,352,116898,1,10,0:0:0:0:
493,282,117073,1,8,0:0:0:0:
441,331,117247,1,10,0:0:0:0:
512,192,117422,1,8,0:0:0:0:
512,192,117509,1,8,0:1:0:0:
512,192,117596,1,10,0:0:0:0:
441,53,117770,6,0,B|396:57|396:57|402:52|402:52|317:58,1,135,14|0,0:1|0:0,0:0:0:0:
68,214,118991,1,2,0:0:0:0:
118,238,119079,1,2,0:0:0:0:
155,193,119166,1,2,0:0:0:0:
114,147,119253,1,2,0:0:0:0:
69,176,119340,6,0,L|185:186,1,107.999996704102,14|0,0:1|0:0,0:0:0:0:
284,94,119689,1,8,0:0:0:0:
174,8,119863,2,0,L|66:17,1,107.999996704102,2|8,0:0|0:1,0:0:0:0:
284,94,120212,2,0,L|396:94,1,107.999996704102,10|8,0:1|0:0,0:0:0:0:
241,162,120561,1,2,0:0:0:0:
241,162,120648,1,2,0:0:0:0:
241,162,120736,5,10,0:1:0:0:
466,94,120910,1,8,0:1:0:0:
236,28,121084,1,10,0:0:0:0:
286,259,121259,2,0,P|246:292|246:362,1,107.999996704102,2|8,0:1|0:1,0:0:0:0:
141,231,121608,2,0,P|92:202|97:133,1,107.999996704102,10|8,0:1|0:0,0:0:0:0:
343,201,121956,1,2,0:0:0:0:
343,201,122044,1,2,0:0:0:0:
343,201,122131,6,0,B|420:185|420:185|333:161,1,161.999995056153,10|0,0:1|0:0,0:0:0:0:
293,151,122480,2,0,P|245:115|262:48,1,107.999996704102,10|0,0:0|0:0,0:0:0:0:
374,83,122829,2,0,P|376:49|446:27,1,107.999996704102,10|8,0:1|0:1,0:0:0:0:
245,71,123177,2,0,L|126:80,1,107.999996704102,10|2,0:0|0:0,0:0:0:0:
89,61,123439,1,2,0:0:0:0:
99,62,123526,5,10,0:1:0:0:
168,194,123701,1,10,0:1:0:0:
104,332,123875,1,10,0:0:0:0:
22,196,124049,2,0,B|9:164|9:164|92:168,1,107.999996704102,2|0,0:0|0:0,0:0:0:0:
107,337,124398,2,0,B|120:369|120:369|37:365,1,107.999996704102,8|10,0:1|0:0,0:0:0:0:
218,306,124747,1,2,0:0:0:0:
218,306,124834,1,2,0:0:0:0:
218,306,124922,6,0,P|271:274|188:228,1,175.499991966248,14|0,0:1|0:0,0:0:0:0:
186,223,125270,2,0,P|169:252|231:303,1,116.999994644165,10|0,0:0|0:0,0:0:0:0:
371,194,125619,2,0,P|421:226|474:181,1,116.999994644165,10|8,0:1|0:1,0:0:0:0:
362,21,125968,1,10,0:0:0:0:
162,50,126142,1,2,0:0:0:0:
162,50,126230,1,2,0:0:0:0:
162,50,126317,5,10,0:1:0:0:
284,210,126491,1,8,0:1:0:0:
234,82,126665,1,8,0:0:0:0:
423,141,126840,1,0,0:0:0:0:
267,286,127015,1,10,0:1:0:0:
284,210,127189,1,8,0:1:0:0:
115,251,127363,1,10,0:0:0:0:
238,371,127538,1,2,0:0:0:0:
238,371,127625,1,2,0:0:0:0:
238,371,127712,6,0,B|310:345|310:345|198:333,1,188.999994232178,14|0,0:1|0:0,0:0:0:0:
162,339,128061,2,0,B|97:326|97:326|161:308,1,125.999996154785,8|0,0:0|0:0,0:0:0:0:
405,271,128409,1,8,0:1:0:0:
241,173,128584,1,10,0:1:0:0:
462,133,128759,1,10,0:0:0:0:
405,360,128933,1,14,0:1:0:0:
405,360,129282,5,8,0:1:0:0:
241,173,129456,1,8,0:0:0:0:
462,133,129631,1,8,0:1:0:0:
401,180,129805,1,10,0:0:0:0:
384,106,129980,1,10,0:1:0:0:
445,56,130154,1,10,0:0:0:0:
440,251,130329,1,10,0:0:0:0:
440,251,130416,1,10,0:0:0:0:
440,251,130503,6,0,B|435:306|435:306|378:287,1,107.999996704102,14|0,0:1|0:0,0:0:0:0:
241,173,130852,1,8,0:0:0:0:
92,195,131026,2,0,B|41:211|41:211|36:156,1,107.999996704102,2|8,0:0|0:1,0:0:0:0:
185,134,131375,2,0,B|235:117|235:117|240:172,1,107.999996704102,10|8,0:1|0:0,0:0:0:0:
110,85,131724,1,2,0:0:0:0:
110,85,131811,1,2,0:0:0:0:
110,85,131898,5,10,0:1:0:0:
67,313,132073,1,10,0:1:0:0:
288,250,132247,1,10,0:0:0:0:
168,272,132422,2,0,B|120:249|120:249|175:225,1,107.999996704102,2|8,0:0|0:1,0:0:0:0:
110,85,132770,2,0,B|61:85|61:85|66:80|66:80|0:80,1,107.999996704102,10|8,0:1|0:0,0:0:0:0:
246,83,133119,1,2,0:0:0:0:
246,83,133206,1,2,0:0:0:0:
246,83,133294,6,0,P|315:76|375:-6,1,161.999995056153,10|0,0:1|0:0,0:0:0:0:
352,4,133642,2,0,P|344:57|413:113,1,107.999996704102,10|0,0:0|0:0,0:0:0:0:
152,137,133991,2,0,P|167:185|141:251,1,107.999996704102,10|8,0:1|0:1,0:0:0:0:
307,269,134340,2,0,P|292:312|318:377,1,107.999996704102,10|2,0:0|0:0,0:0:0:0:
310,369,134602,1,2,0:0:0:0:
310,369,134689,5,10,0:1:0:0:
397,238,134863,1,8,0:1:0:0:
216,295,135038,1,8,0:0:0:0:
244,102,135212,1,0,0:0:0:0:
405,29,135387,1,10,0:1:0:0:
370,103,135561,1,8,0:1:0:0:
331,40,135736,2,0,L|325:153,1,107.999996704102,10|2,0:0|0:0,0:0:0:0:
351,174,135997,1,0,0:0:0:0:
360,184,136084,6,0,B|430:210|430:210|506:153|506:153|453:156,1,215.999993408203,14|8,0:1|0:0,0:0:0:0:
261,208,136608,2,0,L|254:332,1,107.999996704102,2|0,0:0|0:0,0:0:0:0:
377,368,136956,1,8,0:1:0:0:
507,320,137131,1,10,0:0:0:0:
422,303,137305,1,2,0:0:0:0:
422,303,137392,1,2,0:0:0:0:
422,303,137480,6,0,B|408:293|408:293|405:191,1,107.999996704102,10|8,0:1|0:1,0:0:0:0:
199,297,137829,1,8,0:0:0:0:
90,303,138003,2,0,B|104:293|104:293|107:191,1,107.999996704102,2|8,0:0|0:1,0:0:0:0:
199,297,138352,1,8,0:1:0:0:
106,202,138526,2,0,B|60:191|60:191|40:306,1,161.999995056153,10|0,0:0|0:0,0:0:0:0:
90,303,138875,6,0,B|136:307|136:307|129:224,1,116.999994644165,14|0,0:1|0:0,0:0:0:0:
51,68,139224,2,0,B|4:63|4:63|12:147,1,116.999994644165,8|8,0:0|0:1,0:0:0:0:
239,114,139573,2,0,B|288:112|288:112|284:105|284:105|359:104,1,116.999994644165,8|8,0:0|0:1,0:0:0:0:
179,46,139922,1,8,0:0:0:0:
424,110,140096,1,8,0:1:0:0:
424,110,140183,1,8,0:1:0:0:
424,110,140270,5,10,0:0:0:0:
501,46,140445,1,8,0:1:0:0:
338,252,140619,1,8,0:0:0:0:
303,182,140794,1,8,0:0:0:0:
303,182,140881,1,8,0:0:0:0:
303,182,140968,6,0,B|281:159|281:159|322:166,1,58.4999973220826,10|0,0:1|0:0,0:0:0:0:
512,145,141230,2,0,B|534:168|534:168|493:161,1,58.4999973220826,10|0,0:3|0:0,0:0:0:0:
191,124,141491,2,0,L|128:137,1,58.4999973220826,6|0,0:3|0:0,0:0:0:0:
220,51,141666,6,0,B|241:17|241:17|140:11,1,135.000005149842,14|0,0:1|0:0,0:0:0:0:
133,135,142189,1,0,0:0:0:0:
28,210,142363,6,0,B|15:253|15:253|162:238,1,180,10|0,0:0|0:0,0:0:0:0:
234,271,142887,2,0,B|247:292|247:292|244:341,1,67.5000025749208,8|0,0:0|0:0,0:0:0:0:
182,377,143236,2,0,B|145:379|145:379|151:327,1,67.5000025749208,8|0,0:0|0:0,0:0:0:0:
234,271,143584,1,8,0:1:0:0:
404,339,143759,1,10,0:0:0:0:
342,378,143933,1,0,0:0:0:0:
342,308,144108,6,0,L|322:217,1,90,0|10,0:0|0:1,0:0:0:0:
479,53,144805,6,0,B|507:79|507:79|469:83,1,67.5000025749208,0|0,0:0|0:0,0:0:0:0:
378,85,145154,2,0,B|365:30|365:30|498:91,1,180,10|0,0:0|0:0,0:0:0:0:
315,138,145677,1,8,0:0:0:0:
237,84,145852,2,0,B|216:55|216:55|257:57,1,67.5000025749208,0|8,0:0|0:0,0:0:0:0:
315,138,146201,2,0,B|290:159|290:159|248:161,1,67.5000025749208,0|8,0:0|0:1,0:0:0:0:
247,56,146549,1,10,0:0:0:0:
121,147,146724,1,0,0:0:0:0:
4,55,146898,6,0,B|35:57|35:57|33:52|33:52|101:59,1,90,0|10,0:0|0:1,0:0:0:0:
309,372,147596,5,0,0:0:0:0:
235,348,147770,1,0,0:0:0:0:
154,350,147945,2,0,B|56:365|56:365|123:318,1,180,10|0,0:0|0:0,0:0:0:0:
235,348,148468,1,8,0:0:0:0:
309,372,148642,2,0,B|356:388|356:388|343:362,1,67.5000025749208,2|8,0:0|0:0,0:0:0:0:
303,276,148991,2,0,B|298:241|298:241|286:284,1,67.5000025749208,2|8,0:1|0:1,0:0:0:0:
471,315,149340,1,10,0:0:0:0:
399,260,149515,1,0,0:0:0:0:
289,271,149689,6,0,L|183:265,1,90,0|10,0:0|0:1,0:0:0:0:
186,264,150387,5,0,0:0:0:0:
119,197,150561,2,0,P|107:168|136:192,1,90,2|8,0:0|0:0,0:0:0:0:
12,206,150910,2,0,L|9:109,1,90,0|2,0:0|0:0,0:0:0:0:
140,183,151259,1,8,0:0:0:0:
227,67,151433,2,0,B|242:44|242:44|189:64,1,67.5000025749208,2|8,0:0|0:0,0:0:0:0:
96,70,151782,2,0,B|78:56|78:56|88:4,1,67.5000025749208,2|8,0:0|0:1,0:0:0:0:
320,8,152131,6,0,B|331:35|331:35|330:107,1,90,10|0,0:0|0:0,0:0:0:0:
6,22,152829,5,14,0:1:0:0:
418,19,153177,2,0,P|430:36|406:22,1,67.5000025749208,0|0,0:0|0:0,0:0:0:0:
496,84,153526,2,0,L|484:180,1,90,10|0,0:0|0:0,0:0:0:0:
496,300,153875,2,0,L|484:204,1,90,0|8,0:0|0:0,0:0:0:0:
392,228,154224,2,0,B|350:223|350:223|388:212,1,67.5000025749208,2|8,0:0|0:0,0:0:0:0:
261,204,154573,2,0,L|165:203,1,67.5000025749208,2|8,0:0|0:1,0:0:0:0:
26,157,154922,1,10,0:0:0:0:
114,157,155096,1,0,0:0:0:0:
63,225,155270,6,0,L|52:321,1,90,0|10,0:0|0:1,0:0:0:0:
18,82,155968,6,0,B|2:53|2:53|49:63,1,67.5000025749208,0|0,0:0|0:0,0:0:0:0:
175,38,156317,2,0,B|219:37|219:37|212:95,1,90,10|0,0:0|0:0,0:0:0:0:
295,78,156666,2,0,B|289:116|289:116|353:114,1,90,0|8,0:0|0:0,0:0:0:0:
431,78,157015,2,0,B|436:55|436:55|432:0,1,67.5000025749208,2|8,0:0|0:0,0:0:0:0:
340,114,157363,2,0,B|335:137|335:137|339:192,1,67.5000025749208,2|8,0:0|0:1,0:0:0:0:
487,255,157712,1,10,0:0:0:0:
511,176,157887,1,0,0:0:0:0:
433,197,158061,6,0,L|367:269,1,90,2|10,0:0|0:1,0:0:0:0:
13,256,158759,5,0,0:0:0:0:
100,288,158933,1,0,0:0:0:0:
48,372,159108,2,0,B|1:375|1:375|17:335,1,90,10|0,0:0|0:0,0:0:0:0:
13,256,159456,2,0,L|50:156,1,90,0|8,0:0|0:0,0:0:0:0:
184,154,159805,2,0,P|208:171|201:219,1,67.5000025749208,2|8,0:0|0:0,0:0:0:0:
114,101,160154,2,0,P|79:99|64:57,1,67.5000025749208,2|8,0:0|0:1,0:0:0:0:
276,20,160503,1,10,0:0:0:0:
189,74,160677,1,0,0:0:0:0:
114,101,160852,6,0,P|82:82|72:23,1,90,0|10,0:0|0:1,0:0:0:0:
421,20,161549,5,0,0:0:0:0:
500,3,161724,2,0,L|484:105,1,90,2|8,0:0|0:0,0:0:0:0:
486,91,162247,6,0,L|499:180,1,67.5000025749208,2|8,0:0|0:0,0:0:0:0:
363,257,162596,1,2,0:0:0:0:
255,203,162770,1,8,0:0:0:0:
432,204,162945,1,2,0:0:0:0:
410,326,163119,1,8,0:1:0:0:
363,257,163294,6,0,B|350:226|350:226|357:228|357:228|336:173,1,90,10|0,0:0|0:0,0:0:0:0:
68,297,163991,6,0,P|46:327|64:288,1,135.000005149842,14|0,0:1|0:0,0:0:0:0:
106,62,164689,2,0,B|147:55|147:55|128:32,1,67.5000025749208,8|0,0:0|0:0,0:0:0:0:
21,102,165038,1,2,0:0:0:0:
130,35,165212,2,0,P|119:107|137:180,1,135.000005149842,8|8,0:0|0:0,0:0:0:0:
259,147,165736,1,0,0:0:0:0:
312,92,165910,1,8,0:1:0:0:
239,73,166084,6,0,B|219:42|219:42|290:26,1,90,10|0,0:0|0:0,0:0:0:0:
469,340,166782,6,0,P|486:303|451:336,1,135.000005149842,10|0,0:1|0:0,0:0:0:0:
457,341,167480,2,0,B|499:291|472:220|472:220|454:283,1,180,10|0,0:0|0:0,0:0:0:0:
387,212,168003,2,0,P|370:175|391:133,1,67.5000025749208,8|0,0:0|0:0,0:0:0:0:
511,138,168352,1,8,0:0:0:0:
444,98,168526,1,0,0:0:0:0:
511,62,168701,1,8,0:1:0:0:
380,27,168875,6,0,B|356:29|356:29|356:24|356:24|291:30,1,90,10|0,0:0|0:0,0:0:0:0:
51,71,169573,6,0,P|32:53|60:72,1,135.000005149842,10|0,0:1|0:0,0:0:0:0:
93,69,170270,6,0,B|83:118|83:118|88:113|88:113|71:199,1,135.000005149842,8|2,0:0|0:0,0:0:0:0:
53,201,170794,2,0,B|12:212|12:212|34:188,1,67.5000025749208,8|0,0:0|0:0,0:0:0:0:
158,177,171142,2,0,B|199:166|199:166|177:190,1,67.5000025749208,8|0,0:0|0:0,0:0:0:0:
74,273,171491,1,8,0:1:0:0:
151,275,171666,6,0,B|157:313|157:313|161:308|161:308|170:361,1,90,10|0,0:0|0:0,0:0:0:0:
382,371,172363,6,0,P|401:335|366:367,1,135.000005149842,10|0,0:1|0:0,0:0:0:0:
383,363,173061,6,0,B|443:357|443:357|464:231,1,180,10|0,0:0|0:0,0:0:0:0:
393,166,173584,2,0,B|359:162|359:162|389:187,1,67.5000025749208,8|0,0:0|0:0,0:0:0:0:
504,181,173933,2,0,B|529:159|529:159|495:163,1,67.5000025749208,8|0,0:0|0:0,0:0:0:0:
462,238,174282,1,8,0:1:0:0:
461,101,174456,6,0,L|475:57,3,40.4999987640381,2|0|0|0,1:0|1:0|1:0|1:0,0:0:0:0:
399,35,174805,2,0,L|347:43,1,45,2|0,1:0|1:0,0:0:0:0:
271,112,174980,2,0,L|315:105,1,45,0|0,1:0|1:0,0:0:0:0:
188,23,175154,6,0,L|69:41,1,90,14|0,0:2|0:0,0:0:0:0:
278,275,175503,2,0,L|366:261,1,90,8|8,0:2|0:1,0:0:0:0:
88,56,175852,2,0,L|-31:74,1,90,10|8,0:2|0:1,0:0:0:0:
328,249,176201,2,0,L|416:235,1,90,8|8,0:2|0:1,0:0:0:0:
466,243,176462,1,0,0:2:0:0:
491,273,176549,6,0,B|503:306|503:306|440:297,1,90,10|8,0:2|0:1,0:0:0:0:
267,121,176898,2,0,B|255:88|255:88|318:97,1,90,8|8,0:2|0:1,0:0:0:0:
328,249,177247,2,0,B|340:282|340:282|277:273,1,90,10|8,0:2|0:1,0:0:0:0:
59,244,177596,2,0,B|35:266|35:266|41:338,1,90,8|8,0:2|0:1,0:0:0:0:
75,357,177858,1,0,0:2:0:0:
110,346,177945,6,0,P|141:316|122:266,1,90,14|0,0:2|0:1,0:0:0:0:
358,272,178294,2,0,P|342:224|376:196,1,90,8|8,0:2|0:1,0:0:0:0:
134,197,178642,2,0,P|151:166|119:117,1,90,10|8,0:2|0:1,0:0:0:0:
367,121,178991,2,0,P|349:93|380:45,1,90,8|8,0:2|0:1,0:0:0:0:
419,60,179253,1,0,0:2:0:0:
441,97,179340,6,0,L|436:199,1,90,10|8,0:2|0:1,0:0:0:0:
75,186,179689,2,0,L|71:97,1,90,8|8,0:2|0:1,0:0:0:0:
319,165,180038,2,0,B|359:183|359:183|319:212,1,90,10|8,0:2|0:1,0:0:0:0:
190,210,180387,2,0,B|153:183|153:183|193:165,1,90,8|8,0:2|0:1,0:0:0:0:
243,174,180648,1,0,0:2:0:0:
255,217,180736,6,0,L|255:312,1,90,14|0,0:2|0:1,0:0:0:0:
133,91,181084,2,0,L|26:91,1,90,8|8,0:2|0:1,0:0:0:0:
379,91,181433,2,0,L|486:91,1,90,10|8,0:2|0:1,0:0:0:0:
205,45,181782,2,0,B|188:15|188:15|246:15,1,90,8|8,0:2|0:1,0:0:0:0:
288,38,182044,1,0,0:2:0:0:
281,84,182131,6,0,P|251:118|186:124,1,90,10|8,0:2|0:1,0:0:0:0:
345,250,182480,2,0,P|384:260|412:321,1,90,8|8,0:2|0:1,0:0:0:0:
100,299,182829,2,0,P|124:262|167:250,1,90,10|8,0:2|0:1,0:0:0:0:
333,341,183177,2,0,B|355:371|355:371|285:371,1,90,8|8,0:2|0:1,0:0:0:0:
253,358,183439,1,0,0:2:0:0:
236,320,183526,6,0,L|263:225,1,90,14|0,0:2|0:2,0:0:0:0:
442,105,183875,2,0,L|417:191,1,90,8|8,0:2|0:1,0:0:0:0:
265,215,184224,2,0,L|240:128,1,90,10|8,0:2|0:1,0:0:0:0:
70,105,184573,2,0,L|94:191,1,90,8|8,0:2|0:1,0:0:0:0:
96,225,184834,1,0,0:2:0:0:
77,255,184922,6,0,L|41:147,1,107.999996704102,14|8,0:2|0:1,0:0:0:0:
249,134,185270,2,0,L|275:19,1,107.999996704102,14|8,0:2|0:1,0:0:0:0:
475,24,185619,2,0,B|504:31|504:31|504:66,1,53.9999983520508,10|0,0:2|0:2,0:0:0:0:
511,171,185794,2,0,B|511:195|511:195|482:202,1,53.9999983520508,10|0,0:2|0:2,0:0:0:0:
356,125,185968,2,0,B|336:106|336:106|363:97,1,53.9999983520508,10|0,0:2|0:2,0:0:0:0:
441,90,186142,2,0,L|435:148,1,53.9999983520508,10|0,0:2|0:2,0:0:0:0:
354,25,186317,5,6,0:2:0:0:
272,28,186491,2,0,L|192:29,1,62.9999980773926,2|0,0:0|0:0,0:0:0:0:
282,36,186840,2,0,L|141:37,1,125.999996154785,2|0,0:0|0:0,0:0:0:0:
10,322,187538,1,2,0:0:0:0:
74,364,187712,5,2,0:0:0:0:
84,292,187887,2,0,L|150:290,1,62.9999980773926,2|0,0:0|0:0,0:0:0:0:
71,286,188236,2,0,L|213:283,1,125.999996154785,2|0,0:0|0:0,0:0:0:0:
441,373,188933,1,2,0:0:0:0:
506,344,189108,6,0,P|510:329|495:299,1,45,2|0,0:0|0:0,0:0:0:0:
441,373,189456,1,2,0:0:0:0:
512,352,189631,2,0,P|520:318|468:285,1,90,2|0,0:0|0:0,0:0:0:0:
375,243,190154,1,2,0:0:0:0:
441,205,190329,1,0,0:0:0:0:
311,152,190503,5,2,0:0:0:0:
375,243,190677,1,0,0:0:0:0:
441,205,190852,1,2,0:0:0:0:
311,152,191026,2,0,B|269:140|269:140|315:126,1,90,2|0,0:0|0:0,0:0:0:0:
200,138,191549,2,0,L|148:138,1,45,2|0,0:0|0:0,0:0:0:0:
16,162,191898,5,6,0:0:0:0:
109,70,192073,2,0,L|31:68,1,62.9999980773926,2|0,0:0|0:0,0:0:0:0:
127,60,192422,2,0,L|-18:56,1,125.999996154785,2|0,0:0|0:0,0:0:0:0:
415,46,193119,1,2,0:0:0:0:
400,118,193294,5,2,0:0:0:0:
469,99,193468,2,0,L|481:165,1,62.9999980773926,2|0,0:0|0:0,0:0:0:0:
478,90,193817,2,0,L|502:228,1,125.999996154785,2|0,0:0|0:0,0:0:0:0:
155,365,194515,1,2,0:0:0:0:
85,324,194689,6,0,P|56:319|42:365,1,62.9999980773926,2|0,0:0|0:0,0:0:0:0:
155,365,195038,1,2,0:0:0:0:
95,317,195212,2,0,P|61:307|45:382,1,125.999996154785,2|0,0:0|0:0,0:0:0:0:
172,271,195736,1,2,0:0:0:0:
99,196,195910,1,0,0:0:0:0:
226,142,196084,5,2,0:0:0:0:
172,271,196259,1,0,0:0:0:0:
99,196,196433,1,2,0:0:0:0:
226,142,196608,2,0,B|265:130|265:130|179:119,1,125.999996154785,2|0,0:0|0:0,0:0:0:0:
336,116,197131,2,0,L|398:112,1,62.9999980773926,2|0,0:0|0:0,0:0:0:0:
494,17,197480,6,0,P|481:47|513:93,1,72,14|0,0:1|0:0,0:0:0:0:
464,170,197829,2,0,L|462:263,1,72,8|2,2:1|0:0,0:0:0:0:
267,297,198177,1,8,0:1:0:0:
203,246,198352,1,2,0:0:0:0:
327,244,198526,1,8,0:1:0:0:
304,363,198701,1,2,0:0:0:0:
267,297,198875,5,10,0:1:0:0:
107,299,199049,1,0,0:0:0:0:
32,323,199224,1,10,0:1:0:0:
177,326,199398,1,2,0:0:0:0:
107,299,199573,2,0,B|90:262|90:262|122:273,1,72,8|2,0:1|0:0,0:0:0:0:
76,172,199922,2,0,L|4:172,1,72,10|0,0:1|0:0,0:0:0:0:
159,108,200270,5,10,0:1:0:0:
196,14,200445,1,0,0:0:0:0:
159,108,200619,1,8,0:1:0:0:
196,14,200794,1,2,0:0:0:0:
257,98,200968,2,0,P|278:74|251:31,1,72,8|0,0:1|0:0,0:0:0:0:
289,164,201317,2,0,P|327:167|347:127,1,72,10|0,0:1|0:0,0:0:0:0:
415,162,201666,6,0,L|421:242,1,72,10|0,0:1|0:0,0:0:0:0:
256,266,202015,2,0,L|256:347,1,72,8|2,0:1|0:0,0:0:0:0:
129,241,202363,1,10,0:1:0:0:
52,257,202538,1,2,0:0:0:0:
52,257,202625,1,2,0:0:0:0:
52,257,202712,1,10,0:1:0:0:
180,302,202887,1,0,0:0:0:0:
129,241,203061,6,0,L|128:156,1,72,10|0,0:1|0:0,0:0:0:0:
52,118,203410,2,0,B|19:104|19:104|71:95,1,72,8|2,0:1|0:0,0:0:0:0:
214,34,203759,1,8,0:1:0:0:
134,11,203933,1,2,0:0:0:0:
156,88,204108,1,8,0:1:0:0:
280,89,204282,1,2,0:0:0:0:
214,34,204456,5,10,0:1:0:0:
216,154,204631,1,0,0:0:0:0:
341,153,204805,1,10,0:1:0:0:
280,89,204980,1,2,0:0:0:0:
156,88,205154,1,8,0:1:0:0:
216,154,205329,1,2,0:0:0:0:
341,153,205503,2,0,L|419:154,1,72,10|0,0:1|0:0,0:0:0:0:
221,192,207247,6,0,L|249:192,5,24,0|0|0|0|0|0,0:0|0:0|0:0|0:0|0:0|0:0,0:0:0:0:
298,202,207596,6,0,L|326:202,5,24,0|0|0|0|0|0,0:0|0:0|0:0|0:0|0:0|0:0,0:0:0:0:
375,213,207945,6,0,L|403:213,5,24,0|0|0|0|0|0,0:0|0:0|0:0|0:0|0:0|0:0,0:0:0:0:
452,222,208294,6,0,L|480:222,5,24,0|0|0|0|0|0,0:0|0:0|0:0|0:0|0:0|0:0,0:0:0:0:
499,215,208642,6,0,B|450:208|450:208|470:319,1,135.000005149842,14|0,0:1|0:0,0:0:0:0:
276,278,209166,2,0,B|231:278|231:278|236:271|236:271|129:271,1,135.000005149842,2|0,0:0|0:0,0:0:0:0:
276,278,209863,1,2,0:0:0:0:
85,320,210038,6,0,B|47:332|47:332|61:232,1,135.000005149842,14|0,0:1|0:0,0:0:0:0:
126,185,210561,2,0,B|164:173|164:173|150:273,1,135.000005149842,2|0,0:0|0:0,0:0:0:0:
0,83,211259,1,2,0:0:0:0:
218,89,211433,5,2,3:2:0:0:
189,292,211608,1,0,3:2:0:0:
134,130,211782,1,2,3:2:0:0:
347,136,211956,1,0,3:2:0:0:
214,372,212131,1,2,3:2:0:0:
228,198,212305,1,0,3:2:0:0:
445,220,212480,1,2,3:2:0:0:
283,265,212654,1,0,3:2:0:0:
360,224,212829,5,2,0:0:0:0:
445,220,213003,2,0,P|472:238|467:298,1,67.5000025749208,2|0,0:0|0:0,0:0:0:0:
468,280,213352,2,0,P|452:223|496:155,1,135.000005149842,2|2,0:0|0:0,0:0:0:0:
25,160,214049,1,2,0:0:0:0:
101,184,214224,6,0,P|112:147|92:89,1,87.749995983124,0|0,0:0|0:0,0:0:0:0:
86,98,214573,6,0,P|61:161|67:220,1,116.999994644165,14|0,0:2|0:0,0:0:0:0:
323,209,214922,5,0,3:0:0:0:
334,201,215009,1,0,3:0:0:0:
336,189,215096,1,0,3:0:0:0:
327,180,215183,1,0,3:0:0:0:
314,182,215270,6,0,L|379:182,1,58.4999973220826,0|0,3:0|3:0,0:0:0:0:
401,111,215445,2,0,L|466:111,1,58.4999973220826,0|0,3:0|3:0,0:0:0:0:
511,36,215619,6,0,P|465:160|489:231,1,175.499991966248,14|0,0:1|0:0,0:0:0:0:
498,236,215968,2,0,P|507:249|505:226,1,58.4999973220826,8|0,0:0|0:0,0:0:0:0:
382,289,216142,1,8,0:0:0:0:
376,288,216230,1,8,0:0:0:0:
369,287,216317,1,10,0:1:0:0:
463,319,216491,1,10,0:1:0:0:
277,288,216666,1,14,0:0:0:0:
382,289,216840,1,8,0:0:0:0:
376,288,216928,1,8,0:0:0:0:
369,287,217015,6,0,B|430:268|430:268|296:229,1,175.499991966248,14|0,0:1|0:0,0:0:0:0:
277,288,217363,2,0,L|198:290,1,58.4999973220826,12|0,0:0|0:0,0:0:0:0:
91,227,217538,1,8,0:0:0:0:
99,227,217625,1,8,0:0:0:0:
106,227,217712,1,8,0:3:0:0:
5,290,217887,1,4,0:3:0:0:
192,209,218061,1,4,0:3:0:0:
8,154,218236,6,0,P|16:125|0:83,1,58.4999973220826,14|0,0:1|0:0,0:0:0:0:
303,155,218584,2,0,P|295:126|311:84,1,58.4999973220826,8|0,0:1|0:0,0:0:0:0:
456,64,218759,1,10,0:0:0:0:
216,38,218933,1,8,0:1:0:0:
373,126,219108,1,2,3:0:0:0:
396,145,219195,1,0,3:0:0:0:
406,174,219282,1,2,3:0:0:0:
399,211,219369,1,0,3:0:0:0:
374,235,219456,2,0,B|344:239|344:239|367:218,1,53.9999983520508,2|0,3:0|3:0,0:0:0:0:
470,248,219631,2,0,B|483:267|483:267|479:310,1,53.9999983520508,2|0,3:0|3:0,0:0:0:0:
406,174,219805,6,0,L|282:169,1,116.999994644165,14|0,0:1|0:0,0:0:0:0:
141,236,220154,1,8,0:0:0:0:
230,282,220329,2,0,B|255:296|255:296|238:386,1,116.999994644165,2|8,0:0|0:1,0:0:0:0:
141,236,220677,2,0,B|87:211|87:211|166:210,1,116.999994644165,10|8,0:1|0:0,0:0:0:0:
19,278,221026,1,2,0:0:0:0:
19,278,221113,1,2,0:0:0:0:
19,278,221201,5,10,0:1:0:0:
154,202,221375,2,0,B|170:170|170:170|164:77,1,116.999994644165,10|10,0:1|0:0,0:0:0:0:
28,32,221724,2,0,P|7:51|42:37,1,116.999994644165,2|8,0:0|0:1,0:0:0:0:
228,33,222073,2,0,P|263:63|326:33,1,116.999994644165,10|8,0:1|0:0,0:0:0:0:
493,87,222422,1,2,0:0:0:0:
493,87,222509,1,2,0:0:0:0:
493,87,222596,6,0,B|459:68|459:68|472:158,1,116.999994644165,10|0,0:1|0:0,0:0:0:0:
391,197,222945,2,0,B|357:186|357:186|391:271,1,116.999994644165,10|0,0:0|0:0,0:0:0:0:
212,222,223294,2,0,B|166:223|166:223|170:219|170:219|85:222,1,116.999994644165,10|8,0:1|0:1,0:0:0:0:
272,172,223642,1,10,0:0:0:0:
235,298,223817,1,2,0:0:0:0:
235,298,223904,1,2,0:0:0:0:
235,298,223991,5,10,0:1:0:0:
291,369,224166,1,8,0:1:0:0:
307,264,224340,2,0,B|362:264|362:264|356:260|356:260|426:261,1,116.999994644165,8|0,0:0|0:0,0:0:0:0:
272,172,224689,1,10,0:1:0:0:
341,86,224863,1,8,0:1:0:0:
181,103,225038,1,10,0:0:0:0:
146,76,225125,1,2,0:0:0:0:
150,34,225212,1,2,0:0:0:0:
189,34,225299,1,2,0:0:0:0:
198,60,225387,6,0,P|150:103|66:98,1,116.999994644165,14|0,0:1|0:0,0:0:0:0:
174,236,225736,2,0,P|126:227|73:165,1,116.999994644165,8|2,0:0|0:0,0:0:0:0:
50,305,226084,2,0,P|17:266|1:195,1,116.999994644165,0|8,0:0|0:1,0:0:0:0:
237,181,226433,2,0,B|264:175|264:175|254:287,1,116.999994644165,10|2,0:0|0:0,0:0:0:0:
282,292,226695,1,2,0:0:0:0:
322,305,226782,6,0,P|381:275|433:313,1,116.999994644165,10|8,0:1|0:1,0:0:0:0:
395,166,227131,2,0,P|457:198|476:281,1,116.999994644165,8|2,0:0|0:0,0:0:0:0:
340,85,227480,2,0,P|338:72|408:-1,1,116.999994644165,8|8,0:1|0:1,0:0:0:0:
426,83,227829,1,10,0:0:0:0:
237,56,228003,1,2,0:0:0:0:
237,56,228090,1,2,0:0:0:0:
237,56,228177,6,0,B|238:14|238:14|166:108,1,125.999996154785,14|0,0:1|0:0,0:0:0:0:
270,176,228526,2,0,B|317:192|317:192|273:117,1,125.999996154785,8|8,0:0|0:1,0:0:0:0:
143,146,228875,2,0,B|110:175|110:175|195:185,1,125.999996154785,8|8,0:0|0:1,0:0:0:0:
0,91,229224,2,0,B|46:86|46:86|38:81|38:81|124:72,1,125.999996154785,8|8,0:0|0:1,0:0:0:0:
256,256,229573,5,10,0:0:0:0:
143,146,229747,1,8,0:1:0:0:
369,146,229922,1,8,0:0:0:0:
256,256,230096,1,0,3:0:0:0:
231,242,230183,1,0,3:0:0:0:
227,212,230270,2,0,L|291:212,1,62.9999980773926,0|0,3:0|3:0,0:0:0:0:
358,264,230445,2,0,L|421:264,1,62.9999980773926,0|0,3:0|3:0,0:0:0:0:
305,328,230619,2,0,L|231:328,1,62.9999980773926,0|0,3:0|3:0,0:0:0:0:
156,281,230794,2,0,L|71:281,1,62.9999980773926,0|0,3:0|3:0,0:0:0:0:
227,212,230968,1,14,0:1:0:0:
256,192,231055,12,0,233759,0:0:0:0:
411,179,236549,6,0,B|431:187|431:187|426:281,1,99.0000030212403,14|0,0:1|0:0,0:0:0:0:
333,140,236898,1,8,0:0:0:0:
421,97,237073,2,0,B|401:89|401:89|406:-5,1,99.0000030212403,2|8,0:0|0:1,0:0:0:0:
493,70,237422,1,8,0:1:0:0:
333,140,237596,2,0,L|229:140,1,99.0000030212403,8|0,0:0|0:0,0:0:0:0:
69,167,237945,5,10,0:1:0:0:
114,110,238119,1,8,0:1:0:0:
6,113,238294,1,8,0:0:0:0:
69,167,238468,2,0,B|80:191|80:191|78:276,1,99.0000030212403,2|10,0:0|0:1,0:0:0:0:
6,113,238817,1,8,0:1:0:0:
114,110,238991,2,0,B|141:89|141:89|60:91,1,99.0000030212403,8|0,0:0|0:0,0:0:0:0:
6,252,239340,1,10,0:1:0:0:
184,245,239515,2,0,P|199:270|175:345,1,99.0000030212403,0|8,0:0|0:0,0:0:0:0:
281,225,239863,2,0,L|165:248,1,99.0000030212403,2|8,0:0|0:1,0:0:0:0:
351,372,240212,1,10,0:1:0:0:
430,156,240387,1,10,0:0:0:0:
281,225,240561,1,2,0:1:0:0:
394,227,240736,5,10,0:0:0:0:
337,288,240910,1,0,0:0:0:0:
430,156,241084,1,10,0:0:0:0:
351,372,241259,1,8,0:1:0:0:
394,227,241433,2,0,B|429:226|429:226|410:315,1,99.0000030212403,10|8,0:0|0:1,0:0:0:0:
257,127,241782,1,8,0:0:0:0:
230,94,241869,1,8,0:0:0:0:
247,59,241956,1,8,0:0:0:0:
286,62,242044,1,8,0:0:0:0:
295,92,242131,6,0,L|174:96,1,99.0000030212403,14|0,0:1|0:0,0:0:0:0:
357,35,242480,1,8,0:0:0:0:
381,155,242654,2,0,B|407:182|407:182|393:114,1,99.0000030212403,2|8,0:0|0:1,0:0:0:0:
357,35,243003,1,8,0:1:0:0:
212,77,243177,2,0,L|91:81,1,99.0000030212403,8|0,0:0|0:0,0:0:0:0:
4,28,243526,5,10,0:1:0:0:
69,153,243701,2,0,P|81:174|51:270,1,99.0000030212403,8|8,0:1|0:0,0:0:0:0:
113,80,244049,2,0,B|68:72|68:72|134:43,1,99.0000030212403,2|10,0:0|0:1,0:0:0:0:
69,153,244398,1,8,0:1:0:0:
190,187,244573,2,0,L|190:297,1,99.0000030212403,8|0,0:0|0:0,0:0:0:0:
79,373,244922,5,10,0:1:0:0:
284,317,245096,1,0,0:0:0:0:
190,286,245270,1,8,0:0:0:0:
302,239,245445,2,0,P|314:223|296:241,1,99.0000030212403,2|8,0:0|0:1,0:0:0:0:
284,317,245794,1,10,0:1:0:0:
426,286,245968,1,10,0:0:0:0:
449,294,246055,1,2,0:0:0:0:
471,285,246142,1,2,0:0:0:0:
484,262,246230,1,2,0:0:0:0:
477,239,246317,6,0,B|474:220|474:220|385:241,1,99.0000030212403,10|0,0:1|0:0,0:0:0:0:
146,165,246666,1,8,0:0:0:0:
390,98,246840,1,10,0:1:0:0:
19,366,247189,1,10,0:1:0:0:
19,366,247712,6,0,P|55:340|55:263,1,99.0000030212403,14|0,0:1|0:0,0:0:0:0:
15,111,248061,1,8,0:0:0:0:
165,88,248236,2,0,B|174:45|174:45|114:44,1,99.0000030212403,14|0,0:1|0:0,0:0:0:0:
259,114,248584,2,0,B|250:157|250:157|310:158,1,99.0000030212403,10|8,0:1|0:0,0:0:0:0:
431,102,248933,2,0,B|482:84|482:84|382:60|382:60|412:93,1,198.000006042481,14|8,0:1|0:1,0:0:0:0:
305,157,249456,2,0,L|295:271,1,99.0000030212403,14|2,0:0|0:0,0:0:0:0:
380,291,249805,6,0,L|406:291,1,24.7500007553101,10|0,0:1|0:0,0:0:0:0:
216,205,250067,2,0,L|188:206,1,24.7500007553101,10|0,0:1|0:0,0:0:0:0:
0,131,250329,2,0,L|24:131,1,24.7500007553101,10|0,0:1|0:0,0:0:0:0:
